osu file format v14

[General]
AudioFilename: audio.mp3
AudioLeadIn: 0
PreviewTime: 91105
Countdown: 0
SampleSet: Soft
StackLeniency: 0.3
Mode: 0
LetterboxInBreaks: 0
WidescreenStoryboard: 0

[Editor]
Bookmarks: 4526,22421,39263,56105,72947,91894,129789,133999
DistanceSpacing: 3.5
BeatDivisor: 4
GridSize: 32
TimelineZoom: 2.2

[Metadata]
Title:Infinity of Our Love
TitleUnicode:Infinity of Our Love
Artist:Nekomata Master feat.Joelle Strother
ArtistUnicode:猫叉Master feat.Joelle Strother
Creator:moph
Version:Ambient's Insane
Source:エレビッツ カイとゼロの不思議な旅
Tags:佐藤直之 Naoyuki Sato Elebits raindrops pop'n music 17 THE MOVIE ambient
BeatmapID:1348093
BeatmapSetID:629830

[Difficulty]
HPDrainRate:6.5
CircleSize:4
OverallDifficulty:7.5
ApproachRate:9
SliderMultiplier:2.2
SliderTickRate:2

[Events]
//Background and Video events
0,0,"bg.jpg",0,0
//Break Periods
//Storyboard Layer 0 (Background)
//Storyboard Layer 1 (Fail)
//Storyboard Layer 2 (Pass)
//Storyboard Layer 3 (Foreground)
//Storyboard Sound Samples

[TimingPoints]
316,526.315789473684,4,2,2,5,1,0
1368,-100,4,2,2,10,0,0
1894,-100,4,2,2,15,0,0
2421,-100,4,2,2,20,0,0
2947,-100,4,2,2,25,0,0
3473,-100,4,2,2,30,0,0
4000,-100,4,2,2,35,0,0
4263,-100,4,2,2,5,0,0
4526,-200,4,2,2,50,0,0
12947,-133.333333333333,4,2,2,50,0,0
20184,-200,4,2,2,50,0,0
21719,-133.333333333333,4,2,1,50,0,0
22421,526.315789473684,4,2,1,50,1,0
22421,-90.9090909090909,4,2,1,50,0,0
39263,-133.333333333333,4,2,1,50,0,0
56105,-111.111111111111,4,2,1,50,0,0
72947,-133.333333333333,4,2,2,50,0,0
91368,-100,4,2,1,50,0,0
91894,-80,4,2,1,65,0,1
108210,-80,4,2,1,65,0,0
108736,-80,4,2,1,65,0,1
125578,-133.333333333333,4,2,1,50,0,0
129789,-250,4,2,1,20,0,0
131894,-133.333333333333,4,2,1,30,0,0

[Colours]
Combo1 : 183,132,204
Combo2 : 133,152,228
Combo3 : 251,138,89
Combo4 : 205,109,109

[HitObjects]
256,192,842,12,0,4263,0:0:0:0:
63,76,4526,6,0,L|71:143,1,55,4|0,0:0|0:0,0:0:0:0:
105,220,4921,2,0,P|76:227|47:225,2,55
197,249,5579,2,0,L|189:182,1,55,4|0,0:0|0:0,0:0:0:0:
228,106,5973,2,0,P|199:99|170:101,2,55
300,170,6631,6,0,P|329:177|358:175,1,55,2|2,0:0|0:0,0:0:0:0:
447,150,7026,2,0,P|447:177|441:203,1,55,0|0,0:0|0:0,0:0:0:0:
203,124,7552,2,0,P|193:184|210:234,1,110,0|0,0:0|0:0,0:0:0:0:
316,122,8342,5,2,0:0:0:0:
326,225,8473,1,2,0:0:0:0:
340,328,8605,1,2,0:0:0:0:
256,289,8737,6,0,L|190:294,1,55,4|0,0:0|0:0,0:0:0:0:
114,277,9131,2,0,P|113:317|117:335,2,55,0|0|0,0:0|0:0|0:0,0:0:0:0:
98,181,9789,2,0,L|164:186,1,55
246,162,10183,2,0,P|247:202|243:220,2,55
189,82,10842,6,0,P|184:54|187:27,1,55,2|0,0:0|0:0,0:0:0:0:
278,57,11237,2,0,L|337:55,1,55,0|0,0:0|0:0,0:0:0:0:
465,194,11763,2,0,P|467:221|463:248,1,55,2|0,0:0|0:0,0:0:0:0:
378,295,12158,2,0,L|381:332,2,27.5,0|0|2,0:0|0:0|0:0,0:0:0:0:
243,157,12684,2,0,L|245:133,3,13.75,2|0|0|0,0:0|0:0|0:0|0:0,0:0:0:0:
236,190,12947,6,0,L|141:193,1,82.5000031471254,4|0,0:0|0:0,0:0:0:0:
47,291,13342,2,0,L|129:288,1,82.5000031471254,0|0,0:0|0:0,0:0:0:0:
259,352,13737,2,0,P|253:326|255:301,1,41.2500015735627,0|0,0:0|0:0,0:0:0:0:
323,185,14000,2,0,P|322:205|317:225,2,41.2500015735627,2|0|0,0:0|0:0|0:0,0:0:0:0:
244,64,14394,2,0,P|236:108|244:156,1,82.5000031471254,0|0,0:0|0:0,0:0:0:0:
380,107,14789,2,0,L|326:109,1,41.2500015735627,0|0,0:0|0:0,0:0:0:0:
135,72,15052,6,0,B|149:114|149:114|131:168,1,82.5000031471254,2|0,0:0|0:0,0:0:0:0:
75,281,15447,2,0,P|122:275|159:288,1,82.5000031471254,0|0,0:0|0:0,0:0:0:0:
265,339,15842,1,0,0:0:0:0:
421,277,15973,2,0,P|374:271|337:284,1,82.5000031471254,2|0,0:0|0:0,0:0:0:0:
265,339,16368,2,0,L|262:287,1,41.2500015735627,0|0,0:0|0:0,0:0:0:0:
213,201,16631,1,2,0:0:0:0:
441,61,16894,2,0,L|442:32,3,20.6250007867813,2|0|0|0,0:0|0:0|0:0|0:0,0:0:0:0:
422,89,17158,6,0,L|331:87,1,82.5000031471254,4|0,0:0|0:0,0:0:0:0:
227,177,17552,2,0,L|318:175,1,82.5000031471254,0|0,0:0|0:0,0:0:0:0:
435,310,17947,2,0,P|436:285|430:267,1,41.2500015735627,0|0,0:0|0:0,0:0:0:0:
309,175,18210,2,0,P|303:194|305:215,2,41.2500015735627,2|0|0,0:0|0:0|0:0,0:0:0:0:
359,297,18605,2,0,B|316:308|316:308|265:296,1,82.5000031471254,0|0,0:0|0:0,0:0:0:0:
151,336,19000,2,0,P|144:299|149:263,1,61.875002360344,0|0,0:0|0:0,0:0:0:0:
149,263,19263,5,2,0:0:0:0:
270,77,19526,1,0,0:0:0:0:
270,77,19658,1,0,0:0:0:0:
54,176,19921,1,0,0:0:0:0:
54,176,20184,6,0,B|224:96|201:263|360:149,1,320.833333333333,2|2,0:0|0:0,0:0:0:0:
433,98,21894,2,0,L|437:150,1,41.2500015735627,2|0,0:0|0:0,0:0:0:0:
359,193,22158,2,0,L|355:151,1,41.2500015735627,8|0,0:0|0:0,0:0:0:0:
233,24,22421,6,0,L|242:151,1,121.000003692627,12|2,0:0|0:0,0:0:0:0:
180,249,22815,1,0,0:0:0:0:
266,333,22947,1,8,0:0:0:0:
266,333,23078,2,0,P|315:342|385:323,1,121.000003692627,2|2,0:0|0:0,0:0:0:0:
430,205,23473,2,0,P|388:201|356:213,1,60.5000018463135,8|2,0:0|0:0,0:0:0:0:
270,248,23736,2,0,P|264:218|269:188,1,60.5000018463135,0|2,0:0|0:0,0:0:0:0:
322,93,23999,1,8,0:0:0:0:
246,32,24131,1,0,0:0:0:0:
167,108,24263,2,0,L|164:34,1,60.5000018463135,2|0,0:0|0:0,0:0:0:0:
67,119,24526,6,0,B|51:182|51:182|71:241,1,121.000003692627,12|2,0:0|0:0,0:0:0:0:
158,273,24921,1,0,0:0:0:0:
254,238,25052,2,0,B|263:274|263:274|252:320,2,60.5000018463135,12|2|0,0:0|0:0|0:0,0:0:0:0:
158,273,25447,1,2,0:0:0:0:
334,326,25578,2,0,B|367:330|406:323,1,60.5000018463135,12|2,0:0|0:0,0:0:0:0:
489,197,25842,2,0,B|455:192|416:199,1,60.5000018463135,0|2,0:0|0:0,0:0:0:0:
325,212,26105,1,12,0:0:0:0:
458,284,26236,1,0,0:0:0:0:
439,108,26368,1,2,0:0:0:0:
458,284,26499,1,0,0:0:0:0:
439,108,26631,6,0,P|381:116|313:110,1,121.000003692627,12|2,0:0|0:0,0:0:0:0:
186,58,27026,1,0,0:0:0:0:
86,141,27157,1,8,0:0:0:0:
86,141,27289,2,0,L|91:283,1,121.000003692627,2|2,0:0|0:0,0:0:0:0:
181,322,27684,1,8,0:0:0:0:
254,230,27815,2,0,L|187:231,1,60.5000018463135,2|0,0:0|0:0,0:0:0:0:
273,329,28078,2,0,L|340:330,1,60.5000018463135,2|8,0:0|0:0,0:0:0:0:
414,245,28342,1,0,0:0:0:0:
331,172,28473,1,2,0:0:0:0:
333,329,28605,1,0,0:0:0:0:
417,250,28736,6,0,L|424:311,1,60.5000018463135,12|0,0:0|0:0,0:0:0:0:
257,179,28999,2,0,L|251:240,1,60.5000018463135,6|0,0:0|0:0,0:0:0:0:
396,91,29263,2,0,L|403:152,1,60.5000018463135,12|0,0:0|0:0,0:0:0:0:
274,12,29526,2,0,L|268:73,1,60.5000018463135,4|2,0:0|0:0,0:0:0:0:
331,175,29789,5,8,0:0:0:0:
300,291,29920,2,0,P|269:292|239:290,1,60.5000018463135,2|6,0:0|0:0,0:0:0:0:
165,205,30183,1,6,0:0:0:0:
89,299,30315,2,0,L|86:261,2,30.2500009231568,12|0|0,0:0|0:0|0:0,0:0:0:0:
165,205,30578,2,0,L|168:167,2,30.2500009231568,8|0|0,0:0|0:0|0:0,0:0:0:0:
80,87,30842,6,0,P|151:93|216:88,1,121.000003692627,12|2,0:0|0:0,0:0:0:0:
323,44,31236,1,0,0:0:0:0:
436,98,31368,1,8,0:0:0:0:
436,98,31499,2,0,L|429:227,1,121.000003692627,2|2,0:0|0:0,0:0:0:0:
343,320,31894,2,0,P|378:318|408:313,1,60.5000018463135,8|2,0:0|0:0,0:0:0:0:
317,211,32157,2,0,P|282:213|252:218,1,60.5000018463135,0|2,0:0|0:0,0:0:0:0:
183,297,32420,1,8,0:0:0:0:
99,226,32552,1,0,0:0:0:0:
192,110,32684,2,0,L|194:185,1,60.5000018463135,2|0,0:0|0:0,0:0:0:0:
322,328,32947,6,0,B|333:269|333:269|314:200,1,121.000003692627,12|2,0:0|0:0,0:0:0:0:
238,267,33342,1,0,0:0:0:0:
417,237,33473,2,0,L|417:301,2,60.5000018463135,12|2|0,0:0|0:0|0:0,0:0:0:0:
353,148,33868,1,2,0:0:0:0:
441,33,33999,2,0,P|408:31|373:35,1,60.5000018463135,12|2,0:0|0:0,0:0:0:0:
471,122,34263,1,0,0:0:0:0:
353,148,34394,1,2,0:0:0:0:
233,98,34526,2,0,L|236:165,1,60.5000018463135,12|0,0:0|0:0,0:0:0:0:
160,253,34789,1,2,0:0:0:0:
237,355,34921,1,0,0:0:0:0:
359,254,35052,6,0,L|227:258,1,121.000003692627,12|2,0:0|0:0,0:0:0:0:
146,178,35447,1,0,0:0:0:0:
57,292,35578,1,8,0:0:0:0:
57,292,35710,2,0,L|54:162,1,121.000003692627,2|2,0:0|0:0,0:0:0:0:
151,261,36105,2,0,L|148:186,1,60.5000018463135,8|2,0:0|0:0,0:0:0:0:
82,88,36368,1,0,0:0:0:0:
218,136,36499,1,2,0:0:0:0:
218,136,36631,2,0,L|291:134,1,60.5000018463135,8|0,0:0|0:0,0:0:0:0:
405,62,36894,1,2,0:0:0:0:
491,128,37026,1,0,0:0:0:0:
419,253,37157,6,0,P|416:208|409:174,1,60.5000018463135,12|0,0:0|0:0,0:0:0:0:
325,338,37420,2,0,P|358:367|387:386,1,60.5000018463135,6|0,0:0|0:0,0:0:0:0:
290,217,37684,2,0,P|245:220|211:227,1,60.5000018463135,12|2,0:0|0:0,0:0:0:0:
155,340,37947,2,0,P|148:297|149:260,1,60.5000018463135,4|2,0:0|0:0,0:0:0:0:
185,139,38210,5,12,0:0:0:0:
185,139,38342,1,2,0:0:0:0:
147,280,38473,1,0,0:0:0:0:
89,146,38605,1,2,0:0:0:0:
229,220,38736,2,0,L|299:216,1,60.5000018463135,12|2,0:0|0:0,0:0:0:0:
397,138,38999,2,0,L|320:136,1,60.5000018463135,8|2,0:0|0:0,0:0:0:0:
183,57,39263,6,0,P|180:108|187:151,1,82.5000031471254
289,216,39657,1,0,0:0:0:0:
176,312,39789,2,0,L|218:309,1,41.2500015735627
306,370,40052,1,0,0:0:0:0:
306,370,40184,2,0,P|334:372|363:368,1,41.2500015735627,2|0,0:0|0:0,0:0:0:0:
448,335,40447,2,0,L|441:244,1,82.5000031471254,2|2,0:0|0:0,0:0:0:0:
396,155,40842,1,8,0:0:0:0:
432,54,40973,6,0,L|382:56,1,41.2500015735627,0|0,0:0|0:0,0:0:0:0:
296,107,41236,2,0,P|289:148|293:196,1,82.5000031471254,0|0,0:0|0:0,0:0:0:0:
209,258,41631,2,0,P|211:216|204:176,1,82.5000031471254,0|8,0:0|0:0,0:0:0:0:
119,110,42026,1,2,0:0:0:0:
99,219,42157,2,0,L|157:216,1,41.2500015735627,0|2,0:0|0:0,0:0:0:0:
285,211,42420,1,0,0:0:0:0:
285,211,42552,1,2,0:0:0:0:
171,295,42684,2,0,L|271:290,1,82.5000031471254,0|8,0:0|0:0,0:0:0:0:
379,367,43078,5,2,0:0:0:0:
502,282,43210,1,2,0:0:0:0:
374,205,43342,1,4,0:0:0:0:
374,205,43736,6,0,P|370:162|374:116,1,82.5000031471254,0|8,0:0|0:0,0:0:0:0:
414,30,44131,1,0,0:0:0:0:
414,30,44263,2,0,L|362:32,1,41.2500015735627,0|2,0:0|0:0,0:0:0:0:
286,95,44526,1,0,0:0:0:0:
193,42,44657,2,0,P|195:92|193:139,1,82.5000031471254,2|0,0:0|0:0,0:0:0:0:
118,200,45052,2,0,P|114:245|114:256,2,41.2500015735627,8|0|0,0:0|0:0|0:0,0:0:0:0:
221,228,45447,6,0,P|258:230|310:224,1,82.5000031471254,0|0,0:0|0:0,0:0:0:0:
381,158,45842,2,0,L|385:207,1,41.2500015735627,0|0,0:0|0:0,0:0:0:0:
475,237,46105,2,0,L|476:193,2,41.2500015735627,8|2|0,0:0|0:0|0:0,0:0:0:0:
407,319,46499,2,0,P|370:321|318:315,1,82.5000031471254,2|2,0:0|0:0,0:0:0:0:
241,248,46894,1,0,0:0:0:0:
241,248,47026,1,0,0:0:0:0:
151,306,47157,2,0,L|147:333,2,20.6250007867813,8|0|2,0:0|0:0|0:0,0:0:0:0:
60,187,47420,2,0,L|64:214,2,20.6250007867813,8|0|2,0:0|0:0|0:0,0:0:0:0:
138,58,47684,6,0,L|237:61,1,82.5000031471254,4|0,0:0|0:0,0:0:0:0:
320,22,48078,1,0,0:0:0:0:
418,65,48210,2,0,L|470:67,2,41.2500015735627,8|0|0,0:0|0:0|0:0,0:0:0:0:
331,129,48605,2,0,P|328:167|332:216,1,82.5000031471254,2|2,0:0|0:0,0:0:0:0:
430,171,48999,1,0,0:0:0:0:
430,171,49131,1,2,0:0:0:0:
384,286,49263,2,0,P|338:292|286:289,1,82.5000031471254,8|0,0:0|0:0,0:0:0:0:
217,341,49657,6,0,P|211:300|211:258,1,82.5000031471254,0|0,0:0|0:0,0:0:0:0:
160,164,50052,2,0,L|208:165,1,41.2500015735627,0|0,0:0|0:0,0:0:0:0:
301,203,50315,1,8,0:0:0:0:
301,203,50447,2,0,L|349:202,1,41.2500015735627,2|0,0:0|0:0,0:0:0:0:
362,96,50710,2,0,B|320:88|320:88|264:101,1,82.5000031471254,2|2,0:0|0:0,0:0:0:0:
155,81,51105,2,0,L|160:169,1,82.5000031471254,0|8,0:0|0:0,0:0:0:0:
51,264,51499,5,2,0:0:0:0:
166,357,51631,1,2,0:0:0:0:
271,252,51763,1,4,0:0:0:0:
271,252,52157,6,0,L|188:255,1,82.5000031471254,2|8,0:0|0:0,0:0:0:0:
111,330,52552,1,0,0:0:0:0:
24,265,52684,2,0,L|31:317,2,41.2500015735627,0|2|0,0:0|0:0|0:0,0:0:0:0:
78,168,53078,2,0,P|123:158|172:167,1,82.5000031471254,2|2,0:0|0:0,0:0:0:0:
242,230,53473,2,0,L|237:176,1,41.2500015735627,8|0,0:0|0:0,0:0:0:0:
226,82,53736,1,2,0:0:0:0:
327,116,53868,6,0,P|323:72|326:30,2,82.5000031471254,0|0|0,0:0|0:0|0:0,0:0:0:0:
402,193,54526,1,8,0:0:0:0:
402,193,54657,1,2,0:0:0:0:
339,299,54789,2,0,L|336:253,1,41.2500015735627,0|2,0:0|0:0,0:0:0:0:
238,188,55052,2,0,L|235:229,1,41.2500015735627,8|0,0:0|0:0,0:0:0:0:
148,317,55315,5,0,0:0:0:0:
148,317,55447,1,2,0:0:0:0:
84,183,55578,1,8,0:0:0:0:
61,334,55710,1,2,0:0:0:0:
164,235,55842,1,8,0:0:0:0:
59,108,55973,1,2,0:0:0:0:
59,108,56105,6,0,L|161:103,1,98.9999969787599,4|0,0:0|0:0,0:0:0:0:
262,48,56499,1,0,0:0:0:0:
360,135,56631,1,8,0:0:0:0:
360,135,56763,2,0,L|361:85,1,49.4999984893799,0|2,0:0|0:0,0:0:0:0:
262,48,57026,2,0,L|259:108,1,49.4999984893799,2|0,0:0|0:0,0:0:0:0:
165,217,57289,2,0,P|213:223|263:218,1,98.9999969787599,2|0,0:0|0:0,0:0:0:0:
360,135,57684,1,8,0:0:0:0:
456,219,57815,1,0,0:0:0:0:
356,283,57947,2,0,L|358:332,2,49.4999984893799
456,219,58342,1,0,0:0:0:0:
456,219,58473,6,0,L|447:110,1,98.9999969787599,0|8,0:0|0:0,0:0:0:0:
353,45,58868,1,2,0:0:0:0:
277,132,58999,1,0,0:0:0:0:
357,217,59131,2,0,B|307:231|307:231|253:217,1,98.9999969787599,2|2,0:0|0:0,0:0:0:0:
162,267,59526,2,0,L|160:210,1,49.4999984893799,0|0,0:0|0:0,0:0:0:0:
202,106,59789,5,8,0:0:0:0:
72,196,59920,1,2,0:0:0:0:
238,189,60052,1,2,0:0:0:0:
104,108,60184,1,4,0:0:0:0:
162,267,60315,6,0,L|169:388,1,98.9999969787599,0|0,0:0|0:0,0:0:0:0:
285,313,60710,1,0,0:0:0:0:
285,313,60842,2,0,L|286:257,1,49.4999984893799,8|2,0:0|0:0,0:0:0:0:
374,159,61105,1,0,0:0:0:0:
472,258,61236,2,0,L|475:324,1,49.4999984893799,2|0,0:0|0:0,0:0:0:0:
385,341,61499,2,0,P|374:291|386:231,1,98.9999969787599,2|0,0:0|0:0,0:0:0:0:
476,182,61894,2,0,L|479:132,1,49.4999984893799,8|0,0:0|0:0,0:0:0:0:
342,109,62157,1,0,0:0:0:0:
342,109,62289,6,0,L|345:159,1,49.4999984893799,0|0,0:0|0:0,0:0:0:0:
258,254,62552,2,0,L|255:204,1,49.4999984893799,0|0,0:0|0:0,0:0:0:0:
205,85,62815,2,0,B|155:75|155:75|91:92,1,98.9999969787599,0|2,0:0|0:0,0:0:0:0:
161,194,63210,1,0,0:0:0:0:
161,194,63342,1,2,0:0:0:0:
52,260,63473,5,8,0:0:0:0:
169,339,63605,2,0,L|218:335,1,49.4999984893799,0|2,0:0|0:0,0:0:0:0:
295,226,63867,1,0,0:0:0:0:
397,324,63999,2,0,L|397:352,2,24.74999924469,8|0|0,0:0|0:0|0:0,0:0:0:0:
489,230,64263,2,0,L|489:258,2,24.74999924469,8|0|0,0:0|0:0|0:0,0:0:0:0:
412,99,64526,6,0,B|357:113|357:113|299:96,1,98.9999969787599,4|0,0:0|0:0,0:0:0:0:
198,74,64920,1,0,0:0:0:0:
198,74,65052,2,0,L|201:128,1,49.4999984893799,8|2,0:0|0:0,0:0:0:0:
284,208,65315,1,0,0:0:0:0:
121,112,65447,2,0,L|125:214,1,98.9999969787599,2|2,0:0|0:0,0:0:0:0:
195,323,65842,1,0,0:0:0:0:
284,208,65973,1,0,0:0:0:0:
124,210,66105,2,0,P|157:210|190:209,1,49.4999984893799,8|0,0:0|0:0,0:0:0:0:
339,293,66368,2,0,L|337:321,3,24.74999924469,0|0|0|0,0:0|0:0|0:0|0:0,0:0:0:0:
359,256,66631,6,0,B|370:199|370:199|355:150,1,98.9999969787599,0|0,0:0|0:0,0:0:0:0:
285,50,67026,1,0,0:0:0:0:
285,50,67157,2,0,L|346:47,1,49.4999984893799,8|2,0:0|0:0,0:0:0:0:
425,139,67420,1,0,0:0:0:0:
502,35,67552,2,0,L|498:144,1,98.9999969787599,2|2,0:0|0:0,0:0:0:0:
462,252,67947,2,0,L|412:252,1,49.4999984893799
282,201,68210,5,8,0:0:0:0:
284,299,68341,1,2,0:0:0:0:
363,160,68473,1,2,0:0:0:0:
366,336,68605,1,4,0:0:0:0:
209,255,68736,6,0,B|159:269|159:269|97:253,1,98.9999969787599
157,158,69131,1,0,0:0:0:0:
140,49,69263,2,0,L|200:48,1,49.4999984893799,8|2,0:0|0:0,0:0:0:0:
157,158,69526,1,0,0:0:0:0:
270,124,69657,2,0,P|274:159|266:187,1,49.4999984893799,2|0,0:0|0:0,0:0:0:0:
182,272,69920,2,0,P|223:257|286:270,1,98.9999969787599,2|0,0:0|0:0,0:0:0:0:
362,361,70315,2,0,L|361:301,1,49.4999984893799,8|0,0:0|0:0,0:0:0:0:
431,203,70578,1,0,0:0:0:0:
357,101,70710,6,0,L|356:41,2,49.4999984893799,0|8|0,0:0|0:0|0:0,0:0:0:0:
264,209,71105,1,8,0:0:0:0:
361,311,71236,1,0,0:0:0:0:
431,203,71368,1,8,0:0:0:0:
431,203,71499,2,0,L|371:200,1,49.4999984893799,2|0,0:0|0:0,0:0:0:0:
283,300,71763,2,0,L|233:302,1,49.4999984893799,2|8,0:0|0:0,0:0:0:0:
58,224,72026,2,0,L|100:295,1,74.2499977340699,2|0,0:0|0:0,0:0:0:0:
108,302,72289,1,2,0:0:0:0:
174,213,72420,2,0,L|205:172,1,49.4999984893799,8|2,0:0|0:0,0:0:0:0:
96,120,72684,2,0,L|65:79,1,49.4999984893799,8|2,0:0|0:0,0:0:0:0:
188,58,72947,6,0,B|212:60|236:56,2,41.2500015735627,4|0|0,0:0|0:0|0:0,0:0:0:0:
278,129,73342,2,0,P|309:122|370:132,1,82.5000031471254,2|0,0:0|0:0,0:0:0:0:
449,198,73736,2,0,L|447:152,1,41.2500015735627,0|0,0:0|0:0,0:0:0:0:
372,245,73999,2,0,L|376:331,1,82.5000031471254,2|0,0:0|0:0,0:0:0:0:
289,227,74394,2,0,L|293:313,1,82.5000031471254,2|0,0:0|0:0,0:0:0:0:
210,365,74789,1,2,0:0:0:0:
210,365,74920,1,0,0:0:0:0:
117,295,75052,6,0,B|112:322|119:342,2,41.2500015735627,0|0|0,0:0|0:0|0:0,0:0:0:0:
174,214,75447,2,0,P|176:177|173:127,1,82.5000031471254,0|0,0:0|0:0,0:0:0:0:
95,80,75842,2,0,P|92:112|93:136,1,41.2500015735627,2|0,0:0|0:0,0:0:0:0:
258,160,76105,2,0,P|257:139|255:118,1,41.2500015735627,2|0,0:0|0:0,0:0:0:0:
92,201,76368,2,0,P|92:221|94:242,1,41.2500015735627,0|0,0:0|0:0,0:0:0:0:
244,291,76631,2,0,P|290:283|340:298,1,82.5000031471254,2|0,0:0|0:0,0:0:0:0:
406,234,77026,1,2,0:0:0:0:
487,289,77157,6,0,B|492:316|489:334,2,41.2500015735627,4|0|0,0:0|0:0|0:0,0:0:0:0:
406,234,77552,2,0,P|401:191|404:144,1,82.5000031471254,0|0,0:0|0:0,0:0:0:0:
430,56,77947,2,0,L|379:59,1,41.2500015735627,2|0,0:0|0:0,0:0:0:0:
305,112,78210,2,0,L|220:110,1,82.5000031471254,2|0,0:0|0:0,0:0:0:0:
330,193,78605,2,0,L|245:191,1,82.5000031471254,2|0,0:0|0:0,0:0:0:0:
152,163,78999,1,2,0:0:0:0:
152,163,79131,1,0,0:0:0:0:
55,186,79263,6,0,B|51:161|58:128,2,41.2500015735627,2|0|0,0:0|0:0|0:0,0:0:0:0:
106,280,79657,2,0,P|141:285|201:280,1,82.5000031471254,0|0,0:0|0:0,0:0:0:0:
275,263,80052,2,0,L|277:304,1,41.2500015735627,2|0,0:0|0:0,0:0:0:0:
151,162,80315,2,0,L|149:204,1,41.2500015735627,2|0,0:0|0:0,0:0:0:0:
255,48,80578,2,0,L|258:90,1,41.2500015735627,2|0,0:0|0:0,0:0:0:0:
158,79,80842,2,0,L|120:82,2,20.6250007867813,2|0|2,0:0|0:0|0:0,0:0:0:0:
250,174,81105,2,0,L|288:177,2,20.6250007867813,2|0|0,0:0|0:0|0:0,0:0:0:0:
370,101,81368,6,0,B|374:77|367:52,2,41.2500015735627,4|0|0,0:0|0:0|0:0,0:0:0:0:
342,196,81763,2,0,P|339:238|351:288,1,82.5000031471254,0|0,0:0|0:0,0:0:0:0:
435,233,82157,2,0,L|483:236,2,41.2500015735627,2|0|2,0:0|0:0|0:0,0:0:0:0:
266,320,82552,2,0,L|218:323,2,41.2500015735627,0|0|0,0:0|0:0|0:0,0:0:0:0:
361,345,82947,2,0,P|365:317|359:292,1,41.2500015735627,2|0,0:0|0:0,0:0:0:0:
232,231,83210,1,2,0:0:0:0:
116,324,83342,6,0,P|108:280|115:237,1,82.5000031471254,0|0,0:0|0:0,0:0:0:0:
159,155,83736,1,0,0:0:0:0:
159,155,83868,1,2,0:0:0:0:
75,102,83999,2,0,L|76:153,2,41.2500015735627,0|0|2,0:0|0:0|0:0,0:0:0:0:
155,43,84394,1,0,0:0:0:0:
236,100,84526,2,0,P|274:103|286:103,1,41.2500015735627,2|0,0:0|0:0,0:0:0:0:
403,41,84789,2,0,P|365:44|353:44,1,41.2500015735627,0|0,0:0|0:0,0:0:0:0:
393,215,85052,2,0,L|385:126,1,82.5000031471254,2|0,0:0|0:0,0:0:0:0:
302,186,85447,1,0,0:0:0:0:
212,143,85578,6,0,P|206:170|218:236,1,82.5000031471254,4|0,0:0|0:0,0:0:0:0:
302,266,85973,2,0,P|308:239|296:173,1,82.5000031471254,2|0,0:0|0:0,0:0:0:0:
145,279,86368,2,0,L|98:277,2,41.2500015735627,0|0|4,0:0|0:0|0:0,0:0:0:0:
211,352,86763,2,0,L|258:350,1,41.2500015735627,0|0,0:0|0:0,0:0:0:0:
302,266,87026,2,0,L|343:267,1,41.2500015735627,2|0,0:0|0:0,0:0:0:0:
433,308,87289,2,0,B|443:261|443:261|427:211,1,82.5000031471254,0|0,0:0|0:0,0:0:0:0:
386,131,87684,6,0,B|304:100|308:173|218:121,1,165.000006294251,4|0,0:0|0:0,0:0:0:0:
227,126,88473,2,0,L|230:175,1,41.2500015735627,0|0,0:0|0:0,0:0:0:0:
351,244,88736,2,0,L|348:202,1,41.2500015735627,0|0,0:0|0:0,0:0:0:0:
222,297,88999,2,0,L|241:304,3,20.6250007867813,0|0|0|0,0:0|0:0|0:0|0:0,0:0:0:0:
192,312,89263,6,0,P|170:315|139:311,1,41.2500015735627,0|0,0:0|0:0,0:0:0:0:
54,134,89526,2,0,P|76:131|107:135,1,41.2500015735627,0|0,0:0|0:0,0:0:0:0:
255,191,89789,5,2,0:0:0:0:
255,191,90315,1,2,0:0:0:0:
255,191,90842,1,2,0:0:0:0:
255,191,91236,5,0,0:0:0:0:
345,231,91368,2,0,L|341:168,1,55,8|0,0:0|0:0,0:0:0:0:
170,127,91631,2,0,L|174:202,1,55,8|0,0:0|0:0,0:0:0:0:
275,328,91894,6,0,B|344:348|344:348|407:330,1,137.5,12|2,0:0|0:0,0:0:0:0:
488,219,92289,1,0,0:0:0:0:
413,104,92420,1,8,0:0:0:0:
413,104,92552,2,0,L|420:186,1,68.75,2|0,0:0|0:0,0:0:0:0:
431,316,92815,1,2,0:0:0:0:
332,150,92947,2,0,P|291:142|244:154,1,68.75,8|2,0:0|0:0,0:0:0:0:
174,250,93210,2,0,P|215:258|262:246,1,68.75,0|2,0:0|0:0,0:0:0:0:
184,144,93473,1,8,0:0:0:0:
241,254,93605,1,0,0:0:0:0:
84,302,93736,2,0,L|79:227,1,68.75,2|0,0:0|0:0,0:0:0:0:
185,51,93999,6,0,B|291:51|291:51|260:71,1,137.5,12|2,0:0|0:0,0:0:0:0:
184,144,94394,1,0,0:0:0:0:
309,264,94526,2,0,P|294:218|311:128,1,137.5,8|0,0:0|0:0,0:0:0:0:
445,194,94920,2,0,L|371:195,1,68.75,2|8,0:0|0:0,0:0:0:0:
209,196,95184,1,2,0:0:0:0:
308,131,95315,1,0,0:0:0:0:
309,264,95447,1,2,0:0:0:0:
129,164,95578,2,0,P|123:213|131:243,1,68.75,8|0,0:0|0:0,0:0:0:0:
241,371,95842,2,0,P|247:322|239:292,1,68.75,2|0,0:0|0:0,0:0:0:0:
24,333,96105,6,0,B|95:356|95:356|163:336,1,137.5,12|2,0:0|0:0,0:0:0:0:
243,233,96499,1,0,0:0:0:0:
340,330,96631,2,0,L|343:246,1,68.75,8|2,0:0|0:0,0:0:0:0:
240,164,96894,2,0,L|242:232,1,68.75,0|2,0:0|0:0,0:0:0:0:
421,301,97157,2,0,L|426:159,1,137.5,8|0,0:0|0:0,0:0:0:0:
341,236,97552,1,2,0:0:0:0:
465,85,97684,2,0,P|426:77|390:86,1,68.75,8|0,0:0|0:0,0:0:0:0:
240,164,97947,2,0,P|279:172|315:163,1,68.75,2|0,0:0|0:0,0:0:0:0:
398,82,98210,5,12,0:0:0:0:
276,247,98342,1,0,0:0:0:0:
162,69,98473,1,4,0:0:0:0:
163,234,98605,1,0,0:0:0:0:
342,146,98736,2,0,L|348:233,1,68.75,12|2,0:0|0:0,0:0:0:0:
179,358,98999,2,0,B|186:251|186:251|193:269|200:281,1,137.5,4|8,0:0|0:0,0:0:0:0:
355,331,99394,2,0,P|308:333|262:325,1,68.75,2|4,0:0|0:0,0:0:0:0:
98,286,99657,1,2,0:0:0:0:
255,199,99789,2,0,L|260:236,2,34.375,8|0|2,0:0|0:0|0:0,0:0:0:0:
82,132,100052,2,0,L|78:167,2,34.375,12|0|2,0:0|0:0|0:0,0:0:0:0:
222,60,100315,6,0,B|296:38|296:38|361:60,1,137.5,12|2,0:0|0:0,0:0:0:0:
443,167,100710,1,0,0:0:0:0:
298,125,100842,1,8,0:0:0:0:
298,125,100973,2,0,L|307:203,1,68.75,2|0,0:0|0:0,0:0:0:0:
412,98,101236,1,2,0:0:0:0:
393,304,101368,2,0,P|334:327|243:313,1,137.5,8|0,0:0|0:0,0:0:0:0:
169,217,101763,1,2,0:0:0:0:
40,264,101894,2,0,P|36:225|40:193,1,68.75,8|0,0:0|0:0,0:0:0:0:
126,302,102157,1,2,0:0:0:0:
107,151,102289,1,0,0:0:0:0:
259,288,102420,6,0,P|270:233|245:137,1,137.5,12|2,0:0|0:0,0:0:0:0:
170,62,102815,1,0,0:0:0:0:
323,123,102947,2,0,B|392:122,1,68.75,8|2,0:0|0:0,0:0:0:0:
490,26,103210,1,0,0:0:0:0:
391,122,103342,1,2,0:0:0:0:
495,210,103473,2,0,P|503:255|494:290,1,68.75,8|2,0:0|0:0,0:0:0:0:
389,361,103736,2,0,P|384:327|392:293,1,68.75,0|2,0:0|0:0,0:0:0:0:
272,222,103999,2,0,B|209:236|209:236|119:210,2,137.5,8|2|12,0:0|0:0|0:0,0:0:0:0:
375,130,104657,5,0,0:0:0:0:
270,40,104789,2,0,L|276:119,1,68.75,2|0,0:0|0:0,0:0:0:0:
380,198,105052,1,8,0:0:0:0:
380,198,105184,2,0,L|374:129,1,68.75,2|0,0:0|0:0,0:0:0:0:
272,222,105447,1,2,0:0:0:0:
368,318,105578,6,0,P|328:323|283:314,1,68.75,8|2,0:0|0:0,0:0:0:0:
203,223,105842,2,0,P|243:218|288:227,1,68.75,0|2,0:0|0:0,0:0:0:0:
105,300,106105,2,0,B|85:234|85:234|102:158,1,137.5,8|2,0:0|0:0,0:0:0:0:
190,49,106499,1,0,0:0:0:0:
301,130,106631,6,0,L|205:129,1,68.75,12|0,0:0|0:0,0:0:0:0:
109,68,106894,1,2,0:0:0:0:
182,184,107026,1,0,0:0:0:0:
104,284,107157,2,0,P|94:237|103:200,1,68.75,12|2,0:0|0:0,0:0:0:0:
253,269,107420,2,0,P|255:303|245:335,1,68.75,0|2,0:0|0:0,0:0:0:0:
182,184,107684,1,12,0:0:0:0:
334,244,107815,2,0,L|388:154,1,103.125,2|0,0:0|0:0,0:0:0:0:
398,138,108078,1,2,0:0:0:0:
251,48,108210,2,0,L|317:87,1,68.75,12|2,0:0|0:0,0:0:0:0:
497,178,108473,2,0,L|461:243,1,68.75,12|2,0:0|0:0,0:0:0:0:
252,351,108736,6,0,B|233:280|233:280|252:209,1,137.5,12|2,0:0|0:0,0:0:0:0:
327,96,109131,1,0,0:0:0:0:
210,21,109263,1,8,0:0:0:0:
210,21,109394,2,0,L|217:94,1,68.75,2|0,0:0|0:0,0:0:0:0:
312,188,109657,1,2,0:0:0:0:
222,292,109789,2,0,P|179:299|131:286,1,68.75,8|2,0:0|0:0,0:0:0:0:
61,178,110052,2,0,P|104:171|152:184,1,68.75,0|2,0:0|0:0,0:0:0:0:
79,303,110315,1,8,0:0:0:0:
188,218,110447,1,0,0:0:0:0:
298,298,110578,2,0,L|374:296,1,68.75,0|0,0:0|0:0,0:0:0:0:
448,135,110842,6,0,B|445:238|445:238|425:208,1,137.5,12|2,0:0|0:0,0:0:0:0:
364,102,111236,1,0,0:0:0:0:
188,218,111368,2,0,P|254:234|320:218,1,137.5,8|0,0:0|0:0,0:0:0:0:
258,82,111762,2,0,L|257:150,1,68.75,2|8,0:0|0:0,0:0:0:0:
257,331,112026,1,2,0:0:0:0:
188,218,112157,1,0,0:0:0:0:
320,218,112289,1,2,0:0:0:0:
113,182,112420,2,0,P|107:215|115:248,1,68.75,8|0,0:0|0:0,0:0:0:0:
328,365,112684,2,0,P|336:332|331:299,1,68.75,2|0,0:0|0:0,0:0:0:0:
124,325,112947,6,0,B|197:346|197:346|264:328,1,137.5,12|2,0:0|0:0,0:0:0:0:
320,218,113342,1,0,0:0:0:0:
429,340,113473,2,0,L|425:268,1,68.75,8|2,0:0|0:0,0:0:0:0:
323,149,113736,2,0,L|319:217,1,68.75,0|2,0:0|0:0,0:0:0:0:
391,68,113999,2,0,P|325:46|247:71,1,137.5,8|0,0:0|0:0,0:0:0:0:
182,175,114394,1,2,0:0:0:0:
79,82,114526,2,0,L|166:81,1,68.75,8|0,0:0|0:0,0:0:0:0:
250,175,114789,2,0,L|163:174,1,68.75,2|0,0:0|0:0,0:0:0:0:
15,177,115052,5,12,0:0:0:0:
146,343,115184,1,0,0:0:0:0:
250,175,115315,1,4,0:0:0:0:
44,302,115447,1,0,0:0:0:0:
233,373,115578,6,0,P|240:337|227:281,1,68.75,12|2,0:0|0:0,0:0:0:0:
121,184,115842,2,0,B|14:177|14:177|32:170|44:163,1,137.5,4|8,0:0|0:0,0:0:0:0:
206,154,116236,2,0,P|210:196|194:237,1,68.75,2|4,0:0|0:0,0:0:0:0:
126,99,116499,1,0,0:0:0:0:
151,276,116631,2,0,L|143:315,2,34.375,8|0|2,0:0|0:0|0:0,0:0:0:0:
300,176,116894,2,0,L|308:215,2,34.375,12|0|2,0:0|0:0|0:0,0:0:0:0:
439,328,117157,6,0,B|460:255|460:255|442:188,1,137.5,12|2,0:0|0:0,0:0:0:0:
388,69,117552,1,0,0:0:0:0:
267,182,117684,1,8,0:0:0:0:
267,182,117815,2,0,L|347:176,1,68.75,2|0,0:0|0:0,0:0:0:0:
291,52,118078,1,2,0:0:0:0:
378,247,118210,2,0,P|308:270|226:247,1,137.5,8|0,0:0|0:0,0:0:0:0:
144,165,118605,1,2,0:0:0:0:
58,272,118736,2,0,L|54:187,1,68.75,8|0,0:0|0:0,0:0:0:0:
145,81,118999,1,2,0:0:0:0:
149,246,119131,1,0,0:0:0:0:
298,102,119263,6,0,P|312:170|298:238,1,137.5,12|2,0:0|0:0,0:0:0:0:
207,337,119657,1,0,0:0:0:0:
370,311,119789,2,0,L|284:309,1,68.75,8|2,0:0|0:0,0:0:0:0:
228,192,120052,1,0,0:0:0:0:
301,309,120184,1,2,0:0:0:0:
398,213,120315,2,0,P|400:173|394:131,1,68.75,8|2,0:0|0:0,0:0:0:0:
299,33,120578,2,0,P|295:67|297:101,1,68.75,0|2,0:0|0:0,0:0:0:0:
228,192,120842,2,0,P|156:209|74:182,1,137.5,8|2,0:0|0:0,0:0:0:0:
164,92,121236,1,0,0:0:0:0:
92,285,121368,6,0,L|233:284,1,137.5,12|2,0:0|0:0,0:0:0:0:
341,365,121763,1,0,0:0:0:0:
454,289,121894,1,8,0:0:0:0:
454,289,122026,2,0,L|453:217,1,68.75,2|0,0:0|0:0,0:0:0:0:
341,138,122289,2,0,L|340:206,1,68.75,2|8,0:0|0:0,0:0:0:0:
229,284,122552,2,0,L|228:215,1,68.75,2|0,0:0|0:0,0:0:0:0:
342,291,122815,1,2,0:0:0:0:
137,323,122947,2,0,P|123:246|142:174,1,137.5,8|2,0:0|0:0,0:0:0:0:
221,81,123342,1,0,0:0:0:0:
60,114,123473,6,0,L|154:117,1,68.75,12|0,0:0|0:0,0:0:0:0:
228,215,123736,1,2,0:0:0:0:
332,124,123868,1,0,0:0:0:0:
324,315,123999,2,0,P|317:262|324:237,1,68.75,12|2,0:0|0:0,0:0:0:0:
435,91,124263,2,0,P|438:124|431:158,1,68.75,0|2,0:0|0:0,0:0:0:0:
320,247,124526,1,12,0:0:0:0:
221,81,124657,2,0,L|167:171,1,103.125,2|0,0:0|0:0,0:0:0:0:
157,187,124920,1,2,0:0:0:0:
81,110,125052,2,0,L|115:50,1,68.75,12|2,0:0|0:0,0:0:0:0:
303,152,125315,2,0,L|270:213,1,68.75,12|2,0:0|0:0,0:0:0:0:
117,334,125578,6,0,P|161:343|208:338,1,82.5000031471254,12|2,0:0|0:0,0:0:0:0:
301,287,125973,1,0,0:0:0:0:
403,340,126105,2,0,L|400:294,1,41.2500015735627,8|2,0:0|0:0,0:0:0:0:
462,201,126368,2,0,L|459:242,1,41.2500015735627,0|0,0:0|0:0,0:0:0:0:
339,198,126631,2,0,B|299:187|299:187|246:206,2,82.5000031471254,0|0|8,0:0|0:0|0:0,0:0:0:0:
459,242,127289,1,0,0:0:0:0:
427,131,127420,2,0,L|381:132,1,41.2500015735627,2|0,0:0|0:0,0:0:0:0:
250,243,127684,6,0,P|257:197|247:151,1,82.5000031471254,8|2,0:0|0:0,0:0:0:0:
155,97,128078,2,0,P|148:137|156:178,1,82.5000031471254,0|2,0:0|0:0,0:0:0:0:
269,326,128473,2,0,L|228:325,1,41.2500015735627,0|2,0:0|0:0,0:0:0:0:
326,263,128736,2,0,L|387:264,1,61.875002360344,0|0,0:0|0:0,0:0:0:0:
405,265,128999,1,0,0:0:0:0:
345,160,129131,1,2,0:0:0:0:
248,231,129263,2,0,L|222:194,1,41.2500015735627,8|2,0:0|0:0,0:0:0:0:
186,298,129526,2,0,L|156:250,1,41.2500015735627,8|2,0:0|0:0,0:0:0:0:
85,66,129789,6,0,B|48:37|18:69|26:104|48:127|75:117|102:140|113:158|113:158|114:138|129:105|157:102|167:71|159:36|118:21|96:67,1,352,4|4,0:0|0:0,0:0:0:0:
343,70,132815,6,0,L|348:104,2,20.6250007867813,0|0|4,0:0|0:0|0:0,0:0:0:0:
407,145,133122,1,2,0:0:0:0:
252,48,133342,1,0,0:0:0:0:
407,145,133473,1,8,0:0:0:0:
203,276,133736,1,2,0:0:0:0:
281,177,133999,5,4,0:0:0:0:
