osu file format v14

[General]
AudioFilename: audio.mp3
AudioLeadIn: 0
PreviewTime: 91105
Countdown: 0
SampleSet: Soft
StackLeniency: 0.3
Mode: 0
LetterboxInBreaks: 0
WidescreenStoryboard: 0

[Editor]
Bookmarks: 4526,22421,39263,56105,72947,91894,129789,133999
DistanceSpacing: 1.3
BeatDivisor: 4
GridSize: 32
TimelineZoom: 2.2

[Metadata]
Title:Infinity of Our Love
TitleUnicode:Infinity of Our Love
Artist:Nekomata Master feat.Joelle Strother
ArtistUnicode:猫叉Master feat.Joelle Strother
Creator:moph
Version:Advanced
Source:エレビッツ カイとゼロの不思議な旅
Tags:佐藤直之 Naoyuki Sato Elebits raindrops pop'n music 17 THE MOVIE ambient
BeatmapID:1346994
BeatmapSetID:629830

[Difficulty]
HPDrainRate:4
CircleSize:3.5
OverallDifficulty:5
ApproachRate:6
SliderMultiplier:1.5
SliderTickRate:1

[Events]
//Background and Video events
0,0,"bg.jpg",0,0
//Break Periods
//Storyboard Layer 0 (Background)
//Storyboard Layer 1 (Fail)
//Storyboard Layer 2 (Pass)
//Storyboard Layer 3 (Foreground)
//Storyboard Sound Samples

[TimingPoints]
316,526.315789473684,4,2,2,40,1,0
4526,-100,4,2,2,40,0,0
22421,526.315789473684,4,2,1,50,1,0
72947,-100,4,2,2,40,0,0
91105,-100,4,2,1,40,0,0
91894,-100,4,2,1,65,0,1
108210,-100,4,2,1,65,0,0
108736,-100,4,2,1,65,0,1
125578,-100,4,2,1,50,0,0
129789,-100,4,2,1,50,0,0
129920,-100,4,2,1,20,0,0
131894,-100,4,2,1,50,0,0

[Colours]
Combo1 : 183,132,204
Combo2 : 133,152,228
Combo3 : 251,138,89
Combo4 : 205,109,109

[HitObjects]
299,319,4526,6,0,P|352:336|414:320,2,112.5,4|0|0,0:0|0:0|0:0,0:0:0:0:
201,320,5579,2,0,P|151:337|116:332,1,75,2|0,0:0|0:0,0:0:0:0:
84,317,5973,2,0,P|67:267|72:231,1,75
84,199,6368,1,0,0:0:0:0:
63,103,6631,6,0,L|157:118,1,75,2|0,0:0|0:0,0:0:0:0:
170,79,7026,2,0,L|264:94,1,75,0|0,0:0|0:0,0:0:0:0:
339,107,7552,1,2,0:0:0:0:
271,177,7815,2,0,L|233:172,2,37.5
357,223,8342,2,0,L|400:229,2,37.5,2|2|2,0:0|0:0|0:0,0:0:0:0:
319,254,8737,6,0,B|339:310|339:310|322:364,2,112.5,4|0|0,0:0|0:0|0:0,0:0:0:0:
239,310,9789,2,0,P|201:333|167:339,1,75,2|0,0:0|0:0,0:0:0:0:
122,333,10184,2,0,P|89:311|68:280,1,75
70,232,10579,1,0,0:0:0:0:
43,138,10842,6,0,P|77:136|132:162,1,75,2|0,0:0|0:0,0:0:0:0:
163,160,11237,2,0,P|199:158|234:143,1,75
253,47,11763,2,0,L|352:54,1,75,2|0,0:0|0:0,0:0:0:0:
376,58,12158,2,0,L|379:18,2,37.5,0|0|2,0:0|0:0|0:0,0:0:0:0:
444,127,12684,2,0,L|439:178,1,37.5,2|0,0:0|0:0,0:0:0:0:
451,212,12947,6,0,L|441:292,1,75,4|0,0:0|0:0,0:0:0:0:
455,333,13342,1,0,0:0:0:0:
360,356,13605,2,0,P|322:363|275:351,1,75,0|0,0:0|0:0,0:0:0:0:
253,320,14000,1,2,0:0:0:0:
163,352,14263,1,0,0:0:0:0:
163,352,14394,2,0,P|128:360|81:347,1,75
51,322,14789,1,0,0:0:0:0:
10,233,15052,6,0,P|44:224|91:233,1,75,2|0,0:0|0:0,0:0:0:0:
125,253,15447,2,0,L|133:173,1,75
96,89,15973,2,0,P|131:81|178:94,1,75,2|0,0:0|0:0,0:0:0:0:
216,98,16368,2,0,L|221:39,2,37.5,0|0|2,0:0|0:0|0:0,0:0:0:0:
285,167,16894,2,0,L|281:204,1,37.5,2|0,0:0|0:0,0:0:0:0:
253,244,17158,6,0,P|242:281|252:333,1,75,4|0,0:0|0:0,0:0:0:0:
269,359,17552,1,0,0:0:0:0:
340,292,17815,2,0,L|423:297,1,75,0|0,0:0|0:0,0:0:0:0:
463,302,18210,1,2,0:0:0:0:
463,302,18342,2,0,B|471:263|471:263|460:215,1,75
449,181,18737,2,0,B|441:142|441:142|452:94,1,75
376,42,19263,6,0,P|338:36|303:43,1,75,2|0,0:0|0:0,0:0:0:0:
261,69,19658,2,0,L|181:60,1,75
89,48,20184,1,2,0:0:0:0:
256,192,20315,12,2,21894,0:0:0:0:
81,326,22421,6,0,B|118:333|118:333|173:322,1,75,12|2,0:0|0:0,0:0:0:0:
243,365,22947,1,8,0:0:0:0:
243,365,23078,2,0,P|253:322|228:267,1,75,2|2,0:0|0:0,0:0:0:0:
218,252,23473,1,8,0:0:0:0:
218,252,23604,2,0,P|208:209|233:154,1,75,2|2,0:0|0:0,0:0:0:0:
259,159,23999,2,0,P|292:150|341:165,1,75,8|2,0:0|0:0,0:0:0:0:
346,256,24526,6,0,L|435:257,1,75,12|2,0:0|0:0,0:0:0:0:
498,197,25052,2,0,L|499:108,1,75,12|0,0:0|0:0,0:0:0:0:
422,61,25578,2,0,L|333:60,1,75,12|0,0:0|0:0,0:0:0:0:
304,79,25973,1,2,0:0:0:0:
304,79,26105,2,0,L|215:78,1,75,12|2,0:0|0:0,0:0:0:0:
140,37,26631,6,0,P|130:78|154:137,1,75,12|2,0:0|0:0,0:0:0:0:
206,177,27157,1,8,0:0:0:0:
206,177,27289,2,0,P|216:218|192:277,1,75,2|2,0:0|0:0,0:0:0:0:
188,293,27684,1,8,0:0:0:0:
188,293,27816,2,0,L|111:291,1,75,2|2,0:0|0:0,0:0:0:0:
87,332,28210,1,8,0:0:0:0:
13,267,28473,1,2,0:0:0:0:
89,206,28736,5,12,0:0:0:0:
70,111,28999,2,0,L|-1:77,2,75,6|12|4,0:0|0:0|0:0,0:0:0:0:
161,145,29789,1,8,0:0:0:0:
152,47,30052,2,0,L|114:30,2,37.5,4|6|12,0:0|0:0|0:0,0:0:0:0:
240,87,30578,1,8,0:0:0:0:
332,56,30842,6,0,B|369:49|369:49|424:60,1,75,12|2,0:0|0:0,0:0:0:0:
375,148,31368,1,8,0:0:0:0:
375,148,31499,2,0,L|373:245,1,75,2|2,0:0|0:0,0:0:0:0:
411,254,31894,1,8,0:0:0:0:
411,254,32025,2,0,P|424:298|409:351,1,75,2|2,0:0|0:0,0:0:0:0:
388,363,32420,2,0,L|313:362,1,75,8|2,0:0|0:0,0:0:0:0:
227,314,32947,6,0,L|152:334,1,75,12|2,0:0|0:0,0:0:0:0:
65,294,33473,2,0,L|45:219,1,75,12|0,0:0|0:0,0:0:0:0:
96,138,33999,2,0,L|171:118,1,75,12|0,0:0|0:0,0:0:0:0:
221,130,34394,1,2,0:0:0:0:
221,130,34526,2,0,L|296:110,1,75,12|2,0:0|0:0,0:0:0:0:
377,61,35052,6,0,B|390:101|390:101|376:158,1,75,12|2,0:0|0:0,0:0:0:0:
436,220,35578,1,8,0:0:0:0:
436,220,35710,2,0,L|363:239,1,75,2|2,0:0|0:0,0:0:0:0:
355,287,36105,1,8,0:0:0:0:
355,287,36237,2,0,L|282:306,1,75,2|0,0:0|0:0,0:0:0:0:
259,348,36631,1,8,0:0:0:0:
165,320,36894,1,0,0:0:0:0:
72,283,37157,6,0,P|64:319|73:355,2,75,12|6|12,0:0|0:0|0:0,0:0:0:0:
152,226,37947,1,4,0:0:0:0:
69,186,38210,1,12,0:0:0:0:
69,186,38342,2,0,P|61:144|72:108,1,75,2|2,0:0|0:0,0:0:0:0:
91,70,38736,1,12,0:0:0:0:
167,132,38999,1,8,0:0:0:0:
233,59,39263,5,0,0:0:0:0:
298,131,39526,2,0,P|335:137|390:124,1,75,0|8,0:0|0:0,0:0:0:0:
450,74,40052,1,0,0:0:0:0:
450,74,40184,2,0,L|467:151,1,75,2|2,0:0|0:0,0:0:0:0:
404,222,40710,1,2,0:0:0:0:
404,222,40842,2,0,L|421:299,1,75,8|0,0:0|0:0,0:0:0:0:
433,342,41236,6,0,B|378:327|378:327|308:350,1,112.5,0|0,0:0|0:0,0:0:0:0:
228,333,41894,2,0,L|135:365,1,75,8|0,0:0|0:0,0:0:0:0:
111,374,42289,2,0,B|90:320|90:320|107:265,1,112.5,2|0,0:0|0:0,0:0:0:0:
131,173,42947,1,8,0:0:0:0:
33,174,43210,1,2,0:0:0:0:
224,210,43736,6,0,B|233:176|233:176|223:137,1,75,0|8,0:0|0:0,0:0:0:0:
184,54,44263,1,0,0:0:0:0:
184,54,44394,2,0,L|278:51,1,75,2|2,0:0|0:0,0:0:0:0:
321,133,44920,1,0,0:0:0:0:
321,133,45051,2,0,L|415:130,1,75,8|0,0:0|0:0,0:0:0:0:
484,88,45578,6,0,B|472:51|472:51|489:-1,2,75,0|0|8,0:0|0:0|0:0,0:0:0:0:
504,133,46236,1,2,0:0:0:0:
497,231,46499,1,2,0:0:0:0:
497,231,46631,2,0,P|489:269|467:299,1,75,0|0,0:0|0:0,0:0:0:0:
427,324,47026,1,2,0:0:0:0:
427,324,47158,2,0,P|389:332|352:325,1,75,8|0,0:0|0:0,0:0:0:0:
281,260,47684,5,4,0:0:0:0:
209,326,47947,2,0,P|172:332|135:324,1,75,0|8,0:0|0:0,0:0:0:0:
40,345,48473,1,0,0:0:0:0:
40,345,48605,2,0,L|57:268,1,75,2|2,0:0|0:0,0:0:0:0:
56,174,49131,1,2,0:0:0:0:
56,174,49263,2,0,L|39:97,1,75,8|0,0:0|0:0,0:0:0:0:
23,54,49657,6,0,L|137:77,1,112.5,0|0,0:0|0:0,0:0:0:0:
228,53,50315,2,0,P|229:91|215:128,1,75,8|0,0:0|0:0,0:0:0:0:
193,168,50710,2,0,B|248:153|248:153|321:173,1,112.5,2|0,0:0|0:0,0:0:0:0:
250,250,51368,1,8,0:0:0:0:
303,331,51631,1,2,0:0:0:0:
480,251,52157,6,0,L|393:250,1,75,2|8,0:0|0:0,0:0:0:0:
441,161,52684,1,0,0:0:0:0:
441,161,52815,2,0,P|447:121|434:70,1,75,2|2,0:0|0:0,0:0:0:0:
359,44,53342,1,2,0:0:0:0:
359,44,53473,2,0,P|353:84|366:135,1,75,8|2,0:0|0:0,0:0:0:0:
313,204,53999,6,0,B|275:213|275:213|230:202,2,75,0|2|8,0:0|0:0|0:0,0:0:0:0:
361,198,54657,1,2,0:0:0:0:
441,263,54920,1,2,0:0:0:0:
441,263,55052,2,0,L|441:354,1,75,8|0,0:0|0:0,0:0:0:0:
397,351,55447,1,2,0:0:0:0:
397,351,55579,2,0,B|362:342|362:342|316:354,1,75,8|8,0:0|0:0,0:0:0:0:
265,270,56105,5,4,0:0:0:0:
182,321,56368,2,0,L|91:347,1,75,0|8,0:0|0:0,0:0:0:0:
63,356,56763,1,2,0:0:0:0:
8,275,57026,2,0,L|99:249,1,75,2|2,0:0|0:0,0:0:0:0:
93,157,57552,1,8,0:0:0:0:
93,157,57684,2,0,B|84:120|84:120|100:63,1,75,8|0,0:0|0:0,0:0:0:0:
170,23,58210,1,0,0:0:0:0:
245,84,58473,6,0,B|254:119|254:119|245:156,1,75,0|8,0:0|0:0,0:0:0:0:
227,202,58868,1,2,0:0:0:0:
132,236,59131,2,0,B|122:271|122:271|131:308,1,75,2|2,0:0|0:0,0:0:0:0:
145,355,59526,1,0,0:0:0:0:
238,328,59789,2,0,L|312:327,1,75,8|2,0:0|0:0,0:0:0:0:
409,341,60315,5,0,0:0:0:0:
425,245,60578,2,0,B|460:254|460:254|505:244,2,75,0|8|0,0:0|0:0|0:0,0:0:0:0:
377,232,61236,1,2,0:0:0:0:
427,148,61499,2,0,P|434:108|417:60,1,75,2|0,0:0|0:0,0:0:0:0:
394,38,61894,2,0,L|312:57,1,75,8|0,0:0|0:0,0:0:0:0:
223,54,62420,6,0,L|149:37,1,75,0|0,0:0|0:0,0:0:0:0:
93,117,62947,1,8,0:0:0:0:
93,117,63078,2,0,L|166:133,1,75,2|2,0:0|0:0,0:0:0:0:
175,181,63474,1,8,0:0:0:0:
175,181,63605,2,0,B|188:224|188:224|172:265,1,75,2|0,0:0|0:0,0:0:0:0:
154,295,63999,1,8,0:0:0:0:
62,329,64263,1,8,0:0:0:0:
145,379,64526,5,4,0:0:0:0:
238,350,64789,2,0,L|323:358,1,75,0|8,0:0|0:0,0:0:0:0:
353,330,65184,1,2,0:0:0:0:
371,234,65447,2,0,L|286:226,1,75,2|2,0:0|0:0,0:0:0:0:
256,254,65842,1,0,0:0:0:0:
170,206,66105,2,0,P|163:153|176:124,1,75,8|0,0:0|0:0,0:0:0:0:
143,39,66631,6,0,L|228:47,1,75,0|0,0:0|0:0,0:0:0:0:
315,48,67157,1,8,0:0:0:0:
316,48,67289,2,0,L|390:40,2,75,0|2|2,0:0|0:0|0:0,0:0:0:0:
365,132,68078,1,0,0:0:0:0:
365,133,68210,2,0,L|376:221,1,75,8|0,0:0|0:0,0:0:0:0:
459,255,68736,5,0,0:0:0:0:
432,348,68999,2,0,L|357:357,1,75,0|8,0:0|0:0,0:0:0:0:
313,274,69526,1,0,0:0:0:0:
313,274,69657,2,0,L|238:283,1,75,2|2,0:0|0:0,0:0:0:0:
145,254,70184,1,0,0:0:0:0:
145,254,70315,2,0,B|140:291|140:291|152:328,1,75,8|0,0:0|0:0,0:0:0:0:
61,364,70842,6,0,B|66:327|66:327|53:289,1,75,8|8,0:0|0:0,0:0:0:0:
8,212,71368,1,8,0:0:0:0:
8,212,71499,2,0,L|18:115,1,75,2|2,0:0|0:0,0:0:0:0:
20,88,71894,2,0,L|71:99,1,37.5,8|2,0:0|0:0,0:0:0:0:
123,167,72289,1,2,0:0:0:0:
123,167,72420,2,0,B|159:173|159:173|207:163,1,75,8|8,0:0|0:0,0:0:0:0:
241,78,72947,6,0,P|313:51|390:93,1,150,4|0,0:0|0:0,0:0:0:0:
309,149,73736,1,0,0:0:0:0:
389,204,73999,2,0,B|438:177|438:177|500:184,2,112.5,2|2|2,0:0|0:0|0:0,0:0:0:0:
459,272,75052,2,0,P|467:308|447:364,1,75
362,358,75578,1,0,0:0:0:0:
362,260,75842,1,2,0:0:0:0:
280,313,76105,2,0,B|196:312,1,75,2|2,0:0|0:0,0:0:0:0:
110,326,76631,2,0,P|118:284|105:246,1,75,2|0,0:0|0:0,0:0:0:0:
96,157,77157,6,0,B|70:87|70:87|99:12,1,150,4|0,0:0|0:0,0:0:0:0:
192,40,77947,1,2,0:0:0:0:
285,65,78210,2,0,B|339:82|339:82|404:61,2,112.5,2|2|2,0:0|0:0|0:0,0:0:0:0:
257,158,79263,2,0,P|249:198|260:239,1,75,2|0,0:0|0:0,0:0:0:0:
314,308,79789,1,0,0:0:0:0:
411,308,80052,1,2,0:0:0:0:
474,233,80315,2,0,P|480:193|471:156,2,75,2|2|2,0:0|0:0|0:0,0:0:0:0:
381,200,81105,1,2,0:0:0:0:
285,218,81368,6,0,B|247:218|217:248|217:248|186:218|146:218,1,150,4|0,0:0|0:0,0:0:0:0:
142,315,82157,1,2,0:0:0:0:
65,254,82420,2,0,P|57:218|73:170,1,75,2|0,0:0|0:0,0:0:0:0:
39,87,82947,2,0,L|120:99,1,75,2|2,0:0|0:0,0:0:0:0:
186,33,83473,2,0,B|255:63|255:63|335:30,1,150,2|0,0:0|0:0,0:0:0:0:
377,116,84263,1,2,0:0:0:0:
426,31,84526,2,0,P|462:23|510:35,2,75,2|0|2,0:0|0:0|0:0,0:0:0:0:
463,121,85315,1,0,0:0:0:0:
415,206,85578,6,0,B|435:262|435:262|416:321,2,112.5,4|2|0,0:0|0:0|0:0,0:0:0:0:
335,263,86631,2,0,B|278:249|278:249|221:262,2,112.5,4|2|0,0:0|0:0|0:0,0:0:0:0:
277,342,87684,5,4,0:0:0:0:
256,192,87947,12,2,89789,0:0:0:0:
77,210,91368,6,0,P|68:251|84:301,1,75,8|8,0:0|0:0,0:0:0:0:
153,340,91894,2,0,B|223:307|223:307|296:349,1,150,12|8,0:0|0:0,0:0:0:0:
323,374,92552,2,0,L|394:343,1,75,2|2,0:0|0:0,0:0:0:0:
435,320,92947,1,8,0:0:0:0:
435,320,93078,2,0,P|442:270|428:233,1,75,2|2,0:0|0:0,0:0:0:0:
403,211,93473,1,8,0:0:0:0:
471,141,93736,1,2,0:0:0:0:
381,103,93999,6,0,L|306:71,1,75,12|2,0:0|0:0,0:0:0:0:
236,11,94526,2,0,P|217:44|217:88,1,75,8|0,0:0|0:0,0:0:0:0:
176,169,95052,2,0,L|101:137,1,75,8|0,0:0|0:0,0:0:0:0:
33,79,95579,2,0,P|14:112|14:156,1,75,8|2,0:0|0:0,0:0:0:0:
69,227,96105,6,0,B|39:296|39:296|66:365,1,150,12|8,0:0|0:0,0:0:0:0:
107,338,96763,2,0,P|142:328|178:338,1,75,2|2,0:0|0:0,0:0:0:0:
218,366,97157,1,8,0:0:0:0:
218,366,97289,2,0,L|304:366,1,75,2|2,0:0|0:0,0:0:0:0:
341,367,97684,1,8,0:0:0:0:
374,275,97947,1,2,0:0:0:0:
437,348,98210,6,0,P|473:356|516:348,2,75,12|4|12,0:0|0:0|0:0,0:0:0:0:
470,256,98999,1,4,0:0:0:0:
405,190,99263,1,8,0:0:0:0:
405,190,99394,2,0,L|415:109,1,75,2|2,0:0|0:0,0:0:0:0:
421,67,99789,1,12,0:0:0:0:
328,95,100052,1,12,0:0:0:0:
233,120,100315,6,0,L|89:65,1,150,12|8,0:0|0:0,0:0:0:0:
46,50,100973,2,0,P|53:86|43:122,1,75,2|2,0:0|0:0,0:0:0:0:
17,164,101368,1,8,0:0:0:0:
17,164,101499,2,0,P|7:205|24:252,1,75,2|2,0:0|0:0,0:0:0:0:
32,281,101894,1,8,0:0:0:0:
108,341,102157,1,2,0:0:0:0:
130,248,102420,6,0,L|209:248,1,75,12|2,0:0|0:0,0:0:0:0:
296,282,102947,2,0,B|286:245|286:245|298:204,2,75,8|0|8,0:0|0:0|0:0,0:0:0:0:
308,329,103605,1,2,0:0:0:0:
399,294,103868,1,2,0:0:0:0:
399,294,103999,2,0,L|480:294,1,75,8|2,0:0|0:0,0:0:0:0:
435,204,104526,6,0,B|419:153|419:153|435:91,1,112.5,12|0,0:0|0:0,0:0:0:0:
448,49,105052,2,0,L|372:49,1,75,8|0,0:0|0:0,0:0:0:0:
303,116,105578,1,8,0:0:0:0:
303,116,105710,2,0,L|227:116,1,75,2|2,0:0|0:0,0:0:0:0:
179,117,106105,1,8,0:0:0:0:
102,56,106368,1,2,0:0:0:0:
90,152,106631,6,0,L|36:216,1,75,12|2,0:0|0:0,0:0:0:0:
43,306,107157,2,0,L|100:354,1,75,12|0,0:0|0:0,0:0:0:0:
198,354,107684,2,0,L|252:290,1,75,12|0,0:0|0:0,0:0:0:0:
245,200,108210,2,0,L|187:151,1,75,12|12,0:0|0:0,0:0:0:0:
241,70,108736,6,0,B|312:44|312:44|401:80,1,150,12|8,0:0|0:0,0:0:0:0:
424,94,109394,2,0,B|415:132|415:132|425:173,1,75,2|2,0:0|0:0,0:0:0:0:
450,214,109789,1,8,0:0:0:0:
450,214,109920,2,0,B|459:252|459:252|449:293,1,75,2|2,0:0|0:0,0:0:0:0:
437,334,110315,1,8,0:0:0:0:
360,273,110578,1,0,0:0:0:0:
295,346,110842,6,0,L|219:328,1,75,12|2,0:0|0:0,0:0:0:0:
125,341,111368,2,0,P|128:300|158:259,1,75,8|0,0:0|0:0,0:0:0:0:
125,175,111894,2,0,L|201:193,1,75,8|0,0:0|0:0,0:0:0:0:
275,249,112420,2,0,P|293:217|295:180,1,75,8|2,0:0|0:0,0:0:0:0:
282,82,112947,6,0,B|357:110|357:110|429:85,1,150,12|8,0:0|0:0,0:0:0:0:
472,82,113605,2,0,P|480:117|470:160,1,75,2|2,0:0|0:0,0:0:0:0:
445,196,113999,1,8,0:0:0:0:
445,196,114131,2,0,P|437:231|447:274,1,75,2|2,0:0|0:0,0:0:0:0:
452,317,114526,1,8,0:0:0:0:
360,282,114789,1,2,0:0:0:0:
269,246,115052,6,0,L|195:296,2,75,12|4|12,0:0|0:0|0:0,0:0:0:0:
342,181,115842,1,4,0:0:0:0:
252,160,116105,1,8,0:0:0:0:
252,160,116236,2,0,L|155:136,1,75,2|0,0:0|0:0,0:0:0:0:
131,130,116631,1,12,0:0:0:0:
37,103,116894,1,12,0:0:0:0:
62,197,117157,6,0,B|29:265|29:265|71:355,1,150,12|8,0:0|0:0,0:0:0:0:
101,358,117815,2,0,L|174:314,1,75,2|2,0:0|0:0,0:0:0:0:
218,321,118210,1,8,0:0:0:0:
218,321,118342,2,0,L|282:359,1,75,2|2,0:0|0:0,0:0:0:0:
325,337,118736,1,8,0:0:0:0:
420,319,118999,1,0,0:0:0:0:
384,229,119263,6,0,L|391:154,1,75,12|2,0:0|0:0,0:0:0:0:
428,66,119789,1,8,0:0:0:0:
428,66,119920,2,0,P|388:59|342:70,1,75,2|2,0:0|0:0,0:0:0:0:
314,92,120315,1,8,0:0:0:0:
315,92,120446,2,0,P|278:98|241:91,1,75,2|2,0:0|0:0,0:0:0:0:
197,68,120842,1,8,0:0:0:0:
120,128,121105,1,2,0:0:0:0:
48,61,121368,6,0,B|17:128|17:128|56:216,1,150,12|8,0:0|0:0,0:0:0:0:
68,241,122026,1,2,0:0:0:0:
15,322,122289,1,2,0:0:0:0:
112,328,122552,2,0,P|152:341|200:330,1,75,2|2,0:0|0:0,0:0:0:0:
228,316,122947,2,0,L|316:335,1,75,8|2,0:0|0:0,0:0:0:0:
397,351,123473,6,0,L|416:263,1,75,12|2,0:0|0:0,0:0:0:0:
467,198,123999,2,0,P|431:184|381:186,1,75,12|0,0:0|0:0,0:0:0:0:
299,204,124526,2,0,L|318:116,1,75,12|0,0:0|0:0,0:0:0:0:
369,51,125052,2,0,P|333:37|283:39,1,75,12|12,0:0|0:0,0:0:0:0:
219,95,125578,6,0,B|149:120|149:120|79:91,1,150,12|8,0:0|0:0,0:0:0:0:
34,72,126236,1,2,0:0:0:0:
27,169,126499,1,0,0:0:0:0:
27,169,126631,2,0,P|5:222|29:286,1,112.5,0|2,0:0|0:0,0:0:0:0:
54,307,127157,2,0,L|131:307,1,75,8|2,0:0|0:0,0:0:0:0:
217,348,127684,6,0,L|294:348,1,75,8|2,0:0|0:0,0:0:0:0:
378,299,128210,1,8,0:0:0:0:
378,299,128342,2,0,B|361:240|361:240|390:185,1,112.5,2|0,0:0|0:0,0:0:0:0:
419,159,128868,2,0,L|405:75,1,75,2|2,0:0|0:0,0:0:0:0:
397,36,129263,1,8,0:0:0:0:
311,82,129526,1,8,0:0:0:0:
226,130,129789,5,4,0:0:0:0:
256,192,130052,12,4,131894,0:0:0:0:
94,280,132947,6,0,L|154:281,1,50,4|2,0:0|0:0,0:0:0:0:
220,323,133342,1,0,0:0:0:0:
220,323,133473,2,0,L|305:323,1,75,8|2,0:0|0:0,0:0:0:0:
381,278,133999,1,4,0:0:0:0:
