osu file format v14

[General]
AudioFilename: audio.mp3
AudioLeadIn: 0
PreviewTime: 74755
Countdown: 0
SampleSet: Soft
StackLeniency: 0.7
Mode: 2
LetterboxInBreaks: 0
WidescreenStoryboard: 1

[Editor]
Bookmarks: 74363,75931,101029,115147
DistanceSpacing: 0.8
BeatDivisor: 2
GridSize: 8
TimelineZoom: 1.1

[Metadata]
Title:Clumsy thoughts
TitleUnicode:Clumsy thoughts
Artist:Nekomata Master feat. *spiLa*
ArtistUnicode:猫叉Master feat. *spiLa*
Creator:wonjae
Version:chickenbible's Cup
Source:REFLEC BEAT colette -Winter-
Tags:Naoyuki Sato jubeat saucer plus Crevice chickenbible Ascendance Rizia
BeatmapID:1683611
BeatmapSetID:801225

[Difficulty]
HPDrainRate:3
CircleSize:2.5
OverallDifficulty:6
ApproachRate:6
SliderMultiplier:1.5
SliderTickRate:1

[Events]
//Background and Video events
0,0,"yaw yeet.jpg",0,0
//Break Periods
//Storyboard Layer 0 (Background)
//Storyboard Layer 1 (Fail)
//Storyboard Layer 2 (Pass)
//Storyboard Layer 3 (Foreground)
//Storyboard Sound Samples

[TimingPoints]
637.769230769231,392.156862745098,4,2,0,45,1,0
6912,-100,4,2,1,50,0,0
14265,-66.6666666666667,4,2,1,60,0,0
14755,-100,4,2,1,60,0,0
75931,-100,4,2,1,70,0,1
101029,-100,4,2,1,70,0,0

[Colours]
Combo1 : 234,234,234
Combo2 : 0,128,192
Combo3 : 70,163,255
Combo4 : 0,255,64

[HitObjects]
251,268,637,6,0,P|411:148|251:76,1,450,4|0,0:0|0:0,0:0:0:0:
105,271,2206,6,0,P|25:151|241:63,1,450,0|0,0:0|0:0,0:0:0:0:
432,192,3775,6,0,P|480:112|312:48,1,300,0|0,0:0|0:0,0:0:0:0:
184,120,4951,2,0,L|184:208,1,75,0|2,0:0|0:0,0:0:0:0:
336,152,5539,6,0,L|416:152,2,75,0|0|0,0:0|0:0|0:0,0:0:0:0:
184,152,6324,2,0,L|104:152,2,75,0|8|2,0:0|0:0|0:0,0:0:0:0:
288,152,6912,6,0,P|368:104|192:80,1,450,4|8,0:0|0:0,0:0:0:0:
354,104,8480,6,0,P|386:176|138:216,1,450,4|8,0:0|0:0,0:0:0:0:
306,136,10049,6,0,P|274:232|106:192,1,300,4|0,0:0|0:0,0:0:0:0:
258,168,11226,2,0,L|258:88,1,75,8|10,0:0|0:0,0:0:0:0:
148,96,11618,1,4,0:0:0:0:
226,264,13186,6,0,L|375:263,1,150,0|0,0:0|0:0,0:0:0:0:
232,176,13971,6,0,L|48:176,1,150,2|12,0:0|0:0,0:0:0:0:
252,193,14755,1,4,0:0:0:0:
380,191,15147,1,8,0:0:0:0:
252,111,15539,1,0,0:0:0:0:
124,111,15931,1,10,0:0:0:0:
252,111,16324,5,0,0:0:0:0:
380,111,16716,1,8,0:0:0:0:
252,111,17108,1,0,0:0:0:0:
124,111,17500,1,10,0:0:0:0:
252,111,17892,5,2,0:0:0:0:
380,111,18284,2,0,L|460:111,1,75,8|2,0:0|0:0,0:0:0:0:
380,111,18676,2,0,P|287:128|286:201,1,150,0|8,0:0|0:0,0:0:0:0:
148,151,19461,2,0,L|148:63,1,75,0|2,0:0|0:0,0:0:0:0:
252,71,19853,1,8,0:0:0:0:
424,72,20245,6,0,L|264:72,2,150,2|10|4,0:0|0:0|0:0,0:0:0:0:
296,96,21422,1,10,0:0:0:0:
424,96,21814,1,0,0:0:0:0:
296,96,22206,1,8,0:0:0:0:
168,96,22598,5,0,0:0:0:0:
40,96,22990,1,10,0:0:0:0:
168,96,23382,1,0,0:0:0:0:
296,96,23775,1,8,0:0:0:0:
168,96,24167,5,2,0:0:0:0:
296,96,24559,2,0,L|392:96,1,75,8|2,0:0|0:0,0:0:0:0:
296,96,24951,1,0,0:0:0:0:
128,96,25343,2,0,L|128:176,1,75,8|2,0:0|0:0,0:0:0:0:
248,176,25735,1,4,0:0:0:0:
464,247,26324,6,0,P|512:175|352:79,1,300,0|2,0:0|0:0,0:0:0:0:
272,112,27304,6,0,L|88:112,2,150,4|2|2,0:0|1:0|1:0,0:0:0:0:
416,120,28480,1,8,0:0:0:0:
272,112,28873,6,0,L|88:112,2,150,2|2|2,1:0|1:0|1:0,0:0:0:0:
424,120,30049,2,0,L|424:32,1,75,8|0,0:0|0:0,0:0:0:0:
320,48,30441,6,0,L|152:48,1,150,2|2,1:0|1:0,0:0:0:0:
320,160,31226,2,0,L|480:160,1,150,2|8,1:0|0:0,0:0:0:0:
344,104,32010,6,0,L|344:184,1,75,2|0,1:0|0:0,0:0:0:0:
240,104,32402,2,0,L|88:104,2,150,2|2|8,1:0|1:0|0:0,0:0:0:0:
440,184,33578,6,0,P|496:104|336:56,1,300,6|2,1:0|1:0,0:0:0:0:
232,56,34755,1,8,0:0:0:0:
384,56,35147,5,2,1:0:0:0:
272,56,35539,1,8,0:0:0:0:
160,56,35931,1,2,1:0:0:0:
48,56,36324,1,2,1:0:0:0:
232,176,36716,6,0,P|304:96|280:56,1,150,4|2,0:0|1:0,0:0:0:0:
168,88,37500,1,2,1:0:0:0:
296,88,37892,1,8,0:0:0:0:
168,88,38284,5,2,1:0:0:0:
296,88,38676,2,0,L|376:88,2,75,2|0|2,1:0|1:0|1:0,1:0:0:0:
168,88,39461,1,8,0:0:0:0:
40,88,39853,6,0,L|192:88,1,150,2|2,1:0|1:0,0:0:0:0:
320,96,40637,2,0,L|160:96,1,150,2|8,1:0|0:0,0:0:0:0:
296,96,41422,6,0,L|384:96,2,75,2|0|2,1:0|0:0|1:0,0:0:0:0:
168,96,42206,1,2,1:0:0:0:
40,96,42598,2,0,L|40:192,1,75,8|0,0:0|0:0,0:0:0:0:
144,176,42990,6,0,P|240:224|240:64,1,300,4|2,0:0|1:0,0:0:0:0:
144,112,44167,1,8,0:0:0:0:
272,112,44559,6,0,L|440:112,3,150,2|2|2|2,1:0|1:0|1:0|1:0,0:0:0:0:
272,112,46127,5,2,1:0:0:0:
144,128,46520,1,8,0:0:0:0:
272,96,46912,2,0,L|376:96,2,75,2|4|8,1:0|0:0|0:0,0:0:0:0:
144,88,47696,5,4,0:3:0:0:
256,88,48088,1,0,0:0:0:0:
368,88,48480,1,0,0:0:0:0:
240,88,48873,1,8,0:0:0:0:
390,88,49265,6,0,L|206:88,1,150,6|2,1:0|1:0,0:0:0:0:
110,96,50049,2,0,L|278:96,1,150,2|2,1:0|1:0,0:0:0:0:
392,176,50833,6,0,P|472:120|328:64,1,300,2|2,1:0|1:0,0:0:0:0:
200,40,52010,1,2,1:0:0:0:
350,37,52402,6,0,L|480:120,2,150,2|2|2,1:0|1:0|1:0,0:0:0:0:
218,45,53578,1,2,1:0:0:0:
376,56,53971,5,2,1:0:0:0:
224,227,54363,2,0,P|327:227|393:227,1,150,2|2,1:0|1:0,0:0:0:0:
248,96,55147,1,12,0:0:0:0:
398,96,55539,6,0,L|486:96,2,75,6|0|2,1:0|0:0|1:0,0:0:0:0:
248,96,56324,2,0,P|337:96|382:151,1,150,2|2,1:0|1:0,0:0:0:0:
248,96,57108,5,2,1:0:0:0:
160,152,57304,2,0,P|120:80|176:72,1,150,0|0,0:0|0:0,0:0:0:0:
256,120,57892,2,0,P|360:120|360:64,1,150,2|2,1:0|1:0,0:0:0:0:
216,96,58676,6,0,L|64:96,2,150,2|2|2,1:0|1:0|1:0,0:0:0:0:
344,96,59853,1,2,1:0:0:0:
496,96,60245,1,2,1:0:0:0:
384,96,60637,1,2,1:0:0:0:
272,96,61029,1,2,1:0:0:0:
48,96,61814,6,0,L|232:96,1,150,6|2,1:0|1:0,0:0:0:0:
319,96,62598,2,0,L|159:96,1,150,2|8,1:0|0:0,0:0:0:0:
296,48,63382,6,0,L|448:48,2,150,2|8|2,1:0|0:0|1:0,0:0:0:0:
168,48,64559,1,8,0:0:0:0:
296,88,64951,5,2,1:0:0:0:
184,88,65343,1,8,0:0:0:0:
72,88,65735,1,2,1:0:0:0:
200,88,66127,6,0,L|288:88,2,75,8|0|2,0:0|0:0|1:0,0:0:0:0:
72,88,66912,2,0,L|232:88,1,150,8|2,0:0|1:0,0:0:0:0:
352,88,67696,1,8,0:0:0:0:
200,88,68088,6,0,L|40:88,1,150,6|8,1:0|0:0,0:0:0:0:
176,88,68873,2,0,L|328:88,1,150,2|8,1:0|0:0,0:0:0:0:
200,104,69657,6,0,P|144:72|208:48,1,150,2|8,1:0|0:0,0:0:0:0:
360,96,70441,2,0,L|456:96,2,75,2|2|8,1:0|0:0|0:0,0:0:0:0:
168,112,71226,6,0,P|80:72|200:24,1,300,2|2,1:0|1:0,0:0:0:0:
328,96,72402,2,0,L|408:96,1,75,8|2,0:0|0:0,0:0:0:0:
328,96,72794,6,0,L|160:96,3,150,2|8|2|8,1:0|0:0|1:0|0:0,0:0:0:0:
48,96,74363,1,2,1:0:0:0:
48,96,74755,1,8,0:0:0:0:
384,160,75931,6,0,L|200:160,1,150,4|0,0:0|0:0,0:0:0:0:
104,168,76716,2,0,L|8:168,2,75,8|0|8,0:0|0:0|0:0,0:0:0:0:
201,167,77304,2,0,P|249:111|193:95,1,150
72,112,78088,5,0,0:0:0:0:
160,112,78284,2,0,L|328:112,1,150,2|8,1:0|0:0,0:0:0:0:
184,160,79069,6,0,P|112:128|192:48,1,225,2|2,1:0|1:0,0:0:0:0:
360,88,80245,2,0,L|512:88,2,150,8|2|8,0:0|1:0|0:0,0:0:0:0:
210,79,81422,2,0,L|122:79,2,75,2|0|8,1:0|0:0|0:0,0:0:0:0:
388,163,82206,6,0,P|288:60|195:164,1,300,6|2,1:0|1:0,0:0:0:0:
360,56,83382,1,8,0:0:0:0:
232,80,83775,1,2,1:0:0:0:
360,80,84167,2,0,L|512:80,2,150,8|2|8,0:0|1:0|0:0,0:0:0:0:
232,80,85343,6,0,L|80:80,3,150,2|8|2|8,1:0|0:0|1:0|0:0,0:0:0:0:
208,88,86912,5,2,1:0:0:0:
336,88,87304,2,0,L|432:88,2,75,8|0|2,0:0|0:0|1:0,0:0:0:0:
208,96,88088,1,8,0:0:0:0:
58,96,88480,6,0,L|210:96,2,150,6|8|2,1:0|0:0|1:0,0:0:0:0:
186,101,89657,5,8,0:0:0:0:
274,171,89853,2,0,P|322:115|222:18,1,225,0|8,0:0|0:0,0:0:0:0:
128,40,90833,1,0,1:0:0:0:
16,40,91226,1,8,0:0:0:0:
168,120,91618,6,0,P|272:96|200:48,1,225,6|4,1:0|0:0,0:0:0:0:
112,64,92598,1,0,0:0:0:0:
24,64,92794,2,0,L|200:64,1,150,12|2,0:0|1:0,0:0:0:0:
304,72,93578,5,8,0:0:0:0:
176,72,93971,2,0,L|24:72,1,150,0|8,1:0|0:0,0:0:0:0:
180,256,94755,6,0,P|392:168|164:80,1,600,6|2,1:0|1:0,0:0:0:0:
296,136,96716,5,8,0:0:0:0:
424,136,97108,2,0,L|504:136,2,75,2|0|8,1:0|0:0|0:0,0:0:0:0:
296,144,97892,6,0,L|136:144,3,150,6|8|2|8,1:0|0:0|1:0|0:0,0:0:0:0:
272,88,99461,6,0,L|424:88,1,150,6|8,1:0|0:0,0:0:0:0:
296,80,100245,2,0,L|136:80,1,150,2|8,1:0|0:0,0:0:0:0:
296,224,101029,6,0,L|464:224,3,150,6|8|2|8,1:0|0:0|1:0|0:0,0:0:0:0:
296,224,102598,5,2,1:0:0:0:
159,203,102990,1,8,0:0:0:0:
155,65,103382,1,2,1:0:0:0:
290,37,103774,1,8,0:0:0:0:
160,104,104167,6,0,L|0:104,2,150,2|8|2,1:0|0:0|1:0,0:0:0:0:
288,144,105343,2,0,L|288:64,1,75,8|2,0:0|0:0,0:0:0:0:
160,96,105931,6,0,L|56:96,2,75,2|8|2,0:0|0:0|0:0,0:0:0:0:
288,96,106716,2,0,L|392:96,2,75,2|8|2,0:0|0:0|0:0,0:0:0:0:
200,304,107304,6,0,P|136:304|200:64,1,450,6|10,1:0|0:0,0:0:0:0:
344,304,108873,6,0,P|408:304|344:64,1,450,2|10,1:0|0:0,0:0:0:0:
200,104,110441,6,0,L|48:104,2,150,6|8|2,1:0|0:0|1:0,0:0:0:0:
351,180,111618,2,0,L|431:188,2,75,8|2|0,0:0|0:0|0:0,0:0:0:0:
241,125,113578,5,8,0:0:0:0:
187,129,113775,2,0,L|91:129,2,75,2|8|2,0:0|0:0|0:0,0:0:0:0:
252,118,114363,6,0,P|300:102|244:46,1,150,10|10,0:0|0:0,0:0:0:0:
179,27,114951,1,14,0:0:0:0:
