osu file format v14

[General]
AudioFilename: audio.mp3
AudioLeadIn: 0
PreviewTime: 74755
Countdown: 0
SampleSet: Soft
StackLeniency: 0.7
Mode: 2
LetterboxInBreaks: 0
WidescreenStoryboard: 0

[Editor]
Bookmarks: 74363,75931,101029,115147
DistanceSpacing: 0.8
BeatDivisor: 4
GridSize: 4
TimelineZoom: 1

[Metadata]
Title:Clumsy thoughts
TitleUnicode:Clumsy thoughts
Artist:Nekomata Master feat. *spiLa*
ArtistUnicode:猫叉Master feat. *spiLa*
Creator:wonjae
Version:Rain
Source:REFLEC BEAT colette -Winter-
Tags:Naoyuki Sato jubeat saucer plus Crevice chickenbible Ascendance Rizia
BeatmapID:1681890
BeatmapSetID:801225

[Difficulty]
HPDrainRate:5
CircleSize:4
OverallDifficulty:8.8
ApproachRate:8.8
SliderMultiplier:1.6
SliderTickRate:2

[Events]
//Background and Video events
0,0,"yaw yeet.jpg",0,0
//Break Periods
//Storyboard Layer 0 (Background)
//Storyboard Layer 1 (Fail)
//Storyboard Layer 2 (Pass)
//Storyboard Layer 3 (Foreground)
//Storyboard Sound Samples

[TimingPoints]
637.769230769231,392.156862745098,4,2,0,45,1,0
6912,-100,4,2,1,50,0,0
14265,-66.6666666666667,4,2,1,60,0,0
14755,-100,4,2,1,60,0,0
75931,-100,4,2,1,70,0,1
101029,-100,4,2,1,70,0,0

[Colours]
Combo1 : 234,234,234
Combo2 : 0,128,192
Combo3 : 70,163,255
Combo4 : 0,255,64

[HitObjects]
379,264,441,5,0,0:0:0:0:
122,230,637,5,4,0:0:0:0:
44,168,833,1,2,0:0:0:0:
122,230,1029,1,0,0:0:0:0:
200,187,1226,1,2,0:0:0:0:
239,98,1422,1,0,0:0:0:0:
200,187,1618,1,2,0:0:0:0:
122,230,1814,1,0,0:0:0:0:
26,234,2010,1,2,0:0:0:0:
307,322,2206,6,0,L|417:319,1,80,0|2,0:0|0:0,0:0:0:0:
212,262,2598,2,0,L|103:261,1,80,0|2,0:0|0:0,0:0:0:0:
248,205,2990,2,0,L|271:107,1,80,0|2,0:0|0:0,0:0:0:0:
161,112,3382,6,0,L|114:34,1,80,0|2,0:0|0:0,0:0:0:0:
404,254,3775,5,0,0:0:0:0:
490,221,3971,1,2,0:0:0:0:
399,201,4167,1,0,0:0:0:0:
316,156,4363,1,2,0:0:0:0:
272,75,4560,1,0,0:0:0:0:
316,156,4756,1,2,0:0:0:0:
399,201,4952,1,0,0:0:0:0:
225,197,5148,1,2,0:0:0:0:
361,205,5539,6,0,L|376:107,1,80,0|0,0:0|0:0,0:0:0:0:
199,116,5931,1,0,0:0:0:0:
369,204,6324,2,0,L|404:107,1,80,0|8,0:0|0:0,0:0:0:0:
214,125,6716,1,2,0:0:0:0:
470,78,6912,5,4,0:0:0:0:
363,98,7108,1,0,0:0:0:0:
297,171,7304,1,0,0:0:0:0:
354,264,7500,1,0,0:0:0:0:
477,278,7696,1,0,0:0:0:0:
353,310,7892,1,0,0:0:0:0:
481,216,8088,1,8,0:0:0:0:
354,264,8284,1,2,0:0:0:0:
97,224,8480,6,0,L|7:226,1,80,4|0,0:0|0:0,0:0:0:0:
121,177,8873,1,8,0:0:0:0:
192,163,9069,1,0,0:0:0:0:
252,113,9265,1,2,0:0:0:0:
237,24,9461,1,0,0:0:0:0:
155,25,9657,1,8,0:0:0:0:
70,37,9853,1,2,0:0:0:0:
383,161,10049,6,0,L|483:161,1,80,4|0,0:0|0:0,0:0:0:0:
378,258,10441,2,0,L|298:258,2,80,8|0|0,0:0|0:0|0:0,0:0:0:0:
122,321,11029,2,0,L|221:321,2,80,2|8|10,0:0|0:0|0:0,0:0:0:0:
429,291,11618,1,4,0:0:0:0:
406,226,13186,5,0,0:0:0:0:
279,213,13382,2,0,L|265:156,2,40,0|0|0,0:0|0:0|0:0,0:0:0:0:
412,199,13775,2,0,L|429:143,1,40,2|0,0:0|0:0,0:0:0:0:
154,219,13971,2,0,L|59:219,1,80,2|12,0:0|0:0,0:0:0:0:
113,283,14232,2,0,L|157:281,1,26.6666666666667,0|0,0:0|0:0,0:0:0:0:
343,302,14363,2,8,P|427:274|349:225,1,180.000006866455,12|0,0:0|0:0,0:0:0:0:
120,240,14755,5,4,0:0:0:0:
199,229,14951,2,0,L|253:223,2,40,0|0|8,0:0|0:0|0:0,0:0:0:0:
82,252,15343,1,2,0:0:0:0:
286,308,15539,2,0,L|365:305,2,80,0|0|10,0:0|0:0|0:0,0:0:0:0:
74,272,16127,2,0,P|15:212|62:160,1,160,0|0,0:0|0:0,0:0:0:0:
158,132,16716,1,8,0:0:0:0:
42,113,16912,1,2,0:0:0:0:
357,83,17108,5,0,0:0:0:0:
444,127,17304,1,0,0:0:0:0:
444,201,17500,1,10,0:0:0:0:
352,220,17696,1,0,0:0:0:0:
160,282,17892,1,2,0:0:0:0:
432,268,18088,6,0,L|528:228,2,80,0|8|2,0:0|0:0|0:0,0:0:0:0:
246,222,18676,2,0,L|227:197,3,26.6666666666667
414,262,19069,1,8,0:0:0:0:
451,261,19134,1,0,0:0:0:0:
478,245,19199,1,0,0:0:0:0:
484,217,19265,1,2,0:0:0:0:
469,182,19330,1,0,0:0:0:0:
435,181,19395,1,0,0:0:0:0:
221,210,19461,6,0,L|116:212,1,80,0|2,0:0|0:0,0:0:0:0:
231,160,19853,2,0,L|323:164,1,80,8|2,0:0|0:0,0:0:0:0:
108,87,20245,1,2,0:0:0:0:
29,170,20441,2,0,L|28:209,1,26.6666666666667
60,248,20572,1,0,0:0:0:0:
119,263,20637,1,8,0:0:0:0:
216,268,20833,1,0,0:0:0:0:
476,258,21029,5,4,0:0:0:0:
384,289,21226,2,0,L|327:303,2,40,0|0|10,0:0|0:0|0:0,0:0:0:0:
494,221,21618,1,0,0:0:0:0:
291,193,21814,2,0,L|173:191,2,80,0|2|8,0:0|0:0|0:0,0:0:0:0:
494,164,22402,2,0,L|394:166,1,80,2|0,0:0|0:0,0:0:0:0:
303,180,22794,1,0,0:0:0:0:
271,144,22859,1,0,0:0:0:0:
264,98,22925,1,0,0:0:0:0:
284,59,22990,1,10,0:0:0:0:
380,57,23186,1,0,0:0:0:0:
91,151,23382,5,0,0:0:0:0:
19,200,23578,1,2,0:0:0:0:
38,273,23775,1,8,0:0:0:0:
115,286,23971,1,2,0:0:0:0:
307,299,24167,1,2,0:0:0:0:
40,323,24363,6,0,L|12:216,2,80,0|8|2,0:0|0:0|0:0,0:0:0:0:
257,312,24951,2,0,L|287:270,2,26.6666666666667,0|0|0,0:0|0:0|0:0,0:0:0:0:
220,314,25147,1,0,0:0:0:0:
56,235,25343,2,0,L|167:231,1,80,8|2,0:0|0:0,0:0:0:0:
440,182,25735,1,4,0:0:0:0:
259,167,26324,5,0,0:0:0:0:
204,150,26389,1,0,0:0:0:0:
149,135,26454,1,0,0:0:0:0:
95,124,26520,1,2,0:0:0:0:
367,96,26716,1,12,0:0:0:0:
444,163,26912,1,12,0:0:0:0:
367,96,27108,1,2,0:0:0:0:
105,313,27304,6,0,P|31:251|130:183,1,240,4|0,0:0|0:0,0:0:0:0:
237,171,28088,2,0,L|284:86,1,80,2|0,1:0|0:0,0:0:0:0:
74,135,28480,2,0,L|29:60,1,80,8|0,0:0|0:0,0:0:0:0:
306,125,28873,2,0,L|307:218,1,80,2|0,1:0|0:0,0:0:0:0:
183,212,29265,2,0,L|96:215,1,80,2|0,1:0|0:0,0:0:0:0:
381,150,29657,5,2,1:0:0:0:
452,96,29853,1,0,0:0:0:0:
453,45,30049,1,8,0:0:0:0:
371,0,30245,1,0,0:0:0:0:
71,309,30441,6,0,P|36:233|81:141,1,160,2|2,1:0|1:0,0:0:0:0:
170,199,31029,1,0,0:0:0:0:
365,146,31226,2,0,L|200:136,1,160,2|8,1:0|0:0,0:0:0:0:
317,131,31814,1,0,0:0:0:0:
26,92,32010,1,2,1:0:0:0:
122,114,32206,1,0,0:0:0:0:
122,114,32402,1,2,1:0:0:0:
25,228,32598,1,0,0:0:0:0:
297,308,32794,6,0,P|353:275|287:240,1,160,2|8,1:0|0:0,0:0:0:0:
176,228,33382,1,0,0:0:0:0:
449,205,33578,2,0,P|448:132|308:38,1,240,6|0,1:0|0:0,0:0:0:0:
141,164,34363,2,0,L|132:75,1,80,2|0,1:0|0:0,0:0:0:0:
250,69,34755,2,0,L|351:64,1,80,8|0,0:0|0:0,0:0:0:0:
38,145,35147,5,2,1:0:0:0:
174,153,35539,1,8,0:0:0:0:
366,306,35931,2,0,L|285:306,1,80,2|8,1:0|0:0,0:0:0:0:
96,230,36324,2,0,L|176:230,1,80,2|2,1:0|1:0,0:0:0:0:
444,163,36716,6,0,P|460:104|377:55,1,160,4|2,0:0|1:0,0:0:0:0:
281,59,37304,1,0,0:0:0:0:
180,114,37500,2,0,L|182:212,1,80,2|0,1:0|0:0,0:0:0:0:
340,258,37892,2,0,L|449:260,1,80,8|0,0:0|0:0,0:0:0:0:
152,236,38284,2,0,L|58:239,1,80,2|0,1:0|0:0,0:0:0:0:
158,144,38676,2,0,L|155:42,1,80,0|0,1:0|0:0,0:0:0:0:
438,209,39069,5,2,1:0:0:0:
368,140,39265,1,0,0:0:0:0:
370,57,39461,1,8,0:0:0:0:
439,8,39657,1,0,0:0:0:0:
169,146,39853,6,0,P|127:185|161:289,1,160,2|2,1:0|1:0,0:0:0:0:
225,288,40441,1,0,0:0:0:0:
482,260,40637,2,0,L|308:260,1,160,2|8,1:0|0:0,0:0:0:0:
215,256,41226,1,0,0:0:0:0:
482,223,41422,2,0,L|490:132,1,80,2|0,1:0|0:0,0:0:0:0:
297,128,41814,2,0,L|367:80,1,80,2|0,1:0|0:0,0:0:0:0:
71,97,42206,5,2,1:0:0:0:
158,162,42402,1,0,0:0:0:0:
159,234,42598,1,8,0:0:0:0:
66,276,42794,1,0,0:0:0:0:
385,326,42990,6,0,P|465:252|394:167,1,240,4|0,0:0|0:0,0:0:0:0:
204,193,43775,2,0,L|124:193,1,80,2|0,1:0|0:0,0:0:0:0:
61,110,44167,2,0,L|150:105,1,80,8|0,0:0|0:0,0:0:0:0:
437,109,44559,5,2,0:0:0:0:
313,178,44951,1,2,1:0:0:0:
179,253,45343,2,0,L|273:253,1,80,2|0,1:0|0:0,0:0:0:0:
380,322,45735,2,0,L|300:322,1,80,2|0,1:0|0:0,0:0:0:0:
102,183,46127,6,0,P|102:141|200:83,1,160,2|8,1:0|0:0,0:0:0:0:
325,150,46912,2,0,L|245:151,2,80,2|4|8,1:0|0:0|0:0,0:0:0:0:
209,112,47500,1,4,0:0:0:0:
485,105,47696,1,4,0:3:0:0:
351,167,48480,5,0,0:0:0:0:
162,243,48676,1,0,0:0:0:0:
454,314,48873,2,0,P|474:263|440:235,1,80
135,234,49265,6,0,L|37:239,1,80,6|0,1:0|0:0,0:0:0:0:
168,241,49657,2,0,L|272:241,1,80,2|0,1:0|0:0,0:0:0:0:
141,189,50049,2,0,L|93:105,1,80,2|0,1:0|0:0,0:0:0:0:
228,185,50441,2,0,L|318:185,1,80,2|0,1:0|0:0,0:0:0:0:
106,91,50833,5,2,1:0:0:0:
26,152,51029,1,0,0:0:0:0:
24,255,51226,1,2,1:0:0:0:
105,331,51422,1,0,0:0:0:0:
381,323,51618,2,0,L|403:224,1,80,2|0,1:0|0:0,0:0:0:0:
218,235,52010,2,0,L|126:231,1,80,2|0,1:0|0:0,0:0:0:0:
337,175,52402,6,0,L|441:173,1,80,2|0,1:0|0:0,0:0:0:0:
222,123,52794,2,0,L|214:37,1,80,2|0,1:0|0:0,0:0:0:0:
410,83,53186,2,0,L|301:82,2,80,2|0|0,1:0|0:0|0:0,0:0:0:0:
299,161,53775,1,0,0:0:0:0:
94,89,53971,5,2,1:0:0:0:
249,183,54363,1,2,1:0:0:0:
132,180,54559,1,0,0:0:0:0:
402,93,54755,5,2,1:0:0:0:
491,95,54951,1,0,0:0:0:0:
186,218,55147,1,12,0:0:0:0:
62,144,55343,1,0,0:0:0:0:
130,144,55441,1,0,0:0:0:0:
309,291,55539,6,0,L|400:288,1,80,6|0,1:0|0:0,0:0:0:0:
292,202,55931,2,0,L|291:110,1,80,2|0,1:0|0:0,0:0:0:0:
96,163,56324,2,0,L|0:166,1,80,2|0,1:0|0:0,0:0:0:0:
143,121,56716,2,0,L|228:122,1,80,2|0,1:0|0:0,0:0:0:0:
416,106,57108,6,0,L|499:106,1,80,2|0,1:0|0:0,0:0:0:0:
415,160,57500,2,0,L|310:161,1,80,2|0,1:0|0:0,0:0:0:0:
128,265,57892,2,0,L|48:265,1,80,2|0,1:0|0:0,0:0:0:0:
162,212,58284,2,0,L|189:117,1,80,2|0,1:0|0:0,0:0:0:0:
459,166,58676,6,0,L|353:162,1,80,2|0,1:0|0:0,0:0:0:0:
186,224,59069,2,0,L|131:138,2,80,2|0|2,1:0|0:0|1:0,0:0:0:0:
289,226,59657,1,0,0:0:0:0:
475,308,59853,2,0,L|396:311,1,80,2|0,1:0|0:0,0:0:0:0:
99,280,60245,5,2,1:0:0:0:
270,171,60637,1,2,1:0:0:0:
57,125,61029,1,2,1:0:0:0:
356,103,61226,1,8,0:0:0:0:
443,161,61618,6,0,L|392:169,1,40,0|0,0:0|0:0,0:0:0:0:
180,296,61814,2,0,L|62:297,1,80,6|0,1:0|0:0,0:0:0:0:
210,235,62206,2,0,L|315:233,1,80,2|0,1:0|0:0,0:0:0:0:
184,185,62598,2,0,L|75:188,2,80,2|0|8,1:0|0:0|0:0,0:0:0:0:
65,153,63186,1,0,0:0:0:0:
266,113,63382,5,2,1:0:0:0:
359,162,63578,1,0,0:0:0:0:
383,254,63775,1,8,0:0:0:0:
292,302,63971,1,0,0:0:0:0:
22,226,64167,2,0,P|19:155|103:93,1,160,2|8,1:0|0:0,0:0:0:0:
172,81,64755,1,0,0:0:0:0:
438,151,64951,6,0,L|348:165,1,80,2|0,1:0|0:0,0:0:0:0:
269,219,65343,2,0,L|362:221,1,80,8|0,0:0|0:0,0:0:0:0:
458,270,65735,2,0,L|359:278,2,80,2|0|8,1:0|0:0|0:0,0:0:0:0:
336,283,66324,1,0,0:0:0:0:
62,288,66520,5,2,1:0:0:0:
241,208,66912,1,8,0:0:0:0:
60,161,67304,1,2,1:0:0:0:
15,91,67500,1,8,0:0:0:0:
74,37,67696,1,8,0:0:0:0:
168,34,67892,1,0,0:0:0:0:
474,184,68088,6,0,L|359:188,1,80,6|2,1:0|0:0,0:0:0:0:
290,261,68480,2,0,L|378:258,1,80,8|2,0:0|0:0,0:0:0:0:
478,309,68873,2,0,L|397:312,2,80,2|2|8,1:0|0:0|0:0,0:0:0:0:
369,311,69461,1,2,0:0:0:0:
171,306,69657,6,0,L|77:308,1,80,2|2,1:0|0:0,0:0:0:0:
218,302,70049,2,0,L|308:298,1,80,8|2,0:0|0:0,0:0:0:0:
23,205,70441,2,0,L|35:104,1,80,2|2,1:0|0:0,0:0:0:0:
216,118,70833,2,0,L|130:92,1,80,8|2,0:0|0:0,0:0:0:0:
411,71,71226,6,0,P|496:169|372:267,1,320,2|2,1:0|1:0,0:0:0:0:
222,299,72402,2,0,L|165:207,1,80,8|2,0:0|0:0,0:0:0:0:
482,197,72794,5,2,1:0:0:0:
304,161,73186,1,8,0:0:0:0:
474,110,73578,1,2,1:0:0:0:
216,86,73971,1,8,0:0:0:0:
137,101,74167,1,0,0:0:0:0:
82,159,74363,1,2,1:0:0:0:
97,234,74559,1,0,0:0:0:0:
289,279,74755,1,8,0:0:0:0:
386,298,75931,6,0,P|468:217|378:180,1,240,4|0,0:0|0:0,0:0:0:0:
172,164,76716,1,2,1:0:0:0:
69,234,76912,2,0,L|70:324,1,80
348,127,77304,2,0,P|439:185|449:244,1,160,2|0,1:0|0:0,0:0:0:0:
180,257,77892,1,8,0:0:0:0:
97,253,78088,1,0,0:0:0:0:
385,209,78284,6,0,L|475:209,1,80,2|0,1:0|0:0,0:0:0:0:
384,166,78676,2,0,L|280:165,1,80,8|0,0:0|0:0,0:0:0:0:
31,150,79069,2,0,P|20:77|110:37,1,160,2|8,1:0|0:0,0:0:0:0:
372,264,79657,2,0,L|194:263,1,160
489,169,80245,2,0,P|484:90|398:58,1,160,8|2,0:0|1:0,0:0:0:0:
322,62,80833,1,0,0:0:0:0:
490,163,81029,2,0,L|390:162,1,80,8|0,0:0|0:0,0:0:0:0:
90,174,81422,5,2,1:0:0:0:
173,123,81618,1,0,0:0:0:0:
173,72,81814,1,8,0:0:0:0:
80,146,82010,1,0,0:0:0:0:
360,307,82206,2,0,P|380:219|268:114,1,240,6|0,1:0|0:0,0:0:0:0:
15,222,82990,6,0,L|95:222,1,80,2|0,1:0|0:0,0:0:0:0:
199,147,83382,2,0,L|119:154,1,80,8|0,0:0|0:0,0:0:0:0:
434,160,83775,2,0,P|487:226|440:285,1,160,2|8,1:0|0:0,0:0:0:0:
350,292,84363,1,0,0:0:0:0:
65,290,84559,2,0,L|40:198,1,80,2|0,1:0|0:0,0:0:0:0:
222,203,84951,2,0,L|328:199,1,80,8|0,0:0|0:0,0:0:0:0:
32,132,85343,6,0,L|34:219,1,80,2|0,1:0|0:0,0:0:0:0:
129,202,85735,2,0,L|129:300,1,80,8|0,0:0|0:0,0:0:0:0:
319,312,86127,2,0,L|399:312,1,80,2|0,1:0|0:0,0:0:0:0:
208,201,86520,2,0,L|113:202,1,80,8|0,0:0|0:0,0:0:0:0:
460,322,86912,6,0,P|457:242|394:207,1,160,2|8,1:0|0:0,0:0:0:0:
302,202,87500,1,0,0:0:0:0:
40,229,87696,2,0,L|25:122,1,80,2|8,1:0|0:0,0:0:0:0:
297,166,88088,2,0,L|391:166,1,80,8|0,0:0|0:0,0:0:0:0:
60,74,88480,6,0,P|20:146|71:222,1,160,6|8,1:0|0:0,0:0:0:0:
152,227,89069,1,0,0:0:0:0:
464,300,89265,2,0,L|467:192,1,80,2|0,1:0|0:0,0:0:0:0:
321,216,89657,1,8,0:0:0:0:
34,223,89853,2,0,B|25:200|17:178|190:186,1,160
292,101,90441,1,2,1:0:0:0:
30,160,90637,6,0,P|18:108|126:62,1,160,2|0,1:0|0:0,0:0:0:0:
200,122,91226,1,8,0:0:0:0:
100,130,91422,1,0,0:0:0:0:
425,225,91618,6,0,P|467:132|419:94,1,160,6|8,1:0|0:0,0:0:0:0:
128,254,92206,2,0,P|41:222|63:137,1,160,4|0,0:0|0:0,0:0:0:0:
400,263,92794,2,0,P|474:195|386:103,1,240,12|0,0:0|0:0,0:0:0:0:
280,100,93578,1,8,0:0:0:0:
385,86,93775,1,8,0:3:0:0:
106,95,93971,5,2,1:0:0:0:
21,147,94167,1,2,0:0:0:0:
23,210,94363,1,8,0:0:0:0:
114,244,94559,1,0,0:0:0:0:
422,309,94755,6,0,P|444:223|400:137,1,160,6|8,1:0|0:0,0:0:0:0:
309,151,95343,1,0,0:0:0:0:
27,103,95539,1,2,1:0:0:0:
126,154,95735,1,0,0:0:0:0:
33,236,95931,1,8,0:0:0:0:
138,293,96127,1,0,0:0:0:0:
445,298,96324,6,0,P|471:204|431:145,1,160,2|8,1:0|0:0,0:0:0:0:
349,142,96912,1,0,0:0:0:0:
30,114,97108,2,0,L|121:110,1,80,2|0,1:0|0:0,0:0:0:0:
219,160,97500,2,0,L|120:164,1,80,8|0,0:0|0:0,0:0:0:0:
459,263,97892,6,0,P|485:197|387:65,1,240,6|0,1:0|0:0,0:0:0:0:
111,255,98676,2,0,L|357:254,1,240,2|0,1:0|0:0,0:0:0:0:
45,183,99461,2,0,P|42:92|172:45,1,240,6|0,1:0|0:0,0:0:0:0:
473,213,100245,2,0,L|379:219,2,80,2|8|8,1:0|0:0|0:0,0:0:0:0:
356,176,100833,1,0,0:0:0:0:
286,180,100931,1,0,0:0:0:0:
83,239,101029,6,0,L|15:165,1,80,6|0,1:0|0:0,0:0:0:0:
147,155,101422,1,8,0:0:0:0:
219,105,101618,1,2,0:0:0:0:
260,32,101814,1,2,1:0:0:0:
219,105,102010,1,2,0:0:0:0:
147,155,102206,1,8,0:0:0:0:
53,157,102402,1,2,0:0:0:0:
405,286,102598,6,0,L|487:283,1,80,2|2,1:0|0:0,0:0:0:0:
403,237,102990,2,0,L|398:137,1,80,8|2,0:0|0:0,0:0:0:0:
308,70,103382,2,0,L|316:150,1,80,2|2,1:0|0:0,0:0:0:0:
413,117,103775,2,0,L|307:119,1,80,8|2,0:0|0:0,0:0:0:0:
24,60,104167,5,2,1:0:0:0:
112,63,104363,1,2,0:0:0:0:
182,122,104559,1,8,0:0:0:0:
229,207,104755,1,2,0:0:0:0:
206,289,104951,1,2,1:0:0:0:
133,332,105147,1,2,0:0:0:0:
54,349,105343,1,8,0:0:0:0:
260,349,105539,1,2,0:0:0:0:
160,289,105931,6,0,L|148:196,1,80,2|8,0:0|0:0,0:0:0:0:
336,200,106324,1,2,0:0:0:0:
150,284,106716,2,0,L|141:169,1,80,2|8,0:0|0:0,0:0:0:0:
63,151,107108,1,2,0:0:0:0:
136,146,107173,1,0,0:0:0:0:
394,205,107304,6,0,L|472:173,1,80,6|2,1:0|0:0,0:0:0:0:
355,175,107696,1,8,0:0:0:0:
269,128,107892,1,2,0:0:0:0:
222,49,108088,1,2,1:0:0:0:
269,128,108284,1,2,0:0:0:0:
343,178,108480,1,0,1:0:0:0:
443,177,108676,1,2,0:0:0:0:
107,236,108873,6,0,L|17:223,1,80,2|2,1:0|0:0,0:0:0:0:
131,182,109265,2,0,L|236:173,1,80,8|2,0:0|0:0,0:0:0:0:
111,127,109657,2,0,L|40:63,1,80,2|2,1:0|0:0,0:0:0:0:
103,57,109951,1,0,0:0:0:0:
176,163,110049,2,0,L|81:163,1,80,10|2,0:0|0:0,0:0:0:0:
409,50,110441,5,6,1:0:0:0:
316,90,110637,1,0,0:0:0:0:
266,184,110833,1,8,0:0:0:0:
316,90,111029,1,2,0:0:0:0:
409,50,111226,1,2,1:0:0:0:
496,44,111422,1,2,0:0:0:0:
225,270,111618,2,0,L|126:271,1,80,8|2,0:0|0:0,0:0:0:0:
425,203,112010,5,0,0:0:0:0:
256,192,112206,12,8,113578,0:0:0:0:
165,198,113775,6,0,L|60:198,2,80,2|8|2,0:0|0:0|0:0,0:0:0:0:
460,207,114363,1,10,0:0:0:0:
154,310,114559,1,2,0:0:0:0:
135,272,114624,1,2,0:0:0:0:
146,247,114689,1,2,0:0:0:0:
204,238,114755,1,10,0:0:0:0:
475,156,114951,1,14,0:0:0:0:
