osu file format v14

[General]
AudioFilename: audio.mp3
AudioLeadIn: 0
PreviewTime: 74755
Countdown: 0
SampleSet: Soft
StackLeniency: 0.7
Mode: 2
LetterboxInBreaks: 0
WidescreenStoryboard: 0

[Editor]
Bookmarks: 74363,75931,101029,115147
DistanceSpacing: 1.4
BeatDivisor: 4
GridSize: 32
TimelineZoom: 1.5

[Metadata]
Title:Clumsy thoughts
TitleUnicode:Clumsy thoughts
Artist:Nekomata Master feat. *spiLa*
ArtistUnicode:猫叉Master feat. *spiLa*
Creator:wonjae
Version:Ascendance's Special
Source:REFLEC BEAT colette -Winter-
Tags:Naoyuki Sato jubeat saucer plus Crevice chickenbible Ascendance Rizia
BeatmapID:1702733
BeatmapSetID:801225

[Difficulty]
HPDrainRate:6
CircleSize:3.8
OverallDifficulty:9
ApproachRate:9
SliderMultiplier:2.2
SliderTickRate:2

[Events]
//Background and Video events
0,0,"yaw yeetd.jpg",0,0
//Break Periods
//Storyboard Layer 0 (Background)
//Storyboard Layer 1 (Fail)
//Storyboard Layer 2 (Pass)
//Storyboard Layer 3 (Foreground)
//Storyboard Sound Samples

[TimingPoints]
637.769230769231,392.156862745098,4,2,0,45,1,0
6520,-100,4,2,1,45,0,0
6912,-100,4,2,1,50,0,0
14265,-100,4,2,1,60,0,0
14755,-100,4,2,1,60,0,0
75931,-100,4,2,1,70,0,1
101029,-100,4,2,1,70,0,0

[Colours]
Combo1 : 234,234,234
Combo2 : 255,128,128
Combo3 : 70,163,255
Combo4 : 0,255,64

[HitObjects]
79,324,441,6,0,L|67:283,2,36.6666666666667,0|0|0,0:0|0:0|0:0,0:0:0:0:
264,339,637,5,4,0:0:0:0:
351,279,833,1,2,0:0:0:0:
345,174,1029,1,0,0:0:0:0:
253,124,1225,1,2,0:0:0:0:
399,100,1422,1,0,0:0:0:0:
253,124,1618,1,2,0:0:0:0:
93,161,1814,2,0,L|81:46,1,110,0|2,0:0|0:0,0:0:0:0:
338,46,2206,6,0,L|217:66,1,110,0|2,0:0|0:0,0:0:0:0:
382,151,2598,2,0,L|491:180,1,110,0|2,0:0|0:0,0:0:0:0:
315,221,2990,1,0,0:0:0:0:
180,174,3186,1,2,0:0:0:0:
315,221,3382,2,0,L|334:101,1,110,0|2,0:0|0:0,0:0:0:0:
44,98,3775,6,0,L|168:79,2,110,0|2|0,0:0|0:0|0:0,0:0:0:0:
207,182,4363,2,0,L|331:201,2,110,2|0|2,0:0|0:0|0:0,0:0:0:0:
77,160,4951,1,0,0:0:0:0:
235,313,5147,6,0,P|301:234|211:159,1,220,2|0,0:0|0:0,0:0:0:0:
99,160,5735,1,0,0:0:0:0:
276,234,5931,2,0,L|511:212,1,220,0|0,0:0|0:0,0:0:0:0:
379,183,6520,1,8,0:0:0:0:
243,182,6716,2,0,L|232:131,2,36.6666666666667,2|0|0,0:0|0:0|0:0,0:0:0:0:
419,268,6912,6,0,L|302:284,1,110,4|0,0:0|0:0,0:0:0:0:
190,245,7304,2,0,L|64:260,1,110,0|0,0:0|0:0,0:0:0:0:
260,316,7696,1,0,0:0:0:0:
112,271,7892,2,0,L|105:221,2,36.6666666666667,0|2|0,0:0|0:0|0:0,0:0:0:0:
157,288,8088,1,8,0:0:0:0:
308,236,8284,2,0,L|344:226,2,36.6666666666667,2|0|0,0:0|0:0|0:0,0:0:0:0:
146,168,8480,6,0,L|25:149,2,110,4|0|8,0:0|0:0|0:0,0:0:0:0:
299,85,9069,1,0,0:0:0:0:
139,186,9265,1,2,0:0:0:0:
310,89,9461,2,0,L|328:123,3,36.6666666666667,0|0|0|8,0:0|0:0|0:0|0:0,0:0:0:0:
179,193,9853,1,2,0:0:0:0:
458,337,10049,6,0,L|478:211,1,110,4|0,0:0|0:0,0:0:0:0:
315,246,10441,2,0,L|203:226,1,110,8|0,0:0|0:0,0:0:0:0:
390,169,10833,2,0,L|506:143,2,110,0|2|8,0:0|0:0|0:0,0:0:0:0:
96,60,11422,1,10,0:0:0:0:
455,255,11618,5,4,0:0:0:0:
314,302,11814,2,0,L|184:283,2,110,0|0|0,0:0|0:0|0:0,0:0:0:0:
144,357,12402,1,0,0:0:0:0:
306,301,12598,2,0,L|311:162,1,110,0|0,0:0|0:0,0:0:0:0:
159,145,12990,1,0,0:0:0:0:
356,32,13186,6,0,L|130:47,1,220,0|0,0:0|0:0,0:0:0:0:
324,133,13775,1,2,0:0:0:0:
45,45,13971,1,2,0:0:0:0:
173,100,14167,1,12,0:0:0:0:
180,150,14232,1,0,0:0:0:0:
173,200,14297,1,0,0:0:0:0:
24,287,14363,2,0,L|180:268,1,110,12|0,0:0|0:0,0:0:0:0:
430,353,14755,6,0,P|486:261|398:201,1,220,4|8,0:0|0:0,0:0:0:0:
288,252,15343,1,2,0:0:0:0:
434,353,15539,2,0,L|444:236,1,110,0|0,0:0|0:0,0:0:0:0:
310,171,15931,2,0,L|430:149,1,110,10|0,0:0|0:0,0:0:0:0:
162,36,16324,5,0,0:0:0:0:
300,208,16520,2,0,L|320:77,1,110,0|8,0:0|0:0,0:0:0:0:
162,36,16912,1,2,0:0:0:0:
295,112,17108,2,0,L|416:96,1,110,0|0,0:0|0:0,0:0:0:0:
266,298,17500,2,0,L|123:285,1,110,10|0,0:0|0:0,0:0:0:0:
454,50,17892,5,2,0:0:0:0:
314,132,18088,2,0,L|186:114,1,110,0|8,0:0|0:0,0:0:0:0:
384,63,18480,1,2,0:0:0:0:
227,281,18676,1,0,0:0:0:0:
178,249,18741,1,0,0:0:0:0:
174,213,18806,1,0,0:0:0:0:
171,176,18872,1,0,0:0:0:0:
317,220,19069,2,0,L|432:214,1,110,8|2,0:0|0:0,0:0:0:0:
70,25,19461,6,0,L|49:144,1,110,0|2,0:0|0:0,0:0:0:0:
198,177,19853,1,8,0:0:0:0:
210,220,19918,1,0,0:0:0:0:
191,251,19983,1,0,0:0:0:0:
146,264,20049,1,2,0:0:0:0:
418,308,20245,5,2,0:0:0:0:
276,247,20441,1,0,0:0:0:0:
264,204,20506,1,0,0:0:0:0:
283,173,20571,1,0,0:0:0:0:
328,160,20637,1,10,0:0:0:0:
446,180,20833,1,0,0:0:0:0:
157,333,21029,5,4,0:0:0:0:
293,354,21226,1,0,0:0:0:0:
325,337,21291,1,0,0:0:0:0:
347,308,21356,1,0,0:0:0:0:
354,273,21422,1,10,0:0:0:0:
228,211,21618,1,0,0:0:0:0:
390,158,21814,2,0,L|280:143,1,110,0|2,0:0|0:0,0:0:0:0:
90,186,22206,2,0,L|94:61,1,110,8|2,0:0|0:0,0:0:0:0:
238,13,22598,5,0,0:0:0:0:
366,88,22794,2,0,L|376:132,2,36.6666666666667,0|0|0,0:0|0:0|0:0,0:0:0:0:
306,66,22990,2,0,L|171:55,1,110,10|0,0:0|0:0,0:0:0:0:
452,152,23382,1,0,0:0:0:0:
356,193,23578,1,2,0:0:0:0:
356,297,23774,1,8,0:0:0:0:
451,338,23970,1,2,0:0:0:0:
190,188,24167,6,0,L|67:210,1,110,2|0,0:0|0:0,0:0:0:0:
264,262,24559,2,0,L|395:287,1,110,8|2,0:0|0:0,0:0:0:0:
213,354,24951,2,0,L|204:307,3,36.6666666666667,0|0|0|0,0:0|0:0|0:0|0:0,0:0:0:0:
336,298,25343,2,0,L|453:282,1,110,8|2,0:0|0:0,0:0:0:0:
55,134,25735,5,4,0:0:0:0:
246,202,26324,2,0,L|258:155,2,36.6666666666667,0|0|0,0:0|0:0|0:0,0:0:0:0:
111,333,26520,2,0,L|98:258,1,55,2|0,0:0|0:0,0:0:0:0:
337,285,26716,2,0,L|476:311,2,110,12|12|2,0:0|0:0|0:0,0:0:0:0:
277,273,27206,1,0,0:0:0:0:
39,101,27304,6,0,P|160:112|262:49,1,220,4|2,0:0|1:0,0:0:0:0:
364,128,27892,1,0,0:0:0:0:
215,231,28088,2,0,P|196:152|205:99,1,110,2|0,1:0|0:0,0:0:0:0:
328,371,28480,2,0,P|347:292|338:239,1,110,8|0,0:0|0:0,0:0:0:0:
164,225,28873,6,0,L|48:241,2,110,2|0|2,1:0|0:0|1:0,0:0:0:0:
304,303,29461,1,0,0:0:0:0:
131,227,29657,2,0,L|114:112,1,110,2|0,1:0|0:0,0:0:0:0:
288,154,30049,2,0,L|398:135,1,110,8|0,0:0|0:0,0:0:0:0:
125,10,30441,6,0,L|355:46,1,220,2|2,1:0|1:0,0:0:0:0:
203,225,31029,2,0,L|188:107,1,110,0|2,0:0|1:0,0:0:0:0:
325,159,31422,1,0,0:0:0:0:
181,234,31618,2,0,L|70:254,1,110,8|0,0:0|0:0,0:0:0:0:
375,300,32010,6,0,L|498:328,1,110,2|0,1:0|0:0,0:0:0:0:
308,221,32402,2,0,L|179:244,1,110,2|0,1:0|0:0,0:0:0:0:
396,226,32794,2,0,P|466:155|363:78,1,220,2|8,1:0|0:0,0:0:0:0:
291,79,33382,1,0,0:0:0:0:
31,189,33578,6,0,L|292:232,1,220,6|2,1:0|1:0,0:0:0:0:
387,149,34167,1,0,0:0:0:0:
218,62,34363,2,0,L|229:177,1,110,2|0,1:0|0:0,0:0:0:0:
383,345,34755,2,0,L|372:235,1,110,8|0,0:0|0:0,0:0:0:0:
183,301,35147,6,0,L|437:276,2,220,2|8|2,1:0|0:0|1:0,0:0:0:0:
328,153,36127,2,0,L|327:277,1,110,8|2,0:0|1:0,0:0:0:0:
132,314,36520,1,2,1:0:0:0:
438,70,36716,6,0,L|195:44,1,220,4|2,0:0|1:0,0:0:0:0:
90,126,37304,1,0,0:0:0:0:
236,204,37500,2,0,L|349:187,1,110,2|0,1:0|0:0,0:0:0:0:
227,313,37892,2,0,L|111:298,1,110,8|0,0:0|0:0,0:0:0:0:
324,360,38284,6,0,L|345:243,1,110,2|0,1:0|0:0,0:0:0:0:
199,211,38676,2,0,L|165:95,1,110,0|0,1:0|0:0,0:0:0:0:
311,92,39069,2,0,L|84:74,1,220,2|8,1:0|0:0,0:0:0:0:
56,219,39657,1,0,0:0:0:0:
366,282,39853,6,0,L|141:306,1,220,2|2,1:0|1:0,0:0:0:0:
20,324,40441,1,0,0:0:0:0:
190,242,40637,2,0,L|312:258,1,110,2|0,1:0|0:0,0:0:0:0:
464,150,41029,2,0,L|350:169,1,110,8|0,0:0|0:0,0:0:0:0:
69,125,41422,6,0,L|193:101,1,110,2|0,1:0|0:0,0:0:0:0:
373,266,41814,2,0,L|140:242,2,220,2|2|8,1:0|1:0|0:0,0:0:0:0:
494,289,42794,1,0,0:0:0:0:
187,346,42990,6,0,P|125:280|213:185,1,220,4|2,0:0|1:0,0:0:0:0:
331,187,43578,1,0,0:0:0:0:
185,143,43775,2,0,L|315:143,1,110,2|0,1:0|0:0,0:0:0:0:
463,141,44167,2,0,L|323:140,1,110,8|0,0:0|0:0,0:0:0:0:
40,53,44559,6,0,L|25:174,1,110,2|0,1:0|0:0,0:0:0:0:
171,190,44951,2,0,L|187:303,1,110,2|0,1:0|0:0,0:0:0:0:
352,283,45343,2,0,L|416:380,1,110,2|8,1:0|0:0,0:0:0:0:
207,264,45735,2,0,L|146:172,1,110,2|0,1:0|0:0,0:0:0:0:
317,171,46127,6,0,P|386:157|450:163,1,110,2|0,1:0|0:0,0:0:0:0:
237,88,46520,2,0,P|168:102|104:96,1,110,8|0,0:0|0:0,0:0:0:0:
317,171,46912,1,2,1:0:0:0:
43,320,47108,2,0,L|31:203,1,110,4|8,0:0|0:0,0:0:0:0:
152,153,47500,1,4,0:0:0:0:
436,303,47696,6,0,L|164:274,2,220,4|0|0,0:3|0:0|0:0,0:0:0:0:
72,343,48676,1,8,0:0:0:0:
447,354,48873,2,0,L|453:233,1,110,8|0,0:0|0:0,0:0:0:0:
383,208,49167,1,0,0:0:0:0:
195,258,49265,6,0,L|74:246,1,110,6|0,1:0|0:0,0:0:0:0:
285,331,49657,2,0,L|294:215,1,110,2|0,1:0|0:0,0:0:0:0:
147,131,50049,2,0,L|257:137,1,110,2|0,1:0|0:0,0:0:0:0:
394,192,50441,2,0,L|414:70,1,110,2|0,1:0|0:0,0:0:0:0:
267,61,50833,5,2,1:0:0:0:
112,231,51029,2,0,L|98:112,1,110,0|2,0:0|1:0,0:0:0:0:
267,61,51422,1,0,0:0:0:0:
114,34,51618,2,0,L|357:17,1,220,2|2,1:0|1:0,0:0:0:0:
468,94,52206,1,0,0:0:0:0:
181,346,52402,6,0,L|178:233,1,110,2|0,1:0|0:0,0:0:0:0:
310,258,52794,1,2,1:0:0:0:
409,200,52990,1,0,0:0:0:0:
403,95,53186,1,2,1:0:0:0:
298,54,53382,1,0,0:0:0:0:
449,39,53578,2,0,L|441:168,1,110,2|0,1:0|0:0,0:0:0:0:
147,298,53971,6,0,L|408:271,2,220,2|2|2,1:0|1:0|1:0,0:0:0:0:
320,331,54951,1,0,0:0:0:0:
51,254,55147,2,0,L|36:119,1,110,12|0,0:0|0:0,0:0:0:0:
105,102,55441,1,0,0:0:0:0:
300,177,55539,6,0,L|408:159,1,110,6|0,1:0|0:0,0:0:0:0:
240,33,55931,2,0,L|124:22,1,110,2|0,1:0|0:0,0:0:0:0:
271,107,56324,1,2,1:0:0:0:
141,270,56520,2,0,L|127:143,1,110,0|2,0:0|1:0,0:0:0:0:
279,107,56912,1,0,0:0:0:0:
441,108,57108,5,2,1:0:0:0:
291,108,57304,1,0,0:0:0:0:
441,108,57500,1,2,1:0:0:0:
279,107,57696,1,0,0:0:0:0:
108,195,57892,2,0,L|89:74,1,110,2|0,1:0|0:0,0:0:0:0:
262,181,58284,2,0,L|276:304,1,110,2|0,1:0|0:0,0:0:0:0:
127,340,58676,6,0,L|108:215,1,110,2|0,1:0|0:0,0:0:0:0:
300,324,59069,2,0,L|419:303,1,110,2|0,1:0|0:0,0:0:0:0:
225,270,59461,1,2,1:0:0:0:
370,108,59657,2,0,L|366:235,1,110,0|2,0:0|1:0,0:0:0:0:
66,149,60049,1,0,0:0:0:0:
388,22,60245,6,0,L|145:45,2,220,2|2|2,1:0|1:0|1:0,0:0:0:0:
74,3,61226,1,8,0:0:0:0:
338,78,61422,2,0,L|349:214,1,110,0|0,0:0|0:0,0:0:0:0:
277,223,61716,1,0,0:0:0:0:
89,344,61814,6,0,L|108:223,1,110,6|0,1:0|0:0,0:0:0:0:
243,215,62206,1,2,1:0:0:0:
119,153,62402,1,0,0:0:0:0:
256,204,62598,2,0,L|296:88,1,110,2|0,1:0|0:0,0:0:0:0:
467,122,62990,2,0,L|501:7,1,110,8|0,0:0|0:0,0:0:0:0:
323,30,63382,5,2,1:0:0:0:
205,72,63578,1,0,0:0:0:0:
201,176,63774,1,8,0:0:0:0:
315,223,63970,1,0,0:0:0:0:
167,166,64167,2,0,L|46:182,1,110,2|0,1:0|0:0,0:0:0:0:
231,252,64559,2,0,L|378:272,1,110,8|0,0:0|0:0,0:0:0:0:
57,343,64951,5,2,1:0:0:0:
42,229,65147,1,0,0:0:0:0:
186,175,65343,1,8,0:0:0:0:
323,248,65539,2,0,L|438:266,2,110,0|2|0,0:0|1:0|0:0,0:0:0:0:
169,350,66127,2,0,L|152:222,1,110,8|0,0:0|0:0,0:0:0:0:
432,181,66520,6,0,L|177:152,2,220,2|8|2,1:0|0:0|1:0,0:0:0:0:
443,304,67500,1,8,0:0:0:0:
156,110,67696,2,0,L|161:241,1,110,8|0,0:0|0:0,0:0:0:0:
257,272,67990,1,0,0:0:0:0:
461,225,68088,6,0,P|490:130|476:98,1,110,6|2,1:0|0:0,0:0:0:0:
358,55,68480,2,0,L|241:42,1,110,8|2,0:0|0:0,0:0:0:0:
137,196,68873,2,0,L|264:182,1,110,2|2,1:0|0:0,0:0:0:0:
93,118,69265,2,0,L|74:0,1,110,8|2,0:0|0:0,0:0:0:0:
236,60,69657,5,2,1:0:0:0:
103,132,69853,2,0,L|116:248,1,110,2|8,0:0|0:0,0:0:0:0:
250,279,70245,1,2,0:0:0:0:
101,343,70441,2,0,L|213:328,1,110,2|2,1:0|0:0,0:0:0:0:
381,350,70833,2,0,L|506:339,1,110,8|2,0:0|0:0,0:0:0:0:
185,284,71226,6,0,P|116:210|231:144,1,220,2|8,1:0|0:0,0:0:0:0:
306,129,71814,1,2,0:0:0:0:
181,73,72010,2,0,L|300:71,1,110,2|2,1:0|0:0,0:0:0:0:
426,121,72402,2,0,L|443:7,1,110,8|2,0:0|0:0,0:0:0:0:
112,221,72794,6,0,L|348:252,1,220,2|8,1:0|0:0,0:0:0:0:
457,274,73382,1,0,0:0:0:0:
171,344,73578,2,0,L|161:231,1,110,2|2,1:0|0:0,0:0:0:0:
295,80,73971,2,0,L|305:217,1,110,8|2,0:0|0:0,0:0:0:0:
155,199,74363,2,0,L|21:187,2,110,2|0|8,1:0|0:0|0:0,0:0:0:0:
303,217,74951,5,0,0:0:0:0:
149,346,75147,5,0,0:0:0:0:
129,298,75212,1,0,0:0:0:0:
129,246,75277,1,0,0:0:0:0:
155,199,75343,1,0,0:0:0:0:
198,172,75408,1,0,0:0:0:0:
248,166,75473,1,0,0:0:0:0:
287,199,75539,5,0,0:0:0:0:
337,193,75604,1,0,0:0:0:0:
380,166,75669,1,0,0:0:0:0:
406,119,75735,1,0,0:0:0:0:
406,67,75800,1,0,0:0:0:0:
386,19,75865,1,0,0:0:0:0:
141,26,75931,6,0,P|52:68|95:187,1,220,4|0,0:0|0:0,0:0:0:0:
197,209,76520,1,0,0:0:0:0:
462,333,76716,2,0,L|475:217,1,110,8|0,0:0|0:0,0:0:0:0:
365,170,77108,1,8,0:0:0:0:
95,336,77304,6,0,L|325:302,1,220
178,151,77892,2,0,L|166:268,1,110,8|0,0:0|0:0,0:0:0:0:
370,187,78284,1,2,1:0:0:0:
217,147,78480,1,0,0:0:0:0:
384,182,78676,2,0,L|406:60,1,110,8|0,0:0|0:0,0:0:0:0:
119,28,79069,6,0,P|47:64|61:213,1,220,2|8,1:0|0:0,0:0:0:0:
311,234,79657,2,0,L|91:278,1,220,0|0,0:0|0:0,0:0:0:0:
376,356,80245,2,0,P|448:320|434:171,1,220,8|2,0:0|1:0,0:0:0:0:
316,183,80833,1,0,0:0:0:0:
450,148,81029,2,0,L|320:151,1,110,8|0,0:0|0:0,0:0:0:0:
63,146,81422,5,2,1:0:0:0:
193,148,81618,1,0,0:0:0:0:
63,146,81814,1,8,0:0:0:0:
193,148,82010,1,0,0:0:0:0:
462,265,82206,6,0,P|501:173|385:95,1,220,6|8,1:0|0:0,0:0:0:0:
298,104,82794,1,0,0:0:0:0:
156,118,82990,2,0,L|162:241,1,110,2|0,1:0|0:0,0:0:0:0:
313,197,83382,2,0,L|317:336,1,110,8|0,0:0|0:0,0:0:0:0:
45,330,83775,6,0,P|44:205|132:158,1,220,2|8,1:0|0:0,0:0:0:0:
262,188,84363,1,0,0:0:0:0:
108,143,84559,2,0,L|221:137,1,110,2|0,1:0|0:0,0:0:0:0:
362,136,84951,2,0,L|501:127,1,110,8|0,0:0|0:0,0:0:0:0:
185,43,85343,5,2,1:0:0:0:
335,74,85539,1,0,0:0:0:0:
170,54,85735,2,0,L|155:182,1,110,8|0,0:0|0:0,0:0:0:0:
432,333,86127,1,2,1:0:0:0:
282,302,86323,1,0,0:0:0:0:
447,322,86519,2,0,L|462:194,1,110,8|0,0:0|0:0,0:0:0:0:
162,190,86912,6,0,L|48:176,1,110,2|0,1:0|0:0,0:0:0:0:
379,118,87304,2,0,L|494:136,2,110,8|0|2,0:0|0:0|1:0,0:0:0:0:
71,67,87892,1,8,0:0:0:0:
332,210,88088,2,0,L|409:210,1,55,8|0,0:0|0:0,0:0:0:0:
208,128,88284,2,0,L|140:128,1,55,0|0,0:0|0:0,0:0:0:0:
376,15,88480,6,0,P|469:70|425:173,1,220,6|8,1:0|0:0,0:0:0:0:
308,179,89069,1,0,0:0:0:0:
25,293,89265,2,0,L|148:276,2,110,2|0|8,1:0|0:0|0:0,0:0:0:0:
388,268,89853,6,0,L|131:222,1,220,0|0,0:0|0:0,0:0:0:0:
305,214,90441,1,8,0:0:0:0:
42,304,90637,2,0,P|14:218|113:135,1,220,0|0,0:0|0:0,0:0:0:0:
295,213,91226,2,0,L|408:235,1,110,8|0,0:0|0:0,0:0:0:0:
116,22,91618,6,0,P|31:64|55:192,1,220,6|8,1:0|0:0,0:0:0:0:
342,246,92206,2,0,P|249:236|114:290,1,220,4|0,0:0|0:0,0:0:0:0:
396,362,92794,2,0,P|481:320|457:192,1,220,12|2,0:0|1:0,0:0:0:0:
339,178,93382,1,0,0:0:0:0:
481,48,93578,2,0,L|485:191,1,110,8|8,0:0|0:3,0:0:0:0:
178,240,93971,5,0,1:0:0:0:
329,239,94167,1,2,0:0:0:0:
179,252,94363,1,8,0:0:0:0:
329,239,94559,1,0,0:0:0:0:
54,325,94755,6,0,P|38:232|130:163,1,220,6|8,1:0|0:0,0:0:0:0:
256,227,95343,1,0,0:0:0:0:
119,164,95539,2,0,L|158:51,1,110,2|0,1:0|0:0,0:0:0:0:
328,45,95931,2,0,L|458:33,1,110,8|0,0:0|0:0,0:0:0:0:
143,4,96324,6,0,P|70:48|123:186,1,220,2|8,1:0|0:0,0:0:0:0:
210,201,96912,1,0,0:0:0:0:
479,213,97108,2,0,L|368:212,1,110,2|0,1:0|0:0,0:0:0:0:
218,209,97500,2,0,L|343:209,1,110,8|0,0:0|0:0,0:0:0:0:
61,325,97892,6,0,P|31:244|137:149,1,220,6|8,1:0|0:0,0:0:0:0:
246,153,98480,1,0,0:0:0:0:
379,230,98676,2,0,L|399:111,1,110,2|0,1:0|0:0,0:0:0:0:
242,343,99069,2,0,L|225:226,1,110,8|0,0:0|0:0,0:0:0:0:
491,278,99461,6,0,L|261:249,1,220,6|8,1:0|0:0,0:0:0:0:
138,321,100049,1,0,0:0:0:0:
297,245,100245,1,2,1:0:0:0:
24,125,100441,1,8,0:0:0:0:
347,26,100637,2,0,L|356:170,1,110,8|0,0:0|0:0,0:0:0:0:
280,168,100931,1,0,0:0:0:0:
37,172,101029,5,6,1:0:0:0:
162,193,101226,1,0,0:0:0:0:
297,222,101422,1,8,0:0:0:0:
162,193,101618,1,2,0:0:0:0:
345,97,101814,2,0,L|337:210,1,110,2|2,1:0|0:0,0:0:0:0:
176,199,102206,2,0,L|161:333,1,110,8|2,0:0|0:0,0:0:0:0:
475,212,102598,5,2,1:0:0:0:
350,191,102795,1,2,0:0:0:0:
215,162,102991,1,8,0:0:0:0:
350,191,103187,1,2,0:0:0:0:
167,287,103383,2,0,L|175:174,1,110,2|2,1:0|0:0,0:0:0:0:
336,185,103775,2,0,L|351:51,1,110,8|2,0:0|0:0,0:0:0:0:
51,80,104167,5,2,1:0:0:0:
189,68,104363,1,2,0:0:0:0:
51,80,104559,1,8,0:0:0:0:
189,68,104755,1,2,0:0:0:0:
334,54,104951,2,0,L|348:174,1,110,2|2,1:0|0:0,0:0:0:0:
178,61,105343,1,8,0:0:0:0:
485,249,105539,6,0,P|507:169|408:95,1,220,2|2,0:0|0:0,0:0:0:0:
296,115,106127,1,8,0:0:0:0:
37,249,106324,2,0,P|15:169|114:95,1,220,2|2,0:0|0:0,0:0:0:0:
234,120,106912,1,8,0:0:0:0:
358,159,107108,2,0,L|366:201,2,36.6666666666667,2|0|0,0:0|0:0|0:0,0:0:0:0:
147,340,107304,6,0,L|134:222,1,110,6|2,1:0|0:0,0:0:0:0:
257,238,107696,2,0,L|377:220,1,110,8|2,0:0|0:0,0:0:0:0:
183,151,108088,1,2,1:0:0:0:
323,76,108284,2,0,L|329:136,3,36.6666666666667,2|0|0|10,0:0|0:0|0:0|0:0,0:0:0:0:
183,151,108676,1,2,0:0:0:0:
450,326,108873,6,0,L|463:208,1,110,2|2,1:0|0:0,0:0:0:0:
340,224,109265,2,0,L|220:206,1,110,8|2,0:0|0:0,0:0:0:0:
414,137,109657,1,2,1:0:0:0:
274,62,109853,2,0,L|268:122,3,36.6666666666667,2|0|0|10,0:0|0:0|0:0|0:0,0:0:0:0:
414,137,110245,1,2,0:0:0:0:
148,345,110441,6,0,L|138:231,1,110,6|0,1:0|0:0,0:0:0:0:
306,234,110833,2,0,L|301:114,1,110,8|2,0:0|0:0,0:0:0:0:
160,88,111226,1,2,1:0:0:0:
307,113,111422,1,2,0:0:0:0:
154,85,111618,2,0,L|34:63,1,110,8|2,0:0|0:0,0:0:0:0:
336,21,112010,5,0,0:0:0:0:
204,104,112206,2,0,L|71:85,2,110,2|0|2,0:0|0:0|0:0,0:0:0:0:
374,191,112990,2,0,L|507:172,2,110,2|0|2,0:0|0:0|0:0,0:0:0:0:
235,172,113578,5,8,0:0:0:0:
362,218,113775,1,2,0:0:0:0:
82,303,113971,2,0,L|71:182,1,110,8|2,0:0|0:0,0:0:0:0:
364,93,114363,1,10,0:0:0:0:
225,132,114559,1,2,0:0:0:0:
194,151,114624,1,2,0:0:0:0:
183,188,114689,1,2,0:0:0:0:
356,262,114755,2,0,L|417:277,1,55,10|0,0:0|0:0,0:0:0:0:
97,359,114951,5,14,0:0:0:0:
