osu file format v14

[General]
AudioFilename: audio.mp3
AudioLeadIn: 0
PreviewTime: 74748
Countdown: 0
SampleSet: Normal
StackLeniency: 0.7
Mode: 1
LetterboxInBreaks: 0
WidescreenStoryboard: 1

[Editor]
Bookmarks: 631,27297,75925,115140,141807,190434,229650,268670
DistanceSpacing: 1.4
BeatDivisor: 3
GridSize: 32
TimelineZoom: 2.999999

[Metadata]
Title:Clumsy thoughts
TitleUnicode:Clumsy thoughts
Artist:Nekomata Master feat. *spiLa*
ArtistUnicode:猫叉Master feat. *spiLa*
Creator:_DUSK_
Version:Oni
Source:REFLEC BEAT colette -Winter-
Tags:Naoyuki Sato 佐藤直之 jubeat saucer plus jukebeat crevice KONAMI video game japanese electronic
BeatmapID:2086097
BeatmapSetID:997268

[Difficulty]
HPDrainRate:5
CircleSize:4
OverallDifficulty:5
ApproachRate:9
SliderMultiplier:1.4
SliderTickRate:1

[Events]
//Background and Video events
0,0,"clumsybg.jpg",0,-60
//Break Periods
//Storyboard Layer 0 (Background)
//Storyboard Layer 1 (Fail)
//Storyboard Layer 2 (Pass)
//Storyboard Layer 3 (Foreground)
//Storyboard Layer 4 (Overlay)
//Storyboard Sound Samples

[TimingPoints]
631,392.156862745098,4,1,0,80,1,0
631,-76.9230769230769,4,1,0,80,0,0
1415,-83.3333333333333,4,1,0,80,0,0
2983,-90.9090909090909,4,1,0,80,0,0
4552,-100,4,1,0,80,0,0
6121,-98.0392156862745,4,1,0,80,0,0
6513,-96.1538461538461,4,1,0,80,0,0
6709,-94.3396226415094,4,1,0,80,0,0
6905,-92.5925925925926,4,1,0,80,0,0
11709,-111.111111111111,4,1,0,80,0,0
13572,-109.89010989011,4,1,0,80,0,0
13768,-107.52688172043,4,1,0,80,0,0
13964,-105.263157894737,4,1,0,80,0,0
14160,-103.092783505155,4,1,0,80,0,0
14258,-101.010101010101,4,1,0,80,0,0
14356,-99.009900990099,4,1,0,80,0,0
14748,-90.9090909090909,4,1,0,80,0,0
25827,-100,4,1,0,80,0,0
26317,-99.009900990099,4,1,0,80,0,0
26513,-98.0392156862745,4,1,0,80,0,0
26709,-97.0873786407767,4,1,0,80,0,0
26905,-96.1538461538461,4,1,0,80,0,0
27297,-95.2380952380952,4,1,0,80,0,0
48081,-100,4,1,0,80,0,0
48474,-99.009900990099,4,1,0,80,0,0
48670,-98.0392156862745,4,1,0,80,0,0
48866,-97.0873786407767,4,1,0,80,0,0
49258,-95.2380952380952,4,1,0,80,0,0
61807,-92.5925925925926,4,1,0,80,0,0
72395,-91.743119266055,4,1,0,80,0,0
72591,-90.9090909090909,4,1,0,80,0,0
73180,-89.2857142857143,4,1,0,80,0,0
73376,-88.4955752212389,4,1,0,80,0,0
73572,-87.719298245614,4,1,0,80,0,0
74356,-90.9090909090909,4,1,0,80,0,0
74552,-92.5925925925926,4,1,0,80,0,0
74748,-94.3396226415094,4,1,0,80,0,0
74846,-100,4,1,0,80,0,0
75925,-90.9090909090909,4,1,0,80,0,1
87493,-90.0900900900901,4,1,0,80,0,1
87689,-89.2857142857143,4,1,0,80,0,1
87885,-88.4955752212389,4,1,0,80,0,1
88081,-87.719298245614,4,1,0,80,0,0
88474,-86.9565217391304,4,1,0,80,0,1
101023,-86.9565217391304,4,1,0,80,0,0
101121,-95.2380952380952,4,1,0,80,0,0
106905,-94.3396226415094,4,1,0,80,0,0
107003,-93.4579439252336,4,1,0,80,0,0
107101,-92.5925925925926,4,1,0,80,0,0
107199,-91.743119266055,4,1,0,80,0,0
107297,-90.9090909090909,4,1,0,80,0,0
112101,-111.111111111111,4,1,0,80,0,0
113572,-108.695652173913,4,1,0,80,0,0
113768,-106.382978723404,4,1,0,80,0,0
113964,-104.166666666667,4,1,0,80,0,0
114160,-102.040816326531,4,1,0,80,0,0
114356,-90.9090909090909,4,1,0,80,0,0
115140,-81.9672131147541,4,1,0,80,0,0
115925,-100,4,1,0,80,0,0
118376,-102.040816326531,4,1,0,80,0,0
118474,-103.092783505155,4,1,0,80,0,0
118572,-105.263157894737,4,1,0,80,0,0
118670,-106.382978723404,4,1,0,80,0,0
119062,-100,4,1,0,80,0,0
124029,-102.040816326531,4,1,0,80,0,0
124160,-103.092783505155,4,1,0,80,0,0
124421,-105.263157894737,4,1,0,80,0,0
124552,-106.382978723404,4,1,0,80,0,0
124944,-108.695652173913,4,1,0,80,0,0
125042,-109.89010989011,4,1,0,80,0,0
125140,-111.111111111111,4,1,0,80,0,0
125336,-113.636363636364,4,1,0,80,0,0
125434,-114.942528735632,4,1,0,80,0,0
125532,-116.279069767442,4,1,0,80,0,0
125630,-117.647058823529,4,1,0,80,0,0
127689,-100,4,1,0,80,0,0
133964,-98.0392156862745,4,1,0,80,0,0
140336,-111.111111111111,4,1,0,80,0,0
141023,-108.695652173913,4,1,0,80,0,0
141219,-106.382978723404,4,1,0,80,0,0
141317,-104.166666666667,4,1,0,80,0,0
141415,-102.040816326531,4,1,0,80,0,0
141807,-95.2380952380952,4,1,0,80,0,0
151219,-93.4579439252336,4,1,0,80,0,0
162591,-98.0392156862745,4,1,0,80,0,0
162983,-97.0873786407767,4,1,0,80,0,0
163180,-96.1538461538461,4,1,0,80,0,0
163376,-95.2380952380952,4,1,0,80,0,0
163768,-93.4579439252336,4,1,0,80,0,0
176317,-91.743119266055,4,1,0,80,0,0
186905,-90.9090909090909,4,1,0,80,0,0
187101,-90.0900900900901,4,1,0,80,0,0
187297,-89.2857142857143,4,1,0,80,0,0
187689,-88.4955752212389,4,1,0,80,0,0
187885,-87.719298245614,4,1,0,80,0,0
188081,-86.9565217391304,4,1,0,80,0,0
188670,-88.4955752212389,4,1,0,80,0,0
188866,-90.0900900900901,4,1,0,80,0,0
189062,-91.743119266055,4,1,0,80,0,0
189258,-93.4579439252336,4,1,0,80,0,0
189356,-100,4,1,0,80,0,0
190434,-90.9090909090909,4,1,0,80,0,1
202003,-90.0900900900901,4,1,0,80,0,1
202199,-89.2857142857143,4,1,0,80,0,1
202395,-88.4955752212389,4,1,0,80,0,1
202591,-87.719298245614,4,1,0,80,0,0
202983,-86.9565217391304,4,1,0,80,0,1
215532,-86.9565217391304,4,1,0,80,0,0
215630,-95.2380952380952,4,1,0,80,0,0
221415,-94.3396226415094,4,1,0,80,0,0
221513,-93.4579439252336,4,1,0,80,0,0
221611,-92.5925925925926,4,1,0,80,0,0
221709,-91.743119266055,4,1,0,80,0,0
221807,-90.9090909090909,4,1,0,80,0,0
228147,-111.111111111111,4,1,0,80,0,0
232787,-108.695652173913,4,1,0,80,0,0
242199,-100,4,1,0,80,0,0
248474,-95.2380952380952,4,1,0,80,0,0
251807,-94.3396226415094,4,1,0,80,0,0
252003,-93.4579439252336,4,1,0,80,0,0
252199,-92.5925925925926,4,1,0,80,0,0
252395,-91.743119266055,4,1,0,80,0,0
252591,-90.9090909090909,4,1,0,80,0,0
252787,-90.0900900900901,4,1,0,80,0,0
252983,-89.2857142857143,4,1,0,80,0,0
253180,-88.4955752212389,4,1,0,80,0,0
253376,-86.9565217391304,4,1,0,80,0,0
253572,-86.2068965517241,4,1,0,80,0,0
253768,-85.4700854700855,4,1,0,80,0,0
253866,-84.7457627118644,4,1,0,80,0,0
253964,-84.0336134453781,4,1,0,80,0,0
254160,-82.6446280991736,4,1,0,80,0,0
254356,-81.9672131147541,4,1,0,80,0,0
254552,-81.3008130081301,4,1,0,80,0,0
254748,-80.6451612903226,4,1,0,80,0,0
254846,-95.2380952380952,4,1,0,80,0,0
260630,-94.3396226415094,4,1,0,80,0,0
260729,-93.4579439252336,4,1,0,80,0,0
260827,-92.5925925925926,4,1,0,80,0,0
260925,-91.743119266055,4,1,0,80,0,0
261023,-90.9090909090909,4,1,0,80,0,0
265827,-111.111111111111,4,1,0,80,0,0
267297,-108.695652173913,4,1,0,80,0,0
267493,-106.382978723404,4,1,0,80,0,0
267689,-104.166666666667,4,1,0,80,0,0
267885,-102.040816326531,4,1,0,80,0,0
268081,-100,4,1,0,80,0,0
268278,-98.0392156862745,4,1,0,80,0,0
268670,-76.9230769230769,4,1,0,80,0,0
269258,-111.111111111111,4,1,0,80,0,0

[HitObjects]
256,192,631,5,12,0:0:0:0:
256,192,2199,1,8,0:0:0:0:
256,192,2395,1,0,0:0:0:0:
256,192,3768,1,0,0:0:0:0:
256,192,3964,1,8,0:0:0:0:
256,192,5336,1,0,0:0:0:0:
256,192,5532,1,8,0:0:0:0:
256,192,6121,1,0,0:0:0:0:
256,192,6513,1,8,0:0:0:0:
256,192,6709,1,8,0:0:0:0:
256,192,6905,1,4,0:0:0:0:
256,192,7297,1,8,0:0:0:0:
256,192,8081,1,8,0:0:0:0:
256,192,8474,1,0,0:0:0:0:
256,192,8866,1,8,0:0:0:0:
256,192,9454,1,0,0:0:0:0:
256,192,9650,1,8,0:0:0:0:
256,192,10042,1,0,0:0:0:0:
256,192,10434,1,8,0:0:0:0:
256,192,10827,1,0,0:0:0:0:
256,192,11219,1,8,0:0:0:0:
256,192,11415,1,8,0:0:0:0:
256,192,11611,1,4,0:0:0:0:
256,192,12003,1,8,0:0:0:0:
256,192,12199,1,0,0:0:0:0:
256,192,12591,1,8,0:0:0:0:
256,192,12787,1,0,0:0:0:0:
256,192,12983,1,0,0:0:0:0:
256,192,13376,1,0,0:0:0:0:
256,192,13572,1,8,0:0:0:0:
256,192,13768,1,8,0:0:0:0:
256,192,13964,1,0,0:0:0:0:
256,192,14160,1,8,0:0:0:0:
256,192,14258,1,8,0:0:0:0:
256,192,14356,1,0,0:0:0:0:
256,192,14748,1,12,0:0:0:0:
256,192,14944,1,0,0:0:0:0:
256,192,15140,1,8,0:0:0:0:
256,192,15336,1,0,0:0:0:0:
256,192,15532,1,8,0:0:0:0:
256,192,15729,1,8,0:0:0:0:
256,192,15827,1,8,0:0:0:0:
256,192,15925,1,8,0:0:0:0:
256,192,16121,1,0,0:0:0:0:
256,192,16513,1,0,0:0:0:0:
256,192,16709,1,8,0:0:0:0:
256,192,16905,1,0,0:0:0:0:
256,192,17101,1,0,0:0:0:0:
256,192,17297,1,8,0:0:0:0:
256,192,17493,1,0,0:0:0:0:
256,192,17689,1,8,0:0:0:0:
256,192,18081,1,0,0:0:0:0:
256,192,18278,1,8,0:0:0:0:
256,192,18474,1,0,0:0:0:0:
256,192,18670,1,8,0:0:0:0:
256,192,18768,1,8,0:0:0:0:
256,192,18866,1,0,0:0:0:0:
256,192,19062,1,0,0:0:0:0:
256,192,19160,1,0,0:0:0:0:
256,192,19258,1,8,0:0:0:0:
256,192,19356,1,8,0:0:0:0:
256,192,19454,1,0,0:0:0:0:
256,192,19650,1,8,0:0:0:0:
256,192,19846,1,8,0:0:0:0:
256,192,20042,1,0,0:0:0:0:
256,192,20238,1,8,0:0:0:0:
256,192,20434,1,0,0:0:0:0:
256,192,20532,1,0,0:0:0:0:
256,192,20631,1,8,0:0:0:0:
256,192,21023,1,12,0:0:0:0:
256,192,21219,1,8,0:0:0:0:
256,192,21317,1,0,0:0:0:0:
256,192,21415,1,8,0:0:0:0:
256,192,21611,1,8,0:0:0:0:
256,192,21807,1,0,0:0:0:0:
256,192,22003,1,0,0:0:0:0:
256,192,22199,1,8,0:0:0:0:
256,192,22395,1,8,0:0:0:0:
256,192,22787,1,8,0:0:0:0:
256,192,22885,1,8,0:0:0:0:
256,192,22983,1,0,0:0:0:0:
256,192,23180,1,8,0:0:0:0:
256,192,23376,1,0,0:0:0:0:
256,192,23572,1,0,0:0:0:0:
256,192,23768,1,8,0:0:0:0:
256,192,23964,1,8,0:0:0:0:
256,192,24356,1,0,0:0:0:0:
256,192,24552,1,8,0:0:0:0:
256,192,24748,1,0,0:0:0:0:
256,192,24944,1,0,0:0:0:0:
256,192,25042,1,8,0:0:0:0:
256,192,25140,1,0,0:0:0:0:
256,192,25336,1,8,0:0:0:0:
256,192,25532,1,0,0:0:0:0:
256,192,25729,1,12,0:0:0:0:
256,192,26317,1,0,0:0:0:0:
256,192,26513,1,0,0:0:0:0:
256,192,26709,1,8,0:0:0:0:
256,192,26905,1,8,0:0:0:0:
256,192,27297,1,4,0:0:0:0:
256,192,27885,1,8,0:0:0:0:
256,192,28081,1,0,0:0:0:0:
256,192,28670,1,8,0:0:0:0:
256,192,28866,1,0,0:0:0:0:
256,192,29160,1,0,0:0:0:0:
256,192,29258,1,0,0:0:0:0:
256,192,29454,1,8,0:0:0:0:
256,192,29650,1,0,0:0:0:0:
256,192,30238,1,0,0:0:0:0:
256,192,30434,1,8,0:0:0:0:
256,192,31023,1,0,0:0:0:0:
256,192,31219,1,8,0:0:0:0:
256,192,31807,1,8,0:0:0:0:
256,192,32003,1,0,0:0:0:0:
256,192,32199,1,0,0:0:0:0:
256,192,32395,1,8,0:0:0:0:
256,192,32787,1,0,0:0:0:0:
256,192,32983,1,0,0:0:0:0:
256,192,33180,1,8,0:0:0:0:
256,192,33572,1,12,0:0:0:0:
256,192,33964,1,8,0:0:0:0:
256,192,34356,1,0,0:0:0:0:
256,192,34748,1,8,0:0:0:0:
256,192,34944,1,0,0:0:0:0:
256,192,35140,1,0,0:0:0:0:
256,192,35532,1,8,0:0:0:0:
256,192,35925,1,0,0:0:0:0:
256,192,36317,1,8,0:0:0:0:
256,192,36513,1,0,0:0:0:0:
256,192,36709,1,12,0:0:0:0:
256,192,37297,1,8,0:0:0:0:
256,192,37493,1,0,0:0:0:0:
256,192,38081,1,8,0:0:0:0:
256,192,38278,1,0,0:0:0:0:
256,192,38572,1,0,0:0:0:0:
256,192,38670,1,0,0:0:0:0:
256,192,38866,1,0,0:0:0:0:
256,192,39062,1,8,0:0:0:0:
256,192,39650,1,0,0:0:0:0:
256,192,39846,1,0,0:0:0:0:
256,192,40434,1,0,0:0:0:0:
256,192,40631,1,8,0:0:0:0:
256,192,41219,1,0,0:0:0:0:
256,192,41415,1,8,0:0:0:0:
256,192,41611,1,8,0:0:0:0:
256,192,41807,1,0,0:0:0:0:
256,192,42199,1,8,0:0:0:0:
256,192,42395,1,0,0:0:0:0:
256,192,42591,1,8,0:0:0:0:
256,192,42983,1,12,0:0:0:0:
256,192,43376,1,0,0:0:0:0:
256,192,43768,1,8,0:0:0:0:
256,192,44160,1,8,0:0:0:0:
256,192,44356,1,0,0:0:0:0:
256,192,44552,1,8,0:0:0:0:
256,192,44944,1,0,0:0:0:0:
256,192,45336,1,8,0:0:0:0:
256,192,45532,1,8,0:0:0:0:
256,192,45729,1,8,0:0:0:0:
256,192,46121,1,0,0:0:0:0:
256,192,46513,1,8,0:0:0:0:
256,192,46905,1,0,0:0:0:0:
256,192,47297,1,8,0:0:0:0:
256,192,47493,1,0,0:0:0:0:
256,192,47689,1,8,0:0:0:0:
256,192,48081,1,8,0:0:0:0:
256,192,48474,1,0,0:0:0:0:
256,192,48670,1,8,0:0:0:0:
256,192,48866,1,8,0:0:0:0:
256,192,49258,1,12,0:0:0:0:
256,192,49454,1,8,0:0:0:0:
256,192,49650,1,0,0:0:0:0:
256,192,50042,1,0,0:0:0:0:
256,192,50238,1,0,0:0:0:0:
256,192,50434,1,8,0:0:0:0:
256,192,50631,1,0,0:0:0:0:
256,192,50827,1,8,0:0:0:0:
256,192,51023,1,8,0:0:0:0:
256,192,51121,1,8,0:0:0:0:
256,192,51219,1,8,0:0:0:0:
256,192,51415,1,0,0:0:0:0:
256,192,51611,1,8,0:0:0:0:
256,192,52003,1,8,0:0:0:0:
256,192,52199,1,0,0:0:0:0:
256,192,52395,1,0,0:0:0:0:
256,192,52787,1,8,0:0:0:0:
256,192,52983,1,0,0:0:0:0:
256,192,53180,1,8,0:0:0:0:
256,192,53376,1,8,0:0:0:0:
256,192,53572,1,0,0:0:0:0:
256,192,53768,1,0,0:0:0:0:
256,192,53964,1,8,0:0:0:0:
256,192,54356,1,8,0:0:0:0:
256,192,54552,1,8,0:0:0:0:
256,192,54650,1,8,0:0:0:0:
256,192,54748,1,8,0:0:0:0:
256,192,54944,1,0,0:0:0:0:
256,192,55042,1,0,0:0:0:0:
256,192,55140,1,8,0:0:0:0:
256,192,55336,1,0,0:0:0:0:
256,192,55532,1,12,0:0:0:0:
256,192,55925,1,8,0:0:0:0:
256,192,56121,1,0,0:0:0:0:
256,192,56317,1,0,0:0:0:0:
256,192,56709,1,8,0:0:0:0:
256,192,56905,1,8,0:0:0:0:
256,192,57101,1,0,0:0:0:0:
256,192,57493,1,8,0:0:0:0:
256,192,57689,1,8,0:0:0:0:
256,192,57885,1,0,0:0:0:0:
256,192,58081,1,0,0:0:0:0:
256,192,58278,1,8,0:0:0:0:
256,192,58670,1,0,0:0:0:0:
256,192,58866,1,0,0:0:0:0:
256,192,59062,1,8,0:0:0:0:
256,192,59258,1,0,0:0:0:0:
256,192,59454,1,8,0:0:0:0:
256,192,59846,1,8,0:0:0:0:
256,192,60042,1,8,0:0:0:0:
256,192,60238,1,0,0:0:0:0:
256,192,60630,1,8,0:0:0:0:
256,192,61023,1,0,0:0:0:0:
256,192,61219,1,8,0:0:0:0:
256,192,61415,1,8,0:0:0:0:
256,192,61807,1,12,0:0:0:0:
256,192,62003,1,8,0:0:0:0:
256,192,62199,1,0,0:0:0:0:
256,192,62395,1,0,0:0:0:0:
256,192,62591,1,8,0:0:0:0:
256,192,62787,1,8,0:0:0:0:
256,192,62983,1,0,0:0:0:0:
256,192,63180,1,8,0:0:0:0:
256,192,63278,1,8,0:0:0:0:
256,192,63376,1,0,0:0:0:0:
256,192,63768,1,0,0:0:0:0:
256,192,63964,1,0,0:0:0:0:
256,192,64160,1,8,0:0:0:0:
256,192,64552,1,8,0:0:0:0:
256,192,64748,1,8,0:0:0:0:
256,192,64944,1,0,0:0:0:0:
256,192,65336,1,8,0:0:0:0:
256,192,65532,1,0,0:0:0:0:
256,192,65729,1,0,0:0:0:0:
256,192,66121,1,8,0:0:0:0:
256,192,66513,1,0,0:0:0:0:
256,192,66709,1,0,0:0:0:0:
256,192,66905,1,8,0:0:0:0:
256,192,67101,1,8,0:0:0:0:
256,192,67199,1,8,0:0:0:0:
256,192,67297,1,8,0:0:0:0:
256,192,67493,1,0,0:0:0:0:
256,192,67689,1,8,0:0:0:0:
256,192,68081,1,4,0:0:0:0:
256,192,68278,1,8,0:0:0:0:
256,192,68474,1,8,0:0:0:0:
256,192,68670,1,8,0:0:0:0:
256,192,68866,1,0,0:0:0:0:
256,192,69258,1,0,0:0:0:0:
256,192,69454,1,8,0:0:0:0:
256,192,69552,1,0,0:0:0:0:
256,192,69650,1,8,0:0:0:0:
256,192,69846,1,8,0:0:0:0:
256,192,70042,1,8,0:0:0:0:
256,192,70238,1,0,0:0:0:0:
256,192,70434,1,8,0:0:0:0:
256,192,70532,1,8,0:0:0:0:
256,192,70631,1,0,0:0:0:0:
256,192,70827,1,0,0:0:0:0:
256,192,71023,1,8,0:0:0:0:
256,192,71219,1,8,0:0:0:0:
256,192,71611,1,8,0:0:0:0:
256,192,71807,1,0,0:0:0:0:
256,192,72003,1,0,0:0:0:0:
256,192,72395,1,8,0:0:0:0:
256,192,72591,1,8,0:0:0:0:
256,192,72787,1,0,0:0:0:0:
256,192,73180,1,8,0:0:0:0:
256,192,73376,1,0,0:0:0:0:
256,192,73572,1,8,0:0:0:0:
256,192,73964,1,8,0:0:0:0:
256,192,74356,1,8,0:0:0:0:
256,192,74552,1,0,0:0:0:0:
256,192,74748,1,0,0:0:0:0:
256,192,75925,5,4,0:0:0:0:
256,192,76317,1,8,0:0:0:0:
256,192,76513,1,0,0:0:0:0:
256,192,76709,1,8,0:0:0:0:
256,192,76905,1,8,0:0:0:0:
256,192,77101,1,0,0:0:0:0:
256,192,77199,1,0,0:0:0:0:
256,192,77297,1,8,0:0:0:0:
256,192,77493,1,0,0:0:0:0:
256,192,77689,1,8,0:0:0:0:
256,192,78081,1,0,0:0:0:0:
256,192,78278,1,8,0:0:0:0:
256,192,78474,1,0,0:0:0:0:
256,192,78670,1,8,0:0:0:0:
256,192,78866,1,8,0:0:0:0:
256,192,78964,1,8,0:0:0:0:
256,192,79062,1,0,0:0:0:0:
256,192,79356,1,8,0:0:0:0:
256,192,79454,1,0,0:0:0:0:
256,192,79650,1,8,0:0:0:0:
256,192,79846,1,8,0:0:0:0:
256,192,80042,1,0,0:0:0:0:
256,192,80140,1,0,0:0:0:0:
256,192,80238,1,8,0:0:0:0:
256,192,80434,1,0,0:0:0:0:
256,192,80631,1,8,0:0:0:0:
256,192,81023,1,8,0:0:0:0:
256,192,81219,1,0,0:0:0:0:
256,192,81415,1,8,0:0:0:0:
256,192,81611,1,0,0:0:0:0:
256,192,81807,1,8,0:0:0:0:
256,192,81905,1,0,0:0:0:0:
256,192,82003,1,8,0:0:0:0:
256,192,82199,1,0,0:0:0:0:
256,192,82591,1,8,0:0:0:0:
256,192,82787,1,0,0:0:0:0:
256,192,82983,1,8,0:0:0:0:
256,192,83376,1,8,0:0:0:0:
256,192,83572,1,8,0:0:0:0:
256,192,83768,1,0,0:0:0:0:
256,192,84160,1,8,0:0:0:0:
256,192,84356,1,8,0:0:0:0:
256,192,84552,1,8,0:0:0:0:
256,192,84748,1,0,0:0:0:0:
256,192,84944,1,8,0:0:0:0:
256,192,85336,1,8,0:0:0:0:
256,192,85532,1,0,0:0:0:0:
256,192,85729,1,0,0:0:0:0:
256,192,85925,1,8,0:0:0:0:
256,192,86121,1,8,0:0:0:0:
256,192,86513,1,8,0:0:0:0:
256,192,86709,1,8,0:0:0:0:
256,192,86905,1,0,0:0:0:0:
256,192,87101,1,0,0:0:0:0:
256,192,87297,1,8,0:0:0:0:
256,192,87493,1,8,0:0:0:0:
256,192,87689,1,0,0:0:0:0:
256,192,87885,1,8,0:0:0:0:
256,192,88081,1,8,0:0:0:0:
256,192,88474,1,4,0:0:0:0:
256,192,88866,1,8,0:0:0:0:
256,192,89062,1,0,0:0:0:0:
256,192,89258,1,8,0:0:0:0:
256,192,89356,1,0,0:0:0:0:
256,192,89454,1,8,0:0:0:0:
256,192,89650,1,0,0:0:0:0:
256,192,89846,1,8,0:0:0:0:
256,192,90238,1,0,0:0:0:0:
256,192,90434,1,8,0:0:0:0:
256,192,90631,1,0,0:0:0:0:
256,192,90729,1,0,0:0:0:0:
256,192,90827,1,8,0:0:0:0:
256,192,91023,1,0,0:0:0:0:
256,192,91219,1,8,0:0:0:0:
256,192,91415,1,0,0:0:0:0:
256,192,91611,1,8,0:0:0:0:
256,192,92003,1,8,0:0:0:0:
256,192,92199,1,8,0:0:0:0:
256,192,92395,1,0,0:0:0:0:
256,192,92591,1,0,0:0:0:0:
256,192,92787,1,8,0:0:0:0:
256,192,93180,1,0,0:0:0:0:
256,192,93376,1,0,0:0:0:0:
256,192,93572,1,8,0:0:0:0:
256,192,93964,1,8,0:0:0:0:
256,192,94160,1,0,0:0:0:0:
256,192,94356,1,8,0:0:0:0:
256,192,94552,1,8,0:0:0:0:
256,192,94748,1,0,0:0:0:0:
256,192,95140,1,8,0:0:0:0:
256,192,95336,1,0,0:0:0:0:
256,192,95532,1,0,0:0:0:0:
256,192,95729,1,8,0:0:0:0:
256,192,95925,1,8,0:0:0:0:
256,192,96121,1,0,0:0:0:0:
256,192,96317,1,8,0:0:0:0:
256,192,96513,1,0,0:0:0:0:
256,192,96611,1,0,0:0:0:0:
256,192,96709,1,8,0:0:0:0:
256,192,96905,1,0,0:0:0:0:
256,192,97101,1,8,0:0:0:0:
256,192,97297,1,8,0:0:0:0:
256,192,97493,1,0,0:0:0:0:
256,192,97689,1,0,0:0:0:0:
256,192,97885,1,8,0:0:0:0:
256,192,98278,1,8,0:0:0:0:
256,192,98474,1,0,0:0:0:0:
256,192,98670,1,8,0:0:0:0:
256,192,98866,1,0,0:0:0:0:
256,192,99062,1,8,0:0:0:0:
256,192,99454,1,8,0:0:0:0:
256,192,99650,1,8,0:0:0:0:
256,192,99846,1,0,0:0:0:0:
256,192,100042,1,0,0:0:0:0:
256,192,100238,1,8,0:0:0:0:
256,192,100434,1,8,0:0:0:0:
256,192,100631,1,8,0:0:0:0:
256,192,100827,1,8,0:0:0:0:
256,192,101023,1,4,0:0:0:0:
256,192,101415,1,8,0:0:0:0:
256,192,101611,1,0,0:0:0:0:
256,192,101807,1,8,0:0:0:0:
256,192,102003,1,0,0:0:0:0:
256,192,102199,1,8,0:0:0:0:
256,192,102591,1,8,0:0:0:0:
256,192,102787,1,0,0:0:0:0:
256,192,102983,1,8,0:0:0:0:
256,192,103180,1,8,0:0:0:0:
256,192,103376,1,0,0:0:0:0:
256,192,103768,1,0,0:0:0:0:
256,192,103964,1,8,0:0:0:0:
256,192,104160,1,0,0:0:0:0:
256,192,104552,1,8,0:0:0:0:
256,192,104748,1,8,0:0:0:0:
256,192,104944,1,0,0:0:0:0:
256,192,105140,1,0,0:0:0:0:
256,192,105336,1,8,0:0:0:0:
256,192,105532,1,8,0:0:0:0:
256,192,105729,1,0,0:0:0:0:
256,192,106121,1,8,0:0:0:0:
256,192,106317,1,8,0:0:0:0:
256,192,106513,1,0,0:0:0:0:
256,192,106709,1,8,0:0:0:0:
256,192,106905,1,0,0:0:0:0:
256,192,107003,1,0,0:0:0:0:
256,192,107101,1,8,0:0:0:0:
256,192,107199,1,8,0:0:0:0:
256,192,107297,1,0,0:0:0:0:
256,192,107689,1,8,0:0:0:0:
256,192,107885,1,8,0:0:0:0:
256,192,108081,1,0,0:0:0:0:
256,192,108278,1,0,0:0:0:0:
256,192,108376,1,8,0:0:0:0:
256,192,108474,1,0,0:0:0:0:
256,192,108670,1,0,0:0:0:0:
256,192,108866,1,8,0:0:0:0:
256,192,109258,1,0,0:0:0:0:
256,192,109454,1,0,0:0:0:0:
256,192,109650,1,8,0:0:0:0:
256,192,109846,1,8,0:0:0:0:
256,192,109944,1,0,0:0:0:0:
256,192,110042,1,8,0:0:0:0:
256,192,110238,1,0,0:0:0:0:
256,192,110434,1,8,0:0:0:0:
256,192,110827,1,8,0:0:0:0:
256,192,111023,1,0,0:0:0:0:
256,192,111121,1,0,0:0:0:0:
256,192,111219,1,0,0:0:0:0:
256,192,111415,1,0,0:0:0:0:
256,192,111611,1,8,0:0:0:0:
256,192,111807,1,8,0:0:0:0:
256,192,112003,1,4,0:0:0:0:
256,192,113572,5,0,0:0:0:0:
256,192,113768,1,0,0:0:0:0:
256,192,113964,1,0,0:0:0:0:
256,192,114160,1,0,0:0:0:0:
256,192,114356,1,12,0:0:0:0:
256,192,114748,1,12,0:0:0:0:
256,192,115140,5,4,0:0:0:0:
256,192,115925,1,8,0:0:0:0:
256,192,116317,1,0,0:0:0:0:
256,192,116709,1,0,0:0:0:0:
256,192,117101,1,8,0:0:0:0:
256,192,117232,1,8,0:0:0:0:
256,192,117493,1,8,0:0:0:0:
256,192,117885,1,0,0:0:0:0:
256,192,118278,1,8,0:0:0:0:
256,192,118376,1,8,0:0:0:0:
256,192,118474,1,0,0:0:0:0:
256,192,118572,1,0,0:0:0:0:
256,192,118670,1,0,0:0:0:0:
256,192,119062,1,8,0:0:0:0:
256,192,119454,1,0,0:0:0:0:
256,192,119846,1,0,0:0:0:0:
256,192,119944,1,0,0:0:0:0:
256,192,120042,1,8,0:0:0:0:
256,192,120238,1,0,0:0:0:0:
256,192,120369,1,8,0:0:0:0:
256,192,120630,1,0,0:0:0:0:
256,192,120729,1,8,0:0:0:0:
256,192,120827,1,0,0:0:0:0:
256,192,121023,1,8,0:0:0:0:
256,192,121219,1,0,0:0:0:0:
256,192,121415,1,12,0:0:0:0:
256,192,121807,1,0,0:0:0:0:
256,192,122199,1,8,0:0:0:0:
256,192,122591,1,0,0:0:0:0:
256,192,122983,1,0,0:0:0:0:
256,192,123376,1,8,0:0:0:0:
256,192,123506,1,8,0:0:0:0:
256,192,123768,1,8,0:0:0:0:
256,192,124029,1,0,0:0:0:0:
256,192,124160,1,8,0:0:0:0:
256,192,124421,1,0,0:0:0:0:
256,192,124552,1,0,0:0:0:0:
256,192,124748,1,0,0:0:0:0:
256,192,124944,1,8,0:0:0:0:
256,192,125042,1,8,0:0:0:0:
256,192,125140,1,0,0:0:0:0:
256,192,125336,1,8,0:0:0:0:
256,192,125434,1,0,0:0:0:0:
256,192,125532,1,0,0:0:0:0:
256,192,125630,1,0,0:0:0:0:
256,192,125729,1,8,0:0:0:0:
256,192,125925,1,8,0:0:0:0:
256,192,126121,1,0,0:0:0:0:
256,192,126513,1,8,0:0:0:0:
256,192,126905,1,0,0:0:0:0:
256,192,127101,1,0,0:0:0:0:
256,192,127297,1,8,0:0:0:0:
256,192,127689,5,4,0:0:0:0:
256,192,128081,1,0,0:0:0:0:
256,192,128180,1,0,0:0:0:0:
256,192,128278,1,0,0:0:0:0:
256,192,128376,1,0,0:0:0:0:
256,192,128474,1,8,0:0:0:0:
256,192,128866,1,8,0:0:0:0:
256,192,129062,1,8,0:0:0:0:
256,192,129258,1,0,0:0:0:0:
256,192,129650,1,0,0:0:0:0:
256,192,130042,1,8,0:0:0:0:
256,192,130434,1,0,0:0:0:0:
256,192,130827,1,8,0:0:0:0:
256,192,131219,1,0,0:0:0:0:
256,192,131317,1,0,0:0:0:0:
256,192,131415,1,0,0:0:0:0:
256,192,131513,1,0,0:0:0:0:
256,192,131611,1,8,0:0:0:0:
256,192,132003,1,8,0:0:0:0:
256,192,132591,1,0,0:0:0:0:
256,192,132787,1,8,0:0:0:0:
256,192,132983,1,8,0:0:0:0:
256,192,133180,1,0,0:0:0:0:
256,192,133768,1,8,0:0:0:0:
256,192,133964,1,4,0:0:0:0:
256,192,134160,1,8,0:0:0:0:
256,192,134356,1,0,0:0:0:0:
256,192,134454,1,0,0:0:0:0:
256,192,134552,1,0,0:0:0:0:
256,192,134650,1,0,0:0:0:0:
256,192,134748,1,8,0:0:0:0:
256,192,135140,1,8,0:0:0:0:
256,192,135336,1,8,0:0:0:0:
256,192,135532,1,0,0:0:0:0:
256,192,135925,1,0,0:0:0:0:
256,192,136317,1,8,0:0:0:0:
256,192,136709,1,8,0:0:0:0:
256,192,137101,1,0,0:0:0:0:
256,192,137493,1,0,0:0:0:0:
256,192,137591,1,0,0:0:0:0:
256,192,137689,1,0,0:0:0:0:
256,192,137787,1,0,0:0:0:0:
256,192,137885,1,8,0:0:0:0:
256,192,138278,1,8,0:0:0:0:
256,192,138670,1,0,0:0:0:0:
256,192,139062,1,8,0:0:0:0:
256,192,139258,1,8,0:0:0:0:
256,192,139650,1,0,0:0:0:0:
256,192,139846,1,8,0:0:0:0:
256,192,140042,1,8,0:0:0:0:
256,192,140238,1,0,0:0:0:0:
256,192,141023,1,8,0:0:0:0:
256,192,141219,1,0,0:0:0:0:
256,192,141317,1,0,0:0:0:0:
256,192,141415,1,8,0:0:0:0:
256,192,141807,1,4,0:0:0:0:
256,192,142199,1,8,0:0:0:0:
256,192,142297,1,8,0:0:0:0:
256,192,142395,1,0,0:0:0:0:
256,192,142591,1,8,0:0:0:0:
256,192,142787,1,0,0:0:0:0:
256,192,142983,1,8,0:0:0:0:
256,192,143081,1,8,0:0:0:0:
256,192,143180,1,0,0:0:0:0:
256,192,143278,1,0,0:0:0:0:
256,192,143376,1,8,0:0:0:0:
256,192,143768,1,8,0:0:0:0:
256,192,143964,1,0,0:0:0:0:
256,192,144160,1,8,0:0:0:0:
256,192,144552,1,0,0:0:0:0:
256,192,144748,1,8,0:0:0:0:
256,192,144944,1,8,0:0:0:0:
256,192,145336,1,8,0:0:0:0:
256,192,145532,1,8,0:0:0:0:
256,192,145729,1,0,0:0:0:0:
256,192,146121,1,8,0:0:0:0:
256,192,146317,1,0,0:0:0:0:
256,192,146513,1,8,0:0:0:0:
256,192,146709,1,0,0:0:0:0:
256,192,146905,1,8,0:0:0:0:
256,192,147297,1,0,0:0:0:0:
256,192,147493,1,0,0:0:0:0:
256,192,147689,1,8,0:0:0:0:
256,192,147885,1,0,0:0:0:0:
256,192,148081,1,12,0:0:0:0:
256,192,148474,1,8,0:0:0:0:
256,192,148866,1,0,0:0:0:0:
256,192,149062,1,0,0:0:0:0:
256,192,149258,1,8,0:0:0:0:
256,192,149650,1,0,0:0:0:0:
256,192,150042,1,0,0:0:0:0:
256,192,150434,1,0,0:0:0:0:
256,192,150630,1,0,0:0:0:0:
256,192,150827,1,8,0:0:0:0:
256,192,151219,1,4,0:0:0:0:
256,192,151611,1,8,0:0:0:0:
256,192,151709,1,0,0:0:0:0:
256,192,151807,1,8,0:0:0:0:
256,192,152003,1,0,0:0:0:0:
256,192,152199,1,8,0:0:0:0:
256,192,152395,1,8,0:0:0:0:
256,192,152493,1,0,0:0:0:0:
256,192,152591,1,8,0:0:0:0:
256,192,152689,1,0,0:0:0:0:
256,192,152787,1,8,0:0:0:0:
256,192,153180,1,8,0:0:0:0:
256,192,153376,1,8,0:0:0:0:
256,192,153572,1,0,0:0:0:0:
256,192,153964,1,8,0:0:0:0:
256,192,154160,1,0,0:0:0:0:
256,192,154356,1,0,0:0:0:0:
256,192,154748,1,0,0:0:0:0:
256,192,154944,1,8,0:0:0:0:
256,192,155140,1,0,0:0:0:0:
256,192,155532,1,8,0:0:0:0:
256,192,155729,1,0,0:0:0:0:
256,192,155925,1,8,0:0:0:0:
256,192,156121,1,8,0:0:0:0:
256,192,156317,1,0,0:0:0:0:
256,192,156709,1,8,0:0:0:0:
256,192,157101,1,0,0:0:0:0:
256,192,157297,1,0,0:0:0:0:
256,192,157493,1,12,0:0:0:0:
256,192,157885,1,8,0:0:0:0:
256,192,157983,1,8,0:0:0:0:
256,192,158081,1,0,0:0:0:0:
256,192,158278,1,0,0:0:0:0:
256,192,158474,1,8,0:0:0:0:
256,192,158670,1,8,0:0:0:0:
256,192,158768,1,8,0:0:0:0:
256,192,158866,1,0,0:0:0:0:
256,192,158964,1,0,0:0:0:0:
256,192,159062,1,8,0:0:0:0:
256,192,159454,1,8,0:0:0:0:
256,192,159650,1,0,0:0:0:0:
256,192,159846,1,8,0:0:0:0:
256,192,160042,1,0,0:0:0:0:
256,192,160238,1,8,0:0:0:0:
256,192,160630,1,0,0:0:0:0:
256,192,160827,1,0,0:0:0:0:
256,192,161023,1,8,0:0:0:0:
256,192,161219,1,0,0:0:0:0:
256,192,161415,1,8,0:0:0:0:
256,192,161513,1,8,0:0:0:0:
256,192,161611,1,8,0:0:0:0:
256,192,161807,1,8,0:0:0:0:
256,192,162003,1,8,0:0:0:0:
256,192,162199,1,0,0:0:0:0:
256,192,162591,1,8,0:0:0:0:
256,192,162983,1,0,0:0:0:0:
256,192,163180,1,8,0:0:0:0:
256,192,163376,1,8,0:0:0:0:
256,192,163768,1,4,0:0:0:0:
256,192,164160,1,8,0:0:0:0:
256,192,164356,1,0,0:0:0:0:
256,192,164552,1,8,0:0:0:0:
256,192,164748,1,8,0:0:0:0:
256,192,164944,1,0,0:0:0:0:
256,192,165336,1,8,0:0:0:0:
256,192,165532,1,0,0:0:0:0:
256,192,165729,1,8,0:0:0:0:
256,192,165925,1,0,0:0:0:0:
256,192,166121,1,8,0:0:0:0:
256,192,166513,1,8,0:0:0:0:
256,192,166709,1,8,0:0:0:0:
256,192,166905,1,0,0:0:0:0:
256,192,167297,1,8,0:0:0:0:
256,192,167493,1,8,0:0:0:0:
256,192,167689,1,0,0:0:0:0:
256,192,167885,1,0,0:0:0:0:
256,192,168081,1,8,0:0:0:0:
256,192,168474,1,8,0:0:0:0:
256,192,168670,1,8,0:0:0:0:
256,192,168866,1,0,0:0:0:0:
256,192,169258,1,8,0:0:0:0:
256,192,169454,1,8,0:0:0:0:
256,192,169552,1,8,0:0:0:0:
256,192,169650,1,0,0:0:0:0:
256,192,169846,1,0,0:0:0:0:
256,192,170042,1,8,0:0:0:0:
256,192,170434,1,8,0:0:0:0:
256,192,170630,1,8,0:0:0:0:
256,192,170827,1,0,0:0:0:0:
256,192,171023,1,8,0:0:0:0:
256,192,171219,1,8,0:0:0:0:
256,192,171611,1,8,0:0:0:0:
256,192,171807,1,0,0:0:0:0:
256,192,172003,1,0,0:0:0:0:
256,192,172199,1,8,0:0:0:0:
256,192,172395,1,0,0:0:0:0:
256,192,172787,1,8,0:0:0:0:
256,192,172983,1,8,0:0:0:0:
256,192,173180,1,0,0:0:0:0:
256,192,173572,1,8,0:0:0:0:
256,192,173768,1,0,0:0:0:0:
256,192,173964,1,8,0:0:0:0:
256,192,174160,1,0,0:0:0:0:
256,192,174356,1,8,0:0:0:0:
256,192,174552,1,8,0:0:0:0:
256,192,174748,1,0,0:0:0:0:
256,192,175140,1,8,0:0:0:0:
256,192,175336,1,8,0:0:0:0:
256,192,175532,1,0,0:0:0:0:
256,192,175729,1,8,0:0:0:0:
256,192,176317,1,4,0:0:0:0:
256,192,176709,1,8,0:0:0:0:
256,192,176807,1,0,0:0:0:0:
256,192,176905,1,8,0:0:0:0:
256,192,177101,1,0,0:0:0:0:
256,192,177297,1,8,0:0:0:0:
256,192,177493,1,8,0:0:0:0:
256,192,177591,1,8,0:0:0:0:
256,192,177689,1,0,0:0:0:0:
256,192,177787,1,8,0:0:0:0:
256,192,177885,1,0,0:0:0:0:
256,192,178081,1,0,0:0:0:0:
256,192,178278,1,8,0:0:0:0:
256,192,178474,1,8,0:0:0:0:
256,192,178670,1,0,0:0:0:0:
256,192,179062,1,8,0:0:0:0:
256,192,179258,1,0,0:0:0:0:
256,192,179454,1,0,0:0:0:0:
256,192,179650,1,0,0:0:0:0:
256,192,179846,1,8,0:0:0:0:
256,192,180042,1,8,0:0:0:0:
256,192,180238,1,0,0:0:0:0:
256,192,180630,1,8,0:0:0:0:
256,192,180827,1,8,0:0:0:0:
256,192,181023,1,0,0:0:0:0:
256,192,181415,1,8,0:0:0:0:
256,192,181611,1,0,0:0:0:0:
256,192,181709,1,8,0:0:0:0:
256,192,181807,1,0,0:0:0:0:
256,192,182003,1,8,0:0:0:0:
256,192,182199,1,8,0:0:0:0:
256,192,182591,1,4,0:0:0:0:
256,192,182787,1,8,0:0:0:0:
256,192,182983,1,8,0:0:0:0:
256,192,183081,1,8,0:0:0:0:
256,192,183180,1,0,0:0:0:0:
256,192,183376,1,0,0:0:0:0:
256,192,183572,1,8,0:0:0:0:
256,192,183768,1,8,0:0:0:0:
256,192,183866,1,0,0:0:0:0:
256,192,183964,1,0,0:0:0:0:
256,192,184062,1,0,0:0:0:0:
256,192,184160,1,8,0:0:0:0:
256,192,184356,1,0,0:0:0:0:
256,192,184552,1,8,0:0:0:0:
256,192,184748,1,0,0:0:0:0:
256,192,184944,1,8,0:0:0:0:
256,192,185336,1,8,0:0:0:0:
256,192,185532,1,8,0:0:0:0:
256,192,185729,1,0,0:0:0:0:
256,192,186121,1,8,0:0:0:0:
256,192,186317,1,0,0:0:0:0:
256,192,186513,1,0,0:0:0:0:
256,192,186709,1,0,0:0:0:0:
256,192,186905,1,8,0:0:0:0:
256,192,187101,1,8,0:0:0:0:
256,192,187297,1,0,0:0:0:0:
256,192,187689,1,8,0:0:0:0:
256,192,187885,1,0,0:0:0:0:
256,192,188081,1,8,0:0:0:0:
256,192,188474,1,8,0:0:0:0:
256,192,188670,1,8,0:0:0:0:
256,192,188866,1,8,0:0:0:0:
256,192,189062,1,0,0:0:0:0:
256,192,189258,1,0,0:0:0:0:
256,192,190434,5,4,0:0:0:0:
256,192,190827,1,8,0:0:0:0:
256,192,191023,1,0,0:0:0:0:
256,192,191219,1,8,0:0:0:0:
256,192,191415,1,8,0:0:0:0:
256,192,191611,1,0,0:0:0:0:
256,192,191709,1,0,0:0:0:0:
256,192,191807,1,8,0:0:0:0:
256,192,192003,1,0,0:0:0:0:
256,192,192199,1,8,0:0:0:0:
256,192,192591,1,0,0:0:0:0:
256,192,192787,1,8,0:0:0:0:
256,192,192983,1,0,0:0:0:0:
256,192,193180,1,8,0:0:0:0:
256,192,193278,1,0,0:0:0:0:
256,192,193376,1,8,0:0:0:0:
256,192,193572,1,0,0:0:0:0:
256,192,193866,1,8,0:0:0:0:
256,192,193964,1,0,0:0:0:0:
256,192,194160,1,8,0:0:0:0:
256,192,194356,1,8,0:0:0:0:
256,192,194552,1,0,0:0:0:0:
256,192,194650,1,0,0:0:0:0:
256,192,194748,1,8,0:0:0:0:
256,192,194944,1,0,0:0:0:0:
256,192,195140,1,8,0:0:0:0:
256,192,195532,1,8,0:0:0:0:
256,192,195729,1,0,0:0:0:0:
256,192,195925,1,8,0:0:0:0:
256,192,196121,1,0,0:0:0:0:
256,192,196317,1,8,0:0:0:0:
256,192,196415,1,0,0:0:0:0:
256,192,196513,1,8,0:0:0:0:
256,192,196709,1,0,0:0:0:0:
256,192,197101,1,8,0:0:0:0:
256,192,197297,1,0,0:0:0:0:
256,192,197493,1,8,0:0:0:0:
256,192,197689,1,0,0:0:0:0:
256,192,197885,1,8,0:0:0:0:
256,192,198081,1,8,0:0:0:0:
256,192,198278,1,0,0:0:0:0:
256,192,198670,1,8,0:0:0:0:
256,192,198866,1,8,0:0:0:0:
256,192,199062,1,8,0:0:0:0:
256,192,199258,1,0,0:0:0:0:
256,192,199454,1,8,0:0:0:0:
256,192,199846,1,8,0:0:0:0:
256,192,200042,1,8,0:0:0:0:
256,192,200238,1,0,0:0:0:0:
256,192,200434,1,0,0:0:0:0:
256,192,200630,1,8,0:0:0:0:
256,192,201023,1,8,0:0:0:0:
256,192,201219,1,8,0:0:0:0:
256,192,201415,1,0,0:0:0:0:
256,192,201611,1,0,0:0:0:0:
256,192,201807,1,8,0:0:0:0:
256,192,202003,1,8,0:0:0:0:
256,192,202199,1,0,0:0:0:0:
256,192,202395,1,8,0:0:0:0:
256,192,202591,1,8,0:0:0:0:
256,192,202983,1,4,0:0:0:0:
256,192,203376,1,8,0:0:0:0:
256,192,203572,1,0,0:0:0:0:
256,192,203768,1,8,0:0:0:0:
256,192,203866,1,0,0:0:0:0:
256,192,203964,1,8,0:0:0:0:
256,192,204160,1,0,0:0:0:0:
256,192,204356,1,8,0:0:0:0:
256,192,204748,1,0,0:0:0:0:
256,192,204944,1,8,0:0:0:0:
256,192,205140,1,0,0:0:0:0:
256,192,205238,1,0,0:0:0:0:
256,192,205336,1,8,0:0:0:0:
256,192,205532,1,0,0:0:0:0:
256,192,205729,1,8,0:0:0:0:
256,192,205925,1,0,0:0:0:0:
256,192,206121,1,8,0:0:0:0:
256,192,206513,1,8,0:0:0:0:
256,192,206709,1,8,0:0:0:0:
256,192,206905,1,0,0:0:0:0:
256,192,207101,1,0,0:0:0:0:
256,192,207297,1,8,0:0:0:0:
256,192,207689,1,0,0:0:0:0:
256,192,207885,1,0,0:0:0:0:
256,192,208081,1,8,0:0:0:0:
256,192,208278,1,8,0:0:0:0:
256,192,208376,1,8,0:0:0:0:
256,192,208474,1,0,0:0:0:0:
256,192,208670,1,0,0:0:0:0:
256,192,208866,1,8,0:0:0:0:
256,192,209062,1,8,0:0:0:0:
256,192,209258,1,0,0:0:0:0:
256,192,209650,1,8,0:0:0:0:
256,192,209846,1,0,0:0:0:0:
256,192,209944,1,0,0:0:0:0:
256,192,210042,1,0,0:0:0:0:
256,192,210238,1,8,0:0:0:0:
256,192,210434,1,8,0:0:0:0:
256,192,210630,1,0,0:0:0:0:
256,192,210827,1,8,0:0:0:0:
256,192,211023,1,0,0:0:0:0:
256,192,211121,1,0,0:0:0:0:
256,192,211219,1,8,0:0:0:0:
256,192,211415,1,0,0:0:0:0:
256,192,211611,1,8,0:0:0:0:
256,192,211807,1,8,0:0:0:0:
256,192,212003,1,0,0:0:0:0:
256,192,212199,1,0,0:0:0:0:
256,192,212395,1,8,0:0:0:0:
256,192,212787,1,8,0:0:0:0:
256,192,212983,1,0,0:0:0:0:
256,192,213180,1,8,0:0:0:0:
256,192,213376,1,0,0:0:0:0:
256,192,213572,1,8,0:0:0:0:
256,192,213964,1,8,0:0:0:0:
256,192,214160,1,8,0:0:0:0:
256,192,214356,1,0,0:0:0:0:
256,192,214552,1,0,0:0:0:0:
256,192,214748,1,8,0:0:0:0:
256,192,214944,1,0,0:0:0:0:
256,192,215140,1,8,0:0:0:0:
256,192,215336,5,8,0:0:0:0:
256,192,215532,1,4,0:0:0:0:
256,192,215925,1,8,0:0:0:0:
256,192,216121,1,0,0:0:0:0:
256,192,216317,1,8,0:0:0:0:
256,192,216513,1,0,0:0:0:0:
256,192,216709,1,8,0:0:0:0:
256,192,217101,1,8,0:0:0:0:
256,192,217297,1,0,0:0:0:0:
256,192,217493,1,8,0:0:0:0:
256,192,217689,1,8,0:0:0:0:
256,192,217885,1,0,0:0:0:0:
256,192,218278,1,0,0:0:0:0:
256,192,218474,1,8,0:0:0:0:
256,192,218670,1,0,0:0:0:0:
256,192,219062,1,8,0:0:0:0:
256,192,219258,1,8,0:0:0:0:
256,192,219454,1,0,0:0:0:0:
256,192,219650,1,0,0:0:0:0:
256,192,219846,1,8,0:0:0:0:
256,192,220042,1,8,0:0:0:0:
256,192,220238,1,0,0:0:0:0:
256,192,220630,1,8,0:0:0:0:
256,192,220827,1,8,0:0:0:0:
256,192,221023,1,0,0:0:0:0:
256,192,221219,1,8,0:0:0:0:
256,192,221415,1,0,0:0:0:0:
256,192,221513,1,0,0:0:0:0:
256,192,221611,1,8,0:0:0:0:
256,192,221709,1,8,0:0:0:0:
256,192,221807,1,0,0:0:0:0:
256,192,222199,1,8,0:0:0:0:
256,192,222395,1,8,0:0:0:0:
256,192,222591,1,0,0:0:0:0:
256,192,222787,1,0,0:0:0:0:
256,192,222885,1,8,0:0:0:0:
256,192,222983,1,0,0:0:0:0:
256,192,223180,1,0,0:0:0:0:
256,192,223376,1,8,0:0:0:0:
256,192,223768,1,0,0:0:0:0:
256,192,223964,1,0,0:0:0:0:
256,192,224160,1,8,0:0:0:0:
256,192,224356,1,8,0:0:0:0:
256,192,224454,1,0,0:0:0:0:
256,192,224552,1,8,0:0:0:0:
256,192,224748,1,0,0:0:0:0:
256,192,224944,1,8,0:0:0:0:
256,192,225336,1,8,0:0:0:0:
256,192,225532,1,0,0:0:0:0:
256,192,225630,1,0,0:0:0:0:
256,192,225729,1,0,0:0:0:0:
256,192,225925,1,0,0:0:0:0:
256,192,226121,5,8,0:0:0:0:
256,192,226317,1,8,0:0:0:0:
256,192,226513,1,0,0:0:0:0:
256,192,226709,5,8,0:0:0:0:
256,192,226905,1,0,0:0:0:0:
256,192,227101,1,8,0:0:0:0:
256,192,227297,1,8,0:0:0:0:
256,192,227493,1,0,0:0:0:0:
256,192,227689,1,8,0:0:0:0:
256,192,227885,1,0,0:0:0:0:
256,192,229650,1,0,0:0:0:0:
256,192,230434,1,8,0:0:0:0:
256,192,231023,1,8,0:0:0:0:
256,192,231611,1,0,0:0:0:0:
256,192,231807,1,8,0:0:0:0:
256,192,232003,1,8,0:0:0:0:
256,192,232395,1,8,0:0:0:0:
256,192,232787,1,0,0:0:0:0:
256,192,233376,1,8,0:0:0:0:
256,192,233964,1,8,0:0:0:0:
256,192,235140,1,8,0:0:0:0:
256,192,235532,1,8,0:0:0:0:
256,192,235925,1,0,0:0:0:0:
256,192,237493,1,0,0:0:0:0:
256,192,238278,1,8,0:0:0:0:
256,192,238670,1,0,0:0:0:0:
256,192,239062,1,8,0:0:0:0:
256,192,239650,1,0,0:0:0:0:
256,192,239846,1,8,0:0:0:0:
256,192,240238,1,0,0:0:0:0:
256,192,240630,1,8,0:0:0:0:
256,192,241023,1,8,0:0:0:0:
256,192,241219,1,8,0:0:0:0:
256,192,241415,1,0,0:0:0:0:
256,192,241807,1,0,0:0:0:0:
256,192,242199,1,12,0:0:0:0:
256,192,242591,1,0,0:0:0:0:
256,192,242787,1,8,0:0:0:0:
256,192,242983,1,0,0:0:0:0:
256,192,243376,1,8,0:0:0:0:
256,192,243572,1,8,0:0:0:0:
256,192,243768,1,0,0:0:0:0:
256,192,244062,1,0,0:0:0:0:
256,192,244160,1,0,0:0:0:0:
256,192,244356,1,8,0:0:0:0:
256,192,244552,1,0,0:0:0:0:
256,192,244944,1,8,0:0:0:0:
256,192,245140,1,8,0:0:0:0:
256,192,245336,1,0,0:0:0:0:
256,192,245729,1,0,0:0:0:0:
256,192,245925,1,8,0:0:0:0:
256,192,246121,1,0,0:0:0:0:
256,192,246317,1,0,0:0:0:0:
256,192,246513,1,8,0:0:0:0:
256,192,246905,1,0,0:0:0:0:
256,192,247199,1,0,0:0:0:0:
256,192,247297,1,0,0:0:0:0:
256,192,247493,1,8,0:0:0:0:
256,192,247689,1,0,0:0:0:0:
256,192,247885,1,0,0:0:0:0:
256,192,248081,1,8,0:0:0:0:
256,192,248278,1,8,0:0:0:0:
256,192,248474,1,4,0:0:0:0:
256,192,248866,1,8,0:0:0:0:
256,192,249062,1,0,0:0:0:0:
256,192,249258,1,8,0:0:0:0:
256,192,249454,1,0,0:0:0:0:
256,192,249552,1,0,0:0:0:0:
256,192,249650,1,0,0:0:0:0:
256,192,249846,1,0,0:0:0:0:
256,192,250042,1,8,0:0:0:0:
256,192,250434,1,8,0:0:0:0:
256,192,250630,1,0,0:0:0:0:
256,192,250827,1,8,0:0:0:0:
256,192,251023,1,0,0:0:0:0:
256,192,251219,1,8,0:0:0:0:
256,192,251415,1,8,0:0:0:0:
256,192,251611,1,0,0:0:0:0:
256,192,251807,1,0,0:0:0:0:
256,192,252003,1,8,0:0:0:0:
256,192,252199,1,8,0:0:0:0:
256,192,252395,1,0,0:0:0:0:
256,192,252591,1,0,0:0:0:0:
256,192,252787,1,8,0:0:0:0:
256,192,252983,1,8,0:0:0:0:
256,192,253180,1,0,0:0:0:0:
256,192,253376,1,0,0:0:0:0:
256,192,253572,1,8,0:0:0:0:
256,192,253768,1,8,0:0:0:0:
256,192,253866,1,8,0:0:0:0:
256,192,253964,1,0,0:0:0:0:
256,192,254160,1,8,0:0:0:0:
256,192,254356,1,8,0:0:0:0:
256,192,254552,1,8,0:0:0:0:
256,192,254748,1,4,0:0:0:0:
256,192,255140,1,8,0:0:0:0:
256,192,255336,1,0,0:0:0:0:
256,192,255532,1,8,0:0:0:0:
256,192,255729,1,0,0:0:0:0:
256,192,255925,1,0,0:0:0:0:
256,192,256317,1,8,0:0:0:0:
256,192,256513,1,0,0:0:0:0:
256,192,256709,1,8,0:0:0:0:
256,192,256905,1,8,0:0:0:0:
256,192,257101,1,0,0:0:0:0:
256,192,257297,1,8,0:0:0:0:
256,192,257493,1,0,0:0:0:0:
256,192,257689,1,8,0:0:0:0:
256,192,257885,1,0,0:0:0:0:
256,192,258278,1,8,0:0:0:0:
256,192,258474,1,8,0:0:0:0:
256,192,258670,1,0,0:0:0:0:
256,192,258866,1,0,0:0:0:0:
256,192,259062,1,8,0:0:0:0:
256,192,259258,1,8,0:0:0:0:
256,192,259454,1,0,0:0:0:0:
256,192,259846,1,8,0:0:0:0:
256,192,260042,1,8,0:0:0:0:
256,192,260238,1,0,0:0:0:0:
256,192,260434,1,8,0:0:0:0:
256,192,260630,1,0,0:0:0:0:
256,192,260729,1,0,0:0:0:0:
256,192,260827,1,8,0:0:0:0:
256,192,260925,1,8,0:0:0:0:
256,192,261023,1,0,0:0:0:0:
256,192,261415,1,8,0:0:0:0:
256,192,261611,1,8,0:0:0:0:
256,192,261807,1,0,0:0:0:0:
256,192,262003,1,0,0:0:0:0:
256,192,262101,1,8,0:0:0:0:
256,192,262199,1,0,0:0:0:0:
256,192,262395,1,0,0:0:0:0:
256,192,262591,1,8,0:0:0:0:
256,192,262787,1,8,0:0:0:0:
256,192,262983,1,0,0:0:0:0:
256,192,263180,1,0,0:0:0:0:
256,192,263376,1,8,0:0:0:0:
256,192,263572,1,8,0:0:0:0:
256,192,263670,1,0,0:0:0:0:
256,192,263768,1,8,0:0:0:0:
256,192,263964,1,0,0:0:0:0:
256,192,264160,1,8,0:0:0:0:
256,192,264552,1,8,0:0:0:0:
256,192,264748,1,8,0:0:0:0:
256,192,264944,1,0,0:0:0:0:
256,192,265140,1,0,0:0:0:0:
256,192,265336,1,8,0:0:0:0:
256,192,265532,1,8,0:0:0:0:
256,192,265729,1,4,0:0:0:0:
256,192,267297,1,0,0:0:0:0:
256,192,267493,1,8,0:0:0:0:
256,192,267689,1,0,0:0:0:0:
256,192,267885,1,8,0:0:0:0:
256,192,268081,1,8,0:0:0:0:
256,192,268278,1,0,0:0:0:0:
256,192,268376,1,8,0:0:0:0:
256,192,268474,1,0,0:0:0:0:
256,192,268670,1,12,0:0:0:0:
