osu file format v14

[General]
AudioFilename: audio.mp3
AudioLeadIn: 0
PreviewTime: 74663
Countdown: 1
SampleSet: Soft
StackLeniency: 0.7
Mode: 3
LetterboxInBreaks: 0
SpecialStyle: 0
WidescreenStoryboard: 0

[Editor]
DistanceSpacing: 1.6
BeatDivisor: 4
GridSize: 4
TimelineZoom: 2.4

[Metadata]
Title:Clumsy thoughts
TitleUnicode:Clumsy thoughts
Artist:Nekomata Master feat. *spiLa*
ArtistUnicode:￧フᆱ¥マノMaster feat. *spiLa*
Creator:JamesHappy
Version:Extra
Source:REFLEC BEAT colette -Winter-
Tags:naoyuki sato jubeat saucer plus crevice long version
BeatmapID:1726223
BeatmapSetID:823780

[Difficulty]
HPDrainRate:8
CircleSize:7
OverallDifficulty:8
ApproachRate:1
SliderMultiplier:1.4
SliderTickRate:1

[Events]
//Background and Video events
0,0,"Konachan.com - 268767 animal_ears bicolored_eyes bubbles catgirl clouds long_hair mauve navel original reflection seifuku sky tail umbrella water white_hair.jpg",0,0
//Break Periods
//Storyboard Layer 0 (Background)
//Storyboard Layer 1 (Fail)
//Storyboard Layer 2 (Pass)
//Storyboard Layer 3 (Foreground)
//Storyboard Sound Samples

[TimingPoints]
546,392.156862745098,4,2,1,20,1,0
75840,-100,4,2,1,20,0,1
100938,-100,4,2,1,20,0,0
190349,-100,4,2,1,20,0,1
215447,-100,4,2,1,20,0,0
229565,-100,4,2,1,20,0,1
254663,-100,4,2,1,20,0,0
268781,-117.647058823529,4,2,1,20,0,0
281330,-100,4,2,1,20,0,0

[HitObjects]
256,192,349,5,0,0:0:0:0:
329,192,415,1,0,0:0:0:0:
402,192,480,1,0,0:0:0:0:
475,192,546,1,0,0:0:0:0:
36,192,546,1,0,0:0:0:0:
109,192,546,128,0,742:0:0:0:0:
402,192,742,128,0,938:0:0:0:0:
36,192,938,1,0,0:0:0:0:
182,192,938,128,0,1134:0:0:0:0:
329,192,1134,128,0,1330:0:0:0:0:
36,192,1330,1,0,0:0:0:0:
109,192,1330,128,0,1526:0:0:0:0:
256,192,1526,128,0,1722:0:0:0:0:
475,192,1722,1,0,0:0:0:0:
36,192,1722,128,0,1918:0:0:0:0:
182,192,1918,128,0,2114:0:0:0:0:
402,192,2114,1,0,0:0:0:0:
36,192,2114,128,0,2310:0:0:0:0:
256,192,2310,128,0,2506:0:0:0:0:
109,192,2506,128,0,2702:0:0:0:0:
475,192,2506,1,0,0:0:0:0:
329,192,2702,128,0,2898:0:0:0:0:
36,192,2898,1,0,0:0:0:0:
182,192,2898,128,0,3095:0:0:0:0:
402,192,3095,128,0,3291:0:0:0:0:
36,192,3291,1,0,0:0:0:0:
256,192,3291,128,0,3487:0:0:0:0:
109,192,3487,128,0,3683:0:0:0:0:
256,192,3683,1,0,0:0:0:0:
475,192,3683,1,0,0:0:0:0:
402,192,3683,128,0,3879:0:0:0:0:
182,192,3879,128,0,4075:0:0:0:0:
329,192,4075,128,0,4271:0:0:0:0:
475,192,4075,1,0,0:0:0:0:
109,192,4271,128,0,4467:0:0:0:0:
256,192,4467,128,0,4663:0:0:0:0:
402,192,4467,1,0,0:0:0:0:
36,192,4663,128,0,5251:0:0:0:0:
182,192,4859,128,0,5251:0:0:0:0:
475,192,4859,1,0,0:0:0:0:
329,192,5055,128,0,5251:0:0:0:0:
402,192,5251,1,0,0:0:0:0:
109,192,5447,128,0,6036:0:0:0:0:
256,192,5644,128,0,6036:0:0:0:0:
475,192,5644,1,0,0:0:0:0:
402,192,5840,128,0,6036:0:0:0:0:
36,192,6036,1,0,0:0:0:0:
182,192,6232,128,0,6820:0:0:0:0:
329,192,6428,128,0,6820:0:0:0:0:
36,192,6428,1,0,0:0:0:0:
475,192,6624,128,0,6820:0:0:0:0:
36,192,6820,1,0,0:0:0:0:
109,192,6820,1,0,0:0:0:0:
256,192,6820,1,0,0:0:0:0:
402,192,6820,1,0,0:0:0:0:
109,192,7016,128,0,7212:0:0:0:0:
329,192,7212,128,0,7408:0:0:0:0:
475,192,7212,1,0,0:0:0:0:
402,192,7212,1,0,0:0:0:0:
256,192,7212,1,0,0:0:0:0:
182,192,7408,128,0,7604:0:0:0:0:
402,192,7604,128,0,7800:0:0:0:0:
475,192,7604,1,0,0:0:0:0:
256,192,7800,128,0,7996:0:0:0:0:
402,192,7898,128,0,7996:0:0:0:0:
475,192,7996,128,0,8193:0:0:0:0:
36,192,7996,1,0,0:0:0:0:
109,192,7996,1,0,0:0:0:0:
182,192,7996,1,0,0:0:0:0:
329,192,8193,128,0,8389:0:0:0:0:
475,192,8389,128,0,8585:0:0:0:0:
109,192,8389,1,0,0:0:0:0:
182,192,8389,1,0,0:0:0:0:
256,192,8585,128,0,8781:0:0:0:0:
36,192,8781,1,0,0:0:0:0:
402,192,8781,128,0,8977:0:0:0:0:
109,192,8781,1,0,0:0:0:0:
329,192,8781,1,0,0:0:0:0:
182,192,8977,128,0,9173:0:0:0:0:
329,192,9173,128,0,9369:0:0:0:0:
36,192,9173,1,0,0:0:0:0:
109,192,9369,128,0,9565:0:0:0:0:
402,192,9369,1,0,0:0:0:0:
475,192,9369,1,0,0:0:0:0:
256,192,9565,128,0,9761:0:0:0:0:
36,192,9565,1,0,0:0:0:0:
329,192,9565,1,0,0:0:0:0:
182,192,9565,1,0,0:0:0:0:
402,192,9761,128,0,9957:0:0:0:0:
109,192,9957,128,0,10153:0:0:0:0:
36,192,9957,1,0,0:0:0:0:
256,192,9957,1,0,0:0:0:0:
182,192,9957,1,0,0:0:0:0:
329,192,10153,128,0,10349:0:0:0:0:
36,192,10349,1,0,0:0:0:0:
182,192,10349,128,0,10546:0:0:0:0:
475,192,10349,1,0,0:0:0:0:
109,192,10349,1,0,0:0:0:0:
402,192,10546,128,0,10742:0:0:0:0:
109,192,10742,1,0,0:0:0:0:
256,192,10742,128,0,10938:0:0:0:0:
475,192,10938,128,0,11526:0:0:0:0:
36,192,11134,1,0,0:0:0:0:
402,192,11134,128,0,11526:0:0:0:0:
109,192,11134,1,0,0:0:0:0:
329,192,11330,128,0,11526:0:0:0:0:
36,192,11330,1,0,0:0:0:0:
109,192,11330,1,0,0:0:0:0:
36,192,11526,128,0,12114:0:0:0:0:
109,192,11526,1,0,0:0:0:0:
256,192,11722,128,0,12310:0:0:0:0:
329,192,11918,128,0,12310:0:0:0:0:
402,192,11918,1,0,0:0:0:0:
182,192,12114,128,0,12310:0:0:0:0:
475,192,12310,1,0,0:0:0:0:
109,192,12506,128,0,13095:0:0:0:0:
475,192,12702,1,0,0:0:0:0:
182,192,12702,128,0,13095:0:0:0:0:
36,192,12898,128,0,13095:0:0:0:0:
475,192,13095,1,0,0:0:0:0:
329,192,13095,1,0,0:0:0:0:
329,192,13487,1,0,0:0:0:0:
475,192,13487,1,0,0:0:0:0:
256,192,13487,128,0,13879:0:0:0:0:
182,192,13683,128,0,14075:0:0:0:0:
329,192,13879,128,0,14173:0:0:0:0:
256,192,14075,128,0,14369:0:0:0:0:
36,192,14075,1,0,0:0:0:0:
475,192,14075,1,0,0:0:0:0:
182,192,14173,128,0,14663:0:0:0:0:
329,192,14271,128,0,14663:0:0:0:0:
36,192,14271,1,0,0:0:0:0:
109,192,14271,1,0,0:0:0:0:
402,192,14271,1,0,0:0:0:0:
475,192,14271,1,0,0:0:0:0:
256,192,14467,128,0,14663:0:0:0:0:
36,192,14663,1,0,0:0:0:0:
109,192,14663,1,0,0:0:0:0:
402,192,14663,1,0,0:0:0:0:
475,192,14663,1,0,0:0:0:0:
329,192,14859,1,0,0:0:0:0:
36,192,14859,1,0,0:0:0:0:
402,192,14957,1,0,0:0:0:0:
109,192,14957,1,0,0:0:0:0:
256,192,15055,1,0,0:0:0:0:
182,192,15055,1,0,0:0:0:0:
475,192,15055,1,0,0:0:0:0:
109,192,15251,1,0,0:0:0:0:
402,192,15251,1,0,0:0:0:0:
36,192,15447,1,0,0:0:0:0:
329,192,15447,1,0,0:0:0:0:
256,192,15447,1,0,0:0:0:0:
109,192,15644,1,0,0:0:0:0:
329,192,15644,1,0,0:0:0:0:
182,192,15742,1,0,0:0:0:0:
402,192,15742,1,0,0:0:0:0:
256,192,15840,1,0,0:0:0:0:
475,192,15840,1,0,0:0:0:0:
36,192,15840,1,0,0:0:0:0:
329,192,16036,1,0,0:0:0:0:
109,192,16036,1,0,0:0:0:0:
182,192,16232,1,0,0:0:0:0:
402,192,16232,1,0,0:0:0:0:
475,192,16232,1,0,0:0:0:0:
109,192,16428,1,0,0:0:0:0:
402,192,16428,1,0,0:0:0:0:
182,192,16526,1,0,0:0:0:0:
329,192,16526,1,0,0:0:0:0:
36,192,16624,1,0,0:0:0:0:
475,192,16624,1,0,0:0:0:0:
256,192,16624,1,0,0:0:0:0:
109,192,16820,1,0,0:0:0:0:
329,192,16820,1,0,0:0:0:0:
182,192,17016,1,0,0:0:0:0:
402,192,17016,1,0,0:0:0:0:
256,192,17016,1,0,0:0:0:0:
182,192,17212,1,0,0:0:0:0:
329,192,17212,1,0,0:0:0:0:
109,192,17310,1,0,0:0:0:0:
402,192,17310,1,0,0:0:0:0:
36,192,17408,1,0,0:0:0:0:
475,192,17408,1,0,0:0:0:0:
109,192,17604,1,0,0:0:0:0:
402,192,17604,1,0,0:0:0:0:
36,192,17800,1,0,0:0:0:0:
329,192,17800,1,0,0:0:0:0:
182,192,17800,1,0,0:0:0:0:
475,192,17800,1,0,0:0:0:0:
475,192,17996,1,0,0:0:0:0:
182,192,17996,1,0,0:0:0:0:
109,192,18095,1,0,0:0:0:0:
402,192,18095,1,0,0:0:0:0:
329,192,18193,1,0,0:0:0:0:
36,192,18193,1,0,0:0:0:0:
256,192,18193,1,0,0:0:0:0:
402,192,18389,1,0,0:0:0:0:
109,192,18389,1,0,0:0:0:0:
182,192,18389,1,0,0:0:0:0:
182,192,18585,1,0,0:0:0:0:
475,192,18585,1,0,0:0:0:0:
256,192,18585,1,0,0:0:0:0:
182,192,18781,1,0,0:0:0:0:
329,192,18781,1,0,0:0:0:0:
109,192,18879,1,0,0:0:0:0:
402,192,18879,1,0,0:0:0:0:
475,192,18977,1,0,0:0:0:0:
256,192,18977,1,0,0:0:0:0:
36,192,18977,1,0,0:0:0:0:
402,192,19173,1,0,0:0:0:0:
182,192,19173,1,0,0:0:0:0:
109,192,19173,1,0,0:0:0:0:
109,192,19369,1,0,0:0:0:0:
329,192,19369,1,0,0:0:0:0:
36,192,19369,1,0,0:0:0:0:
256,192,19369,1,0,0:0:0:0:
109,192,19565,1,0,0:0:0:0:
402,192,19565,1,0,0:0:0:0:
475,192,19565,1,0,0:0:0:0:
329,192,19663,1,0,0:0:0:0:
182,192,19663,1,0,0:0:0:0:
36,192,19761,1,0,0:0:0:0:
256,192,19761,1,0,0:0:0:0:
475,192,19761,1,0,0:0:0:0:
402,192,19957,1,0,0:0:0:0:
182,192,19957,1,0,0:0:0:0:
109,192,19957,1,0,0:0:0:0:
329,192,20153,1,0,0:0:0:0:
36,192,20153,1,0,0:0:0:0:
109,192,20153,1,0,0:0:0:0:
256,192,20153,1,0,0:0:0:0:
475,192,20349,1,0,0:0:0:0:
182,192,20349,1,0,0:0:0:0:
402,192,20447,1,0,0:0:0:0:
109,192,20447,1,0,0:0:0:0:
329,192,20546,1,0,0:0:0:0:
36,192,20546,1,0,0:0:0:0:
256,192,20546,1,0,0:0:0:0:
402,192,20742,1,0,0:0:0:0:
109,192,20742,1,0,0:0:0:0:
182,192,20742,1,0,0:0:0:0:
182,192,20938,1,0,0:0:0:0:
475,192,20938,1,0,0:0:0:0:
329,192,20938,1,0,0:0:0:0:
36,192,20938,1,0,0:0:0:0:
256,192,20938,1,0,0:0:0:0:
329,192,21134,1,0,0:0:0:0:
36,192,21134,1,0,0:0:0:0:
402,192,21232,1,0,0:0:0:0:
109,192,21232,1,0,0:0:0:0:
256,192,21330,1,0,0:0:0:0:
182,192,21330,1,0,0:0:0:0:
475,192,21330,1,0,0:0:0:0:
109,192,21526,1,0,0:0:0:0:
402,192,21526,1,0,0:0:0:0:
36,192,21722,1,0,0:0:0:0:
329,192,21722,1,0,0:0:0:0:
256,192,21722,1,0,0:0:0:0:
109,192,21918,1,0,0:0:0:0:
329,192,21918,1,0,0:0:0:0:
182,192,22016,1,0,0:0:0:0:
402,192,22016,1,0,0:0:0:0:
256,192,22114,1,0,0:0:0:0:
475,192,22114,1,0,0:0:0:0:
36,192,22114,1,0,0:0:0:0:
329,192,22310,1,0,0:0:0:0:
109,192,22310,1,0,0:0:0:0:
182,192,22506,1,0,0:0:0:0:
402,192,22506,1,0,0:0:0:0:
475,192,22506,1,0,0:0:0:0:
109,192,22702,1,0,0:0:0:0:
329,192,22702,1,0,0:0:0:0:
182,192,22800,1,0,0:0:0:0:
402,192,22800,1,0,0:0:0:0:
36,192,22898,1,0,0:0:0:0:
475,192,22898,1,0,0:0:0:0:
256,192,22898,1,0,0:0:0:0:
109,192,23095,1,0,0:0:0:0:
329,192,23095,1,0,0:0:0:0:
182,192,23291,1,0,0:0:0:0:
402,192,23291,1,0,0:0:0:0:
475,192,23291,1,0,0:0:0:0:
36,192,23487,1,0,0:0:0:0:
329,192,23487,1,0,0:0:0:0:
109,192,23585,1,0,0:0:0:0:
402,192,23585,1,0,0:0:0:0:
182,192,23683,1,0,0:0:0:0:
475,192,23683,1,0,0:0:0:0:
109,192,23879,1,0,0:0:0:0:
402,192,23879,1,0,0:0:0:0:
36,192,24075,1,0,0:0:0:0:
329,192,24075,1,0,0:0:0:0:
182,192,24075,1,0,0:0:0:0:
475,192,24075,1,0,0:0:0:0:
475,192,24271,1,0,0:0:0:0:
182,192,24271,1,0,0:0:0:0:
109,192,24369,1,0,0:0:0:0:
402,192,24369,1,0,0:0:0:0:
329,192,24467,1,0,0:0:0:0:
36,192,24467,1,0,0:0:0:0:
256,192,24467,1,0,0:0:0:0:
182,192,24467,1,0,0:0:0:0:
402,192,24663,1,0,0:0:0:0:
109,192,24663,1,0,0:0:0:0:
329,192,24663,1,0,0:0:0:0:
256,192,24859,1,0,0:0:0:0:
475,192,24859,1,0,0:0:0:0:
36,192,24859,1,0,0:0:0:0:
182,192,25055,1,0,0:0:0:0:
402,192,25055,1,0,0:0:0:0:
109,192,25153,1,0,0:0:0:0:
329,192,25153,1,0,0:0:0:0:
475,192,25251,1,0,0:0:0:0:
256,192,25251,1,0,0:0:0:0:
36,192,25251,1,0,0:0:0:0:
182,192,25251,1,0,0:0:0:0:
402,192,25447,1,0,0:0:0:0:
256,192,25447,1,0,0:0:0:0:
109,192,25447,1,0,0:0:0:0:
182,192,25644,1,0,0:0:0:0:
329,192,25644,1,0,0:0:0:0:
36,192,25644,1,0,0:0:0:0:
475,192,25644,1,0,0:0:0:0:
329,192,26232,1,0,0:0:0:0:
182,192,26232,1,0,0:0:0:0:
256,192,26232,1,0,0:0:0:0:
256,192,26428,1,0,0:0:0:0:
402,192,26428,1,0,0:0:0:0:
329,192,26428,1,0,0:0:0:0:
329,192,26624,1,0,0:0:0:0:
475,192,26624,1,0,0:0:0:0:
109,192,26624,1,0,0:0:0:0:
36,192,26624,1,0,0:0:0:0:
402,192,26624,1,0,0:0:0:0:
36,192,26820,1,0,0:0:0:0:
109,192,26820,1,0,0:0:0:0:
256,192,26820,1,0,0:0:0:0:
402,192,26820,1,0,0:0:0:0:
329,192,26820,1,0,0:0:0:0:
36,192,27016,1,0,0:0:0:0:
109,192,27016,1,0,0:0:0:0:
182,192,27016,1,0,0:0:0:0:
329,192,27016,1,0,0:0:0:0:
256,192,27016,1,0,0:0:0:0:
109,192,27212,1,0,0:0:0:0:
402,192,27212,1,0,0:0:0:0:
256,192,27212,1,0,0:0:0:0:
36,192,27212,1,0,0:0:0:0:
475,192,27212,1,0,0:0:0:0:
182,192,27408,1,0,0:0:0:0:
329,192,27604,1,0,0:0:0:0:
475,192,27604,1,0,0:0:0:0:
109,192,27800,1,0,0:0:0:0:
329,192,27996,1,0,0:0:0:0:
475,192,27996,1,0,0:0:0:0:
36,192,28193,1,0,0:0:0:0:
329,192,28389,1,0,0:0:0:0:
475,192,28389,1,0,0:0:0:0:
402,192,28389,128,0,28781:0:0:0:0:
256,192,28585,1,0,0:0:0:0:
36,192,28781,1,0,0:0:0:0:
182,192,28781,1,0,0:0:0:0:
109,192,28781,1,0,0:0:0:0:
475,192,28977,1,0,0:0:0:0:
36,192,29173,1,0,0:0:0:0:
182,192,29173,1,0,0:0:0:0:
402,192,29369,1,0,0:0:0:0:
36,192,29565,1,0,0:0:0:0:
182,192,29565,1,0,0:0:0:0:
256,192,29565,1,0,0:0:0:0:
329,192,29761,1,0,0:0:0:0:
256,192,29859,1,0,0:0:0:0:
36,192,29957,1,0,0:0:0:0:
182,192,29957,1,0,0:0:0:0:
109,192,29957,1,0,0:0:0:0:
256,192,30153,1,0,0:0:0:0:
329,192,30349,1,0,0:0:0:0:
475,192,30349,1,0,0:0:0:0:
402,192,30349,1,0,0:0:0:0:
182,192,30545,1,0,0:0:0:0:
329,192,30742,1,0,0:0:0:0:
475,192,30742,1,0,0:0:0:0:
109,192,30938,1,0,0:0:0:0:
329,192,31134,1,0,0:0:0:0:
475,192,31134,1,0,0:0:0:0:
256,192,31134,1,0,0:0:0:0:
36,192,31330,1,0,0:0:0:0:
329,192,31526,1,0,0:0:0:0:
475,192,31526,1,0,0:0:0:0:
402,192,31526,1,0,0:0:0:0:
256,192,31722,1,0,0:0:0:0:
36,192,31918,1,0,0:0:0:0:
182,192,31918,1,0,0:0:0:0:
329,192,31918,128,0,32702:0:0:0:0:
475,192,32114,1,0,0:0:0:0:
36,192,32310,1,0,0:0:0:0:
182,192,32310,1,0,0:0:0:0:
402,192,32506,1,0,0:0:0:0:
36,192,32702,1,0,0:0:0:0:
182,192,32702,1,0,0:0:0:0:
256,192,32702,128,0,33487:0:0:0:0:
329,192,32898,1,0,0:0:0:0:
475,192,32898,1,0,0:0:0:0:
36,192,33095,1,0,0:0:0:0:
182,192,33095,1,0,0:0:0:0:
109,192,33095,1,0,0:0:0:0:
109,192,33487,1,0,0:0:0:0:
182,192,33487,1,0,0:0:0:0:
329,192,33487,1,0,0:0:0:0:
402,192,33487,1,0,0:0:0:0:
256,192,33683,1,0,0:0:0:0:
109,192,33879,1,0,0:0:0:0:
402,192,33879,1,0,0:0:0:0:
182,192,34075,1,0,0:0:0:0:
109,192,34271,1,0,0:0:0:0:
402,192,34271,1,0,0:0:0:0:
329,192,34467,1,0,0:0:0:0:
109,192,34663,1,0,0:0:0:0:
402,192,34663,1,0,0:0:0:0:
256,192,34663,1,0,0:0:0:0:
36,192,34859,1,0,0:0:0:0:
182,192,35055,1,0,0:0:0:0:
329,192,35055,1,0,0:0:0:0:
256,192,35055,128,0,35447:0:0:0:0:
36,192,35251,1,0,0:0:0:0:
109,192,35447,1,0,0:0:0:0:
402,192,35447,1,0,0:0:0:0:
182,192,35447,128,0,35840:0:0:0:0:
329,192,35644,1,0,0:0:0:0:
36,192,35840,1,0,0:0:0:0:
475,192,35840,1,0,0:0:0:0:
109,192,35840,128,0,36232:0:0:0:0:
256,192,36036,1,0,0:0:0:0:
402,192,36036,1,0,0:0:0:0:
182,192,36232,128,0,36624:0:0:0:0:
36,192,36232,1,0,0:0:0:0:
329,192,36232,1,0,0:0:0:0:
329,192,36428,1,0,0:0:0:0:
36,192,36624,1,0,0:0:0:0:
109,192,36624,1,0,0:0:0:0:
402,192,36624,1,0,0:0:0:0:
475,192,36624,1,0,0:0:0:0:
329,192,36820,1,0,0:0:0:0:
182,192,37016,1,0,0:0:0:0:
36,192,37016,1,0,0:0:0:0:
402,192,37212,1,0,0:0:0:0:
182,192,37408,1,0,0:0:0:0:
36,192,37408,1,0,0:0:0:0:
256,192,37408,1,0,0:0:0:0:
475,192,37604,1,0,0:0:0:0:
182,192,37800,1,0,0:0:0:0:
36,192,37800,1,0,0:0:0:0:
109,192,37800,128,0,38193:0:0:0:0:
256,192,37996,1,0,0:0:0:0:
475,192,38193,1,0,0:0:0:0:
329,192,38193,1,0,0:0:0:0:
402,192,38193,1,0,0:0:0:0:
36,192,38389,1,0,0:0:0:0:
475,192,38585,1,0,0:0:0:0:
329,192,38585,1,0,0:0:0:0:
109,192,38781,1,0,0:0:0:0:
475,192,38977,1,0,0:0:0:0:
329,192,38977,1,0,0:0:0:0:
256,192,38977,1,0,0:0:0:0:
182,192,39173,1,0,0:0:0:0:
256,192,39271,1,0,0:0:0:0:
475,192,39369,1,0,0:0:0:0:
329,192,39369,1,0,0:0:0:0:
402,192,39369,1,0,0:0:0:0:
256,192,39565,1,0,0:0:0:0:
182,192,39761,1,0,0:0:0:0:
36,192,39761,1,0,0:0:0:0:
109,192,39761,1,0,0:0:0:0:
329,192,39957,1,0,0:0:0:0:
182,192,40153,1,0,0:0:0:0:
36,192,40153,1,0,0:0:0:0:
402,192,40349,1,0,0:0:0:0:
182,192,40546,1,0,0:0:0:0:
36,192,40546,1,0,0:0:0:0:
256,192,40546,1,0,0:0:0:0:
475,192,40742,1,0,0:0:0:0:
182,192,40938,1,0,0:0:0:0:
36,192,40938,1,0,0:0:0:0:
109,192,40938,1,0,0:0:0:0:
256,192,41134,1,0,0:0:0:0:
475,192,41330,1,0,0:0:0:0:
329,192,41330,1,0,0:0:0:0:
182,192,41330,128,0,42114:0:0:0:0:
36,192,41526,1,0,0:0:0:0:
475,192,41722,1,0,0:0:0:0:
329,192,41722,1,0,0:0:0:0:
109,192,41918,1,0,0:0:0:0:
475,192,42114,1,0,0:0:0:0:
329,192,42114,1,0,0:0:0:0:
256,192,42114,128,0,42898:0:0:0:0:
182,192,42310,1,0,0:0:0:0:
36,192,42310,1,0,0:0:0:0:
475,192,42506,1,0,0:0:0:0:
329,192,42506,1,0,0:0:0:0:
402,192,42506,1,0,0:0:0:0:
36,192,42702,1,0,0:0:0:0:
402,192,42898,1,0,0:0:0:0:
329,192,42898,1,0,0:0:0:0:
182,192,42898,1,0,0:0:0:0:
109,192,42898,1,0,0:0:0:0:
256,192,43095,1,0,0:0:0:0:
402,192,43291,1,0,0:0:0:0:
109,192,43291,1,0,0:0:0:0:
329,192,43487,1,0,0:0:0:0:
402,192,43683,1,0,0:0:0:0:
109,192,43683,1,0,0:0:0:0:
182,192,43879,1,0,0:0:0:0:
109,192,44075,1,0,0:0:0:0:
256,192,44075,1,0,0:0:0:0:
402,192,44075,128,0,44467:0:0:0:0:
475,192,44467,1,0,0:0:0:0:
256,192,44467,128,0,44859:0:0:0:0:
36,192,44467,128,0,44859:0:0:0:0:
402,192,44663,1,0,0:0:0:0:
475,192,44859,1,0,0:0:0:0:
329,192,44859,128,0,45251:0:0:0:0:
109,192,44859,128,0,45251:0:0:0:0:
402,192,45055,1,0,0:0:0:0:
475,192,45251,128,0,45644:0:0:0:0:
256,192,45251,128,0,45644:0:0:0:0:
36,192,45251,1,0,0:0:0:0:
36,192,45447,1,0,0:0:0:0:
329,192,45447,1,0,0:0:0:0:
402,192,45644,128,0,46036:0:0:0:0:
182,192,45644,128,0,46036:0:0:0:0:
36,192,45644,1,0,0:0:0:0:
109,192,45644,1,0,0:0:0:0:
109,192,45840,1,0,0:0:0:0:
36,192,46036,128,0,46428:0:0:0:0:
256,192,46036,128,0,46428:0:0:0:0:
475,192,46036,1,0,0:0:0:0:
475,192,46232,1,0,0:0:0:0:
402,192,46330,1,0,0:0:0:0:
109,192,46428,128,0,46820:0:0:0:0:
329,192,46428,128,0,46820:0:0:0:0:
475,192,46820,128,0,47212:0:0:0:0:
402,192,46820,1,0,0:0:0:0:
36,192,46820,1,0,0:0:0:0:
109,192,47016,1,0,0:0:0:0:
256,192,47212,128,0,47604:0:0:0:0:
182,192,47212,1,0,0:0:0:0:
329,192,47212,1,0,0:0:0:0:
402,192,47408,1,0,0:0:0:0:
36,192,47604,1,0,0:0:0:0:
109,192,47604,1,0,0:0:0:0:
475,192,47604,1,0,0:0:0:0:
329,192,47604,1,0,0:0:0:0:
182,192,47996,1,0,0:0:0:0:
329,192,48389,1,0,0:0:0:0:
36,192,48585,1,0,0:0:0:0:
182,192,48585,1,0,0:0:0:0:
109,192,48585,1,0,0:0:0:0:
36,192,48781,1,0,0:0:0:0:
256,192,48781,128,0,49173:0:0:0:0:
182,192,48781,1,0,0:0:0:0:
109,192,48781,1,0,0:0:0:0:
329,192,49173,1,0,0:0:0:0:
109,192,49173,1,0,0:0:0:0:
36,192,49173,1,0,0:0:0:0:
475,192,49173,1,0,0:0:0:0:
182,192,49173,1,0,0:0:0:0:
256,192,49271,1,0,0:0:0:0:
402,192,49369,1,0,0:0:0:0:
182,192,49369,1,0,0:0:0:0:
36,192,49467,1,0,0:0:0:0:
329,192,49565,1,0,0:0:0:0:
109,192,49565,1,0,0:0:0:0:
475,192,49565,1,0,0:0:0:0:
182,192,49663,1,0,0:0:0:0:
36,192,49761,1,0,0:0:0:0:
256,192,49761,1,0,0:0:0:0:
329,192,49859,1,0,0:0:0:0:
182,192,49957,1,0,0:0:0:0:
402,192,49957,1,0,0:0:0:0:
475,192,49957,1,0,0:0:0:0:
256,192,50055,1,0,0:0:0:0:
109,192,50153,1,0,0:0:0:0:
329,192,50153,1,0,0:0:0:0:
182,192,50251,1,0,0:0:0:0:
256,192,50349,1,0,0:0:0:0:
475,192,50349,1,0,0:0:0:0:
36,192,50349,1,0,0:0:0:0:
329,192,50447,1,0,0:0:0:0:
182,192,50546,1,0,0:0:0:0:
402,192,50546,1,0,0:0:0:0:
109,192,50644,1,0,0:0:0:0:
36,192,50742,1,0,0:0:0:0:
256,192,50742,1,0,0:0:0:0:
475,192,50742,1,0,0:0:0:0:
182,192,50840,1,0,0:0:0:0:
329,192,50938,1,0,0:0:0:0:
109,192,50938,1,0,0:0:0:0:
402,192,51036,1,0,0:0:0:0:
256,192,51134,1,0,0:0:0:0:
475,192,51134,1,0,0:0:0:0:
36,192,51134,1,0,0:0:0:0:
329,192,51232,1,0,0:0:0:0:
182,192,51330,1,0,0:0:0:0:
402,192,51330,1,0,0:0:0:0:
256,192,51428,1,0,0:0:0:0:
109,192,51526,1,0,0:0:0:0:
329,192,51526,1,0,0:0:0:0:
36,192,51526,1,0,0:0:0:0:
256,192,51624,1,0,0:0:0:0:
182,192,51722,1,0,0:0:0:0:
402,192,51722,1,0,0:0:0:0:
329,192,51820,1,0,0:0:0:0:
36,192,51918,1,0,0:0:0:0:
256,192,51918,1,0,0:0:0:0:
475,192,51918,1,0,0:0:0:0:
182,192,52016,1,0,0:0:0:0:
109,192,52114,1,0,0:0:0:0:
329,192,52114,1,0,0:0:0:0:
256,192,52212,1,0,0:0:0:0:
182,192,52310,1,0,0:0:0:0:
402,192,52310,1,0,0:0:0:0:
475,192,52310,1,0,0:0:0:0:
36,192,52408,1,0,0:0:0:0:
109,192,52506,1,0,0:0:0:0:
329,192,52506,1,0,0:0:0:0:
256,192,52604,1,0,0:0:0:0:
182,192,52702,1,0,0:0:0:0:
402,192,52702,1,0,0:0:0:0:
36,192,52702,1,0,0:0:0:0:
329,192,52800,1,0,0:0:0:0:
256,192,52898,1,0,0:0:0:0:
475,192,52898,1,0,0:0:0:0:
329,192,52996,1,0,0:0:0:0:
182,192,53095,1,0,0:0:0:0:
402,192,53095,1,0,0:0:0:0:
36,192,53095,1,0,0:0:0:0:
256,192,53193,1,0,0:0:0:0:
109,192,53291,1,0,0:0:0:0:
329,192,53291,1,0,0:0:0:0:
182,192,53389,1,0,0:0:0:0:
36,192,53487,1,0,0:0:0:0:
256,192,53487,1,0,0:0:0:0:
475,192,53487,1,0,0:0:0:0:
402,192,53585,1,0,0:0:0:0:
109,192,53683,1,0,0:0:0:0:
329,192,53683,1,0,0:0:0:0:
36,192,53781,1,0,0:0:0:0:
182,192,53879,1,0,0:0:0:0:
402,192,53879,1,0,0:0:0:0:
475,192,53879,1,0,0:0:0:0:
329,192,53977,1,0,0:0:0:0:
256,192,54075,1,0,0:0:0:0:
402,192,54173,1,0,0:0:0:0:
109,192,54271,1,0,0:0:0:0:
329,192,54271,1,0,0:0:0:0:
256,192,54369,1,0,0:0:0:0:
36,192,54467,1,0,0:0:0:0:
109,192,54565,1,0,0:0:0:0:
182,192,54663,1,0,0:0:0:0:
329,192,54663,1,0,0:0:0:0:
475,192,54663,1,0,0:0:0:0:
256,192,54761,1,0,0:0:0:0:
475,192,54859,1,0,0:0:0:0:
36,192,54859,1,0,0:0:0:0:
402,192,54957,1,0,0:0:0:0:
109,192,54957,1,0,0:0:0:0:
329,192,55055,1,0,0:0:0:0:
182,192,55055,1,0,0:0:0:0:
36,192,55055,1,0,0:0:0:0:
256,192,55055,128,0,55447:0:0:0:0:
182,192,55447,1,0,0:0:0:0:
329,192,55447,1,0,0:0:0:0:
109,192,55447,1,0,0:0:0:0:
402,192,55447,1,0,0:0:0:0:
256,192,55545,1,0,0:0:0:0:
109,192,55644,1,0,0:0:0:0:
329,192,55644,1,0,0:0:0:0:
475,192,55742,1,0,0:0:0:0:
182,192,55840,1,0,0:0:0:0:
402,192,55840,1,0,0:0:0:0:
36,192,55840,1,0,0:0:0:0:
329,192,55938,1,0,0:0:0:0:
475,192,56036,1,0,0:0:0:0:
256,192,56036,1,0,0:0:0:0:
182,192,56134,1,0,0:0:0:0:
329,192,56232,1,0,0:0:0:0:
109,192,56232,1,0,0:0:0:0:
36,192,56232,1,0,0:0:0:0:
256,192,56330,1,0,0:0:0:0:
402,192,56428,1,0,0:0:0:0:
182,192,56428,1,0,0:0:0:0:
329,192,56526,1,0,0:0:0:0:
256,192,56624,1,0,0:0:0:0:
36,192,56624,1,0,0:0:0:0:
475,192,56624,1,0,0:0:0:0:
182,192,56722,1,0,0:0:0:0:
329,192,56820,1,0,0:0:0:0:
109,192,56820,1,0,0:0:0:0:
402,192,56918,1,0,0:0:0:0:
475,192,57016,1,0,0:0:0:0:
256,192,57016,1,0,0:0:0:0:
36,192,57016,1,0,0:0:0:0:
329,192,57114,1,0,0:0:0:0:
182,192,57212,1,0,0:0:0:0:
402,192,57212,1,0,0:0:0:0:
109,192,57310,1,0,0:0:0:0:
256,192,57408,1,0,0:0:0:0:
36,192,57408,1,0,0:0:0:0:
475,192,57408,1,0,0:0:0:0:
182,192,57506,1,0,0:0:0:0:
329,192,57604,1,0,0:0:0:0:
109,192,57604,1,0,0:0:0:0:
256,192,57702,1,0,0:0:0:0:
402,192,57800,1,0,0:0:0:0:
182,192,57800,1,0,0:0:0:0:
475,192,57800,1,0,0:0:0:0:
256,192,57898,1,0,0:0:0:0:
329,192,57996,1,0,0:0:0:0:
109,192,57996,1,0,0:0:0:0:
182,192,58095,1,0,0:0:0:0:
475,192,58193,1,0,0:0:0:0:
256,192,58193,1,0,0:0:0:0:
36,192,58193,1,0,0:0:0:0:
329,192,58291,1,0,0:0:0:0:
402,192,58389,1,0,0:0:0:0:
182,192,58389,1,0,0:0:0:0:
256,192,58487,1,0,0:0:0:0:
329,192,58585,1,0,0:0:0:0:
109,192,58585,1,0,0:0:0:0:
36,192,58585,1,0,0:0:0:0:
475,192,58683,1,0,0:0:0:0:
402,192,58781,1,0,0:0:0:0:
182,192,58781,1,0,0:0:0:0:
256,192,58879,1,0,0:0:0:0:
329,192,58977,1,0,0:0:0:0:
109,192,58977,1,0,0:0:0:0:
475,192,58977,1,0,0:0:0:0:
182,192,59075,1,0,0:0:0:0:
256,192,59173,1,0,0:0:0:0:
36,192,59173,1,0,0:0:0:0:
182,192,59271,1,0,0:0:0:0:
329,192,59369,1,0,0:0:0:0:
109,192,59369,1,0,0:0:0:0:
475,192,59369,1,0,0:0:0:0:
256,192,59467,1,0,0:0:0:0:
402,192,59565,1,0,0:0:0:0:
182,192,59565,1,0,0:0:0:0:
329,192,59663,1,0,0:0:0:0:
475,192,59761,1,0,0:0:0:0:
256,192,59761,1,0,0:0:0:0:
36,192,59761,1,0,0:0:0:0:
109,192,59859,1,0,0:0:0:0:
402,192,59957,1,0,0:0:0:0:
182,192,59957,1,0,0:0:0:0:
475,192,60055,1,0,0:0:0:0:
329,192,60153,1,0,0:0:0:0:
36,192,60153,1,0,0:0:0:0:
109,192,60153,128,0,60545:0:0:0:0:
402,192,60251,1,0,0:0:0:0:
256,192,60349,1,0,0:0:0:0:
329,192,60447,1,0,0:0:0:0:
402,192,60545,1,0,0:0:0:0:
182,192,60545,128,0,60938:0:0:0:0:
475,192,60644,1,0,0:0:0:0:
329,192,60742,1,0,0:0:0:0:
402,192,60840,1,0,0:0:0:0:
475,192,60938,1,0,0:0:0:0:
109,192,60938,1,0,0:0:0:0:
256,192,60938,128,0,61722:0:0:0:0:
36,192,61134,1,0,0:0:0:0:
182,192,61134,1,0,0:0:0:0:
109,192,61134,1,0,0:0:0:0:
182,192,61722,1,0,0:0:0:0:
36,192,61722,1,0,0:0:0:0:
329,192,61722,1,0,0:0:0:0:
475,192,61722,1,0,0:0:0:0:
256,192,61820,1,0,0:0:0:0:
402,192,61918,1,0,0:0:0:0:
182,192,61918,1,0,0:0:0:0:
36,192,62016,1,0,0:0:0:0:
329,192,62114,1,0,0:0:0:0:
109,192,62114,1,0,0:0:0:0:
475,192,62114,1,0,0:0:0:0:
402,192,62114,1,0,0:0:0:0:
256,192,62212,1,0,0:0:0:0:
36,192,62310,1,0,0:0:0:0:
182,192,62310,1,0,0:0:0:0:
329,192,62408,1,0,0:0:0:0:
182,192,62506,1,0,0:0:0:0:
109,192,62506,1,0,0:0:0:0:
475,192,62506,1,0,0:0:0:0:
256,192,62604,1,0,0:0:0:0:
109,192,62702,1,0,0:0:0:0:
329,192,62702,1,0,0:0:0:0:
182,192,62800,1,0,0:0:0:0:
256,192,62898,1,0,0:0:0:0:
475,192,62898,1,0,0:0:0:0:
36,192,62898,1,0,0:0:0:0:
109,192,62898,1,0,0:0:0:0:
402,192,62996,1,0,0:0:0:0:
182,192,63095,1,0,0:0:0:0:
329,192,63095,1,0,0:0:0:0:
109,192,63193,1,0,0:0:0:0:
36,192,63291,1,0,0:0:0:0:
256,192,63291,1,0,0:0:0:0:
475,192,63291,1,0,0:0:0:0:
182,192,63389,1,0,0:0:0:0:
329,192,63487,1,0,0:0:0:0:
109,192,63487,1,0,0:0:0:0:
402,192,63585,1,0,0:0:0:0:
256,192,63683,1,0,0:0:0:0:
475,192,63683,1,0,0:0:0:0:
36,192,63683,1,0,0:0:0:0:
182,192,63683,1,0,0:0:0:0:
329,192,63781,1,0,0:0:0:0:
182,192,63879,1,0,0:0:0:0:
402,192,63879,1,0,0:0:0:0:
109,192,63977,1,0,0:0:0:0:
256,192,64075,1,0,0:0:0:0:
475,192,64075,1,0,0:0:0:0:
36,192,64075,1,0,0:0:0:0:
182,192,64173,1,0,0:0:0:0:
109,192,64271,1,0,0:0:0:0:
329,192,64271,1,0,0:0:0:0:
402,192,64369,1,0,0:0:0:0:
36,192,64467,1,0,0:0:0:0:
256,192,64467,1,0,0:0:0:0:
475,192,64467,1,0,0:0:0:0:
109,192,64467,1,0,0:0:0:0:
329,192,64565,1,0,0:0:0:0:
182,192,64663,1,0,0:0:0:0:
402,192,64663,1,0,0:0:0:0:
256,192,64761,1,0,0:0:0:0:
329,192,64859,1,0,0:0:0:0:
402,192,64859,1,0,0:0:0:0:
475,192,64859,1,0,0:0:0:0:
182,192,64957,1,0,0:0:0:0:
36,192,65055,1,0,0:0:0:0:
402,192,65055,1,0,0:0:0:0:
256,192,65153,1,0,0:0:0:0:
109,192,65251,1,0,0:0:0:0:
475,192,65251,1,0,0:0:0:0:
36,192,65251,1,0,0:0:0:0:
402,192,65251,1,0,0:0:0:0:
329,192,65349,1,0,0:0:0:0:
182,192,65447,1,0,0:0:0:0:
36,192,65447,1,0,0:0:0:0:
402,192,65546,1,0,0:0:0:0:
182,192,65644,1,0,0:0:0:0:
329,192,65644,1,0,0:0:0:0:
36,192,65644,1,0,0:0:0:0:
402,192,65742,1,0,0:0:0:0:
109,192,65840,1,0,0:0:0:0:
256,192,65840,1,0,0:0:0:0:
329,192,65938,1,0,0:0:0:0:
36,192,66036,1,0,0:0:0:0:
182,192,66036,1,0,0:0:0:0:
402,192,66036,1,0,0:0:0:0:
475,192,66036,1,0,0:0:0:0:
256,192,66134,1,0,0:0:0:0:
109,192,66232,1,0,0:0:0:0:
329,192,66232,1,0,0:0:0:0:
182,192,66330,1,0,0:0:0:0:
256,192,66428,1,0,0:0:0:0:
475,192,66428,1,0,0:0:0:0:
402,192,66428,128,0,66820:0:0:0:0:
109,192,66526,1,0,0:0:0:0:
256,192,66624,1,0,0:0:0:0:
182,192,66722,1,0,0:0:0:0:
109,192,66820,1,0,0:0:0:0:
329,192,66820,128,0,67212:0:0:0:0:
36,192,66820,1,0,0:0:0:0:
256,192,66918,1,0,0:0:0:0:
182,192,67016,1,0,0:0:0:0:
109,192,67114,1,0,0:0:0:0:
36,192,67212,1,0,0:0:0:0:
256,192,67212,1,0,0:0:0:0:
402,192,67212,1,0,0:0:0:0:
475,192,67408,1,0,0:0:0:0:
402,192,67506,1,0,0:0:0:0:
329,192,67604,1,0,0:0:0:0:
182,192,67604,1,0,0:0:0:0:
36,192,67604,1,0,0:0:0:0:
256,192,67604,128,0,67996:0:0:0:0:
182,192,67996,1,0,0:0:0:0:
329,192,67996,1,0,0:0:0:0:
109,192,67996,1,0,0:0:0:0:
402,192,67996,1,0,0:0:0:0:
475,192,68095,1,0,0:0:0:0:
109,192,68193,1,0,0:0:0:0:
329,192,68193,1,0,0:0:0:0:
402,192,68291,1,0,0:0:0:0:
182,192,68389,1,0,0:0:0:0:
475,192,68389,1,0,0:0:0:0:
36,192,68389,1,0,0:0:0:0:
109,192,68389,1,0,0:0:0:0:
256,192,68487,1,0,0:0:0:0:
475,192,68585,1,0,0:0:0:0:
329,192,68585,1,0,0:0:0:0:
256,192,68683,1,0,0:0:0:0:
475,192,68781,1,0,0:0:0:0:
36,192,68781,1,0,0:0:0:0:
182,192,68781,1,0,0:0:0:0:
402,192,68879,1,0,0:0:0:0:
329,192,68977,1,0,0:0:0:0:
109,192,68977,1,0,0:0:0:0:
256,192,69075,1,0,0:0:0:0:
182,192,69173,1,0,0:0:0:0:
36,192,69173,1,0,0:0:0:0:
475,192,69173,1,0,0:0:0:0:
402,192,69173,1,0,0:0:0:0:
329,192,69271,1,0,0:0:0:0:
256,192,69369,1,0,0:0:0:0:
475,192,69369,1,0,0:0:0:0:
182,192,69467,1,0,0:0:0:0:
329,192,69565,1,0,0:0:0:0:
402,192,69565,1,0,0:0:0:0:
109,192,69565,1,0,0:0:0:0:
256,192,69663,1,0,0:0:0:0:
182,192,69761,1,0,0:0:0:0:
402,192,69761,1,0,0:0:0:0:
109,192,69859,1,0,0:0:0:0:
256,192,69957,1,0,0:0:0:0:
36,192,69957,1,0,0:0:0:0:
475,192,69957,1,0,0:0:0:0:
402,192,69957,1,0,0:0:0:0:
182,192,70055,1,0,0:0:0:0:
329,192,70153,1,0,0:0:0:0:
109,192,70153,1,0,0:0:0:0:
182,192,70251,1,0,0:0:0:0:
402,192,70349,1,0,0:0:0:0:
256,192,70349,1,0,0:0:0:0:
36,192,70349,1,0,0:0:0:0:
109,192,70447,1,0,0:0:0:0:
329,192,70546,1,0,0:0:0:0:
182,192,70546,1,0,0:0:0:0:
256,192,70644,1,0,0:0:0:0:
475,192,70742,1,0,0:0:0:0:
329,192,70742,1,0,0:0:0:0:
36,192,70742,1,0,0:0:0:0:
109,192,70742,1,0,0:0:0:0:
182,192,70840,1,0,0:0:0:0:
475,192,70938,1,0,0:0:0:0:
256,192,70938,1,0,0:0:0:0:
329,192,71036,1,0,0:0:0:0:
402,192,71134,1,0,0:0:0:0:
182,192,71134,1,0,0:0:0:0:
36,192,71134,1,0,0:0:0:0:
256,192,71232,1,0,0:0:0:0:
329,192,71330,1,0,0:0:0:0:
109,192,71330,1,0,0:0:0:0:
402,192,71428,1,0,0:0:0:0:
256,192,71526,1,0,0:0:0:0:
109,192,71526,1,0,0:0:0:0:
475,192,71526,1,0,0:0:0:0:
36,192,71526,1,0,0:0:0:0:
402,192,71624,1,0,0:0:0:0:
329,192,71722,1,0,0:0:0:0:
36,192,71722,1,0,0:0:0:0:
256,192,71820,1,0,0:0:0:0:
329,192,71918,1,0,0:0:0:0:
109,192,71918,1,0,0:0:0:0:
475,192,71918,1,0,0:0:0:0:
182,192,72016,1,0,0:0:0:0:
402,192,72114,1,0,0:0:0:0:
256,192,72114,1,0,0:0:0:0:
36,192,72212,1,0,0:0:0:0:
475,192,72310,1,0,0:0:0:0:
256,192,72310,1,0,0:0:0:0:
329,192,72310,1,0,0:0:0:0:
109,192,72310,1,0,0:0:0:0:
182,192,72408,1,0,0:0:0:0:
36,192,72506,1,0,0:0:0:0:
256,192,72506,1,0,0:0:0:0:
329,192,72604,1,0,0:0:0:0:
402,192,72702,1,0,0:0:0:0:
36,192,72702,1,0,0:0:0:0:
109,192,72702,128,0,73095:0:0:0:0:
182,192,72800,1,0,0:0:0:0:
256,192,72898,1,0,0:0:0:0:
329,192,72996,1,0,0:0:0:0:
402,192,73095,1,0,0:0:0:0:
182,192,73095,128,0,73487:0:0:0:0:
475,192,73095,1,0,0:0:0:0:
36,192,73095,1,0,0:0:0:0:
256,192,73193,1,0,0:0:0:0:
329,192,73291,1,0,0:0:0:0:
36,192,73389,1,0,0:0:0:0:
475,192,73487,1,0,0:0:0:0:
109,192,73487,1,0,0:0:0:0:
402,192,73487,128,0,73879:0:0:0:0:
256,192,73585,1,0,0:0:0:0:
36,192,73683,1,0,0:0:0:0:
182,192,73781,1,0,0:0:0:0:
329,192,73879,128,0,74271:0:0:0:0:
109,192,73879,1,0,0:0:0:0:
256,192,73879,1,0,0:0:0:0:
475,192,73879,1,0,0:0:0:0:
475,192,74075,1,0,0:0:0:0:
182,192,74075,1,0,0:0:0:0:
402,192,74271,1,0,0:0:0:0:
109,192,74271,1,0,0:0:0:0:
256,192,74467,1,0,0:0:0:0:
109,192,74663,1,0,0:0:0:0:
36,192,74663,1,0,0:0:0:0:
329,192,74663,1,0,0:0:0:0:
182,192,75055,1,0,0:0:0:0:
256,192,75153,1,0,0:0:0:0:
329,192,75251,1,0,0:0:0:0:
402,192,75349,1,0,0:0:0:0:
475,192,75447,1,0,0:0:0:0:
402,192,75513,1,0,0:0:0:0:
329,192,75578,1,0,0:0:0:0:
256,192,75644,1,0,0:0:0:0:
182,192,75709,1,0,0:0:0:0:
109,192,75774,1,0,0:0:0:0:
36,192,75840,1,0,0:0:0:0:
329,192,75840,1,0,0:0:0:0:
475,192,75840,1,0,0:0:0:0:
402,192,75840,1,0,0:0:0:0:
256,192,76036,1,0,0:0:0:0:
109,192,76036,1,0,0:0:0:0:
182,192,76232,1,0,0:0:0:0:
329,192,76232,1,0,0:0:0:0:
475,192,76232,1,0,0:0:0:0:
36,192,76232,1,0,0:0:0:0:
402,192,76428,1,0,0:0:0:0:
256,192,76428,1,0,0:0:0:0:
36,192,76624,1,0,0:0:0:0:
182,192,76624,1,0,0:0:0:0:
329,192,76624,1,0,0:0:0:0:
256,192,76820,1,0,0:0:0:0:
109,192,76820,1,0,0:0:0:0:
329,192,76918,1,0,0:0:0:0:
182,192,77016,1,0,0:0:0:0:
475,192,77016,1,0,0:0:0:0:
402,192,77016,1,0,0:0:0:0:
36,192,77016,1,0,0:0:0:0:
402,192,77212,1,0,0:0:0:0:
256,192,77212,1,0,0:0:0:0:
109,192,77408,1,0,0:0:0:0:
329,192,77408,1,0,0:0:0:0:
475,192,77408,1,0,0:0:0:0:
182,192,77604,1,0,0:0:0:0:
256,192,77604,1,0,0:0:0:0:
329,192,77702,1,0,0:0:0:0:
36,192,77800,128,0,78193:0:0:0:0:
109,192,77800,1,0,0:0:0:0:
402,192,77800,1,0,0:0:0:0:
475,192,77800,1,0,0:0:0:0:
329,192,77996,1,0,0:0:0:0:
256,192,77996,1,0,0:0:0:0:
109,192,78193,128,0,78585:0:0:0:0:
182,192,78193,1,0,0:0:0:0:
402,192,78193,1,0,0:0:0:0:
256,192,78389,1,0,0:0:0:0:
475,192,78389,1,0,0:0:0:0:
329,192,78487,1,0,0:0:0:0:
182,192,78585,128,0,78977:0:0:0:0:
475,192,78585,1,0,0:0:0:0:
36,192,78585,1,0,0:0:0:0:
402,192,78585,1,0,0:0:0:0:
109,192,78781,1,0,0:0:0:0:
329,192,78781,1,0,0:0:0:0:
256,192,78977,1,0,0:0:0:0:
36,192,78977,1,0,0:0:0:0:
402,192,78977,1,0,0:0:0:0:
475,192,79173,1,0,0:0:0:0:
109,192,79173,1,0,0:0:0:0:
402,192,79271,1,0,0:0:0:0:
36,192,79369,1,0,0:0:0:0:
182,192,79369,1,0,0:0:0:0:
329,192,79369,1,0,0:0:0:0:
256,192,79369,1,0,0:0:0:0:
36,192,79565,1,0,0:0:0:0:
256,192,79565,1,0,0:0:0:0:
109,192,79761,1,0,0:0:0:0:
329,192,79761,1,0,0:0:0:0:
475,192,79761,1,0,0:0:0:0:
182,192,79957,1,0,0:0:0:0:
256,192,79957,1,0,0:0:0:0:
36,192,80153,1,0,0:0:0:0:
329,192,80153,1,0,0:0:0:0:
402,192,80153,1,0,0:0:0:0:
109,192,80153,1,0,0:0:0:0:
182,192,80349,1,0,0:0:0:0:
475,192,80349,1,0,0:0:0:0:
256,192,80546,1,0,0:0:0:0:
402,192,80546,1,0,0:0:0:0:
36,192,80546,1,0,0:0:0:0:
109,192,80742,1,0,0:0:0:0:
329,192,80742,1,0,0:0:0:0:
182,192,80938,1,0,0:0:0:0:
256,192,80938,1,0,0:0:0:0:
402,192,80938,1,0,0:0:0:0:
475,192,80938,1,0,0:0:0:0:
36,192,81134,1,0,0:0:0:0:
329,192,81134,1,0,0:0:0:0:
109,192,81330,1,0,0:0:0:0:
256,192,81330,1,0,0:0:0:0:
475,192,81330,1,0,0:0:0:0:
182,192,81526,1,0,0:0:0:0:
329,192,81526,1,0,0:0:0:0:
256,192,81722,1,0,0:0:0:0:
402,192,81722,1,0,0:0:0:0:
36,192,81722,1,0,0:0:0:0:
109,192,81722,1,0,0:0:0:0:
329,192,81918,1,0,0:0:0:0:
475,192,81918,1,0,0:0:0:0:
36,192,82114,128,0,83683:0:0:0:0:
109,192,82114,128,0,83683:0:0:0:0:
256,192,82114,1,0,0:0:0:0:
402,192,82114,1,0,0:0:0:0:
475,192,82310,1,0,0:0:0:0:
329,192,82310,1,0,0:0:0:0:
256,192,82408,1,0,0:0:0:0:
182,192,82506,1,0,0:0:0:0:
402,192,82506,1,0,0:0:0:0:
475,192,82506,1,0,0:0:0:0:
182,192,82702,1,0,0:0:0:0:
329,192,82702,1,0,0:0:0:0:
475,192,82898,1,0,0:0:0:0:
402,192,82898,1,0,0:0:0:0:
475,192,83095,1,0,0:0:0:0:
256,192,83095,1,0,0:0:0:0:
329,192,83193,1,0,0:0:0:0:
402,192,83291,1,0,0:0:0:0:
475,192,83291,1,0,0:0:0:0:
182,192,83291,1,0,0:0:0:0:
182,192,83487,1,0,0:0:0:0:
402,192,83487,1,0,0:0:0:0:
256,192,83683,128,0,84467:0:0:0:0:
329,192,83683,1,0,0:0:0:0:
475,192,83683,1,0,0:0:0:0:
182,192,83879,1,0,0:0:0:0:
402,192,83879,1,0,0:0:0:0:
109,192,83977,1,0,0:0:0:0:
36,192,84075,1,0,0:0:0:0:
329,192,84075,1,0,0:0:0:0:
475,192,84075,1,0,0:0:0:0:
182,192,84271,1,0,0:0:0:0:
402,192,84271,1,0,0:0:0:0:
36,192,84467,128,0,85251:0:0:0:0:
329,192,84467,1,0,0:0:0:0:
475,192,84467,1,0,0:0:0:0:
109,192,84467,1,0,0:0:0:0:
109,192,84663,1,0,0:0:0:0:
329,192,84663,1,0,0:0:0:0:
182,192,84761,1,0,0:0:0:0:
256,192,84859,1,0,0:0:0:0:
402,192,84859,1,0,0:0:0:0:
475,192,84859,1,0,0:0:0:0:
329,192,85055,1,0,0:0:0:0:
182,192,85055,1,0,0:0:0:0:
109,192,85251,1,0,0:0:0:0:
182,192,85251,1,0,0:0:0:0:
402,192,85251,1,0,0:0:0:0:
475,192,85251,1,0,0:0:0:0:
329,192,85447,1,0,0:0:0:0:
256,192,85447,1,0,0:0:0:0:
402,192,85546,1,0,0:0:0:0:
182,192,85644,1,0,0:0:0:0:
36,192,85644,1,0,0:0:0:0:
109,192,85644,1,0,0:0:0:0:
475,192,85644,1,0,0:0:0:0:
329,192,85840,1,0,0:0:0:0:
475,192,85840,1,0,0:0:0:0:
256,192,86036,1,0,0:0:0:0:
109,192,86036,1,0,0:0:0:0:
402,192,86036,1,0,0:0:0:0:
182,192,86232,1,0,0:0:0:0:
329,192,86232,1,0,0:0:0:0:
402,192,86330,1,0,0:0:0:0:
109,192,86428,1,0,0:0:0:0:
475,192,86428,1,0,0:0:0:0:
256,192,86428,1,0,0:0:0:0:
36,192,86428,1,0,0:0:0:0:
182,192,86624,1,0,0:0:0:0:
329,192,86624,1,0,0:0:0:0:
256,192,86820,1,0,0:0:0:0:
36,192,86820,1,0,0:0:0:0:
475,192,86820,1,0,0:0:0:0:
109,192,87016,1,0,0:0:0:0:
402,192,87016,1,0,0:0:0:0:
182,192,87212,1,0,0:0:0:0:
402,192,87212,1,0,0:0:0:0:
329,192,87212,1,0,0:0:0:0:
109,192,87212,1,0,0:0:0:0:
182,192,87408,1,0,0:0:0:0:
329,192,87408,1,0,0:0:0:0:
109,192,87604,1,0,0:0:0:0:
256,192,87604,1,0,0:0:0:0:
36,192,87604,1,0,0:0:0:0:
329,192,87800,1,0,0:0:0:0:
402,192,87800,1,0,0:0:0:0:
475,192,87800,1,0,0:0:0:0:
329,192,87996,1,0,0:0:0:0:
402,192,87996,1,0,0:0:0:0:
475,192,87996,1,0,0:0:0:0:
182,192,88095,1,0,0:0:0:0:
329,192,88193,1,0,0:0:0:0:
256,192,88291,1,0,0:0:0:0:
36,192,88389,1,0,0:0:0:0:
182,192,88389,1,0,0:0:0:0:
402,192,88389,1,0,0:0:0:0:
475,192,88389,1,0,0:0:0:0:
109,192,88585,1,0,0:0:0:0:
256,192,88585,1,0,0:0:0:0:
329,192,88683,1,0,0:0:0:0:
36,192,88781,1,0,0:0:0:0:
475,192,88781,1,0,0:0:0:0:
402,192,88781,1,0,0:0:0:0:
182,192,88781,1,0,0:0:0:0:
256,192,88977,1,0,0:0:0:0:
109,192,88977,1,0,0:0:0:0:
182,192,89173,1,0,0:0:0:0:
329,192,89173,1,0,0:0:0:0:
475,192,89173,1,0,0:0:0:0:
402,192,89369,1,0,0:0:0:0:
256,192,89369,1,0,0:0:0:0:
475,192,89467,1,0,0:0:0:0:
182,192,89565,1,0,0:0:0:0:
109,192,89565,1,0,0:0:0:0:
329,192,89565,1,0,0:0:0:0:
36,192,89565,1,0,0:0:0:0:
256,192,89761,1,0,0:0:0:0:
109,192,89761,1,0,0:0:0:0:
36,192,89957,1,0,0:0:0:0:
182,192,89957,1,0,0:0:0:0:
402,192,89957,1,0,0:0:0:0:
256,192,90153,1,0,0:0:0:0:
329,192,90153,1,0,0:0:0:0:
182,192,90251,1,0,0:0:0:0:
36,192,90349,1,0,0:0:0:0:
475,192,90349,128,0,90742:0:0:0:0:
402,192,90349,1,0,0:0:0:0:
109,192,90349,1,0,0:0:0:0:
256,192,90546,1,0,0:0:0:0:
182,192,90546,1,0,0:0:0:0:
402,192,90742,128,0,91134:0:0:0:0:
109,192,90742,1,0,0:0:0:0:
329,192,90742,1,0,0:0:0:0:
182,192,90938,1,0,0:0:0:0:
36,192,90938,1,0,0:0:0:0:
109,192,91036,1,0,0:0:0:0:
329,192,91134,128,0,91526:0:0:0:0:
182,192,91134,1,0,0:0:0:0:
256,192,91134,1,0,0:0:0:0:
475,192,91134,1,0,0:0:0:0:
402,192,91330,1,0,0:0:0:0:
109,192,91330,1,0,0:0:0:0:
109,192,91526,1,0,0:0:0:0:
475,192,91526,1,0,0:0:0:0:
256,192,91526,1,0,0:0:0:0:
402,192,91722,1,0,0:0:0:0:
182,192,91722,1,0,0:0:0:0:
109,192,91820,1,0,0:0:0:0:
182,192,91918,1,0,0:0:0:0:
36,192,91918,1,0,0:0:0:0:
475,192,91918,1,0,0:0:0:0:
329,192,91918,1,0,0:0:0:0:
256,192,92114,1,0,0:0:0:0:
475,192,92114,1,0,0:0:0:0:
109,192,92114,1,0,0:0:0:0:
36,192,92310,1,0,0:0:0:0:
182,192,92310,1,0,0:0:0:0:
402,192,92310,1,0,0:0:0:0:
256,192,92506,1,0,0:0:0:0:
329,192,92506,1,0,0:0:0:0:
182,192,92604,1,0,0:0:0:0:
109,192,92702,1,0,0:0:0:0:
402,192,92702,1,0,0:0:0:0:
475,192,92702,1,0,0:0:0:0:
36,192,92702,1,0,0:0:0:0:
36,192,92898,1,0,0:0:0:0:
329,192,92898,1,0,0:0:0:0:
475,192,93095,1,0,0:0:0:0:
109,192,93095,1,0,0:0:0:0:
256,192,93095,1,0,0:0:0:0:
182,192,93291,1,0,0:0:0:0:
402,192,93291,1,0,0:0:0:0:
475,192,93389,1,0,0:0:0:0:
256,192,93487,1,0,0:0:0:0:
109,192,93487,1,0,0:0:0:0:
36,192,93487,1,0,0:0:0:0:
329,192,93487,1,0,0:0:0:0:
475,192,93683,1,0,0:0:0:0:
182,192,93683,1,0,0:0:0:0:
256,192,93879,1,0,0:0:0:0:
36,192,93879,1,0,0:0:0:0:
402,192,93879,128,0,94075:0:0:0:0:
182,192,94075,1,0,0:0:0:0:
329,192,94075,128,0,94271:0:0:0:0:
402,192,94271,1,0,0:0:0:0:
475,192,94271,1,0,0:0:0:0:
109,192,94271,1,0,0:0:0:0:
256,192,94271,128,0,94467:0:0:0:0:
36,192,94467,1,0,0:0:0:0:
182,192,94467,128,0,94663:0:0:0:0:
109,192,94663,1,0,0:0:0:0:
256,192,94663,1,0,0:0:0:0:
402,192,94663,128,0,96232:0:0:0:0:
475,192,94663,128,0,96232:0:0:0:0:
182,192,94859,1,0,0:0:0:0:
36,192,94859,1,0,0:0:0:0:
109,192,95055,1,0,0:0:0:0:
329,192,95055,1,0,0:0:0:0:
256,192,95055,1,0,0:0:0:0:
329,192,95251,1,0,0:0:0:0:
182,192,95251,1,0,0:0:0:0:
36,192,95447,1,0,0:0:0:0:
109,192,95447,1,0,0:0:0:0:
329,192,95644,1,0,0:0:0:0:
256,192,95644,1,0,0:0:0:0:
182,192,95742,1,0,0:0:0:0:
36,192,95840,1,0,0:0:0:0:
109,192,95840,1,0,0:0:0:0:
329,192,95840,1,0,0:0:0:0:
329,192,96036,1,0,0:0:0:0:
109,192,96036,1,0,0:0:0:0:
256,192,96232,128,0,97016:0:0:0:0:
182,192,96232,1,0,0:0:0:0:
36,192,96232,1,0,0:0:0:0:
109,192,96428,1,0,0:0:0:0:
329,192,96428,1,0,0:0:0:0:
402,192,96526,1,0,0:0:0:0:
475,192,96624,1,0,0:0:0:0:
182,192,96624,1,0,0:0:0:0:
36,192,96624,1,0,0:0:0:0:
329,192,96820,1,0,0:0:0:0:
109,192,96820,1,0,0:0:0:0:
475,192,97016,128,0,97800:0:0:0:0:
402,192,97016,1,0,0:0:0:0:
182,192,97016,1,0,0:0:0:0:
36,192,97016,1,0,0:0:0:0:
182,192,97212,1,0,0:0:0:0:
402,192,97212,1,0,0:0:0:0:
256,192,97310,1,0,0:0:0:0:
329,192,97408,1,0,0:0:0:0:
109,192,97408,1,0,0:0:0:0:
36,192,97408,1,0,0:0:0:0:
182,192,97604,1,0,0:0:0:0:
256,192,97604,1,0,0:0:0:0:
109,192,97800,1,0,0:0:0:0:
36,192,97800,1,0,0:0:0:0:
402,192,97800,1,0,0:0:0:0:
329,192,97800,1,0,0:0:0:0:
256,192,97996,1,0,0:0:0:0:
182,192,97996,1,0,0:0:0:0:
475,192,98095,1,0,0:0:0:0:
329,192,98193,1,0,0:0:0:0:
36,192,98193,1,0,0:0:0:0:
402,192,98193,1,0,0:0:0:0:
109,192,98193,1,0,0:0:0:0:
36,192,98389,1,0,0:0:0:0:
182,192,98389,1,0,0:0:0:0:
109,192,98585,1,0,0:0:0:0:
402,192,98585,1,0,0:0:0:0:
256,192,98585,1,0,0:0:0:0:
182,192,98781,1,0,0:0:0:0:
329,192,98781,1,0,0:0:0:0:
402,192,98879,1,0,0:0:0:0:
109,192,98977,1,0,0:0:0:0:
475,192,98977,1,0,0:0:0:0:
256,192,98977,1,0,0:0:0:0:
36,192,98977,1,0,0:0:0:0:
182,192,99173,1,0,0:0:0:0:
329,192,99173,1,0,0:0:0:0:
36,192,99369,1,0,0:0:0:0:
475,192,99369,1,0,0:0:0:0:
256,192,99369,1,0,0:0:0:0:
109,192,99565,1,0,0:0:0:0:
402,192,99565,1,0,0:0:0:0:
182,192,99761,1,0,0:0:0:0:
402,192,99761,1,0,0:0:0:0:
329,192,99761,1,0,0:0:0:0:
109,192,99761,1,0,0:0:0:0:
182,192,99957,1,0,0:0:0:0:
329,192,99957,1,0,0:0:0:0:
475,192,100153,1,0,0:0:0:0:
256,192,100153,1,0,0:0:0:0:
402,192,100153,1,0,0:0:0:0:
36,192,100349,5,0,0:0:0:0:
329,192,100349,1,0,0:0:0:0:
182,192,100349,1,0,0:0:0:0:
109,192,100546,1,0,0:0:0:0:
182,192,100546,1,0,0:0:0:0:
256,192,100546,1,0,0:0:0:0:
329,192,100644,1,0,0:0:0:0:
182,192,100742,1,0,0:0:0:0:
256,192,100840,1,0,0:0:0:0:
36,192,100938,1,0,0:0:0:0:
475,192,100938,1,0,0:0:0:0:
329,192,100938,1,0,0:0:0:0:
109,192,100938,128,0,101330:0:0:0:0:
402,192,100938,1,0,0:0:0:0:
475,192,101134,1,0,0:0:0:0:
182,192,101134,128,0,101526:0:0:0:0:
402,192,101232,1,0,0:0:0:0:
329,192,101330,1,0,0:0:0:0:
36,192,101330,128,0,101722:0:0:0:0:
256,192,101330,1,0,0:0:0:0:
402,192,101526,1,0,0:0:0:0:
109,192,101526,128,0,101918:0:0:0:0:
475,192,101722,1,0,0:0:0:0:
256,192,101722,1,0,0:0:0:0:
182,192,101722,128,0,102114:0:0:0:0:
402,192,101918,1,0,0:0:0:0:
36,192,101918,128,0,102114:0:0:0:0:
329,192,102016,1,0,0:0:0:0:
256,192,102114,1,0,0:0:0:0:
475,192,102114,1,0,0:0:0:0:
109,192,102114,128,0,102310:0:0:0:0:
402,192,102310,1,0,0:0:0:0:
182,192,102310,128,0,102506:0:0:0:0:
256,192,102506,1,0,0:0:0:0:
109,192,102506,1,0,0:0:0:0:
36,192,102506,1,0,0:0:0:0:
402,192,102506,128,0,102898:0:0:0:0:
329,192,102702,128,0,103095:0:0:0:0:
36,192,102702,1,0,0:0:0:0:
109,192,102800,1,0,0:0:0:0:
256,192,102898,1,0,0:0:0:0:
182,192,102898,1,0,0:0:0:0:
475,192,102898,128,0,103291:0:0:0:0:
402,192,103095,128,0,103487:0:0:0:0:
109,192,103095,1,0,0:0:0:0:
329,192,103291,128,0,103683:0:0:0:0:
256,192,103291,1,0,0:0:0:0:
36,192,103291,1,0,0:0:0:0:
109,192,103487,1,0,0:0:0:0:
475,192,103487,128,0,103683:0:0:0:0:
182,192,103585,1,0,0:0:0:0:
36,192,103683,1,0,0:0:0:0:
256,192,103683,1,0,0:0:0:0:
402,192,103683,128,0,103879:0:0:0:0:
182,192,103879,1,0,0:0:0:0:
329,192,103879,128,0,104075:0:0:0:0:
475,192,104075,1,0,0:0:0:0:
329,192,104075,1,0,0:0:0:0:
109,192,104075,1,0,0:0:0:0:
256,192,104075,128,0,104467:0:0:0:0:
36,192,104271,1,0,0:0:0:0:
182,192,104271,128,0,104663:0:0:0:0:
109,192,104369,1,0,0:0:0:0:
475,192,104467,1,0,0:0:0:0:
329,192,104467,128,0,104859:0:0:0:0:
402,192,104467,1,0,0:0:0:0:
402,192,104663,1,0,0:0:0:0:
256,192,104663,128,0,105055:0:0:0:0:
36,192,104859,1,0,0:0:0:0:
109,192,104859,1,0,0:0:0:0:
182,192,104859,128,0,105251:0:0:0:0:
475,192,105055,1,0,0:0:0:0:
329,192,105055,128,0,105251:0:0:0:0:
36,192,105153,1,0,0:0:0:0:
109,192,105251,1,0,0:0:0:0:
402,192,105251,1,0,0:0:0:0:
256,192,105251,128,0,105447:0:0:0:0:
329,192,105447,1,0,0:0:0:0:
182,192,105447,128,0,105644:0:0:0:0:
36,192,105644,1,0,0:0:0:0:
256,192,105644,1,0,0:0:0:0:
475,192,105644,1,0,0:0:0:0:
329,192,105840,1,0,0:0:0:0:
182,192,105840,128,0,106036:0:0:0:0:
36,192,105840,128,0,106036:0:0:0:0:
402,192,105938,1,0,0:0:0:0:
475,192,106036,1,0,0:0:0:0:
109,192,106036,128,0,106232:0:0:0:0:
256,192,106036,128,0,106232:0:0:0:0:
182,192,106232,128,0,106428:0:0:0:0:
329,192,106232,128,0,106428:0:0:0:0:
256,192,106428,1,0,0:0:0:0:
475,192,106428,1,0,0:0:0:0:
402,192,106428,1,0,0:0:0:0:
36,192,106624,1,0,0:0:0:0:
182,192,106624,128,0,106820:0:0:0:0:
329,192,106624,128,0,106820:0:0:0:0:
109,192,106722,1,0,0:0:0:0:
256,192,106820,128,0,107016:0:0:0:0:
402,192,106820,128,0,107016:0:0:0:0:
109,192,107016,1,0,0:0:0:0:
329,192,107016,128,0,107212:0:0:0:0:
475,192,107016,128,0,107212:0:0:0:0:
109,192,107212,1,0,0:0:0:0:
36,192,107212,1,0,0:0:0:0:
182,192,107212,1,0,0:0:0:0:
402,192,107212,128,0,107604:0:0:0:0:
256,192,107212,1,0,0:0:0:0:
36,192,107408,1,0,0:0:0:0:
329,192,107408,128,0,107800:0:0:0:0:
109,192,107506,1,0,0:0:0:0:
182,192,107604,1,0,0:0:0:0:
475,192,107604,128,0,107996:0:0:0:0:
256,192,107604,1,0,0:0:0:0:
109,192,107800,1,0,0:0:0:0:
402,192,107800,128,0,108193:0:0:0:0:
36,192,107996,1,0,0:0:0:0:
256,192,107996,1,0,0:0:0:0:
329,192,107996,128,0,108389:0:0:0:0:
109,192,108193,1,0,0:0:0:0:
475,192,108193,128,0,108389:0:0:0:0:
182,192,108291,1,0,0:0:0:0:
256,192,108389,1,0,0:0:0:0:
36,192,108389,1,0,0:0:0:0:
402,192,108389,128,0,108585:0:0:0:0:
109,192,108585,1,0,0:0:0:0:
329,192,108585,128,0,108781:0:0:0:0:
256,192,108781,1,0,0:0:0:0:
402,192,108781,1,0,0:0:0:0:
475,192,108781,1,0,0:0:0:0:
109,192,108781,128,0,109173:0:0:0:0:
182,192,108977,128,0,109369:0:0:0:0:
475,192,108977,1,0,0:0:0:0:
402,192,109075,1,0,0:0:0:0:
256,192,109173,1,0,0:0:0:0:
329,192,109173,1,0,0:0:0:0:
36,192,109173,128,0,109565:0:0:0:0:
109,192,109369,128,0,109761:0:0:0:0:
402,192,109369,1,0,0:0:0:0:
182,192,109565,128,0,109957:0:0:0:0:
256,192,109565,1,0,0:0:0:0:
475,192,109565,1,0,0:0:0:0:
402,192,109761,1,0,0:0:0:0:
36,192,109761,128,0,109957:0:0:0:0:
329,192,109859,1,0,0:0:0:0:
475,192,109957,1,0,0:0:0:0:
256,192,109957,1,0,0:0:0:0:
109,192,109957,128,0,110153:0:0:0:0:
329,192,110153,1,0,0:0:0:0:
36,192,110349,1,0,0:0:0:0:
182,192,110349,1,0,0:0:0:0:
402,192,110349,1,0,0:0:0:0:
256,192,110349,128,0,110742:0:0:0:0:
475,192,110545,1,0,0:0:0:0:
329,192,110545,128,0,110938:0:0:0:0:
402,192,110644,1,0,0:0:0:0:
36,192,110742,1,0,0:0:0:0:
182,192,110742,128,0,111134:0:0:0:0:
109,192,110742,1,0,0:0:0:0:
109,192,110938,1,0,0:0:0:0:
256,192,110938,128,0,111330:0:0:0:0:
475,192,111134,1,0,0:0:0:0:
402,192,111134,1,0,0:0:0:0:
329,192,111134,128,0,111526:0:0:0:0:
36,192,111330,1,0,0:0:0:0:
182,192,111330,128,0,111526:0:0:0:0:
475,192,111428,1,0,0:0:0:0:
402,192,111526,1,0,0:0:0:0:
109,192,111526,1,0,0:0:0:0:
256,192,111526,128,0,111722:0:0:0:0:
182,192,111722,1,0,0:0:0:0:
329,192,111722,128,0,111918:0:0:0:0:
475,192,111918,1,0,0:0:0:0:
256,192,111918,1,0,0:0:0:0:
36,192,111918,1,0,0:0:0:0:
329,192,112114,128,0,112310:0:0:0:0:
475,192,112114,128,0,112310:0:0:0:0:
402,192,112310,128,0,112506:0:0:0:0:
256,192,112310,128,0,112506:0:0:0:0:
329,192,112506,128,0,112702:0:0:0:0:
182,192,112506,128,0,112702:0:0:0:0:
329,192,112898,128,0,113095:0:0:0:0:
182,192,112898,128,0,113095:0:0:0:0:
256,192,113095,128,0,113291:0:0:0:0:
109,192,113095,128,0,113291:0:0:0:0:
182,192,113291,128,0,113487:0:0:0:0:
36,192,113291,128,0,113487:0:0:0:0:
402,192,113487,1,0,0:0:0:0:
475,192,113487,1,0,0:0:0:0:
329,192,113487,1,0,0:0:0:0:
475,192,113683,1,0,0:0:0:0:
36,192,113683,128,0,113879:0:0:0:0:
182,192,113683,128,0,113879:0:0:0:0:
475,192,113879,1,0,0:0:0:0:
256,192,113879,128,0,114075:0:0:0:0:
402,192,113879,128,0,114075:0:0:0:0:
475,192,114075,1,0,0:0:0:0:
109,192,114075,128,0,114271:0:0:0:0:
329,192,114075,128,0,114271:0:0:0:0:
475,192,114271,1,0,0:0:0:0:
36,192,114271,1,0,0:0:0:0:
182,192,114271,1,0,0:0:0:0:
402,192,114271,1,0,0:0:0:0:
256,192,114271,128,0,114565:0:0:0:0:
36,192,114663,1,0,0:0:0:0:
182,192,114663,1,0,0:0:0:0:
402,192,114663,1,0,0:0:0:0:
475,192,114663,1,0,0:0:0:0:
256,192,114663,128,0,115055:0:0:0:0:
36,192,115055,1,0,0:0:0:0:
109,192,115055,1,0,0:0:0:0:
402,192,115055,1,0,0:0:0:0:
475,192,115055,1,0,0:0:0:0:
182,192,115055,128,0,115447:0:0:0:0:
329,192,115055,128,0,115447:0:0:0:0:
109,192,115447,128,0,115840:0:0:0:0:
402,192,115447,128,0,115840:0:0:0:0:
256,192,115840,1,0,0:0:0:0:
36,192,115840,128,0,116232:0:0:0:0:
475,192,115840,128,0,116232:0:0:0:0:
256,192,116232,1,0,0:0:0:0:
182,192,116428,1,0,0:0:0:0:
329,192,116428,1,0,0:0:0:0:
109,192,116526,1,0,0:0:0:0:
402,192,116526,1,0,0:0:0:0:
475,192,116624,1,0,0:0:0:0:
36,192,116624,1,0,0:0:0:0:
182,192,116820,1,0,0:0:0:0:
329,192,116918,1,0,0:0:0:0:
182,192,117016,1,0,0:0:0:0:
256,192,117081,1,0,0:0:0:0:
329,192,117147,1,0,0:0:0:0:
109,192,117212,1,0,0:0:0:0:
402,192,117408,128,0,117702:0:0:0:0:
475,192,117408,128,0,117702:0:0:0:0:
36,192,117408,1,0,0:0:0:0:
402,192,117800,128,0,118095:0:0:0:0:
475,192,117800,128,0,118095:0:0:0:0:
402,192,118193,1,0,0:0:0:0:
475,192,118193,1,0,0:0:0:0:
36,192,118193,128,0,118258:0:0:0:0:
109,192,118258,128,0,118323:0:0:0:0:
182,192,118323,128,0,118389:0:0:0:0:
256,192,118389,128,0,118454:0:0:0:0:
329,192,118454,128,0,118519:0:0:0:0:
402,192,118519,128,0,118585:0:0:0:0:
475,192,118585,128,0,118650:0:0:0:0:
36,192,118585,128,0,118977:0:0:0:0:
256,192,118977,1,0,0:0:0:0:
109,192,118977,128,0,119173:0:0:0:0:
402,192,118977,128,0,119173:0:0:0:0:
109,192,119369,128,0,119761:0:0:0:0:
256,192,119369,128,0,119761:0:0:0:0:
402,192,119761,128,0,119827:0:0:0:0:
475,192,119761,1,0,0:0:0:0:
329,192,119827,128,0,119892:0:0:0:0:
256,192,119892,128,0,119957:0:0:0:0:
182,192,119957,128,0,120153:0:0:0:0:
36,192,120153,1,0,0:0:0:0:
475,192,120153,1,0,0:0:0:0:
36,192,120284,1,0,0:0:0:0:
475,192,120284,1,0,0:0:0:0:
36,192,120415,1,0,0:0:0:0:
475,192,120415,1,0,0:0:0:0:
36,192,120545,1,0,0:0:0:0:
475,192,120545,1,0,0:0:0:0:
256,192,120545,128,0,120611:0:0:0:0:
329,192,120611,128,0,120676:0:0:0:0:
402,192,120676,128,0,120742:0:0:0:0:
475,192,120742,128,0,121330:0:0:0:0:
182,192,120938,1,0,0:0:0:0:
402,192,120938,1,0,0:0:0:0:
109,192,121134,1,0,0:0:0:0:
329,192,121134,1,0,0:0:0:0:
36,192,121330,1,0,0:0:0:0:
256,192,121330,1,0,0:0:0:0:
182,192,121330,1,0,0:0:0:0:
402,192,121330,1,0,0:0:0:0:
182,192,121722,128,0,122114:0:0:0:0:
36,192,121722,128,0,122114:0:0:0:0:
109,192,121722,1,0,0:0:0:0:
329,192,122114,128,0,122506:0:0:0:0:
475,192,122114,128,0,122506:0:0:0:0:
402,192,122114,1,0,0:0:0:0:
109,192,122506,128,0,122702:0:0:0:0:
36,192,122506,1,0,0:0:0:0:
182,192,122506,1,0,0:0:0:0:
256,192,122702,128,0,122898:0:0:0:0:
402,192,122898,128,0,123095:0:0:0:0:
475,192,122898,1,0,0:0:0:0:
329,192,122898,1,0,0:0:0:0:
36,192,123291,1,0,0:0:0:0:
256,192,123291,1,0,0:0:0:0:
109,192,123356,1,0,0:0:0:0:
182,192,123421,1,0,0:0:0:0:
475,192,123683,1,0,0:0:0:0:
329,192,123683,128,0,123977:0:0:0:0:
402,192,123683,128,0,123977:0:0:0:0:
36,192,123683,1,0,0:0:0:0:
109,192,123813,1,0,0:0:0:0:
182,192,123944,1,0,0:0:0:0:
329,192,124075,128,0,124467:0:0:0:0:
402,192,124075,128,0,124467:0:0:0:0:
36,192,124075,1,0,0:0:0:0:
182,192,124206,1,0,0:0:0:0:
109,192,124336,1,0,0:0:0:0:
256,192,124467,1,0,0:0:0:0:
36,192,124467,1,0,0:0:0:0:
182,192,124467,1,0,0:0:0:0:
475,192,124663,1,0,0:0:0:0:
475,192,124761,1,0,0:0:0:0:
475,192,124859,128,0,124957:0:0:0:0:
402,192,124957,128,0,125055:0:0:0:0:
329,192,125055,128,0,125153:0:0:0:0:
256,192,125153,128,0,125251:0:0:0:0:
329,192,125251,128,0,125349:0:0:0:0:
256,192,125349,128,0,125447:0:0:0:0:
182,192,125447,128,0,125545:0:0:0:0:
109,192,125545,128,0,125644:0:0:0:0:
182,192,125644,128,0,125742:0:0:0:0:
109,192,125742,128,0,125840:0:0:0:0:
36,192,125840,128,0,125938:0:0:0:0:
475,192,125938,128,0,126036:0:0:0:0:
256,192,126036,1,0,0:0:0:0:
402,192,126036,1,0,0:0:0:0:
36,192,126232,128,0,126330:0:0:0:0:
329,192,126428,1,0,0:0:0:0:
475,192,126428,1,0,0:0:0:0:
36,192,126624,128,0,126722:0:0:0:0:
329,192,126820,128,0,127016:0:0:0:0:
475,192,126820,128,0,127016:0:0:0:0:
256,192,127016,128,0,127212:0:0:0:0:
402,192,127016,128,0,127212:0:0:0:0:
36,192,127212,1,0,0:0:0:0:
109,192,127212,1,0,0:0:0:0:
182,192,127212,1,0,0:0:0:0:
329,192,127212,1,0,0:0:0:0:
36,192,127408,1,0,0:0:0:0:
109,192,127408,1,0,0:0:0:0:
182,192,127408,1,0,0:0:0:0:
329,192,127604,1,0,0:0:0:0:
475,192,127604,1,0,0:0:0:0:
402,192,127604,1,0,0:0:0:0:
256,192,127604,128,0,127996:0:0:0:0:
182,192,127800,128,0,128781:0:0:0:0:
329,192,127996,128,0,128977:0:0:0:0:
256,192,128193,128,0,128585:0:0:0:0:
109,192,128389,128,0,129173:0:0:0:0:
36,192,128389,1,0,0:0:0:0:
402,192,128585,128,0,129173:0:0:0:0:
256,192,128781,128,0,129173:0:0:0:0:
182,192,128977,128,0,129173:0:0:0:0:
329,192,129173,128,0,129369:0:0:0:0:
36,192,129173,1,0,0:0:0:0:
475,192,129173,1,0,0:0:0:0:
256,192,129369,128,0,129565:0:0:0:0:
182,192,129565,128,0,129761:0:0:0:0:
36,192,129565,1,0,0:0:0:0:
329,192,129761,128,0,129957:0:0:0:0:
475,192,129957,128,0,130153:0:0:0:0:
109,192,129957,1,0,0:0:0:0:
36,192,129957,1,0,0:0:0:0:
182,192,130153,128,0,130349:0:0:0:0:
329,192,130349,128,0,130545:0:0:0:0:
109,192,130349,1,0,0:0:0:0:
36,192,130545,128,0,130742:0:0:0:0:
109,192,130742,1,0,0:0:0:0:
182,192,130742,1,0,0:0:0:0:
402,192,130742,128,0,130938:0:0:0:0:
256,192,130938,128,0,131134:0:0:0:0:
109,192,131134,128,0,131330:0:0:0:0:
36,192,131134,1,0,0:0:0:0:
329,192,131330,128,0,131526:0:0:0:0:
402,192,131330,1,0,0:0:0:0:
256,192,131526,128,0,131722:0:0:0:0:
36,192,131526,1,0,0:0:0:0:
109,192,131526,1,0,0:0:0:0:
475,192,131526,1,0,0:0:0:0:
182,192,131722,128,0,131918:0:0:0:0:
329,192,131918,128,0,132114:0:0:0:0:
109,192,131918,1,0,0:0:0:0:
36,192,131918,1,0,0:0:0:0:
475,192,132114,128,0,132310:0:0:0:0:
109,192,132310,128,0,132506:0:0:0:0:
402,192,132310,1,0,0:0:0:0:
256,192,132506,128,0,132702:0:0:0:0:
182,192,132506,1,0,0:0:0:0:
402,192,132702,128,0,132898:0:0:0:0:
109,192,132702,1,0,0:0:0:0:
182,192,132898,1,0,0:0:0:0:
329,192,132898,1,0,0:0:0:0:
36,192,133095,128,0,133291:0:0:0:0:
329,192,133095,1,0,0:0:0:0:
182,192,133291,128,0,133487:0:0:0:0:
402,192,133291,1,0,0:0:0:0:
329,192,133487,128,0,133683:0:0:0:0:
475,192,133487,1,0,0:0:0:0:
256,192,133683,1,0,0:0:0:0:
109,192,133683,1,0,0:0:0:0:
36,192,133683,1,0,0:0:0:0:
182,192,133879,1,0,0:0:0:0:
329,192,133879,1,0,0:0:0:0:
402,192,133879,128,0,134271:0:0:0:0:
475,192,133879,128,0,134075:0:0:0:0:
36,192,133879,1,0,0:0:0:0:
329,192,134075,128,0,134467:0:0:0:0:
475,192,134271,128,0,134663:0:0:0:0:
36,192,134271,128,0,134663:0:0:0:0:
182,192,134271,1,0,0:0:0:0:
109,192,134369,1,0,0:0:0:0:
402,192,134467,128,0,135055:0:0:0:0:
256,192,134467,1,0,0:0:0:0:
182,192,134565,1,0,0:0:0:0:
329,192,134663,128,0,134859:0:0:0:0:
109,192,134663,128,0,135055:0:0:0:0:
256,192,134663,1,0,0:0:0:0:
475,192,134859,128,0,135251:0:0:0:0:
329,192,135055,128,0,135447:0:0:0:0:
36,192,135055,128,0,135251:0:0:0:0:
402,192,135251,128,0,135447:0:0:0:0:
256,192,135251,128,0,135447:0:0:0:0:
475,192,135447,128,0,135644:0:0:0:0:
36,192,135447,128,0,135644:0:0:0:0:
109,192,135447,128,0,135840:0:0:0:0:
182,192,135447,1,0,0:0:0:0:
182,192,135644,128,0,136036:0:0:0:0:
36,192,135840,128,0,136232:0:0:0:0:
402,192,135840,128,0,136036:0:0:0:0:
329,192,135840,1,0,0:0:0:0:
109,192,136036,128,0,136624:0:0:0:0:
182,192,136232,128,0,136428:0:0:0:0:
329,192,136232,1,0,0:0:0:0:
475,192,136232,128,0,136526:0:0:0:0:
36,192,136428,128,0,136820:0:0:0:0:
475,192,136624,128,0,137016:0:0:0:0:
329,192,136624,1,0,0:0:0:0:
182,192,136624,128,0,137016:0:0:0:0:
109,192,136820,128,0,137016:0:0:0:0:
36,192,137016,1,0,0:0:0:0:
402,192,137016,1,0,0:0:0:0:
256,192,137016,128,0,137408:0:0:0:0:
329,192,137016,128,0,137212:0:0:0:0:
182,192,137212,128,0,137604:0:0:0:0:
329,192,137408,128,0,137800:0:0:0:0:
36,192,137408,128,0,137800:0:0:0:0:
256,192,137604,128,0,138193:0:0:0:0:
182,192,137800,128,0,137996:0:0:0:0:
475,192,137800,128,0,138193:0:0:0:0:
329,192,137996,128,0,138389:0:0:0:0:
182,192,138193,128,0,138585:0:0:0:0:
36,192,138193,128,0,138585:0:0:0:0:
402,192,138193,1,0,0:0:0:0:
256,192,138389,128,0,138585:0:0:0:0:
475,192,138389,1,0,0:0:0:0:
329,192,138585,1,0,0:0:0:0:
402,192,138585,1,0,0:0:0:0:
109,192,138585,1,0,0:0:0:0:
256,192,138781,1,0,0:0:0:0:
329,192,138879,1,0,0:0:0:0:
36,192,138977,128,0,139369:0:0:0:0:
182,192,138977,1,0,0:0:0:0:
402,192,138977,1,0,0:0:0:0:
329,192,139173,128,0,139369:0:0:0:0:
182,192,139369,128,0,139761:0:0:0:0:
402,192,139369,1,0,0:0:0:0:
475,192,139369,1,0,0:0:0:0:
256,192,139565,1,0,0:0:0:0:
329,192,139761,128,0,140153:0:0:0:0:
109,192,139761,1,0,0:0:0:0:
109,192,139957,1,0,0:0:0:0:
109,192,140349,128,0,140545:0:0:0:0:
36,192,140349,128,0,140938:0:0:0:0:
256,192,140545,128,0,140742:0:0:0:0:
402,192,140742,128,0,140938:0:0:0:0:
182,192,140938,128,0,141134:0:0:0:0:
109,192,140938,1,0,0:0:0:0:
329,192,141134,128,0,141232:0:0:0:0:
402,192,141134,1,0,0:0:0:0:
475,192,141134,1,0,0:0:0:0:
256,192,141232,128,0,141330:0:0:0:0:
182,192,141330,128,0,141722:0:0:0:0:
109,192,141330,1,0,0:0:0:0:
36,192,141330,1,0,0:0:0:0:
402,192,141330,1,0,0:0:0:0:
475,192,141330,1,0,0:0:0:0:
329,192,141526,128,0,141722:0:0:0:0:
256,192,141722,1,0,0:0:0:0:
475,192,141722,1,0,0:0:0:0:
402,192,141722,1,0,0:0:0:0:
109,192,141722,1,0,0:0:0:0:
329,192,141918,1,0,0:0:0:0:
36,192,142114,1,0,0:0:0:0:
182,192,142114,1,0,0:0:0:0:
402,192,142310,1,0,0:0:0:0:
36,192,142506,1,0,0:0:0:0:
182,192,142506,1,0,0:0:0:0:
475,192,142702,1,0,0:0:0:0:
109,192,142898,128,0,143291:0:0:0:0:
36,192,142898,1,0,0:0:0:0:
182,192,142898,1,0,0:0:0:0:
256,192,143095,1,0,0:0:0:0:
329,192,143291,1,0,0:0:0:0:
475,192,143291,1,0,0:0:0:0:
402,192,143291,1,0,0:0:0:0:
36,192,143487,1,0,0:0:0:0:
329,192,143683,1,0,0:0:0:0:
475,192,143683,1,0,0:0:0:0:
109,192,143879,1,0,0:0:0:0:
329,192,144075,1,0,0:0:0:0:
475,192,144075,1,0,0:0:0:0:
402,192,144075,1,0,0:0:0:0:
182,192,144271,1,0,0:0:0:0:
256,192,144369,1,0,0:0:0:0:
329,192,144467,1,0,0:0:0:0:
475,192,144467,1,0,0:0:0:0:
256,192,144663,1,0,0:0:0:0:
36,192,144859,1,0,0:0:0:0:
182,192,144859,1,0,0:0:0:0:
109,192,144859,1,0,0:0:0:0:
329,192,145055,1,0,0:0:0:0:
36,192,145251,1,0,0:0:0:0:
182,192,145251,1,0,0:0:0:0:
402,192,145447,1,0,0:0:0:0:
36,192,145644,1,0,0:0:0:0:
182,192,145644,1,0,0:0:0:0:
256,192,145644,1,0,0:0:0:0:
475,192,145840,1,0,0:0:0:0:
36,192,146036,1,0,0:0:0:0:
182,192,146036,1,0,0:0:0:0:
256,192,146232,1,0,0:0:0:0:
182,192,146428,128,0,147212:0:0:0:0:
329,192,146428,1,0,0:0:0:0:
475,192,146428,1,0,0:0:0:0:
402,192,146428,1,0,0:0:0:0:
36,192,146624,1,0,0:0:0:0:
329,192,146820,1,0,0:0:0:0:
475,192,146820,1,0,0:0:0:0:
109,192,147016,1,0,0:0:0:0:
256,192,147212,128,0,147996:0:0:0:0:
329,192,147212,1,0,0:0:0:0:
475,192,147212,1,0,0:0:0:0:
402,192,147212,1,0,0:0:0:0:
36,192,147408,1,0,0:0:0:0:
109,192,147408,1,0,0:0:0:0:
329,192,147604,1,0,0:0:0:0:
475,192,147604,1,0,0:0:0:0:
402,192,147604,1,0,0:0:0:0:
182,192,147996,1,0,0:0:0:0:
109,192,147996,1,0,0:0:0:0:
402,192,147996,1,0,0:0:0:0:
329,192,147996,1,0,0:0:0:0:
256,192,148193,1,0,0:0:0:0:
109,192,148389,1,0,0:0:0:0:
402,192,148389,1,0,0:0:0:0:
329,192,148585,1,0,0:0:0:0:
109,192,148781,1,0,0:0:0:0:
402,192,148781,1,0,0:0:0:0:
182,192,148977,1,0,0:0:0:0:
256,192,149173,1,0,0:0:0:0:
109,192,149173,1,0,0:0:0:0:
402,192,149173,1,0,0:0:0:0:
36,192,149565,128,0,149957:0:0:0:0:
182,192,149565,1,0,0:0:0:0:
329,192,149565,1,0,0:0:0:0:
256,192,149761,1,0,0:0:0:0:
182,192,149859,1,0,0:0:0:0:
329,192,149957,128,0,150349:0:0:0:0:
402,192,149957,1,0,0:0:0:0:
109,192,149957,1,0,0:0:0:0:
182,192,150349,128,0,150742:0:0:0:0:
109,192,150349,1,0,0:0:0:0:
36,192,150349,1,0,0:0:0:0:
256,192,150545,1,0,0:0:0:0:
329,192,150644,1,0,0:0:0:0:
402,192,150742,1,0,0:0:0:0:
36,192,150742,1,0,0:0:0:0:
475,192,150742,128,0,151134:0:0:0:0:
109,192,150938,1,0,0:0:0:0:
182,192,151134,1,0,0:0:0:0:
36,192,151134,1,0,0:0:0:0:
256,192,151134,1,0,0:0:0:0:
402,192,151134,1,0,0:0:0:0:
182,192,151330,1,0,0:0:0:0:
475,192,151526,1,0,0:0:0:0:
329,192,151526,1,0,0:0:0:0:
109,192,151722,1,0,0:0:0:0:
475,192,151918,1,0,0:0:0:0:
329,192,151918,1,0,0:0:0:0:
36,192,152114,1,0,0:0:0:0:
402,192,152310,128,0,152702:0:0:0:0:
475,192,152310,1,0,0:0:0:0:
329,192,152310,1,0,0:0:0:0:
256,192,152506,1,0,0:0:0:0:
182,192,152702,1,0,0:0:0:0:
36,192,152702,1,0,0:0:0:0:
109,192,152702,1,0,0:0:0:0:
475,192,152898,1,0,0:0:0:0:
182,192,153095,1,0,0:0:0:0:
36,192,153095,1,0,0:0:0:0:
402,192,153291,1,0,0:0:0:0:
182,192,153487,1,0,0:0:0:0:
36,192,153487,1,0,0:0:0:0:
256,192,153487,1,0,0:0:0:0:
329,192,153683,1,0,0:0:0:0:
256,192,153781,1,0,0:0:0:0:
109,192,153879,1,0,0:0:0:0:
182,192,153879,1,0,0:0:0:0:
36,192,153879,1,0,0:0:0:0:
256,192,154075,1,0,0:0:0:0:
475,192,154271,1,0,0:0:0:0:
329,192,154271,1,0,0:0:0:0:
402,192,154271,1,0,0:0:0:0:
182,192,154467,1,0,0:0:0:0:
475,192,154663,1,0,0:0:0:0:
329,192,154663,1,0,0:0:0:0:
109,192,154859,1,0,0:0:0:0:
475,192,155055,1,0,0:0:0:0:
329,192,155055,1,0,0:0:0:0:
256,192,155055,1,0,0:0:0:0:
36,192,155251,1,0,0:0:0:0:
402,192,155447,1,0,0:0:0:0:
475,192,155447,1,0,0:0:0:0:
329,192,155447,1,0,0:0:0:0:
256,192,155644,1,0,0:0:0:0:
329,192,155840,128,0,156624:0:0:0:0:
182,192,155840,1,0,0:0:0:0:
36,192,155840,1,0,0:0:0:0:
475,192,156036,1,0,0:0:0:0:
182,192,156232,1,0,0:0:0:0:
36,192,156232,1,0,0:0:0:0:
402,192,156428,1,0,0:0:0:0:
256,192,156624,128,0,157408:0:0:0:0:
182,192,156624,1,0,0:0:0:0:
36,192,156624,1,0,0:0:0:0:
402,192,156820,1,0,0:0:0:0:
475,192,156820,1,0,0:0:0:0:
182,192,157016,1,0,0:0:0:0:
36,192,157016,1,0,0:0:0:0:
109,192,157016,1,0,0:0:0:0:
475,192,157212,1,0,0:0:0:0:
329,192,157408,1,0,0:0:0:0:
402,192,157408,1,0,0:0:0:0:
109,192,157408,1,0,0:0:0:0:
182,192,157408,1,0,0:0:0:0:
256,192,157604,1,0,0:0:0:0:
402,192,157800,1,0,0:0:0:0:
109,192,157800,1,0,0:0:0:0:
182,192,157996,1,0,0:0:0:0:
402,192,158193,1,0,0:0:0:0:
109,192,158193,1,0,0:0:0:0:
329,192,158389,1,0,0:0:0:0:
109,192,158585,128,0,158977:0:0:0:0:
256,192,158585,1,0,0:0:0:0:
402,192,158585,1,0,0:0:0:0:
475,192,158977,128,0,159369:0:0:0:0:
256,192,158977,128,0,159369:0:0:0:0:
36,192,158977,1,0,0:0:0:0:
109,192,159173,1,0,0:0:0:0:
402,192,159369,128,0,159761:0:0:0:0:
182,192,159369,128,0,159761:0:0:0:0:
36,192,159369,1,0,0:0:0:0:
109,192,159565,1,0,0:0:0:0:
475,192,159761,1,0,0:0:0:0:
256,192,159761,128,0,160153:0:0:0:0:
36,192,159761,128,0,160153:0:0:0:0:
475,192,159957,1,0,0:0:0:0:
475,192,160153,1,0,0:0:0:0:
402,192,160153,1,0,0:0:0:0:
109,192,160153,128,0,160545:0:0:0:0:
329,192,160153,128,0,160545:0:0:0:0:
402,192,160349,1,0,0:0:0:0:
36,192,160545,1,0,0:0:0:0:
256,192,160545,128,0,160938:0:0:0:0:
475,192,160545,128,0,160938:0:0:0:0:
36,192,160742,1,0,0:0:0:0:
109,192,160840,1,0,0:0:0:0:
182,192,160938,128,0,161330:0:0:0:0:
402,192,160938,128,0,161330:0:0:0:0:
475,192,161330,1,0,0:0:0:0:
109,192,161330,1,0,0:0:0:0:
36,192,161330,128,0,161722:0:0:0:0:
402,192,161526,1,0,0:0:0:0:
182,192,161722,1,0,0:0:0:0:
329,192,161722,1,0,0:0:0:0:
256,192,161722,128,0,162114:0:0:0:0:
109,192,161918,1,0,0:0:0:0:
36,192,162114,1,0,0:0:0:0:
182,192,162114,1,0,0:0:0:0:
475,192,162114,1,0,0:0:0:0:
402,192,162114,1,0,0:0:0:0:
329,192,162506,1,0,0:0:0:0:
182,192,162898,1,0,0:0:0:0:
256,192,163095,1,0,0:0:0:0:
109,192,163095,1,0,0:0:0:0:
402,192,163095,1,0,0:0:0:0:
109,192,163291,1,0,0:0:0:0:
256,192,163291,1,0,0:0:0:0:
402,192,163291,1,0,0:0:0:0:
36,192,163683,1,0,0:0:0:0:
329,192,163683,1,0,0:0:0:0:
475,192,163683,1,0,0:0:0:0:
182,192,163683,1,0,0:0:0:0:
402,192,163683,1,0,0:0:0:0:
256,192,163781,1,0,0:0:0:0:
329,192,163879,1,0,0:0:0:0:
109,192,163879,1,0,0:0:0:0:
475,192,163977,1,0,0:0:0:0:
36,192,164075,1,0,0:0:0:0:
402,192,164075,1,0,0:0:0:0:
182,192,164075,1,0,0:0:0:0:
329,192,164173,1,0,0:0:0:0:
256,192,164271,1,0,0:0:0:0:
475,192,164271,1,0,0:0:0:0:
182,192,164369,1,0,0:0:0:0:
36,192,164467,1,0,0:0:0:0:
109,192,164467,1,0,0:0:0:0:
329,192,164467,1,0,0:0:0:0:
256,192,164565,1,0,0:0:0:0:
182,192,164663,1,0,0:0:0:0:
402,192,164663,1,0,0:0:0:0:
329,192,164761,1,0,0:0:0:0:
475,192,164859,1,0,0:0:0:0:
36,192,164859,1,0,0:0:0:0:
256,192,164859,1,0,0:0:0:0:
109,192,164957,1,0,0:0:0:0:
182,192,165055,1,0,0:0:0:0:
329,192,165055,1,0,0:0:0:0:
402,192,165153,1,0,0:0:0:0:
36,192,165251,1,0,0:0:0:0:
256,192,165251,1,0,0:0:0:0:
475,192,165251,1,0,0:0:0:0:
329,192,165349,1,0,0:0:0:0:
402,192,165447,1,0,0:0:0:0:
182,192,165447,1,0,0:0:0:0:
109,192,165545,1,0,0:0:0:0:
475,192,165644,1,0,0:0:0:0:
36,192,165644,1,0,0:0:0:0:
256,192,165644,1,0,0:0:0:0:
182,192,165742,1,0,0:0:0:0:
109,192,165840,1,0,0:0:0:0:
329,192,165840,1,0,0:0:0:0:
256,192,165938,1,0,0:0:0:0:
475,192,166036,1,0,0:0:0:0:
182,192,166036,1,0,0:0:0:0:
402,192,166036,1,0,0:0:0:0:
256,192,166134,1,0,0:0:0:0:
109,192,166232,1,0,0:0:0:0:
329,192,166232,1,0,0:0:0:0:
182,192,166330,1,0,0:0:0:0:
36,192,166428,1,0,0:0:0:0:
256,192,166428,1,0,0:0:0:0:
475,192,166428,1,0,0:0:0:0:
402,192,166526,1,0,0:0:0:0:
182,192,166624,1,0,0:0:0:0:
329,192,166624,1,0,0:0:0:0:
256,192,166722,1,0,0:0:0:0:
36,192,166820,1,0,0:0:0:0:
109,192,166820,1,0,0:0:0:0:
402,192,166820,1,0,0:0:0:0:
329,192,166918,1,0,0:0:0:0:
109,192,167016,1,0,0:0:0:0:
256,192,167016,1,0,0:0:0:0:
329,192,167114,1,0,0:0:0:0:
475,192,167212,1,0,0:0:0:0:
182,192,167212,1,0,0:0:0:0:
402,192,167212,1,0,0:0:0:0:
256,192,167310,1,0,0:0:0:0:
109,192,167408,1,0,0:0:0:0:
329,192,167408,1,0,0:0:0:0:
182,192,167506,1,0,0:0:0:0:
475,192,167604,1,0,0:0:0:0:
36,192,167604,1,0,0:0:0:0:
329,192,167604,1,0,0:0:0:0:
256,192,167702,1,0,0:0:0:0:
182,192,167800,1,0,0:0:0:0:
402,192,167800,1,0,0:0:0:0:
329,192,167898,1,0,0:0:0:0:
36,192,167996,1,0,0:0:0:0:
256,192,167996,1,0,0:0:0:0:
475,192,167996,1,0,0:0:0:0:
109,192,168095,1,0,0:0:0:0:
182,192,168193,1,0,0:0:0:0:
402,192,168193,1,0,0:0:0:0:
329,192,168291,1,0,0:0:0:0:
36,192,168389,1,0,0:0:0:0:
109,192,168389,1,0,0:0:0:0:
256,192,168389,1,0,0:0:0:0:
402,192,168487,1,0,0:0:0:0:
256,192,168585,1,0,0:0:0:0:
109,192,168683,1,0,0:0:0:0:
182,192,168781,1,0,0:0:0:0:
402,192,168781,1,0,0:0:0:0:
256,192,168879,1,0,0:0:0:0:
475,192,168977,1,0,0:0:0:0:
402,192,169075,1,0,0:0:0:0:
36,192,169173,1,0,0:0:0:0:
182,192,169173,1,0,0:0:0:0:
329,192,169173,1,0,0:0:0:0:
256,192,169271,1,0,0:0:0:0:
475,192,169369,1,0,0:0:0:0:
36,192,169369,1,0,0:0:0:0:
402,192,169467,1,0,0:0:0:0:
109,192,169467,1,0,0:0:0:0:
475,192,169565,1,0,0:0:0:0:
256,192,169565,128,0,169957:0:0:0:0:
182,192,169565,1,0,0:0:0:0:
329,192,169565,1,0,0:0:0:0:
402,192,169957,1,0,0:0:0:0:
109,192,169957,1,0,0:0:0:0:
329,192,169957,1,0,0:0:0:0:
182,192,169957,1,0,0:0:0:0:
256,192,170055,1,0,0:0:0:0:
182,192,170153,1,0,0:0:0:0:
402,192,170153,1,0,0:0:0:0:
36,192,170251,1,0,0:0:0:0:
475,192,170349,1,0,0:0:0:0:
109,192,170349,1,0,0:0:0:0:
329,192,170349,1,0,0:0:0:0:
182,192,170447,1,0,0:0:0:0:
256,192,170545,1,0,0:0:0:0:
36,192,170545,1,0,0:0:0:0:
109,192,170644,1,0,0:0:0:0:
475,192,170742,1,0,0:0:0:0:
402,192,170742,1,0,0:0:0:0:
182,192,170742,1,0,0:0:0:0:
329,192,170840,1,0,0:0:0:0:
256,192,170938,1,0,0:0:0:0:
109,192,170938,1,0,0:0:0:0:
402,192,171036,1,0,0:0:0:0:
36,192,171134,1,0,0:0:0:0:
475,192,171134,1,0,0:0:0:0:
256,192,171134,1,0,0:0:0:0:
329,192,171232,1,0,0:0:0:0:
402,192,171330,1,0,0:0:0:0:
109,192,171330,1,0,0:0:0:0:
182,192,171428,1,0,0:0:0:0:
475,192,171526,1,0,0:0:0:0:
256,192,171526,1,0,0:0:0:0:
36,192,171526,1,0,0:0:0:0:
182,192,171624,1,0,0:0:0:0:
109,192,171722,1,0,0:0:0:0:
329,192,171722,1,0,0:0:0:0:
402,192,171820,1,0,0:0:0:0:
36,192,171918,1,0,0:0:0:0:
475,192,171918,1,0,0:0:0:0:
256,192,171918,1,0,0:0:0:0:
329,192,172016,1,0,0:0:0:0:
402,192,172114,1,0,0:0:0:0:
182,192,172114,1,0,0:0:0:0:
256,192,172212,1,0,0:0:0:0:
36,192,172310,1,0,0:0:0:0:
329,192,172310,1,0,0:0:0:0:
109,192,172310,1,0,0:0:0:0:
256,192,172408,1,0,0:0:0:0:
402,192,172506,1,0,0:0:0:0:
182,192,172506,1,0,0:0:0:0:
329,192,172604,1,0,0:0:0:0:
475,192,172702,1,0,0:0:0:0:
256,192,172702,1,0,0:0:0:0:
36,192,172702,1,0,0:0:0:0:
182,192,172800,1,0,0:0:0:0:
329,192,172898,1,0,0:0:0:0:
109,192,172898,1,0,0:0:0:0:
256,192,172996,1,0,0:0:0:0:
475,192,173095,1,0,0:0:0:0:
402,192,173095,1,0,0:0:0:0:
182,192,173095,1,0,0:0:0:0:
36,192,173193,1,0,0:0:0:0:
329,192,173291,1,0,0:0:0:0:
182,192,173291,1,0,0:0:0:0:
36,192,173389,1,0,0:0:0:0:
109,192,173487,1,0,0:0:0:0:
402,192,173487,1,0,0:0:0:0:
256,192,173487,1,0,0:0:0:0:
475,192,173585,1,0,0:0:0:0:
329,192,173683,1,0,0:0:0:0:
182,192,173683,1,0,0:0:0:0:
475,192,173781,1,0,0:0:0:0:
36,192,173879,1,0,0:0:0:0:
329,192,173879,1,0,0:0:0:0:
109,192,173879,1,0,0:0:0:0:
256,192,173977,1,0,0:0:0:0:
402,192,174075,1,0,0:0:0:0:
182,192,174075,1,0,0:0:0:0:
329,192,174173,1,0,0:0:0:0:
475,192,174271,1,0,0:0:0:0:
256,192,174271,1,0,0:0:0:0:
109,192,174271,1,0,0:0:0:0:
402,192,174369,1,0,0:0:0:0:
329,192,174467,1,0,0:0:0:0:
182,192,174467,1,0,0:0:0:0:
36,192,174565,1,0,0:0:0:0:
402,192,174663,128,0,175055:0:0:0:0:
475,192,174663,1,0,0:0:0:0:
182,192,174663,1,0,0:0:0:0:
109,192,174761,1,0,0:0:0:0:
256,192,174859,1,0,0:0:0:0:
182,192,174957,1,0,0:0:0:0:
329,192,175055,128,0,175447:0:0:0:0:
109,192,175055,1,0,0:0:0:0:
36,192,175153,1,0,0:0:0:0:
182,192,175251,1,0,0:0:0:0:
109,192,175349,1,0,0:0:0:0:
256,192,175447,128,0,176232:0:0:0:0:
402,192,175447,1,0,0:0:0:0:
36,192,175447,1,0,0:0:0:0:
402,192,175644,1,0,0:0:0:0:
329,192,175644,1,0,0:0:0:0:
475,192,175644,1,0,0:0:0:0:
182,192,176232,1,0,0:0:0:0:
36,192,176232,1,0,0:0:0:0:
329,192,176232,1,0,0:0:0:0:
475,192,176232,1,0,0:0:0:0:
256,192,176330,1,0,0:0:0:0:
329,192,176428,1,0,0:0:0:0:
109,192,176428,1,0,0:0:0:0:
475,192,176526,1,0,0:0:0:0:
36,192,176624,1,0,0:0:0:0:
109,192,176624,1,0,0:0:0:0:
182,192,176624,1,0,0:0:0:0:
402,192,176624,1,0,0:0:0:0:
256,192,176722,1,0,0:0:0:0:
329,192,176820,1,0,0:0:0:0:
475,192,176820,1,0,0:0:0:0:
182,192,176918,1,0,0:0:0:0:
36,192,177016,1,0,0:0:0:0:
402,192,177016,1,0,0:0:0:0:
329,192,177016,1,0,0:0:0:0:
256,192,177114,1,0,0:0:0:0:
182,192,177212,1,0,0:0:0:0:
402,192,177212,1,0,0:0:0:0:
329,192,177310,1,0,0:0:0:0:
475,192,177408,1,0,0:0:0:0:
402,192,177408,1,0,0:0:0:0:
256,192,177408,1,0,0:0:0:0:
36,192,177408,1,0,0:0:0:0:
109,192,177506,1,0,0:0:0:0:
182,192,177604,1,0,0:0:0:0:
329,192,177604,1,0,0:0:0:0:
402,192,177702,1,0,0:0:0:0:
36,192,177800,1,0,0:0:0:0:
256,192,177800,1,0,0:0:0:0:
475,192,177800,1,0,0:0:0:0:
329,192,177898,1,0,0:0:0:0:
402,192,177996,1,0,0:0:0:0:
182,192,177996,1,0,0:0:0:0:
109,192,178095,1,0,0:0:0:0:
475,192,178193,1,0,0:0:0:0:
329,192,178193,1,0,0:0:0:0:
256,192,178193,1,0,0:0:0:0:
36,192,178193,1,0,0:0:0:0:
182,192,178291,1,0,0:0:0:0:
109,192,178389,1,0,0:0:0:0:
329,192,178389,1,0,0:0:0:0:
402,192,178487,1,0,0:0:0:0:
475,192,178585,1,0,0:0:0:0:
256,192,178585,1,0,0:0:0:0:
36,192,178585,128,0,179369:0:0:0:0:
182,192,178683,1,0,0:0:0:0:
329,192,178781,1,0,0:0:0:0:
109,192,178781,1,0,0:0:0:0:
402,192,178879,1,0,0:0:0:0:
475,192,178977,1,0,0:0:0:0:
109,192,178977,1,0,0:0:0:0:
182,192,178977,1,0,0:0:0:0:
256,192,178977,1,0,0:0:0:0:
329,192,179075,1,0,0:0:0:0:
402,192,179173,1,0,0:0:0:0:
182,192,179173,1,0,0:0:0:0:
256,192,179271,1,0,0:0:0:0:
402,192,179369,1,0,0:0:0:0:
329,192,179369,1,0,0:0:0:0:
475,192,179369,128,0,180938:0:0:0:0:
182,192,179467,1,0,0:0:0:0:
402,192,179565,1,0,0:0:0:0:
36,192,179565,1,0,0:0:0:0:
256,192,179663,1,0,0:0:0:0:
36,192,179761,1,0,0:0:0:0:
402,192,179761,1,0,0:0:0:0:
109,192,179761,1,0,0:0:0:0:
182,192,179761,1,0,0:0:0:0:
329,192,179859,1,0,0:0:0:0:
36,192,179957,1,0,0:0:0:0:
182,192,179957,1,0,0:0:0:0:
402,192,180055,1,0,0:0:0:0:
36,192,180153,1,0,0:0:0:0:
329,192,180153,1,0,0:0:0:0:
182,192,180153,1,0,0:0:0:0:
402,192,180251,1,0,0:0:0:0:
256,192,180349,1,0,0:0:0:0:
109,192,180349,1,0,0:0:0:0:
329,192,180447,1,0,0:0:0:0:
402,192,180545,1,0,0:0:0:0:
109,192,180545,1,0,0:0:0:0:
36,192,180545,1,0,0:0:0:0:
182,192,180545,1,0,0:0:0:0:
256,192,180644,1,0,0:0:0:0:
329,192,180742,1,0,0:0:0:0:
109,192,180742,1,0,0:0:0:0:
182,192,180840,1,0,0:0:0:0:
109,192,180938,128,0,181330:0:0:0:0:
36,192,180938,1,0,0:0:0:0:
256,192,180938,1,0,0:0:0:0:
402,192,181036,1,0,0:0:0:0:
256,192,181134,1,0,0:0:0:0:
329,192,181232,1,0,0:0:0:0:
475,192,181330,1,0,0:0:0:0:
182,192,181330,128,0,181722:0:0:0:0:
402,192,181330,1,0,0:0:0:0:
256,192,181428,1,0,0:0:0:0:
329,192,181526,1,0,0:0:0:0:
402,192,181624,1,0,0:0:0:0:
109,192,181722,1,0,0:0:0:0:
256,192,181722,1,0,0:0:0:0:
475,192,181722,1,0,0:0:0:0:
36,192,181918,1,0,0:0:0:0:
109,192,182016,1,0,0:0:0:0:
475,192,182114,1,0,0:0:0:0:
256,192,182114,128,0,182506:0:0:0:0:
182,192,182114,1,0,0:0:0:0:
329,192,182114,1,0,0:0:0:0:
402,192,182506,1,0,0:0:0:0:
109,192,182506,1,0,0:0:0:0:
329,192,182506,1,0,0:0:0:0:
182,192,182506,1,0,0:0:0:0:
36,192,182604,1,0,0:0:0:0:
182,192,182702,1,0,0:0:0:0:
402,192,182702,1,0,0:0:0:0:
109,192,182800,1,0,0:0:0:0:
475,192,182898,1,0,0:0:0:0:
402,192,182898,1,0,0:0:0:0:
329,192,182898,1,0,0:0:0:0:
36,192,182898,1,0,0:0:0:0:
256,192,182996,1,0,0:0:0:0:
182,192,183095,1,0,0:0:0:0:
36,192,183095,1,0,0:0:0:0:
256,192,183193,1,0,0:0:0:0:
329,192,183291,1,0,0:0:0:0:
475,192,183291,1,0,0:0:0:0:
36,192,183291,1,0,0:0:0:0:
109,192,183389,1,0,0:0:0:0:
402,192,183487,1,0,0:0:0:0:
182,192,183487,1,0,0:0:0:0:
256,192,183585,1,0,0:0:0:0:
36,192,183683,1,0,0:0:0:0:
109,192,183683,1,0,0:0:0:0:
329,192,183683,1,0,0:0:0:0:
475,192,183683,1,0,0:0:0:0:
182,192,183781,1,0,0:0:0:0:
36,192,183879,1,0,0:0:0:0:
256,192,183879,1,0,0:0:0:0:
329,192,183977,1,0,0:0:0:0:
402,192,184075,1,0,0:0:0:0:
109,192,184075,1,0,0:0:0:0:
182,192,184075,1,0,0:0:0:0:
256,192,184173,1,0,0:0:0:0:
402,192,184271,1,0,0:0:0:0:
182,192,184271,1,0,0:0:0:0:
109,192,184369,1,0,0:0:0:0:
475,192,184467,1,0,0:0:0:0:
402,192,184467,1,0,0:0:0:0:
256,192,184467,1,0,0:0:0:0:
36,192,184467,1,0,0:0:0:0:
182,192,184565,1,0,0:0:0:0:
109,192,184663,1,0,0:0:0:0:
329,192,184663,1,0,0:0:0:0:
182,192,184761,1,0,0:0:0:0:
36,192,184859,1,0,0:0:0:0:
256,192,184859,1,0,0:0:0:0:
402,192,184859,1,0,0:0:0:0:
109,192,184957,1,0,0:0:0:0:
182,192,185055,1,0,0:0:0:0:
329,192,185055,1,0,0:0:0:0:
256,192,185153,1,0,0:0:0:0:
36,192,185251,1,0,0:0:0:0:
109,192,185251,1,0,0:0:0:0:
475,192,185251,1,0,0:0:0:0:
329,192,185251,1,0,0:0:0:0:
182,192,185349,1,0,0:0:0:0:
256,192,185447,1,0,0:0:0:0:
475,192,185447,1,0,0:0:0:0:
329,192,185545,1,0,0:0:0:0:
475,192,185644,1,0,0:0:0:0:
182,192,185644,1,0,0:0:0:0:
109,192,185644,1,0,0:0:0:0:
256,192,185742,1,0,0:0:0:0:
402,192,185840,1,0,0:0:0:0:
182,192,185840,1,0,0:0:0:0:
109,192,185938,1,0,0:0:0:0:
36,192,186036,1,0,0:0:0:0:
475,192,186036,1,0,0:0:0:0:
256,192,186036,1,0,0:0:0:0:
402,192,186036,1,0,0:0:0:0:
109,192,186134,1,0,0:0:0:0:
475,192,186232,1,0,0:0:0:0:
182,192,186232,1,0,0:0:0:0:
256,192,186330,1,0,0:0:0:0:
36,192,186428,1,0,0:0:0:0:
402,192,186428,1,0,0:0:0:0:
182,192,186428,1,0,0:0:0:0:
329,192,186526,1,0,0:0:0:0:
256,192,186624,1,0,0:0:0:0:
109,192,186624,1,0,0:0:0:0:
475,192,186722,1,0,0:0:0:0:
182,192,186820,1,0,0:0:0:0:
402,192,186820,1,0,0:0:0:0:
36,192,186820,1,0,0:0:0:0:
256,192,186820,1,0,0:0:0:0:
329,192,186918,1,0,0:0:0:0:
256,192,187016,1,0,0:0:0:0:
475,192,187016,1,0,0:0:0:0:
182,192,187114,1,0,0:0:0:0:
402,192,187212,128,0,187604:0:0:0:0:
475,192,187212,1,0,0:0:0:0:
109,192,187212,1,0,0:0:0:0:
182,192,187310,1,0,0:0:0:0:
256,192,187408,1,0,0:0:0:0:
182,192,187506,1,0,0:0:0:0:
36,192,187604,1,0,0:0:0:0:
475,192,187604,1,0,0:0:0:0:
109,192,187604,1,0,0:0:0:0:
329,192,187604,128,0,187996:0:0:0:0:
256,192,187702,1,0,0:0:0:0:
182,192,187800,1,0,0:0:0:0:
475,192,187898,1,0,0:0:0:0:
109,192,187996,128,0,188389:0:0:0:0:
402,192,187996,1,0,0:0:0:0:
36,192,187996,1,0,0:0:0:0:
256,192,188095,1,0,0:0:0:0:
475,192,188193,1,0,0:0:0:0:
329,192,188291,1,0,0:0:0:0:
256,192,188389,1,0,0:0:0:0:
36,192,188389,1,0,0:0:0:0:
182,192,188389,128,0,188781:0:0:0:0:
402,192,188389,1,0,0:0:0:0:
329,192,188585,1,0,0:0:0:0:
36,192,188585,1,0,0:0:0:0:
402,192,188781,1,0,0:0:0:0:
109,192,188781,1,0,0:0:0:0:
256,192,188977,1,0,0:0:0:0:
182,192,189173,1,0,0:0:0:0:
475,192,189173,1,0,0:0:0:0:
402,192,189173,1,0,0:0:0:0:
329,192,189565,1,0,0:0:0:0:
256,192,189663,1,0,0:0:0:0:
182,192,189761,1,0,0:0:0:0:
109,192,189859,1,0,0:0:0:0:
36,192,189957,1,0,0:0:0:0:
109,192,190023,1,0,0:0:0:0:
182,192,190088,1,0,0:0:0:0:
256,192,190153,1,0,0:0:0:0:
329,192,190219,1,0,0:0:0:0:
402,192,190284,1,0,0:0:0:0:
36,192,190349,1,0,0:0:0:0:
109,192,190349,1,0,0:0:0:0:
475,192,190349,1,0,0:0:0:0:
182,192,190349,1,0,0:0:0:0:
402,192,190545,1,0,0:0:0:0:
256,192,190545,1,0,0:0:0:0:
36,192,190742,1,0,0:0:0:0:
475,192,190742,1,0,0:0:0:0:
329,192,190742,1,0,0:0:0:0:
182,192,190742,1,0,0:0:0:0:
256,192,190938,1,0,0:0:0:0:
109,192,190938,1,0,0:0:0:0:
182,192,191134,1,0,0:0:0:0:
329,192,191134,1,0,0:0:0:0:
475,192,191134,1,0,0:0:0:0:
402,192,191330,1,0,0:0:0:0:
256,192,191330,1,0,0:0:0:0:
182,192,191428,1,0,0:0:0:0:
109,192,191526,1,0,0:0:0:0:
475,192,191526,1,0,0:0:0:0:
329,192,191526,1,0,0:0:0:0:
36,192,191526,1,0,0:0:0:0:
256,192,191722,1,0,0:0:0:0:
109,192,191722,1,0,0:0:0:0:
36,192,191918,1,0,0:0:0:0:
182,192,191918,1,0,0:0:0:0:
402,192,191918,1,0,0:0:0:0:
256,192,192114,1,0,0:0:0:0:
329,192,192114,1,0,0:0:0:0:
182,192,192212,1,0,0:0:0:0:
109,192,192310,1,0,0:0:0:0:
36,192,192310,1,0,0:0:0:0:
475,192,192310,128,0,192702:0:0:0:0:
402,192,192310,1,0,0:0:0:0:
256,192,192506,1,0,0:0:0:0:
182,192,192506,1,0,0:0:0:0:
109,192,192702,1,0,0:0:0:0:
329,192,192702,1,0,0:0:0:0:
402,192,192702,128,0,193095:0:0:0:0:
36,192,192898,1,0,0:0:0:0:
256,192,192898,1,0,0:0:0:0:
182,192,192996,1,0,0:0:0:0:
475,192,193095,1,0,0:0:0:0:
109,192,193095,1,0,0:0:0:0:
329,192,193095,128,0,193487:0:0:0:0:
36,192,193095,1,0,0:0:0:0:
182,192,193291,1,0,0:0:0:0:
402,192,193291,1,0,0:0:0:0:
109,192,193487,1,0,0:0:0:0:
475,192,193487,1,0,0:0:0:0:
256,192,193487,1,0,0:0:0:0:
402,192,193683,1,0,0:0:0:0:
36,192,193683,1,0,0:0:0:0:
109,192,193781,1,0,0:0:0:0:
182,192,193879,1,0,0:0:0:0:
256,192,193879,1,0,0:0:0:0:
475,192,193879,1,0,0:0:0:0:
329,192,193879,1,0,0:0:0:0:
256,192,194075,1,0,0:0:0:0:
475,192,194075,1,0,0:0:0:0:
36,192,194271,1,0,0:0:0:0:
182,192,194271,1,0,0:0:0:0:
402,192,194271,1,0,0:0:0:0:
256,192,194467,1,0,0:0:0:0:
329,192,194467,1,0,0:0:0:0:
109,192,194663,1,0,0:0:0:0:
402,192,194663,1,0,0:0:0:0:
475,192,194663,1,0,0:0:0:0:
182,192,194663,1,0,0:0:0:0:
36,192,194859,1,0,0:0:0:0:
329,192,194859,1,0,0:0:0:0:
475,192,195055,1,0,0:0:0:0:
109,192,195055,1,0,0:0:0:0:
256,192,195055,1,0,0:0:0:0:
182,192,195251,1,0,0:0:0:0:
402,192,195251,1,0,0:0:0:0:
109,192,195447,1,0,0:0:0:0:
36,192,195447,1,0,0:0:0:0:
329,192,195447,1,0,0:0:0:0:
256,192,195447,1,0,0:0:0:0:
182,192,195644,1,0,0:0:0:0:
475,192,195644,1,0,0:0:0:0:
36,192,195840,1,0,0:0:0:0:
402,192,195840,1,0,0:0:0:0:
256,192,195840,128,0,196036:0:0:0:0:
329,192,196036,1,0,0:0:0:0:
182,192,196036,128,0,196232:0:0:0:0:
475,192,196232,1,0,0:0:0:0:
402,192,196232,1,0,0:0:0:0:
256,192,196232,1,0,0:0:0:0:
109,192,196232,128,0,196428:0:0:0:0:
182,192,196428,1,0,0:0:0:0:
36,192,196428,128,0,196624:0:0:0:0:
256,192,196624,1,0,0:0:0:0:
109,192,196624,1,0,0:0:0:0:
475,192,196624,128,0,198193:0:0:0:0:
402,192,196624,128,0,198193:0:0:0:0:
182,192,196820,1,0,0:0:0:0:
36,192,196820,1,0,0:0:0:0:
256,192,196918,1,0,0:0:0:0:
36,192,197016,1,0,0:0:0:0:
109,192,197016,1,0,0:0:0:0:
329,192,197016,1,0,0:0:0:0:
182,192,197212,1,0,0:0:0:0:
329,192,197212,1,0,0:0:0:0:
109,192,197408,1,0,0:0:0:0:
36,192,197408,1,0,0:0:0:0:
256,192,197604,1,0,0:0:0:0:
36,192,197604,1,0,0:0:0:0:
182,192,197702,1,0,0:0:0:0:
329,192,197800,1,0,0:0:0:0:
36,192,197800,1,0,0:0:0:0:
109,192,197800,1,0,0:0:0:0:
109,192,197996,1,0,0:0:0:0:
329,192,197996,1,0,0:0:0:0:
36,192,198193,1,0,0:0:0:0:
182,192,198193,1,0,0:0:0:0:
256,192,198193,128,0,198977:0:0:0:0:
109,192,198389,1,0,0:0:0:0:
329,192,198389,1,0,0:0:0:0:
402,192,198487,1,0,0:0:0:0:
36,192,198585,1,0,0:0:0:0:
182,192,198585,1,0,0:0:0:0:
475,192,198585,1,0,0:0:0:0:
109,192,198781,1,0,0:0:0:0:
329,192,198781,1,0,0:0:0:0:
36,192,198977,1,0,0:0:0:0:
402,192,198977,1,0,0:0:0:0:
475,192,198977,128,0,199761:0:0:0:0:
182,192,198977,1,0,0:0:0:0:
182,192,199173,1,0,0:0:0:0:
402,192,199173,1,0,0:0:0:0:
329,192,199271,1,0,0:0:0:0:
36,192,199369,1,0,0:0:0:0:
109,192,199369,1,0,0:0:0:0:
256,192,199369,1,0,0:0:0:0:
329,192,199565,1,0,0:0:0:0:
182,192,199565,1,0,0:0:0:0:
109,192,199761,1,0,0:0:0:0:
36,192,199761,1,0,0:0:0:0:
402,192,199761,1,0,0:0:0:0:
329,192,199761,1,0,0:0:0:0:
256,192,199957,1,0,0:0:0:0:
182,192,199957,1,0,0:0:0:0:
329,192,200055,1,0,0:0:0:0:
402,192,200153,1,0,0:0:0:0:
36,192,200153,1,0,0:0:0:0:
109,192,200153,1,0,0:0:0:0:
475,192,200153,1,0,0:0:0:0:
36,192,200349,1,0,0:0:0:0:
182,192,200349,1,0,0:0:0:0:
109,192,200545,1,0,0:0:0:0:
402,192,200545,1,0,0:0:0:0:
256,192,200545,1,0,0:0:0:0:
182,192,200742,1,0,0:0:0:0:
329,192,200742,1,0,0:0:0:0:
109,192,200840,1,0,0:0:0:0:
256,192,200938,1,0,0:0:0:0:
475,192,200938,1,0,0:0:0:0:
402,192,200938,1,0,0:0:0:0:
36,192,200938,1,0,0:0:0:0:
182,192,201134,1,0,0:0:0:0:
329,192,201134,1,0,0:0:0:0:
36,192,201330,1,0,0:0:0:0:
475,192,201330,1,0,0:0:0:0:
256,192,201330,1,0,0:0:0:0:
109,192,201526,1,0,0:0:0:0:
402,192,201526,1,0,0:0:0:0:
182,192,201722,1,0,0:0:0:0:
402,192,201722,1,0,0:0:0:0:
329,192,201722,1,0,0:0:0:0:
109,192,201722,1,0,0:0:0:0:
182,192,201918,1,0,0:0:0:0:
329,192,201918,1,0,0:0:0:0:
475,192,202114,1,0,0:0:0:0:
256,192,202114,1,0,0:0:0:0:
402,192,202114,1,0,0:0:0:0:
36,192,202310,1,0,0:0:0:0:
329,192,202310,1,0,0:0:0:0:
182,192,202310,1,0,0:0:0:0:
109,192,202506,1,0,0:0:0:0:
402,192,202506,1,0,0:0:0:0:
256,192,202506,1,0,0:0:0:0:
329,192,202604,1,0,0:0:0:0:
182,192,202702,1,0,0:0:0:0:
256,192,202800,1,0,0:0:0:0:
109,192,202898,1,0,0:0:0:0:
36,192,202898,1,0,0:0:0:0:
475,192,202898,1,0,0:0:0:0:
329,192,202898,1,0,0:0:0:0:
256,192,203095,1,0,0:0:0:0:
402,192,203095,1,0,0:0:0:0:
182,192,203193,1,0,0:0:0:0:
109,192,203291,1,0,0:0:0:0:
329,192,203291,1,0,0:0:0:0:
475,192,203291,1,0,0:0:0:0:
36,192,203291,1,0,0:0:0:0:
402,192,203487,1,0,0:0:0:0:
256,192,203487,1,0,0:0:0:0:
36,192,203683,1,0,0:0:0:0:
182,192,203683,1,0,0:0:0:0:
329,192,203683,1,0,0:0:0:0:
256,192,203879,1,0,0:0:0:0:
109,192,203879,1,0,0:0:0:0:
36,192,203977,1,0,0:0:0:0:
182,192,204075,1,0,0:0:0:0:
475,192,204075,1,0,0:0:0:0:
329,192,204075,1,0,0:0:0:0:
402,192,204075,1,0,0:0:0:0:
402,192,204271,1,0,0:0:0:0:
256,192,204271,1,0,0:0:0:0:
109,192,204467,1,0,0:0:0:0:
329,192,204467,1,0,0:0:0:0:
475,192,204467,1,0,0:0:0:0:
182,192,204663,1,0,0:0:0:0:
256,192,204663,1,0,0:0:0:0:
329,192,204761,1,0,0:0:0:0:
109,192,204859,1,0,0:0:0:0:
402,192,204859,1,0,0:0:0:0:
475,192,204859,1,0,0:0:0:0:
36,192,204859,128,0,205251:0:0:0:0:
329,192,205055,1,0,0:0:0:0:
256,192,205055,1,0,0:0:0:0:
182,192,205251,1,0,0:0:0:0:
402,192,205251,1,0,0:0:0:0:
109,192,205251,128,0,205644:0:0:0:0:
475,192,205447,1,0,0:0:0:0:
329,192,205447,1,0,0:0:0:0:
402,192,205545,1,0,0:0:0:0:
256,192,205644,1,0,0:0:0:0:
36,192,205644,1,0,0:0:0:0:
182,192,205644,128,0,206036:0:0:0:0:
329,192,205644,1,0,0:0:0:0:
402,192,205840,1,0,0:0:0:0:
109,192,205840,1,0,0:0:0:0:
402,192,206036,1,0,0:0:0:0:
256,192,206036,1,0,0:0:0:0:
475,192,206036,1,0,0:0:0:0:
36,192,206036,128,0,206428:0:0:0:0:
329,192,206232,1,0,0:0:0:0:
182,192,206232,1,0,0:0:0:0:
109,192,206428,1,0,0:0:0:0:
182,192,206428,1,0,0:0:0:0:
475,192,206428,1,0,0:0:0:0:
109,192,206624,1,0,0:0:0:0:
402,192,206624,1,0,0:0:0:0:
329,192,206624,1,0,0:0:0:0:
256,192,206624,128,0,207016:0:0:0:0:
36,192,206820,1,0,0:0:0:0:
182,192,206820,1,0,0:0:0:0:
475,192,206820,1,0,0:0:0:0:
109,192,207016,1,0,0:0:0:0:
329,192,207016,1,0,0:0:0:0:
36,192,207212,1,0,0:0:0:0:
402,192,207212,1,0,0:0:0:0:
109,192,207212,1,0,0:0:0:0:
475,192,207212,128,0,207604:0:0:0:0:
182,192,207408,1,0,0:0:0:0:
329,192,207408,1,0,0:0:0:0:
109,192,207604,1,0,0:0:0:0:
256,192,207604,1,0,0:0:0:0:
36,192,207604,1,0,0:0:0:0:
109,192,207800,1,0,0:0:0:0:
329,192,207800,1,0,0:0:0:0:
36,192,207898,1,0,0:0:0:0:
475,192,207996,1,0,0:0:0:0:
182,192,207996,1,0,0:0:0:0:
256,192,207996,1,0,0:0:0:0:
402,192,207996,1,0,0:0:0:0:
329,192,208193,1,0,0:0:0:0:
36,192,208193,1,0,0:0:0:0:
475,192,208389,1,0,0:0:0:0:
256,192,208389,1,0,0:0:0:0:
109,192,208389,128,0,208585:0:0:0:0:
329,192,208585,1,0,0:0:0:0:
182,192,208585,128,0,208781:0:0:0:0:
256,192,208781,1,0,0:0:0:0:
109,192,208781,1,0,0:0:0:0:
36,192,208781,1,0,0:0:0:0:
402,192,208781,128,0,208977:0:0:0:0:
329,192,208977,1,0,0:0:0:0:
475,192,208977,128,0,209173:0:0:0:0:
109,192,209173,128,0,210742:0:0:0:0:
36,192,209173,128,0,210742:0:0:0:0:
402,192,209173,1,0,0:0:0:0:
256,192,209173,1,0,0:0:0:0:
475,192,209369,1,0,0:0:0:0:
329,192,209369,1,0,0:0:0:0:
256,192,209565,1,0,0:0:0:0:
182,192,209565,1,0,0:0:0:0:
402,192,209565,1,0,0:0:0:0:
329,192,209761,1,0,0:0:0:0:
182,192,209761,1,0,0:0:0:0:
402,192,209957,1,0,0:0:0:0:
475,192,209957,1,0,0:0:0:0:
256,192,210153,1,0,0:0:0:0:
182,192,210153,1,0,0:0:0:0:
329,192,210251,1,0,0:0:0:0:
182,192,210349,1,0,0:0:0:0:
402,192,210349,1,0,0:0:0:0:
475,192,210349,1,0,0:0:0:0:
402,192,210545,1,0,0:0:0:0:
182,192,210545,1,0,0:0:0:0:
475,192,210742,1,0,0:0:0:0:
329,192,210742,1,0,0:0:0:0:
256,192,210742,128,0,211526:0:0:0:0:
182,192,210938,1,0,0:0:0:0:
402,192,210938,1,0,0:0:0:0:
109,192,211036,1,0,0:0:0:0:
475,192,211134,1,0,0:0:0:0:
329,192,211134,1,0,0:0:0:0:
36,192,211134,1,0,0:0:0:0:
402,192,211330,1,0,0:0:0:0:
182,192,211330,1,0,0:0:0:0:
329,192,211526,1,0,0:0:0:0:
475,192,211526,1,0,0:0:0:0:
36,192,211526,128,0,212310:0:0:0:0:
109,192,211526,1,0,0:0:0:0:
109,192,211722,1,0,0:0:0:0:
329,192,211722,1,0,0:0:0:0:
256,192,211820,1,0,0:0:0:0:
475,192,211918,1,0,0:0:0:0:
402,192,211918,1,0,0:0:0:0:
182,192,211918,1,0,0:0:0:0:
256,192,212114,1,0,0:0:0:0:
329,192,212114,1,0,0:0:0:0:
109,192,212310,1,0,0:0:0:0:
182,192,212310,1,0,0:0:0:0:
402,192,212310,1,0,0:0:0:0:
475,192,212310,1,0,0:0:0:0:
329,192,212506,1,0,0:0:0:0:
256,192,212506,1,0,0:0:0:0:
182,192,212604,1,0,0:0:0:0:
36,192,212702,1,0,0:0:0:0:
402,192,212702,1,0,0:0:0:0:
109,192,212702,1,0,0:0:0:0:
475,192,212702,1,0,0:0:0:0:
329,192,212898,1,0,0:0:0:0:
182,192,212898,1,0,0:0:0:0:
256,192,213095,1,0,0:0:0:0:
109,192,213095,1,0,0:0:0:0:
402,192,213095,1,0,0:0:0:0:
182,192,213291,1,0,0:0:0:0:
329,192,213291,1,0,0:0:0:0:
109,192,213389,1,0,0:0:0:0:
256,192,213487,1,0,0:0:0:0:
475,192,213487,1,0,0:0:0:0:
402,192,213487,1,0,0:0:0:0:
36,192,213487,1,0,0:0:0:0:
109,192,213683,1,0,0:0:0:0:
402,192,213683,1,0,0:0:0:0:
256,192,213879,1,0,0:0:0:0:
36,192,213879,1,0,0:0:0:0:
475,192,213879,1,0,0:0:0:0:
182,192,214075,1,0,0:0:0:0:
329,192,214075,1,0,0:0:0:0:
36,192,214271,1,0,0:0:0:0:
329,192,214271,1,0,0:0:0:0:
475,192,214271,1,0,0:0:0:0:
182,192,214271,1,0,0:0:0:0:
36,192,214467,1,0,0:0:0:0:
475,192,214467,1,0,0:0:0:0:
109,192,214663,1,0,0:0:0:0:
256,192,214663,1,0,0:0:0:0:
402,192,214663,1,0,0:0:0:0:
329,192,214859,5,0,0:0:0:0:
182,192,214859,1,0,0:0:0:0:
36,192,214859,1,0,0:0:0:0:
475,192,215055,1,0,0:0:0:0:
402,192,215055,1,0,0:0:0:0:
256,192,215055,1,0,0:0:0:0:
182,192,215153,1,0,0:0:0:0:
329,192,215251,1,0,0:0:0:0:
256,192,215349,1,0,0:0:0:0:
402,192,215447,128,0,215644:0:0:0:0:
109,192,215447,1,0,0:0:0:0:
182,192,215447,1,0,0:0:0:0:
475,192,215447,1,0,0:0:0:0:
36,192,215447,1,0,0:0:0:0:
329,192,215644,128,0,215840:0:0:0:0:
36,192,215644,1,0,0:0:0:0:
109,192,215742,1,0,0:0:0:0:
256,192,215840,1,0,0:0:0:0:
475,192,215840,128,0,216036:0:0:0:0:
182,192,215840,1,0,0:0:0:0:
402,192,216036,128,0,216232:0:0:0:0:
109,192,216036,1,0,0:0:0:0:
329,192,216232,128,0,216428:0:0:0:0:
256,192,216232,1,0,0:0:0:0:
36,192,216232,1,0,0:0:0:0:
475,192,216428,128,0,216624:0:0:0:0:
109,192,216428,1,0,0:0:0:0:
182,192,216526,1,0,0:0:0:0:
402,192,216624,128,0,216820:0:0:0:0:
36,192,216624,1,0,0:0:0:0:
256,192,216624,1,0,0:0:0:0:
329,192,216820,128,0,217016:0:0:0:0:
109,192,216820,1,0,0:0:0:0:
475,192,217016,1,0,0:0:0:0:
109,192,217016,128,0,217212:0:0:0:0:
256,192,217016,1,0,0:0:0:0:
402,192,217016,1,0,0:0:0:0:
475,192,217212,1,0,0:0:0:0:
182,192,217212,128,0,217408:0:0:0:0:
402,192,217310,1,0,0:0:0:0:
36,192,217408,128,0,217604:0:0:0:0:
329,192,217408,1,0,0:0:0:0:
256,192,217408,1,0,0:0:0:0:
402,192,217604,1,0,0:0:0:0:
109,192,217604,128,0,217800:0:0:0:0:
475,192,217800,1,0,0:0:0:0:
256,192,217800,1,0,0:0:0:0:
182,192,217800,128,0,217996:0:0:0:0:
36,192,217996,128,0,218193:0:0:0:0:
402,192,217996,1,0,0:0:0:0:
329,192,218095,1,0,0:0:0:0:
109,192,218193,128,0,218389:0:0:0:0:
256,192,218193,1,0,0:0:0:0:
475,192,218193,1,0,0:0:0:0:
329,192,218389,1,0,0:0:0:0:
402,192,218585,1,0,0:0:0:0:
256,192,218585,128,0,218781:0:0:0:0:
36,192,218585,1,0,0:0:0:0:
182,192,218585,1,0,0:0:0:0:
329,192,218781,128,0,218977:0:0:0:0:
475,192,218781,1,0,0:0:0:0:
402,192,218879,1,0,0:0:0:0:
109,192,218977,1,0,0:0:0:0:
182,192,218977,128,0,219173:0:0:0:0:
36,192,218977,1,0,0:0:0:0:
256,192,219173,128,0,219369:0:0:0:0:
109,192,219173,1,0,0:0:0:0:
329,192,219369,128,0,219565:0:0:0:0:
402,192,219369,1,0,0:0:0:0:
475,192,219369,1,0,0:0:0:0:
182,192,219565,128,0,219761:0:0:0:0:
36,192,219565,1,0,0:0:0:0:
475,192,219663,1,0,0:0:0:0:
256,192,219761,128,0,219957:0:0:0:0:
109,192,219761,1,0,0:0:0:0:
402,192,219761,1,0,0:0:0:0:
329,192,219957,128,0,220153:0:0:0:0:
182,192,219957,1,0,0:0:0:0:
36,192,220153,1,0,0:0:0:0:
256,192,220153,1,0,0:0:0:0:
109,192,220153,1,0,0:0:0:0:
475,192,220349,128,0,220545:0:0:0:0:
329,192,220349,128,0,220545:0:0:0:0:
182,192,220349,1,0,0:0:0:0:
109,192,220447,1,0,0:0:0:0:
256,192,220545,128,0,220742:0:0:0:0:
402,192,220545,128,0,220742:0:0:0:0:
36,192,220545,1,0,0:0:0:0:
182,192,220742,128,0,220938:0:0:0:0:
329,192,220742,128,0,220938:0:0:0:0:
109,192,220938,1,0,0:0:0:0:
36,192,220938,1,0,0:0:0:0:
256,192,220938,1,0,0:0:0:0:
182,192,221134,128,0,221330:0:0:0:0:
329,192,221134,128,0,221330:0:0:0:0:
475,192,221134,1,0,0:0:0:0:
402,192,221232,1,0,0:0:0:0:
109,192,221330,128,0,221526:0:0:0:0:
256,192,221330,128,0,221526:0:0:0:0:
475,192,221330,1,0,0:0:0:0:
36,192,221526,128,0,221722:0:0:0:0:
182,192,221526,128,0,221722:0:0:0:0:
402,192,221526,1,0,0:0:0:0:
109,192,221722,128,0,221918:0:0:0:0:
256,192,221722,1,0,0:0:0:0:
329,192,221722,1,0,0:0:0:0:
402,192,221722,1,0,0:0:0:0:
475,192,221722,1,0,0:0:0:0:
182,192,221918,128,0,222114:0:0:0:0:
475,192,221918,1,0,0:0:0:0:
402,192,222016,1,0,0:0:0:0:
256,192,222016,1,0,0:0:0:0:
36,192,222114,128,0,222310:0:0:0:0:
329,192,222114,1,0,0:0:0:0:
109,192,222310,128,0,222506:0:0:0:0:
402,192,222310,1,0,0:0:0:0:
182,192,222506,128,0,222702:0:0:0:0:
256,192,222506,1,0,0:0:0:0:
475,192,222506,1,0,0:0:0:0:
475,192,222702,128,0,222898:0:0:0:0:
109,192,222702,1,0,0:0:0:0:
182,192,222800,1,0,0:0:0:0:
402,192,222898,128,0,223095:0:0:0:0:
36,192,222898,1,0,0:0:0:0:
256,192,222898,1,0,0:0:0:0:
329,192,223095,128,0,223291:0:0:0:0:
109,192,223095,1,0,0:0:0:0:
36,192,223291,1,0,0:0:0:0:
402,192,223291,128,0,223487:0:0:0:0:
256,192,223291,1,0,0:0:0:0:
109,192,223291,1,0,0:0:0:0:
36,192,223487,1,0,0:0:0:0:
329,192,223487,128,0,223683:0:0:0:0:
109,192,223585,1,0,0:0:0:0:
475,192,223683,128,0,223879:0:0:0:0:
182,192,223683,1,0,0:0:0:0:
256,192,223683,1,0,0:0:0:0:
109,192,223879,1,0,0:0:0:0:
402,192,223879,128,0,224075:0:0:0:0:
36,192,224075,1,0,0:0:0:0:
256,192,224075,1,0,0:0:0:0:
329,192,224075,128,0,224271:0:0:0:0:
36,192,224271,128,0,224467:0:0:0:0:
402,192,224271,1,0,0:0:0:0:
329,192,224369,1,0,0:0:0:0:
109,192,224467,128,0,224663:0:0:0:0:
256,192,224467,1,0,0:0:0:0:
475,192,224467,1,0,0:0:0:0:
329,192,224663,1,0,0:0:0:0:
182,192,224663,128,0,224859:0:0:0:0:
109,192,224859,1,0,0:0:0:0:
256,192,224859,128,0,225055:0:0:0:0:
475,192,224859,1,0,0:0:0:0:
402,192,224859,1,0,0:0:0:0:
182,192,225055,128,0,225251:0:0:0:0:
36,192,225055,1,0,0:0:0:0:
109,192,225153,1,0,0:0:0:0:
402,192,225251,1,0,0:0:0:0:
329,192,225251,128,0,225447:0:0:0:0:
475,192,225251,1,0,0:0:0:0:
256,192,225447,128,0,225644:0:0:0:0:
402,192,225447,1,0,0:0:0:0:
182,192,225644,128,0,225840:0:0:0:0:
109,192,225644,1,0,0:0:0:0:
36,192,225644,1,0,0:0:0:0:
402,192,225840,128,0,226036:0:0:0:0:
329,192,225840,1,0,0:0:0:0:
36,192,225938,1,0,0:0:0:0:
256,192,226036,128,0,226232:0:0:0:0:
475,192,226036,1,0,0:0:0:0:
109,192,226036,1,0,0:0:0:0:
109,192,226232,128,0,226428:0:0:0:0:
329,192,226232,1,0,0:0:0:0:
475,192,226428,1,0,0:0:0:0:
182,192,226428,1,0,0:0:0:0:
36,192,226428,1,0,0:0:0:0:
402,192,226624,1,0,0:0:0:0:
329,192,226722,1,0,0:0:0:0:
256,192,226820,1,0,0:0:0:0:
36,192,226820,1,0,0:0:0:0:
109,192,226820,1,0,0:0:0:0:
475,192,226820,1,0,0:0:0:0:
182,192,227016,128,0,227212:0:0:0:0:
402,192,227016,1,0,0:0:0:0:
329,192,227212,128,0,227408:0:0:0:0:
36,192,227212,1,0,0:0:0:0:
109,192,227408,128,0,227604:0:0:0:0:
402,192,227408,1,0,0:0:0:0:
256,192,227604,128,0,227800:0:0:0:0:
36,192,227604,1,0,0:0:0:0:
475,192,227604,1,0,0:0:0:0:
182,192,227604,1,0,0:0:0:0:
402,192,227800,128,0,227996:0:0:0:0:
36,192,227800,1,0,0:0:0:0:
109,192,227800,1,0,0:0:0:0:
329,192,227800,1,0,0:0:0:0:
182,192,228781,1,0,0:0:0:0:
256,192,228879,1,0,0:0:0:0:
329,192,228977,1,0,0:0:0:0:
402,192,229075,1,0,0:0:0:0:
475,192,229173,1,0,0:0:0:0:
402,192,229238,1,0,0:0:0:0:
329,192,229304,1,0,0:0:0:0:
256,192,229369,1,0,0:0:0:0:
182,192,229434,1,0,0:0:0:0:
109,192,229500,1,0,0:0:0:0:
475,192,229565,1,0,0:0:0:0:
402,192,229565,1,0,0:0:0:0:
36,192,229565,1,0,0:0:0:0:
329,192,229565,1,0,0:0:0:0:
109,192,229761,1,0,0:0:0:0:
256,192,229761,1,0,0:0:0:0:
475,192,229957,1,0,0:0:0:0:
36,192,229957,1,0,0:0:0:0:
182,192,229957,1,0,0:0:0:0:
329,192,229957,1,0,0:0:0:0:
256,192,230153,1,0,0:0:0:0:
402,192,230153,1,0,0:0:0:0:
329,192,230349,1,0,0:0:0:0:
182,192,230349,1,0,0:0:0:0:
36,192,230349,1,0,0:0:0:0:
109,192,230545,1,0,0:0:0:0:
256,192,230545,1,0,0:0:0:0:
329,192,230644,1,0,0:0:0:0:
402,192,230742,1,0,0:0:0:0:
36,192,230742,1,0,0:0:0:0:
182,192,230742,1,0,0:0:0:0:
475,192,230742,1,0,0:0:0:0:
256,192,230938,1,0,0:0:0:0:
402,192,230938,1,0,0:0:0:0:
475,192,231134,1,0,0:0:0:0:
329,192,231134,1,0,0:0:0:0:
109,192,231134,1,0,0:0:0:0:
256,192,231330,1,0,0:0:0:0:
182,192,231330,1,0,0:0:0:0:
329,192,231428,1,0,0:0:0:0:
402,192,231526,1,0,0:0:0:0:
475,192,231526,1,0,0:0:0:0:
36,192,231526,128,0,231918:0:0:0:0:
109,192,231526,1,0,0:0:0:0:
256,192,231722,1,0,0:0:0:0:
329,192,231722,1,0,0:0:0:0:
402,192,231918,1,0,0:0:0:0:
182,192,231918,1,0,0:0:0:0:
109,192,231918,128,0,232310:0:0:0:0:
475,192,232114,1,0,0:0:0:0:
256,192,232114,1,0,0:0:0:0:
329,192,232212,1,0,0:0:0:0:
36,192,232310,1,0,0:0:0:0:
402,192,232310,1,0,0:0:0:0:
182,192,232310,128,0,232702:0:0:0:0:
475,192,232310,1,0,0:0:0:0:
329,192,232506,1,0,0:0:0:0:
109,192,232506,1,0,0:0:0:0:
402,192,232702,1,0,0:0:0:0:
36,192,232702,1,0,0:0:0:0:
256,192,232702,1,0,0:0:0:0:
109,192,232898,1,0,0:0:0:0:
475,192,232898,1,0,0:0:0:0:
402,192,232996,1,0,0:0:0:0:
329,192,233095,1,0,0:0:0:0:
256,192,233095,1,0,0:0:0:0:
36,192,233095,1,0,0:0:0:0:
182,192,233095,1,0,0:0:0:0:
256,192,233291,1,0,0:0:0:0:
36,192,233291,1,0,0:0:0:0:
475,192,233487,1,0,0:0:0:0:
329,192,233487,1,0,0:0:0:0:
109,192,233487,1,0,0:0:0:0:
256,192,233683,1,0,0:0:0:0:
182,192,233683,1,0,0:0:0:0:
402,192,233879,1,0,0:0:0:0:
109,192,233879,1,0,0:0:0:0:
36,192,233879,1,0,0:0:0:0:
329,192,233879,1,0,0:0:0:0:
475,192,234075,1,0,0:0:0:0:
182,192,234075,1,0,0:0:0:0:
36,192,234271,1,0,0:0:0:0:
402,192,234271,1,0,0:0:0:0:
256,192,234271,1,0,0:0:0:0:
329,192,234467,1,0,0:0:0:0:
109,192,234467,1,0,0:0:0:0:
402,192,234663,1,0,0:0:0:0:
475,192,234663,1,0,0:0:0:0:
182,192,234663,1,0,0:0:0:0:
256,192,234663,1,0,0:0:0:0:
329,192,234859,1,0,0:0:0:0:
36,192,234859,1,0,0:0:0:0:
475,192,235055,1,0,0:0:0:0:
109,192,235055,1,0,0:0:0:0:
256,192,235055,128,0,235251:0:0:0:0:
182,192,235251,1,0,0:0:0:0:
329,192,235251,128,0,235447:0:0:0:0:
36,192,235447,1,0,0:0:0:0:
109,192,235447,1,0,0:0:0:0:
402,192,235447,128,0,235644:0:0:0:0:
256,192,235447,1,0,0:0:0:0:
475,192,235644,128,0,235840:0:0:0:0:
329,192,235644,1,0,0:0:0:0:
256,192,235840,1,0,0:0:0:0:
402,192,235840,1,0,0:0:0:0:
36,192,235840,128,0,237408:0:0:0:0:
182,192,235840,128,0,237408:0:0:0:0:
329,192,236036,1,0,0:0:0:0:
475,192,236036,1,0,0:0:0:0:
256,192,236134,1,0,0:0:0:0:
475,192,236232,1,0,0:0:0:0:
402,192,236232,1,0,0:0:0:0:
109,192,236232,1,0,0:0:0:0:
329,192,236428,1,0,0:0:0:0:
109,192,236428,1,0,0:0:0:0:
402,192,236624,1,0,0:0:0:0:
475,192,236624,1,0,0:0:0:0:
256,192,236820,1,0,0:0:0:0:
475,192,236820,1,0,0:0:0:0:
329,192,236918,1,0,0:0:0:0:
109,192,237016,1,0,0:0:0:0:
475,192,237016,1,0,0:0:0:0:
402,192,237016,1,0,0:0:0:0:
402,192,237212,1,0,0:0:0:0:
109,192,237212,1,0,0:0:0:0:
475,192,237408,1,0,0:0:0:0:
329,192,237408,1,0,0:0:0:0:
256,192,237408,128,0,238193:0:0:0:0:
402,192,237604,1,0,0:0:0:0:
182,192,237604,1,0,0:0:0:0:
109,192,237702,1,0,0:0:0:0:
475,192,237800,1,0,0:0:0:0:
329,192,237800,1,0,0:0:0:0:
36,192,237800,1,0,0:0:0:0:
402,192,237996,1,0,0:0:0:0:
182,192,237996,1,0,0:0:0:0:
475,192,238193,1,0,0:0:0:0:
109,192,238193,1,0,0:0:0:0:
36,192,238193,128,0,238977:0:0:0:0:
329,192,238193,1,0,0:0:0:0:
329,192,238389,1,0,0:0:0:0:
109,192,238389,1,0,0:0:0:0:
182,192,238487,1,0,0:0:0:0:
475,192,238585,1,0,0:0:0:0:
402,192,238585,1,0,0:0:0:0:
256,192,238585,1,0,0:0:0:0:
182,192,238781,1,0,0:0:0:0:
329,192,238781,1,0,0:0:0:0:
402,192,238977,1,0,0:0:0:0:
475,192,238977,1,0,0:0:0:0:
109,192,238977,1,0,0:0:0:0:
182,192,238977,1,0,0:0:0:0:
256,192,239173,1,0,0:0:0:0:
329,192,239173,1,0,0:0:0:0:
402,192,239271,1,0,0:0:0:0:
109,192,239369,1,0,0:0:0:0:
475,192,239369,1,0,0:0:0:0:
182,192,239369,1,0,0:0:0:0:
36,192,239369,1,0,0:0:0:0:
475,192,239565,1,0,0:0:0:0:
329,192,239565,1,0,0:0:0:0:
402,192,239761,1,0,0:0:0:0:
109,192,239761,1,0,0:0:0:0:
256,192,239761,1,0,0:0:0:0:
329,192,239957,1,0,0:0:0:0:
182,192,239957,1,0,0:0:0:0:
402,192,240055,1,0,0:0:0:0:
256,192,240153,1,0,0:0:0:0:
36,192,240153,1,0,0:0:0:0:
109,192,240153,1,0,0:0:0:0:
475,192,240153,1,0,0:0:0:0:
329,192,240349,1,0,0:0:0:0:
182,192,240349,1,0,0:0:0:0:
475,192,240545,1,0,0:0:0:0:
36,192,240545,1,0,0:0:0:0:
256,192,240545,1,0,0:0:0:0:
402,192,240742,1,0,0:0:0:0:
182,192,240742,1,0,0:0:0:0:
329,192,240938,1,0,0:0:0:0:
182,192,240938,1,0,0:0:0:0:
109,192,240938,1,0,0:0:0:0:
402,192,240938,1,0,0:0:0:0:
329,192,241134,1,0,0:0:0:0:
109,192,241134,1,0,0:0:0:0:
36,192,241330,1,0,0:0:0:0:
256,192,241330,1,0,0:0:0:0:
182,192,241330,1,0,0:0:0:0:
475,192,241526,1,0,0:0:0:0:
182,192,241526,1,0,0:0:0:0:
329,192,241526,1,0,0:0:0:0:
402,192,241722,1,0,0:0:0:0:
109,192,241722,1,0,0:0:0:0:
256,192,241722,1,0,0:0:0:0:
182,192,241820,1,0,0:0:0:0:
329,192,241918,1,0,0:0:0:0:
256,192,242016,1,0,0:0:0:0:
402,192,242114,1,0,0:0:0:0:
475,192,242114,1,0,0:0:0:0:
36,192,242114,1,0,0:0:0:0:
182,192,242114,1,0,0:0:0:0:
256,192,242310,1,0,0:0:0:0:
109,192,242310,1,0,0:0:0:0:
329,192,242408,1,0,0:0:0:0:
402,192,242506,1,0,0:0:0:0:
182,192,242506,1,0,0:0:0:0:
36,192,242506,1,0,0:0:0:0:
475,192,242506,1,0,0:0:0:0:
109,192,242702,1,0,0:0:0:0:
256,192,242702,1,0,0:0:0:0:
475,192,242898,1,0,0:0:0:0:
329,192,242898,1,0,0:0:0:0:
182,192,242898,1,0,0:0:0:0:
256,192,243095,1,0,0:0:0:0:
402,192,243095,1,0,0:0:0:0:
475,192,243193,1,0,0:0:0:0:
329,192,243291,1,0,0:0:0:0:
36,192,243291,1,0,0:0:0:0:
182,192,243291,1,0,0:0:0:0:
109,192,243291,1,0,0:0:0:0:
109,192,243487,1,0,0:0:0:0:
256,192,243487,1,0,0:0:0:0:
402,192,243683,1,0,0:0:0:0:
182,192,243683,1,0,0:0:0:0:
36,192,243683,1,0,0:0:0:0:
329,192,243879,1,0,0:0:0:0:
256,192,243879,1,0,0:0:0:0:
182,192,243977,1,0,0:0:0:0:
402,192,244075,1,0,0:0:0:0:
109,192,244075,1,0,0:0:0:0:
36,192,244075,1,0,0:0:0:0:
475,192,244075,128,0,244467:0:0:0:0:
182,192,244271,1,0,0:0:0:0:
256,192,244271,1,0,0:0:0:0:
329,192,244467,1,0,0:0:0:0:
109,192,244467,1,0,0:0:0:0:
402,192,244467,128,0,244859:0:0:0:0:
36,192,244663,1,0,0:0:0:0:
182,192,244663,1,0,0:0:0:0:
109,192,244761,1,0,0:0:0:0:
256,192,244859,1,0,0:0:0:0:
475,192,244859,1,0,0:0:0:0:
329,192,244859,128,0,245251:0:0:0:0:
182,192,244859,1,0,0:0:0:0:
109,192,245055,1,0,0:0:0:0:
402,192,245055,1,0,0:0:0:0:
475,192,245251,1,0,0:0:0:0:
256,192,245251,1,0,0:0:0:0:
36,192,245251,1,0,0:0:0:0:
109,192,245251,128,0,245644:0:0:0:0:
182,192,245447,1,0,0:0:0:0:
402,192,245447,1,0,0:0:0:0:
475,192,245644,1,0,0:0:0:0:
36,192,245644,1,0,0:0:0:0:
256,192,245840,128,0,246232:0:0:0:0:
402,192,245840,1,0,0:0:0:0:
329,192,245840,1,0,0:0:0:0:
109,192,245840,1,0,0:0:0:0:
475,192,246036,1,0,0:0:0:0:
182,192,246036,1,0,0:0:0:0:
36,192,246036,1,0,0:0:0:0:
109,192,246232,1,0,0:0:0:0:
329,192,246232,1,0,0:0:0:0:
475,192,246428,1,0,0:0:0:0:
36,192,246428,1,0,0:0:0:0:
109,192,246428,1,0,0:0:0:0:
402,192,246428,128,0,246820:0:0:0:0:
329,192,246624,1,0,0:0:0:0:
182,192,246624,1,0,0:0:0:0:
256,192,246820,1,0,0:0:0:0:
109,192,246820,1,0,0:0:0:0:
475,192,246820,1,0,0:0:0:0:
402,192,247016,1,0,0:0:0:0:
182,192,247016,1,0,0:0:0:0:
475,192,247114,1,0,0:0:0:0:
36,192,247212,1,0,0:0:0:0:
329,192,247212,1,0,0:0:0:0:
256,192,247212,1,0,0:0:0:0:
109,192,247212,1,0,0:0:0:0:
182,192,247408,1,0,0:0:0:0:
475,192,247408,1,0,0:0:0:0:
36,192,247604,1,0,0:0:0:0:
256,192,247604,1,0,0:0:0:0:
402,192,247604,128,0,247800:0:0:0:0:
182,192,247800,1,0,0:0:0:0:
329,192,247800,128,0,247996:0:0:0:0:
256,192,247996,1,0,0:0:0:0:
402,192,247996,1,0,0:0:0:0:
475,192,247996,1,0,0:0:0:0:
109,192,247996,128,0,248193:0:0:0:0:
182,192,248193,1,0,0:0:0:0:
36,192,248193,128,0,248389:0:0:0:0:
402,192,248389,128,0,249957:0:0:0:0:
475,192,248389,128,0,249957:0:0:0:0:
109,192,248389,1,0,0:0:0:0:
256,192,248389,1,0,0:0:0:0:
36,192,248585,1,0,0:0:0:0:
182,192,248585,1,0,0:0:0:0:
256,192,248781,1,0,0:0:0:0:
329,192,248781,1,0,0:0:0:0:
109,192,248781,1,0,0:0:0:0:
182,192,248977,1,0,0:0:0:0:
329,192,248977,1,0,0:0:0:0:
109,192,249173,1,0,0:0:0:0:
36,192,249173,1,0,0:0:0:0:
256,192,249369,1,0,0:0:0:0:
329,192,249369,1,0,0:0:0:0:
182,192,249467,1,0,0:0:0:0:
329,192,249565,1,0,0:0:0:0:
109,192,249565,1,0,0:0:0:0:
36,192,249565,1,0,0:0:0:0:
109,192,249761,1,0,0:0:0:0:
329,192,249761,1,0,0:0:0:0:
36,192,249957,1,0,0:0:0:0:
182,192,249957,1,0,0:0:0:0:
256,192,249957,128,0,250742:0:0:0:0:
329,192,250153,1,0,0:0:0:0:
109,192,250153,1,0,0:0:0:0:
402,192,250251,1,0,0:0:0:0:
36,192,250349,1,0,0:0:0:0:
182,192,250349,1,0,0:0:0:0:
475,192,250349,1,0,0:0:0:0:
109,192,250545,1,0,0:0:0:0:
329,192,250545,1,0,0:0:0:0:
182,192,250742,1,0,0:0:0:0:
36,192,250742,1,0,0:0:0:0:
475,192,250742,128,0,251526:0:0:0:0:
402,192,250742,1,0,0:0:0:0:
402,192,250938,1,0,0:0:0:0:
182,192,250938,1,0,0:0:0:0:
256,192,251036,1,0,0:0:0:0:
36,192,251134,1,0,0:0:0:0:
109,192,251134,1,0,0:0:0:0:
329,192,251134,1,0,0:0:0:0:
256,192,251330,1,0,0:0:0:0:
182,192,251330,1,0,0:0:0:0:
402,192,251526,1,0,0:0:0:0:
329,192,251526,1,0,0:0:0:0:
109,192,251526,1,0,0:0:0:0:
36,192,251526,1,0,0:0:0:0:
182,192,251722,1,0,0:0:0:0:
256,192,251722,1,0,0:0:0:0:
329,192,251820,1,0,0:0:0:0:
475,192,251918,1,0,0:0:0:0:
109,192,251918,1,0,0:0:0:0:
402,192,251918,1,0,0:0:0:0:
36,192,251918,1,0,0:0:0:0:
182,192,252114,1,0,0:0:0:0:
329,192,252114,1,0,0:0:0:0:
256,192,252310,1,0,0:0:0:0:
402,192,252310,1,0,0:0:0:0:
109,192,252310,1,0,0:0:0:0:
329,192,252506,1,0,0:0:0:0:
182,192,252506,1,0,0:0:0:0:
402,192,252604,1,0,0:0:0:0:
256,192,252702,1,0,0:0:0:0:
36,192,252702,1,0,0:0:0:0:
109,192,252702,1,0,0:0:0:0:
475,192,252702,1,0,0:0:0:0:
329,192,252898,1,0,0:0:0:0:
182,192,252898,1,0,0:0:0:0:
256,192,253095,1,0,0:0:0:0:
475,192,253095,1,0,0:0:0:0:
36,192,253095,1,0,0:0:0:0:
402,192,253291,1,0,0:0:0:0:
109,192,253291,1,0,0:0:0:0:
329,192,253487,1,0,0:0:0:0:
109,192,253487,1,0,0:0:0:0:
182,192,253487,1,0,0:0:0:0:
402,192,253487,1,0,0:0:0:0:
329,192,253683,1,0,0:0:0:0:
182,192,253683,1,0,0:0:0:0:
402,192,253879,1,0,0:0:0:0:
256,192,253879,1,0,0:0:0:0:
475,192,253879,1,0,0:0:0:0:
36,192,254075,5,0,0:0:0:0:
182,192,254075,1,0,0:0:0:0:
329,192,254075,1,0,0:0:0:0:
109,192,254271,1,0,0:0:0:0:
256,192,254271,1,0,0:0:0:0:
36,192,254271,1,0,0:0:0:0:
329,192,254369,1,0,0:0:0:0:
182,192,254467,1,0,0:0:0:0:
256,192,254565,1,0,0:0:0:0:
109,192,254663,128,0,254859:0:0:0:0:
402,192,254663,1,0,0:0:0:0:
329,192,254663,1,0,0:0:0:0:
36,192,254663,1,0,0:0:0:0:
475,192,254663,1,0,0:0:0:0:
182,192,254859,128,0,255055:0:0:0:0:
475,192,254859,1,0,0:0:0:0:
402,192,254957,1,0,0:0:0:0:
256,192,255055,1,0,0:0:0:0:
36,192,255055,128,0,255251:0:0:0:0:
329,192,255055,1,0,0:0:0:0:
109,192,255251,128,0,255447:0:0:0:0:
402,192,255251,1,0,0:0:0:0:
182,192,255447,128,0,255644:0:0:0:0:
256,192,255447,1,0,0:0:0:0:
475,192,255447,1,0,0:0:0:0:
36,192,255644,128,0,255840:0:0:0:0:
402,192,255644,1,0,0:0:0:0:
329,192,255742,1,0,0:0:0:0:
109,192,255840,128,0,256036:0:0:0:0:
475,192,255840,1,0,0:0:0:0:
256,192,255840,1,0,0:0:0:0:
182,192,256036,128,0,256232:0:0:0:0:
402,192,256036,1,0,0:0:0:0:
36,192,256232,1,0,0:0:0:0:
402,192,256232,128,0,256428:0:0:0:0:
256,192,256232,1,0,0:0:0:0:
109,192,256232,1,0,0:0:0:0:
36,192,256428,1,0,0:0:0:0:
329,192,256428,128,0,256624:0:0:0:0:
109,192,256526,1,0,0:0:0:0:
475,192,256624,128,0,256820:0:0:0:0:
182,192,256624,1,0,0:0:0:0:
256,192,256624,1,0,0:0:0:0:
109,192,256820,1,0,0:0:0:0:
402,192,256820,128,0,257016:0:0:0:0:
36,192,257016,1,0,0:0:0:0:
256,192,257016,1,0,0:0:0:0:
329,192,257016,128,0,257212:0:0:0:0:
475,192,257212,128,0,257408:0:0:0:0:
109,192,257212,1,0,0:0:0:0:
182,192,257310,1,0,0:0:0:0:
402,192,257408,128,0,257604:0:0:0:0:
256,192,257408,1,0,0:0:0:0:
36,192,257408,1,0,0:0:0:0:
182,192,257604,1,0,0:0:0:0:
109,192,257800,1,0,0:0:0:0:
256,192,257800,128,0,257996:0:0:0:0:
475,192,257800,1,0,0:0:0:0:
329,192,257800,1,0,0:0:0:0:
182,192,257996,128,0,258193:0:0:0:0:
36,192,257996,1,0,0:0:0:0:
109,192,258095,1,0,0:0:0:0:
402,192,258193,1,0,0:0:0:0:
329,192,258193,128,0,258389:0:0:0:0:
475,192,258193,1,0,0:0:0:0:
256,192,258389,128,0,258585:0:0:0:0:
402,192,258389,1,0,0:0:0:0:
182,192,258585,128,0,258781:0:0:0:0:
109,192,258585,1,0,0:0:0:0:
36,192,258585,1,0,0:0:0:0:
329,192,258781,128,0,258977:0:0:0:0:
475,192,258781,1,0,0:0:0:0:
36,192,258879,1,0,0:0:0:0:
256,192,258977,128,0,259173:0:0:0:0:
402,192,258977,1,0,0:0:0:0:
109,192,258977,1,0,0:0:0:0:
182,192,259173,128,0,259369:0:0:0:0:
329,192,259173,1,0,0:0:0:0:
475,192,259369,1,0,0:0:0:0:
256,192,259369,1,0,0:0:0:0:
402,192,259369,1,0,0:0:0:0:
36,192,259565,128,0,259761:0:0:0:0:
182,192,259565,128,0,259761:0:0:0:0:
329,192,259565,1,0,0:0:0:0:
402,192,259663,1,0,0:0:0:0:
256,192,259761,128,0,259957:0:0:0:0:
109,192,259761,128,0,259957:0:0:0:0:
475,192,259761,1,0,0:0:0:0:
329,192,259957,128,0,260153:0:0:0:0:
182,192,259957,128,0,260153:0:0:0:0:
402,192,260153,1,0,0:0:0:0:
475,192,260153,1,0,0:0:0:0:
256,192,260153,1,0,0:0:0:0:
329,192,260349,128,0,260545:0:0:0:0:
182,192,260349,128,0,260545:0:0:0:0:
36,192,260349,1,0,0:0:0:0:
109,192,260447,1,0,0:0:0:0:
402,192,260545,128,0,260742:0:0:0:0:
256,192,260545,128,0,260742:0:0:0:0:
36,192,260545,1,0,0:0:0:0:
475,192,260742,128,0,260938:0:0:0:0:
329,192,260742,128,0,260938:0:0:0:0:
109,192,260742,1,0,0:0:0:0:
402,192,260938,128,0,261134:0:0:0:0:
256,192,260938,1,0,0:0:0:0:
182,192,260938,1,0,0:0:0:0:
109,192,260938,1,0,0:0:0:0:
36,192,260938,1,0,0:0:0:0:
329,192,261134,128,0,261330:0:0:0:0:
36,192,261134,1,0,0:0:0:0:
109,192,261232,1,0,0:0:0:0:
256,192,261232,1,0,0:0:0:0:
475,192,261330,128,0,261526:0:0:0:0:
182,192,261330,1,0,0:0:0:0:
402,192,261526,128,0,261722:0:0:0:0:
109,192,261526,1,0,0:0:0:0:
329,192,261722,128,0,261918:0:0:0:0:
256,192,261722,1,0,0:0:0:0:
36,192,261722,1,0,0:0:0:0:
36,192,261918,128,0,262114:0:0:0:0:
402,192,261918,1,0,0:0:0:0:
329,192,262016,1,0,0:0:0:0:
109,192,262114,128,0,262310:0:0:0:0:
475,192,262114,1,0,0:0:0:0:
256,192,262114,1,0,0:0:0:0:
182,192,262310,128,0,262506:0:0:0:0:
402,192,262310,1,0,0:0:0:0:
475,192,262506,1,0,0:0:0:0:
109,192,262506,128,0,262702:0:0:0:0:
256,192,262506,1,0,0:0:0:0:
475,192,262702,1,0,0:0:0:0:
182,192,262702,128,0,262898:0:0:0:0:
402,192,262800,1,0,0:0:0:0:
36,192,262898,128,0,263095:0:0:0:0:
329,192,262898,1,0,0:0:0:0:
256,192,262898,1,0,0:0:0:0:
402,192,263095,1,0,0:0:0:0:
109,192,263095,128,0,263291:0:0:0:0:
475,192,263291,1,0,0:0:0:0:
256,192,263291,1,0,0:0:0:0:
182,192,263291,128,0,263487:0:0:0:0:
475,192,263487,128,0,263683:0:0:0:0:
109,192,263487,1,0,0:0:0:0:
182,192,263585,1,0,0:0:0:0:
402,192,263683,128,0,263879:0:0:0:0:
256,192,263683,1,0,0:0:0:0:
36,192,263683,1,0,0:0:0:0:
182,192,263879,1,0,0:0:0:0:
329,192,263879,128,0,264075:0:0:0:0:
402,192,264075,1,0,0:0:0:0:
256,192,264075,128,0,264271:0:0:0:0:
36,192,264075,1,0,0:0:0:0:
109,192,264075,1,0,0:0:0:0:
329,192,264271,128,0,264467:0:0:0:0:
475,192,264271,1,0,0:0:0:0:
402,192,264369,1,0,0:0:0:0:
109,192,264467,1,0,0:0:0:0:
182,192,264467,128,0,264663:0:0:0:0:
36,192,264467,1,0,0:0:0:0:
256,192,264663,128,0,264859:0:0:0:0:
109,192,264663,1,0,0:0:0:0:
329,192,264859,128,0,265055:0:0:0:0:
402,192,264859,1,0,0:0:0:0:
475,192,264859,1,0,0:0:0:0:
109,192,265055,128,0,265251:0:0:0:0:
182,192,265055,1,0,0:0:0:0:
475,192,265153,1,0,0:0:0:0:
256,192,265251,128,0,265447:0:0:0:0:
36,192,265251,1,0,0:0:0:0:
402,192,265251,1,0,0:0:0:0:
402,192,265447,128,0,265644:0:0:0:0:
182,192,265447,1,0,0:0:0:0:
36,192,265644,1,0,0:0:0:0:
329,192,265644,1,0,0:0:0:0:
475,192,265644,1,0,0:0:0:0:
109,192,265840,1,0,0:0:0:0:
182,192,265938,1,0,0:0:0:0:
256,192,266036,1,0,0:0:0:0:
475,192,266036,1,0,0:0:0:0:
402,192,266036,1,0,0:0:0:0:
36,192,266036,1,0,0:0:0:0:
329,192,266232,128,0,266428:0:0:0:0:
109,192,266232,1,0,0:0:0:0:
182,192,266428,128,0,266624:0:0:0:0:
475,192,266428,1,0,0:0:0:0:
402,192,266624,128,0,266820:0:0:0:0:
109,192,266624,1,0,0:0:0:0:
256,192,266820,128,0,267016:0:0:0:0:
475,192,266820,1,0,0:0:0:0:
36,192,266820,1,0,0:0:0:0:
329,192,266820,1,0,0:0:0:0:
109,192,267016,128,0,267212:0:0:0:0:
475,192,267016,1,0,0:0:0:0:
402,192,267016,1,0,0:0:0:0:
182,192,267016,1,0,0:0:0:0:
182,192,267996,1,0,0:0:0:0:
256,192,268095,1,0,0:0:0:0:
329,192,268193,1,0,0:0:0:0:
402,192,268291,1,0,0:0:0:0:
475,192,268389,1,0,0:0:0:0:
402,192,268454,1,0,0:0:0:0:
329,192,268519,1,0,0:0:0:0:
256,192,268585,1,0,0:0:0:0:
182,192,268650,1,0,0:0:0:0:
109,192,268715,1,0,0:0:0:0:
36,192,268781,1,0,0:0:0:0:
402,192,268781,128,0,269565:0:0:0:0:
182,192,268977,1,0,0:0:0:0:
36,192,269173,1,0,0:0:0:0:
182,192,269369,1,0,0:0:0:0:
475,192,269565,128,0,270153:0:0:0:0:
329,192,269565,1,0,0:0:0:0:
109,192,269565,1,0,0:0:0:0:
256,192,269761,1,0,0:0:0:0:
182,192,269957,1,0,0:0:0:0:
109,192,270153,1,0,0:0:0:0:
36,192,270153,128,0,270546:0:0:0:0:
182,192,270546,128,0,270742:0:0:0:0:
256,192,270742,128,0,271134:0:0:0:0:
109,192,270742,1,0,0:0:0:0:
36,192,270938,1,0,0:0:0:0:
182,192,271134,1,0,0:0:0:0:
329,192,271134,128,0,271526:0:0:0:0:
109,192,271330,1,0,0:0:0:0:
402,192,271526,128,0,271918:0:0:0:0:
256,192,271526,1,0,0:0:0:0:
182,192,271722,1,0,0:0:0:0:
475,192,271918,1,0,0:0:0:0:
36,192,271918,128,0,272506:0:0:0:0:
329,192,272114,1,0,0:0:0:0:
475,192,272310,1,0,0:0:0:0:
182,192,272506,128,0,273095:0:0:0:0:
402,192,272506,1,0,0:0:0:0:
329,192,272702,1,0,0:0:0:0:
256,192,272898,1,0,0:0:0:0:
329,192,273095,128,0,273879:0:0:0:0:
109,192,273095,1,0,0:0:0:0:
36,192,273291,1,0,0:0:0:0:
256,192,273487,1,0,0:0:0:0:
182,192,273683,1,0,0:0:0:0:
109,192,273879,1,0,0:0:0:0:
402,192,273879,1,0,0:0:0:0:
475,192,274075,1,0,0:0:0:0:
182,192,274271,128,0,274467:0:0:0:0:
329,192,274271,1,0,0:0:0:0:
109,192,274467,128,0,274663:0:0:0:0:
256,192,274467,1,0,0:0:0:0:
329,192,274663,128,0,274859:0:0:0:0:
182,192,274663,1,0,0:0:0:0:
402,192,274859,128,0,275055:0:0:0:0:
256,192,274859,1,0,0:0:0:0:
329,192,275055,1,0,0:0:0:0:
109,192,275055,128,0,276624:0:0:0:0:
256,192,275251,1,0,0:0:0:0:
182,192,275447,1,0,0:0:0:0:
329,192,275644,1,0,0:0:0:0:
402,192,275840,128,0,276624:0:0:0:0:
182,192,275840,1,0,0:0:0:0:
329,192,276036,1,0,0:0:0:0:
256,192,276232,1,0,0:0:0:0:
182,192,276428,1,0,0:0:0:0:
475,192,276624,1,0,0:0:0:0:
36,192,276624,128,0,277408:0:0:0:0:
256,192,276820,1,0,0:0:0:0:
182,192,277016,1,0,0:0:0:0:
402,192,277212,1,0,0:0:0:0:
475,192,277408,128,0,278193:0:0:0:0:
256,192,277408,1,0,0:0:0:0:
109,192,277604,1,0,0:0:0:0:
329,192,277800,1,0,0:0:0:0:
182,192,277996,1,0,0:0:0:0:
109,192,278193,1,0,0:0:0:0:
402,192,278193,1,0,0:0:0:0:
256,192,278193,1,0,0:0:0:0:
36,192,278389,1,0,0:0:0:0:
182,192,278585,1,0,0:0:0:0:
329,192,278781,1,0,0:0:0:0:
109,192,278977,1,0,0:0:0:0:
256,192,279173,1,0,0:0:0:0:
402,192,279369,1,0,0:0:0:0:
182,192,279565,1,0,0:0:0:0:
329,192,279761,128,0,280153:0:0:0:0:
402,192,279761,1,0,0:0:0:0:
36,192,279957,1,0,0:0:0:0:
256,192,280153,128,0,280349:0:0:0:0:
109,192,280153,1,0,0:0:0:0:
182,192,280349,128,0,280546:0:0:0:0:
475,192,280349,1,0,0:0:0:0:
402,192,280546,128,0,280938:0:0:0:0:
329,192,280546,1,0,0:0:0:0:
256,192,280742,1,0,0:0:0:0:
109,192,280938,128,0,281330:0:0:0:0:
182,192,280938,1,0,0:0:0:0:
329,192,281134,1,0,0:0:0:0:
36,192,281330,1,0,0:0:0:0:
182,192,281330,1,0,0:0:0:0:
402,192,281330,1,0,0:0:0:0:
475,192,281330,1,0,0:0:0:0:
256,192,281526,1,0,0:0:0:0:
109,192,281526,1,0,0:0:0:0:
329,192,281624,1,0,0:0:0:0:
36,192,281722,1,0,0:0:0:0:
475,192,281722,1,0,0:0:0:0:
402,192,281722,1,0,0:0:0:0:
182,192,281722,1,0,0:0:0:0:
109,192,281918,1,0,0:0:0:0:
256,192,281918,1,0,0:0:0:0:
182,192,282114,1,0,0:0:0:0:
329,192,282114,1,0,0:0:0:0:
475,192,282114,1,0,0:0:0:0:
402,192,282310,1,0,0:0:0:0:
256,192,282310,1,0,0:0:0:0:
182,192,282506,1,0,0:0:0:0:
109,192,282506,1,0,0:0:0:0:
329,192,282506,1,0,0:0:0:0:
36,192,282506,1,0,0:0:0:0:
256,192,282702,1,0,0:0:0:0:
109,192,282702,1,0,0:0:0:0:
36,192,282898,1,0,0:0:0:0:
182,192,282898,1,0,0:0:0:0:
402,192,282898,1,0,0:0:0:0:
256,192,283095,1,0,0:0:0:0:
329,192,283095,1,0,0:0:0:0:
36,192,283291,1,0,0:0:0:0:
475,192,283291,128,0,283683:0:0:0:0:
402,192,283291,1,0,0:0:0:0:
109,192,283291,1,0,0:0:0:0:
256,192,283487,1,0,0:0:0:0:
182,192,283487,1,0,0:0:0:0:
402,192,283683,128,0,284075:0:0:0:0:
109,192,283683,1,0,0:0:0:0:
329,192,283683,1,0,0:0:0:0:
182,192,283879,1,0,0:0:0:0:
36,192,283879,1,0,0:0:0:0:
329,192,284075,128,0,284467:0:0:0:0:
182,192,284075,1,0,0:0:0:0:
256,192,284075,1,0,0:0:0:0:
475,192,284075,1,0,0:0:0:0:
402,192,284271,1,0,0:0:0:0:
109,192,284271,1,0,0:0:0:0:
256,192,284467,1,0,0:0:0:0:
36,192,284467,1,0,0:0:0:0:
475,192,284467,1,0,0:0:0:0:
109,192,284467,1,0,0:0:0:0:
402,192,284663,1,0,0:0:0:0:
182,192,284663,1,0,0:0:0:0:
36,192,284859,1,0,0:0:0:0:
256,192,284859,1,0,0:0:0:0:
475,192,284859,1,0,0:0:0:0:
109,192,285055,1,0,0:0:0:0:
329,192,285055,1,0,0:0:0:0:
402,192,285055,1,0,0:0:0:0:
182,192,285055,1,0,0:0:0:0:
36,192,285251,1,0,0:0:0:0:
329,192,285251,1,0,0:0:0:0:
475,192,285251,1,0,0:0:0:0:
256,192,285447,1,0,0:0:0:0:
402,192,285447,1,0,0:0:0:0:
109,192,285644,1,0,0:0:0:0:
402,192,285644,1,0,0:0:0:0:
475,192,285644,1,0,0:0:0:0:
36,192,285644,1,0,0:0:0:0:
36,192,285840,1,0,0:0:0:0:
329,192,285840,1,0,0:0:0:0:
475,192,286036,1,0,0:0:0:0:
109,192,286036,1,0,0:0:0:0:
256,192,286036,1,0,0:0:0:0:
182,192,286232,1,0,0:0:0:0:
402,192,286232,1,0,0:0:0:0:
256,192,286428,1,0,0:0:0:0:
109,192,286428,1,0,0:0:0:0:
36,192,286428,1,0,0:0:0:0:
329,192,286428,1,0,0:0:0:0:
475,192,286624,1,0,0:0:0:0:
182,192,286624,1,0,0:0:0:0:
402,192,286820,128,0,287016:0:0:0:0:
256,192,286820,1,0,0:0:0:0:
36,192,286820,1,0,0:0:0:0:
329,192,287016,128,0,287212:0:0:0:0:
182,192,287016,1,0,0:0:0:0:
475,192,287212,1,0,0:0:0:0:
109,192,287212,128,0,287408:0:0:0:0:
256,192,287212,1,0,0:0:0:0:
402,192,287212,1,0,0:0:0:0:
36,192,287408,128,0,287604:0:0:0:0:
182,192,287408,1,0,0:0:0:0:
475,192,287604,1,0,0:0:0:0:
256,192,287604,1,0,0:0:0:0:
402,192,287604,1,0,0:0:0:0:
182,192,287800,1,0,0:0:0:0:
402,192,287800,1,0,0:0:0:0:
329,192,287800,1,0,0:0:0:0:
109,192,287996,1,0,0:0:0:0:
329,192,287996,1,0,0:0:0:0:
256,192,287996,1,0,0:0:0:0:
36,192,288193,1,0,0:0:0:0:
182,192,288193,1,0,0:0:0:0:
256,192,288193,1,0,0:0:0:0:
36,192,288389,1,0,0:0:0:0:
109,192,288389,1,0,0:0:0:0:
475,192,288389,1,0,0:0:0:0:
329,192,288585,1,0,0:0:0:0:
475,192,288585,1,0,0:0:0:0:
36,192,288585,1,0,0:0:0:0:
256,192,288781,1,0,0:0:0:0:
475,192,288781,1,0,0:0:0:0:
402,192,288781,1,0,0:0:0:0:
329,192,288977,1,0,0:0:0:0:
182,192,288977,1,0,0:0:0:0:
402,192,288977,1,0,0:0:0:0:
256,192,289173,1,0,0:0:0:0:
109,192,289173,1,0,0:0:0:0:
329,192,289173,1,0,0:0:0:0:
36,192,289173,1,0,0:0:0:0:
182,192,289369,1,0,0:0:0:0:
402,192,289369,1,0,0:0:0:0:
475,192,289369,1,0,0:0:0:0:
329,192,289565,1,0,0:0:0:0:
256,192,289565,1,0,0:0:0:0:
109,192,289565,1,0,0:0:0:0:
329,192,289761,1,0,0:0:0:0:
402,192,289761,1,0,0:0:0:0:
182,192,289761,1,0,0:0:0:0:
256,192,289957,1,0,0:0:0:0:
475,192,289957,1,0,0:0:0:0:
36,192,289957,1,0,0:0:0:0:
402,192,289957,1,0,0:0:0:0:
329,192,290153,1,0,0:0:0:0:
402,192,290153,1,0,0:0:0:0:
182,192,290153,1,0,0:0:0:0:
329,192,290349,1,0,0:0:0:0:
256,192,290349,1,0,0:0:0:0:
109,192,290349,1,0,0:0:0:0:
182,192,290546,1,0,0:0:0:0:
256,192,290546,1,0,0:0:0:0:
36,192,290546,1,0,0:0:0:0:
182,192,290742,1,0,0:0:0:0:
109,192,290742,1,0,0:0:0:0:
402,192,290742,1,0,0:0:0:0:
329,192,290742,1,0,0:0:0:0:
256,192,290938,1,0,0:0:0:0:
182,192,290938,1,0,0:0:0:0:
475,192,290938,1,0,0:0:0:0:
329,192,291134,1,0,0:0:0:0:
36,192,291134,1,0,0:0:0:0:
402,192,291134,1,0,0:0:0:0:
109,192,291134,1,0,0:0:0:0:
109,192,291330,1,0,0:0:0:0:
256,192,291330,1,0,0:0:0:0:
475,192,291330,1,0,0:0:0:0:
329,192,291526,1,0,0:0:0:0:
402,192,291526,1,0,0:0:0:0:
182,192,291526,1,0,0:0:0:0:
475,192,291526,1,0,0:0:0:0:
36,192,291722,1,0,0:0:0:0:
109,192,291722,1,0,0:0:0:0:
256,192,291722,1,0,0:0:0:0:
329,192,291918,1,0,0:0:0:0:
475,192,291918,1,0,0:0:0:0:
182,192,291918,1,0,0:0:0:0:
109,192,292114,1,0,0:0:0:0:
402,192,292114,1,0,0:0:0:0:
256,192,292114,1,0,0:0:0:0:
109,192,292310,1,0,0:0:0:0:
329,192,292310,1,0,0:0:0:0:
182,192,292310,1,0,0:0:0:0:
36,192,292310,1,0,0:0:0:0:
475,192,292506,1,0,0:0:0:0:
402,192,292506,1,0,0:0:0:0:
256,192,292506,1,0,0:0:0:0:
182,192,292702,1,0,0:0:0:0:
402,192,292702,1,0,0:0:0:0:
36,192,292702,1,0,0:0:0:0:
329,192,292702,1,0,0:0:0:0:
256,192,292898,1,0,0:0:0:0:
475,192,292898,1,0,0:0:0:0:
109,192,292898,1,0,0:0:0:0:
402,192,292898,1,0,0:0:0:0:
36,192,293095,1,0,0:0:0:0:
329,192,293095,1,0,0:0:0:0:
402,192,293095,1,0,0:0:0:0:
182,192,293095,1,0,0:0:0:0:
109,192,293291,5,0,0:0:0:0:
256,192,293291,1,0,0:0:0:0:
182,192,293291,1,0,0:0:0:0:
475,192,293291,1,0,0:0:0:0:
36,192,293487,1,0,0:0:0:0:
402,192,293487,1,0,0:0:0:0:
182,192,293487,1,0,0:0:0:0:
475,192,293487,1,0,0:0:0:0:
256,192,293683,1,0,0:0:0:0:
109,192,293683,1,0,0:0:0:0:
329,192,293683,1,0,0:0:0:0:
402,192,293683,1,0,0:0:0:0:
36,192,293879,1,0,0:0:0:0:
475,192,293879,1,0,0:0:0:0:
329,192,293879,1,0,0:0:0:0:
109,192,293879,128,0,294075:0:0:0:0:
402,192,293879,1,0,0:0:0:0:
475,192,294075,1,0,0:0:0:0:
182,192,294075,128,0,294271:0:0:0:0:
402,192,294173,1,0,0:0:0:0:
329,192,294271,1,0,0:0:0:0:
36,192,294271,128,0,294467:0:0:0:0:
256,192,294271,1,0,0:0:0:0:
402,192,294467,1,0,0:0:0:0:
109,192,294467,128,0,294663:0:0:0:0:
475,192,294663,1,0,0:0:0:0:
256,192,294663,1,0,0:0:0:0:
182,192,294663,128,0,294859:0:0:0:0:
402,192,294859,1,0,0:0:0:0:
36,192,294859,128,0,295055:0:0:0:0:
329,192,294957,1,0,0:0:0:0:
256,192,295055,1,0,0:0:0:0:
475,192,295055,1,0,0:0:0:0:
109,192,295055,128,0,295251:0:0:0:0:
402,192,295251,1,0,0:0:0:0:
182,192,295251,128,0,295447:0:0:0:0:
256,192,295447,1,0,0:0:0:0:
109,192,295447,1,0,0:0:0:0:
36,192,295447,1,0,0:0:0:0:
402,192,295447,128,0,295644:0:0:0:0:
329,192,295644,128,0,295840:0:0:0:0:
36,192,295644,1,0,0:0:0:0:
109,192,295742,1,0,0:0:0:0:
256,192,295840,1,0,0:0:0:0:
182,192,295840,1,0,0:0:0:0:
475,192,295840,128,0,296036:0:0:0:0:
402,192,296036,128,0,296232:0:0:0:0:
109,192,296036,1,0,0:0:0:0:
329,192,296232,128,0,296428:0:0:0:0:
256,192,296232,1,0,0:0:0:0:
36,192,296232,1,0,0:0:0:0:
109,192,296428,1,0,0:0:0:0:
475,192,296428,128,0,296624:0:0:0:0:
182,192,296526,1,0,0:0:0:0:
36,192,296624,1,0,0:0:0:0:
256,192,296624,1,0,0:0:0:0:
402,192,296624,128,0,296820:0:0:0:0:
182,192,296820,1,0,0:0:0:0:
475,192,297016,1,0,0:0:0:0:
329,192,297016,1,0,0:0:0:0:
109,192,297016,1,0,0:0:0:0:
256,192,297016,128,0,297212:0:0:0:0:
36,192,297212,1,0,0:0:0:0:
182,192,297212,128,0,297408:0:0:0:0:
109,192,297310,1,0,0:0:0:0:
475,192,297408,1,0,0:0:0:0:
329,192,297408,128,0,297604:0:0:0:0:
402,192,297408,1,0,0:0:0:0:
402,192,297604,1,0,0:0:0:0:
256,192,297604,128,0,297800:0:0:0:0:
36,192,297800,1,0,0:0:0:0:
109,192,297800,1,0,0:0:0:0:
182,192,297800,128,0,297996:0:0:0:0:
475,192,297996,1,0,0:0:0:0:
329,192,297996,128,0,298193:0:0:0:0:
36,192,298095,1,0,0:0:0:0:
109,192,298193,1,0,0:0:0:0:
402,192,298193,1,0,0:0:0:0:
256,192,298193,128,0,298389:0:0:0:0:
329,192,298389,1,0,0:0:0:0:
182,192,298389,128,0,298585:0:0:0:0:
402,192,298585,1,0,0:0:0:0:
256,192,298585,1,0,0:0:0:0:
475,192,298585,1,0,0:0:0:0:
329,192,298781,1,0,0:0:0:0:
182,192,298781,128,0,298977:0:0:0:0:
36,192,298781,128,0,298977:0:0:0:0:
402,192,298879,1,0,0:0:0:0:
475,192,298977,1,0,0:0:0:0:
109,192,298977,128,0,299173:0:0:0:0:
256,192,298977,128,0,299173:0:0:0:0:
182,192,299173,128,0,299369:0:0:0:0:
329,192,299173,128,0,299369:0:0:0:0:
256,192,299369,1,0,0:0:0:0:
475,192,299369,1,0,0:0:0:0:
402,192,299369,1,0,0:0:0:0:
36,192,299565,1,0,0:0:0:0:
182,192,299565,128,0,299761:0:0:0:0:
329,192,299565,128,0,299761:0:0:0:0:
109,192,299663,1,0,0:0:0:0:
36,192,299761,1,0,0:0:0:0:
256,192,299761,128,0,299957:0:0:0:0:
402,192,299761,128,0,299957:0:0:0:0:
109,192,299957,1,0,0:0:0:0:
329,192,299957,128,0,300153:0:0:0:0:
475,192,299957,128,0,300153:0:0:0:0:
109,192,300153,1,0,0:0:0:0:
36,192,300153,1,0,0:0:0:0:
182,192,300153,1,0,0:0:0:0:
402,192,300153,128,0,300349:0:0:0:0:
256,192,300153,1,0,0:0:0:0:
36,192,300349,1,0,0:0:0:0:
329,192,300349,128,0,300546:0:0:0:0:
256,192,300447,1,0,0:0:0:0:
109,192,300447,1,0,0:0:0:0:
182,192,300546,1,0,0:0:0:0:
475,192,300546,128,0,300742:0:0:0:0:
109,192,300742,1,0,0:0:0:0:
402,192,300742,128,0,300938:0:0:0:0:
36,192,300938,1,0,0:0:0:0:
256,192,300938,1,0,0:0:0:0:
329,192,300938,128,0,301134:0:0:0:0:
402,192,301134,1,0,0:0:0:0:
36,192,301134,128,0,301330:0:0:0:0:
329,192,301232,1,0,0:0:0:0:
256,192,301330,1,0,0:0:0:0:
475,192,301330,1,0,0:0:0:0:
109,192,301330,128,0,301526:0:0:0:0:
402,192,301526,1,0,0:0:0:0:
182,192,301526,128,0,301722:0:0:0:0:
256,192,301722,1,0,0:0:0:0:
402,192,301722,1,0,0:0:0:0:
475,192,301722,1,0,0:0:0:0:
109,192,301722,128,0,301918:0:0:0:0:
182,192,301918,128,0,302114:0:0:0:0:
475,192,301918,1,0,0:0:0:0:
402,192,302016,1,0,0:0:0:0:
256,192,302114,1,0,0:0:0:0:
329,192,302114,1,0,0:0:0:0:
36,192,302114,128,0,302310:0:0:0:0:
109,192,302310,128,0,302506:0:0:0:0:
402,192,302310,1,0,0:0:0:0:
182,192,302506,128,0,302702:0:0:0:0:
256,192,302506,1,0,0:0:0:0:
475,192,302506,1,0,0:0:0:0:
109,192,302702,1,0,0:0:0:0:
475,192,302702,128,0,302898:0:0:0:0:
182,192,302800,1,0,0:0:0:0:
36,192,302898,1,0,0:0:0:0:
256,192,302898,1,0,0:0:0:0:
402,192,302898,128,0,303095:0:0:0:0:
329,192,303095,128,0,303291:0:0:0:0:
182,192,303095,1,0,0:0:0:0:
36,192,303291,1,0,0:0:0:0:
109,192,303291,1,0,0:0:0:0:
402,192,303291,1,0,0:0:0:0:
256,192,303291,128,0,303487:0:0:0:0:
475,192,303487,1,0,0:0:0:0:
329,192,303487,128,0,303683:0:0:0:0:
402,192,303585,1,0,0:0:0:0:
36,192,303683,1,0,0:0:0:0:
182,192,303683,128,0,303879:0:0:0:0:
109,192,303683,1,0,0:0:0:0:
109,192,303879,1,0,0:0:0:0:
256,192,303879,128,0,304075:0:0:0:0:
475,192,304075,1,0,0:0:0:0:
402,192,304075,1,0,0:0:0:0:
329,192,304075,128,0,304271:0:0:0:0:
182,192,304271,1,0,0:0:0:0:
109,192,304271,128,0,304467:0:0:0:0:
475,192,304369,1,0,0:0:0:0:
402,192,304467,1,0,0:0:0:0:
36,192,304467,1,0,0:0:0:0:
256,192,304467,128,0,304663:0:0:0:0:
182,192,304663,1,0,0:0:0:0:
402,192,304663,128,0,304859:0:0:0:0:
475,192,304859,1,0,0:0:0:0:
329,192,304859,1,0,0:0:0:0:
36,192,304859,1,0,0:0:0:0:
109,192,305055,128,0,305251:0:0:0:0:
256,192,305251,128,0,305447:0:0:0:0:
36,192,305251,1,0,0:0:0:0:
402,192,305447,128,0,305644:0:0:0:0:
109,192,305447,1,0,0:0:0:0:
36,192,305644,1,0,0:0:0:0:
182,192,305840,128,0,306036:0:0:0:0:
329,192,305840,1,0,0:0:0:0:
402,192,305938,1,0,0:0:0:0:
256,192,306036,128,0,306232:0:0:0:0:
475,192,306036,1,0,0:0:0:0:
329,192,306232,128,0,306428:0:0:0:0:
475,192,306232,1,0,0:0:0:0:
402,192,306428,1,0,0:0:0:0:
475,192,306428,1,0,0:0:0:0:
109,192,306624,128,0,306820:0:0:0:0:
36,192,306624,128,0,306820:0:0:0:0:
329,192,306820,128,0,307016:0:0:0:0:
182,192,306820,128,0,307016:0:0:0:0:
256,192,306820,1,0,0:0:0:0:
402,192,307016,128,0,307212:0:0:0:0:
475,192,307016,128,0,307212:0:0:0:0:
182,192,307212,128,0,307408:0:0:0:0:
329,192,307212,128,0,307408:0:0:0:0:
36,192,307212,1,0,0:0:0:0:
109,192,307408,128,0,307506:0:0:0:0:
256,192,307408,128,0,307506:0:0:0:0:
36,192,307506,128,0,307604:0:0:0:0:
182,192,307506,128,0,307604:0:0:0:0:
402,192,307604,128,0,307800:0:0:0:0:
475,192,307604,128,0,307800:0:0:0:0:
329,192,307604,1,0,0:0:0:0:
256,192,307604,1,0,0:0:0:0:
36,192,307800,128,0,308389:0:0:0:0:
109,192,307800,128,0,308389:0:0:0:0:
182,192,307800,1,0,0:0:0:0:
329,192,307800,1,0,0:0:0:0:
