osu file format v14

[General]
AudioFilename: audio.mp3
AudioLeadIn: 0
PreviewTime: 74944
Countdown: 0
SampleSet: Soft
StackLeniency: 0.7
Mode: 0
LetterboxInBreaks: 0
WidescreenStoryboard: 0

[Editor]
DistanceSpacing: 0.5
BeatDivisor: 4
GridSize: 32
TimelineZoom: 1

[Metadata]
Title:Clumsy thoughts
TitleUnicode:Clumsy thoughts
Artist:Nekomata Master feat. *spiLa*
ArtistUnicode:猫叉Master feat. *spiLa*
Creator:Gibune
Version:Insane
Source:REFLEC BEAT colette -Winter-
Tags:naoyuki sato 佐藤直之 jubeat saucer plus jukebeat crevice konami video game japanese electronic pop rock
BeatmapID:2610990
BeatmapSetID:1256456

[Difficulty]
HPDrainRate:5.5
CircleSize:4
OverallDifficulty:7.2
ApproachRate:8.4
SliderMultiplier:1.6
SliderTickRate:2

[Events]
//Background and Video events
0,0,"bg.jpg",0,0
//Break Periods
//Storyboard Layer 0 (Background)
//Storyboard Layer 1 (Fail)
//Storyboard Layer 2 (Pass)
//Storyboard Layer 3 (Foreground)
//Storyboard Layer 4 (Overlay)
//Storyboard Sound Samples

[TimingPoints]
596,392.156862745098,4,2,2,50,1,0
596,-125,4,2,2,50,0,0
6870,-111.111111111111,4,2,2,65,0,0
14713,-99.9999999999999,4,2,2,70,0,0
27262,-111.111111111111,4,2,2,65,0,0
49223,-99.9999999999999,4,2,2,70,0,0
61772,-99.9999999999999,4,2,2,75,0,0
75890,-90.9090909090909,4,2,2,80,0,0
100988,-100,4,2,2,65,0,0
115105,-100,4,2,2,70,0,0
141772,-111.111111111111,4,2,2,65,0,0
163733,-99.9999999999999,4,2,2,70,0,0
176282,-99.9999999999999,4,2,2,75,0,0
190399,-90.9090909090909,4,2,2,80,0,0
215497,-100,4,2,2,65,0,0
229615,-200,4,2,2,40,0,0
242164,-100,4,2,2,60,0,0
248439,-100,4,2,2,65,0,0
251576,-100,4,2,2,70,0,0
253537,-100,4,2,2,75,0,0
254713,-100,4,2,2,65,0,0

[Colours]
Combo1 : 17,254,176
Combo2 : 173,255,95
Combo3 : 255,88,100
Combo4 : 255,105,55

[HitObjects]
461,44,596,6,0,L|457:132,3,64,6|0|0|0,0:0|0:0|0:0|0:0,0:0:0:0:
400,194,1380,2,0,L|404:282,3,64,2|0|0|0,0:0|0:0|0:0|0:0,0:0:0:0:
337,330,2164,6,0,L|260:338,3,64,2|0|0|0,0:0|0:0|0:0|0:0,0:0:0:0:
191,284,2948,2,0,L|114:276,3,64,2|0|0|0,0:0|0:0|0:0|0:0,0:0:0:0:
71,207,3733,6,0,L|59:123,3,64,2|0|0|0,3:2|0:0|0:0|0:0,0:0:0:0:
115,52,4517,2,0,L|203:42,3,64,2|0|0|0,0:0|0:0|0:0|0:0,0:0:0:0:
178,44,5497,5,2,0:0:0:0:
230,116,5694,1,2,0:0:0:0:
178,188,5890,1,2,0:0:0:0:
178,188,6282,5,2,0:0:0:0:
251,232,6478,1,10,0:0:0:0:
292,306,6674,1,2,0:0:0:0:
364,349,6870,6,0,L|512:340,1,143.999995605469,0|8,3:0|0:0,0:0:0:0:
507,340,7654,1,0,0:0:0:0:
456,257,7850,1,0,0:0:0:0:
507,174,8046,2,0,P|501:134|492:92,1,71.9999978027344,8|0,0:0|0:0,0:0:0:0:
374,0,8439,6,0,L|366:167,1,143.999995605469,0|8,3:0|0:0,0:0:0:0:
367,143,9223,1,0,0:0:0:0:
299,220,9419,1,0,3:0:0:0:
266,122,9615,2,0,L|188:134,1,71.9999978027344,8|0,0:0|0:0,0:0:0:0:
65,217,10007,6,0,L|224:233,1,143.999995605469,0|8,3:0|0:0,0:0:0:0:
208,231,10792,1,0,0:0:0:0:
283,278,10988,1,0,0:0:0:0:
358,325,11184,5,8,0:0:0:0:
287,190,11380,1,8,0:0:0:0:
204,319,11576,1,0,3:0:0:0:
415,35,14125,5,0,3:0:0:0:
319,12,14321,1,4,1:2:0:0:
319,12,14713,6,0,L|181:21,1,120,4|0,3:1|0:0,0:0:0:0:
199,19,15105,1,10,0:0:0:0:
223,109,15301,1,2,0:2:0:0:
156,173,15497,1,2,3:2:0:0:
133,84,15694,1,2,0:0:0:0:
246,198,15890,2,0,L|234:286,1,80,10|0,0:0|0:0,0:0:0:0:
359,371,16282,6,0,L|347:283,1,80,2|0,3:2|0:0,0:0:0:0:
398,148,16674,2,0,P|446:145|486:158,1,80,10|0,0:2|0:0,0:0:0:0:
446,280,17066,1,0,3:0:0:0:
335,213,17262,1,8,0:0:0:0:
320,205,17360,1,8,0:0:0:0:
306,196,17458,2,0,L|410:185,1,80,8|0,0:0|0:0,0:0:0:0:
464,78,17850,5,0,3:0:0:0:
386,38,18046,1,2,0:0:0:0:
308,78,18243,2,0,L|211:66,1,80,10|0,0:0|0:0,0:0:0:0:
135,115,18635,2,0,L|105:120,3,26.6666666666667,2|0|0|0,3:2|0:0|0:0|0:0,0:0:0:0:
238,236,19027,2,0,L|226:332,1,80,10|0,0:2|0:0,0:0:0:0:
152,305,19419,5,2,3:2:0:0:
65,321,19615,1,0,0:0:0:0:
49,234,19811,1,10,0:2:0:0:
136,218,20007,1,0,0:0:0:0:
312,267,20203,5,2,3:2:0:0:
411,283,20399,1,8,0:0:0:0:
394,383,20595,1,10,0:2:0:0:
294,366,20791,1,0,0:0:0:0:
235,204,20988,5,6,3:2:0:0:
374,143,21184,2,0,L|417:150,3,26.6666666666667,0|0|0|8,0:0|0:0|0:0|0:0,0:0:0:0:
303,64,21576,1,2,0:0:0:0:
182,104,21772,2,0,L|83:92,1,80,2|2,3:2|0:0,0:0:0:0:
79,0,22164,2,0,L|-20:12,1,80,10|0,0:0|0:0,0:0:0:0:
102,94,22556,5,0,3:0:0:0:
55,226,22752,2,0,L|51:261,3,26.6666666666667,0|0|0|8,0:0|0:0|0:0|0:0,0:0:0:0:
102,328,23145,1,2,0:0:0:0:
102,328,23341,2,0,L|203:342,1,80,2|0,3:2|0:0,0:0:0:0:
324,244,23733,2,0,L|244:254,1,80,10|0,0:0|0:0,0:0:0:0:
282,369,24125,5,0,3:0:0:0:
391,303,24321,1,2,0:0:0:0:
498,372,24517,2,0,L|408:378,1,80,10|0,0:2|0:0,0:0:0:0:
254,353,24909,2,0,L|219:350,3,26.6666666666667,2|0|0|0,3:2|0:0|0:0|0:0,0:0:0:0:
315,258,25301,1,10,0:2:0:0:
204,167,25497,1,2,0:0:0:0:
195,368,25694,5,2,3:2:0:0:
195,368,26282,5,0,3:0:0:0:
90,327,26478,1,0,3:0:0:0:
144,149,26674,5,0,1:0:0:0:
165,288,26870,1,0,1:0:0:0:
165,288,27262,6,0,L|8:298,1,143.999995605469,4|0,3:1|3:0,0:0:0:0:
57,369,27850,1,2,0:0:0:0:
123,215,28046,2,0,L|113:124,1,71.9999978027344,2|0,3:2|0:0,0:0:0:0:
31,29,28439,2,0,L|21:120,1,71.9999978027344,0|0,1:0|0:0,0:0:0:0:
140,32,28831,5,2,3:2:0:0:
249,100,29027,1,2,0:0:0:0:
254,86,29125,1,2,0:0:0:0:
261,73,29223,2,0,L|272:168,1,71.9999978027344,0|0,3:0|0:0,0:0:0:0:
378,260,29615,2,0,P|406:171|431:111,1,143.999995605469,2|0,3:2|1:0,0:0:0:0:
489,77,30203,1,0,0:0:0:0:
511,221,30399,6,0,P|434:227|374:263,1,143.999995605469,2|0,3:2|3:0,0:0:0:0:
274,235,30988,1,2,0:2:0:0:
190,297,31184,2,0,L|109:292,1,71.9999978027344,2|0,3:2|0:0,0:0:0:0:
0,383,31576,2,0,L|71:378,1,71.9999978027344,0|0,1:0|0:0,0:0:0:0:
38,260,31968,6,0,P|51:220|78:182,1,71.9999978027344,2|0,3:2|0:0,0:0:0:0:
228,177,32360,2,0,P|196:205|154:224,1,71.9999978027344,2|0,3:2|0:0,0:0:0:0:
172,91,32752,5,0,3:0:0:0:
256,75,32948,1,4,3:0:0:0:
340,59,33145,1,0,1:0:0:0:
424,43,33341,1,0,3:0:0:0:
510,167,33537,6,0,L|351:153,1,143.999995605469,6|0,3:2|3:0,0:0:0:0:
366,154,34321,2,0,L|354:242,1,71.9999978027344,0|0,3:0|0:0,0:0:0:0:
265,146,34713,2,0,L|253:58,1,71.9999978027344,0|0,1:0|0:0,0:0:0:0:
366,8,35105,6,0,L|463:17,1,71.9999978027344,2|0,3:2|0:0,0:0:0:0:
336,97,35497,2,0,L|433:106,1,71.9999978027344,2|0,1:2|0:0,0:0:0:0:
317,202,35890,5,2,3:2:0:0:
222,214,36086,1,0,1:0:0:0:
90,91,36282,5,2,3:2:0:0:
185,103,36478,1,0,3:0:0:0:
91,232,36674,6,0,P|113:314|118:379,1,143.999995605469,4|0,3:2|3:0,0:0:0:0:
187,316,37262,1,2,0:0:0:0:
37,307,37458,2,0,L|6:230,1,71.9999978027344,2|0,3:2|0:0,0:0:0:0:
8,121,37850,2,0,L|34:54,1,71.9999978027344,0|0,1:0|0:0,0:0:0:0:
185,15,38243,5,2,3:2:0:0:
133,126,38439,1,2,0:0:0:0:
128,139,38537,1,2,0:0:0:0:
122,152,38635,2,0,L|212:150,1,71.9999978027344,0|0,3:0|0:0,0:0:0:0:
254,61,39027,2,0,P|340:76|421:87,1,143.999995605469,2|0,3:2|1:0,0:0:0:0:
466,30,39615,1,0,0:0:0:0:
508,161,39811,6,0,L|356:172,1,143.999995605469,2|0,3:2|3:0,0:0:0:0:
276,255,40399,1,2,0:0:0:0:
276,255,40596,2,0,L|281:346,1,71.9999978027344,2|0,3:2|0:0,0:0:0:0:
427,384,40988,2,0,L|423:312,1,71.9999978027344,0|0,1:0|0:0,0:0:0:0:
368,142,41380,6,0,P|324:132|270:134,1,71.9999978027344,2|0,3:2|0:0,0:0:0:0:
155,216,41772,2,0,P|198:202|243:173,1,71.9999978027344,2|0,3:2|0:0,0:0:0:0:
177,68,42164,5,4,3:0:0:0:
105,77,42360,1,0,3:0:0:0:
33,85,42556,1,0,1:0:0:0:
0,254,42752,1,0,0:0:0:0:
58,307,42948,6,0,L|217:288,1,143.999995605469,4|0,3:2|3:0,0:0:0:0:
200,289,43733,1,0,3:0:0:0:
296,313,43929,1,0,0:0:0:0:
173,194,44125,1,0,1:0:0:0:
269,218,44321,1,0,0:0:0:0:
364,190,44517,6,0,L|268:180,1,71.9999978027344,2|0,3:2|0:0,0:0:0:0:
394,103,44909,2,0,L|489:93,1,71.9999978027344,2|0,3:2|0:0,0:0:0:0:
330,5,45301,5,2,3:2:0:0:
229,16,45497,1,4,3:0:0:0:
103,156,45694,5,2,1:2:0:0:
204,167,45890,1,0,0:0:0:0:
133,41,46086,6,0,L|11:45,1,107.999996704102,2|0,3:2|0:0,0:0:0:0:
25,44,46478,2,0,L|30:135,1,71.9999978027344,2|0,1:2|0:0,0:0:0:0:
110,198,46870,5,0,3:0:0:0:
204,167,47066,1,0,0:0:0:0:
204,327,47262,5,0,1:0:0:0:
110,297,47458,1,0,0:0:0:0:
261,247,47654,5,4,3:0:0:0:
261,247,48046,1,2,0:0:0:0:
261,247,48439,5,2,0:0:0:0:
341,256,48635,1,8,1:0:0:0:
181,238,48831,1,8,1:0:0:0:
252,327,49027,1,2,0:0:0:0:
250,341,49125,1,2,0:0:0:0:
247,356,49223,6,0,L|347:347,1,80,4|0,3:1|0:0,0:0:0:0:
453,281,49615,2,0,L|373:273,1,80,2|0,3:2|0:0,0:0:0:0:
270,167,50007,5,2,3:2:0:0:
254,74,50203,1,0,0:0:0:0:
347,58,50399,1,2,3:2:0:0:
363,151,50596,1,0,0:0:0:0:
182,135,50792,6,0,L|93:149,1,80,2|0,3:2|0:0,0:0:0:0:
0,50,51184,2,0,L|79:62,1,80,2|0,3:2|0:0,0:0:0:0:
194,1,51576,2,0,L|369:12,1,160,2|0,3:2|3:2,0:0:0:0:
457,84,52164,1,0,0:0:0:0:
457,84,52360,6,0,L|450:177,1,80,2|0,3:2|0:0,0:0:0:0:
450,163,52654,1,2,0:0:0:0:
450,163,52752,1,2,3:2:0:0:
359,183,52948,1,0,0:0:0:0:
294,260,53145,2,0,L|302:345,1,80,2|0,3:2|0:0,0:0:0:0:
457,384,53537,2,0,L|465:299,1,80,0|0,3:2|0:0,0:0:0:0:
359,183,53929,6,0,L|195:171,2,160,2|0|0,3:2|3:0|3:0,0:0:0:0:
294,260,54909,1,0,3:0:0:0:
244,85,55105,1,4,1:0:0:0:
341,30,55301,1,0,3:0:0:0:
355,24,55399,1,0,3:0:0:0:
369,18,55497,6,0,L|356:113,1,80,4|0,3:2|0:0,0:0:0:0:
468,177,55890,2,0,L|481:272,1,80,2|0,3:2|0:0,0:0:0:0:
370,373,56282,2,0,P|321:364|283:345,1,80,2|0,3:2|0:0,0:0:0:0:
258,201,56674,2,0,P|295:233|319:268,1,80,2|0,3:2|0:0,0:0:0:0:
182,311,57066,5,2,3:2:0:0:
182,311,57262,1,0,0:0:0:0:
96,195,57458,5,2,3:2:0:0:
96,195,57654,1,0,0:0:0:0:
5,307,57850,5,2,3:2:0:0:
5,307,58046,1,2,0:0:0:0:
5,307,58145,1,2,0:0:0:0:
5,307,58243,2,0,L|16:215,1,80,2|0,3:2|0:0,0:0:0:0:
76,82,58635,6,0,P|121:76|173:80,1,80,2|0,3:2|0:0,0:0:0:0:
256,192,59027,2,0,P|211:198|159:194,1,80,2|0,3:2|0:0,0:0:0:0:
276,62,59419,5,2,3:2:0:0:
387,71,59615,1,0,0:0:0:0:
487,202,59811,5,2,3:2:0:0:
376,193,60007,1,0,0:0:0:0:
240,303,60203,6,0,P|158:303|69:310,2,160,2|0|0,3:2|3:0|3:2,0:0:0:0:
424,373,61184,1,4,1:1:0:0:
424,373,61576,1,2,0:0:0:0:
429,357,61674,1,2,0:0:0:0:
434,341,61772,6,0,L|336:346,1,80,4|0,3:2|0:0,0:0:0:0:
239,224,62164,2,0,L|318:228,1,80,2|0,1:2|0:0,0:0:0:0:
451,157,62556,5,2,3:2:0:0:
451,157,62752,1,0,0:0:0:0:
359,49,62948,5,2,1:2:0:0:
359,49,63145,1,0,0:0:0:0:
215,82,63341,6,0,L|114:69,1,80,2|0,3:2|0:0,0:0:0:0:
0,192,63733,2,0,L|79:181,1,80,2|0,1:2|0:0,0:0:0:0:
244,295,64125,2,0,L|76:279,1,160,2|0,3:2|1:0,0:0:0:0:
84,279,64713,1,0,0:0:0:0:
235,177,64909,6,0,L|327:186,1,80,2|0,3:2|0:0,0:0:0:0:
344,72,65301,2,0,L|436:81,1,80,2|0,1:2|0:0,0:0:0:0:
346,0,65694,1,2,3:2:0:0:
249,52,65890,1,0,0:0:0:0:
149,4,66086,2,0,L|62:8,1,80,2|0,1:2|0:0,0:0:0:0:
191,168,66478,6,0,L|178:343,2,160,2|0|0,3:2|1:0|3:0,0:0:0:0:
345,146,67458,1,0,3:0:0:0:
376,153,67556,1,0,3:0:0:0:
406,161,67654,1,0,1:0:0:0:
457,306,67850,1,0,0:0:0:0:
457,306,68046,6,0,L|365:310,1,80,6|0,3:2|0:0,0:0:0:0:
316,211,68439,2,0,L|224:215,1,80,2|0,1:2|0:0,0:0:0:0:
214,238,68733,1,0,3:0:0:0:
214,238,68831,1,2,3:2:0:0:
132,302,69027,1,0,0:0:0:0:
41,252,69223,5,2,1:2:0:0:
41,252,69419,1,0,0:0:0:0:
123,188,69615,5,2,3:2:0:0:
123,188,69811,1,0,0:0:0:0:
79,93,70007,2,0,L|185:88,1,80,2|0,1:2|0:0,0:0:0:0:
255,4,70399,1,2,3:2:0:0:
356,85,70596,1,2,0:0:0:0:
356,85,70694,1,2,0:0:0:0:
356,85,70792,1,2,1:2:0:0:
472,34,70988,1,0,0:0:0:0:
512,241,71184,6,0,P|429:229|348:219,1,160,2|0,3:2|1:0,0:0:0:0:
238,294,71772,1,0,3:0:0:0:
239,309,71870,1,0,1:0:0:0:
241,324,71968,2,0,B|147:317|148:317,1,80,0|0,3:0|0:0,0:0:0:0:
78,219,72360,1,0,1:0:0:0:
196,169,72556,1,0,0:0:0:0:
54,84,72752,6,0,P|96:65|152:57,1,80,2|0,3:2|0:0,0:0:0:0:
271,143,73145,2,0,P|229:162|173:170,1,80,2|0,1:2|0:0,0:0:0:0:
338,59,73537,2,0,L|349:166,1,80,2|0,3:2|0:0,0:0:0:0:
370,158,73831,1,0,1:0:0:0:
370,158,73929,1,2,1:2:0:0:
381,237,74125,1,0,0:0:0:0:
395,316,74321,2,0,L|298:330,2,80,0|0|0,3:0|0:0|1:0,0:0:0:0:
396,288,75890,6,0,L|208:275,1,176.000005371094,4|0,3:1|1:0,0:0:0:0:
107,173,76478,1,2,0:0:0:0:
107,173,76576,1,2,0:0:0:0:
107,173,76674,2,0,L|208:165,1,88.000002685547,2|0,3:2|0:0,0:0:0:0:
327,61,77066,5,2,1:2:0:0:
238,54,77262,1,2,0:2:0:0:
277,135,77458,1,0,3:0:0:0:
366,142,77654,1,2,1:2:0:0:
366,142,77752,1,0,1:0:0:0:
366,142,77850,1,0,1:0:0:0:
493,51,78046,1,0,0:0:0:0:
493,51,78243,6,0,L|501:160,1,88.000002685547,2|0,3:2|0:0,0:0:0:0:
361,233,78635,2,0,L|354:320,1,88.000002685547,2|0,1:2|0:0,0:0:0:0:
387,109,79027,2,0,L|185:127,1,176.000005371094,6|0,3:2|1:0,0:0:0:0:
16,9,79615,2,0,L|191:24,1,176.000005371094,2|0,0:0|0:0,0:0:0:0:
255,231,80203,2,0,P|173:250|136:307,1,132.00000402832,2|0,1:2|0:0,0:0:0:0:
159,316,80596,5,0,3:0:0:0:
271,333,80792,1,0,0:0:0:0:
384,348,80988,1,0,1:0:0:0:
503,232,81184,1,0,0:0:0:0:
503,232,81380,2,0,L|401:241,1,88.000002685547,2|0,3:2|0:0,0:0:0:0:
292,128,81772,5,2,1:2:0:0:
400,144,81968,1,2,0:0:0:0:
184,112,82164,6,0,L|170:320,2,176.000005371094,4|0|0,3:1|1:0|3:0,0:0:0:0:
358,0,83145,1,0,0:0:0:0:
413,57,83341,2,0,L|397:157,1,88.000002685547,0|0,1:0|0:0,0:0:0:0:
484,238,83733,2,0,P|426:244|355:311,1,132.00000402832,0|0,3:0|0:0,0:0:0:0:
368,287,84125,5,2,1:2:0:0:
304,376,84321,1,2,0:0:0:0:
199,232,84517,5,2,3:2:0:0:
304,198,84713,1,2,0:0:0:0:
199,342,84909,5,2,1:2:0:0:
199,342,85301,5,2,3:2:0:0:
86,325,85497,1,0,0:0:0:0:
103,212,85694,1,0,1:0:0:0:
216,229,85890,1,0,0:0:0:0:
377,303,86086,5,2,3:2:0:0:
512,283,86282,1,0,0:0:0:0:
492,147,86479,1,0,1:0:0:0:
356,168,86675,1,0,0:0:0:0:
121,87,86870,6,0,L|112:-12,2,88.000002685547,4|0|0,3:0|0:0|1:0,0:0:0:0:
96,304,87458,1,0,0:0:0:0:
96,304,87654,2,0,L|90:201,1,88.000002685547,2|0,3:2|1:0,0:0:0:0:
328,156,88046,5,0,1:0:0:0:
324,199,88144,1,0,1:0:0:0:
320,243,88242,1,0,1:0:0:0:
316,287,88340,1,0,1:0:0:0:
312,331,88439,6,0,L|509:319,1,176.000005371094,4|0,3:1|1:0,0:0:0:0:
409,132,89027,1,2,0:0:0:0:
351,193,89223,2,0,L|228:180,1,88.000002685547,2|0,3:2|0:0,0:0:0:0:
161,85,89615,1,0,1:0:0:0:
283,13,89811,2,0,P|383:8|470:16,1,176.000005371094,2|0,0:2|0:0,0:0:0:0:
500,98,90399,1,0,1:0:0:0:
403,228,90596,6,0,L|226:220,1,176.000005371094,2|0,0:0|0:0,0:0:0:0:
163,338,91184,2,0,L|64:344,1,88.000002685547,2|0,1:2|0:0,0:0:0:0:
0,170,91576,6,0,P|93:150|170:116,1,176.000005371094,6|0,3:2|1:0,0:0:0:0:
375,77,92164,2,0,P|282:57|205:23,1,176.000005371094,2|0,0:0|0:0,0:0:0:0:
217,199,92752,2,0,P|287:203|337:253,1,132.00000402832,2|0,1:2|0:0,0:0:0:0:
331,242,93145,5,0,3:0:0:0:
474,226,93341,1,0,0:0:0:0:
417,322,93537,1,0,1:0:0:0:
388,146,93733,1,0,0:0:0:0:
388,146,93929,6,0,L|400:41,1,88.000002685547,2|0,3:2|0:0,0:0:0:0:
211,0,94321,2,0,L|223:105,1,88.000002685547,2|0,1:2|0:0,0:0:0:0:
202,298,94713,6,0,L|27:321,2,176.000005371094,4|0|0,3:1|1:0|3:0,0:0:0:0:
352,198,95694,1,0,0:0:0:0:
297,140,95890,2,0,L|196:131,1,88.000002685547,0|0,1:0|0:0,0:0:0:0:
376,10,96282,2,0,P|473:13|514:84,1,176.000005371094,0|0,3:0|1:0,0:0:0:0:
407,214,96870,5,2,0:0:0:0:
352,119,97066,1,2,3:2:0:0:
242,309,97262,5,2,0:0:0:0:
352,310,97458,1,2,1:2:0:0:
242,119,97654,5,2,0:2:0:0:
187,214,97850,2,0,L|2:197,1,176.000005371094,2|0,3:2|1:0,0:0:0:0:
67,121,98439,5,2,0:0:0:0:
142,286,98635,2,0,L|317:302,1,176.000005371094,0|0,3:0|1:0,0:0:0:0:
390,364,99223,5,2,0:0:0:0:
481,182,99419,2,0,L|292:164,1,176.000005371094,0|0,3:0|1:0,0:0:0:0:
204,93,100007,5,2,0:0:0:0:
313,32,100203,1,0,3:0:0:0:
117,105,100399,5,8,1:0:0:0:
8,44,100595,1,8,1:0:0:0:
8,44,100988,6,0,L|16:142,1,80,4|0,3:1|0:0,0:0:0:0:
14,123,101282,1,0,1:0:0:0:
14,123,101380,1,0,1:2:0:0:
84,216,101576,1,0,0:0:0:0:
185,182,101772,2,0,L|280:191,1,80,2|0,3:2|0:0,0:0:0:0:
285,89,102164,2,0,L|380:98,1,80,2|0,1:2|0:0,0:0:0:0:
477,173,102556,5,2,3:2:0:0:
423,270,102752,1,0,1:0:0:0:
427,285,102850,1,0,1:0:0:0:
430,300,102948,2,0,L|324:291,1,80,0|0,1:2|0:0,0:0:0:0:
208,379,103341,2,0,L|314:370,1,80,2|0,3:2|0:0,0:0:0:0:
179,273,103733,2,0,L|73:282,1,80,2|0,1:2|0:0,0:0:0:0:
19,198,104125,5,2,3:2:0:0:
11,118,104321,1,0,0:0:0:0:
91,110,104517,1,0,1:2:0:0:
99,190,104713,1,0,0:0:0:0:
227,144,104909,5,0,3:0:0:0:
307,125,105105,1,0,0:0:0:0:
250,64,105301,1,0,1:2:0:0:
284,205,105497,1,2,0:2:0:0:
284,205,105890,5,2,0:2:0:0:
395,269,106086,1,2,1:2:0:0:
284,333,106282,1,2,0:2:0:0:
284,333,106674,5,2,0:2:0:0:
173,269,106870,1,2,1:2:0:0:
284,205,107066,1,2,0:2:0:0:
173,141,107262,6,0,L|75:150,1,80,6|0,3:2|0:0,0:0:0:0:
93,148,107556,1,0,1:0:0:0:
93,148,107654,1,0,1:2:0:0:
25,73,107850,1,0,0:0:0:0:
117,11,108046,1,2,3:2:0:0:
219,62,108243,2,0,L|248:59,3,26.6666666666667,0|0|0|2,0:0|0:0|0:0|1:2,0:0:0:0:
361,11,108635,1,0,0:0:0:0:
361,11,108831,6,0,L|351:98,1,80,2|0,3:2|0:0,0:0:0:0:
476,89,109223,2,0,L|486:176,1,80,0|0,1:2|0:0,0:0:0:0:
406,262,109615,1,2,3:2:0:0:
296,206,109811,2,0,L|263:204,3,26.6666666666667,0|0|0|2,0:0|0:0|0:0|1:2,0:0:0:0:
196,320,110203,1,0,0:0:0:0:
196,320,110399,6,0,L|294:314,1,80,2|0,3:2|0:0,0:0:0:0:
294,341,110694,1,0,1:0:0:0:
294,341,110792,2,0,L|392:347,1,80,0|0,1:2|0:0,0:0:0:0:
454,279,111184,5,0,3:0:0:0:
495,191,111380,1,0,0:0:0:0:
440,112,111576,5,2,1:2:0:0:
388,222,111772,1,2,0:2:0:0:
267,232,111968,1,0,3:0:0:0:
267,232,113537,5,0,3:0:0:0:
227,231,113733,1,0,3:0:0:0:
187,231,113929,1,0,3:0:0:0:
147,231,114125,1,0,3:0:0:0:
166,370,114321,5,8,1:0:0:0:
241,359,114517,1,2,0:3:0:0:
365,130,114713,5,8,1:0:0:0:
290,119,114909,1,2,0:3:0:0:
290,119,115105,6,0,L|105:129,2,160,0|0|0,3:0|0:0|1:0,0:0:0:0:
290,119,116282,2,0,L|283:204,1,80
213,327,116674,1,0,3:0:0:0:
113,278,116870,1,2,0:0:0:0:
21,344,117066,2,0,L|16:372,3,26.6666666666667,2|0|0|0,3:1|0:0|0:0|0:0,0:0:0:0:
166,381,117458,5,0,1:0:0:0:
285,315,117654,1,2,0:0:0:0:
407,375,117850,2,0,L|418:287,1,80,2|0,0:0|0:0,0:0:0:0:
470,188,118243,6,0,P|470:187|477:150,5,26.6666666666667,2|0|0|0|0|0,3:1|0:0|0:0|0:0|0:0|0:0,0:0:0:0:
454,148,118635,6,0,B|419:139|419:139|370:150|370:150|308:130,1,120
280,107,119027,2,0,B|365:87|344:152|454:120,1,160,0|0,1:0|0:0,0:0:0:0:
434,124,119615,1,0,0:0:0:0:
328,11,119811,5,0,3:0:0:0:
328,11,119909,2,0,L|294:10,2,20,2|0|0,0:1|0:0|0:0,0:0:0:0:
259,130,120203,5,8,0:0:0:0:
215,161,120334,1,8,0:0:0:0:
161,162,120465,1,8,0:0:0:0:
113,137,120595,5,0,1:0:0:0:
113,137,120694,2,0,L|87:134,2,20,2|0|0,0:1|0:0|3:0,0:0:0:0:
142,268,120988,1,0,3:0:0:0:
48,365,121184,1,0,3:0:0:0:
274,301,121380,6,0,L|285:134,2,160,4|0|0,3:2|0:0|1:0,0:0:0:0:
274,301,122556,2,0,L|362:293,1,80
466,195,122948,1,0,3:0:0:0:
369,79,123145,1,2,0:0:0:0:
374,64,123243,1,2,0:0:0:0:
378,48,123341,2,0,L|416:41,3,26.6666666666667,2|0|0|0,1:0|0:0|0:0|0:0,0:0:0:0:
278,7,123733,5,8,1:0:0:0:
229,28,123863,1,2,0:0:0:0:
180,50,123994,1,2,0:0:0:0:
143,90,124125,5,8,0:0:0:0:
191,111,124256,1,2,0:0:0:0:
240,133,124386,1,2,0:0:0:0:
289,155,124517,5,0,3:0:0:0:
320,237,124713,1,0,0:0:0:0:
323,256,124811,1,0,0:0:0:0:
326,275,124909,5,2,3:2:0:0:
286,271,125007,1,2,0:0:0:0:
246,277,125105,1,2,0:0:0:0:
212,298,125203,1,2,0:0:0:0:
182,325,125301,5,2,1:2:0:0:
142,329,125399,1,2,0:0:0:0:
102,323,125497,1,2,0:0:0:0:
68,302,125595,1,2,0:0:0:0:
38,275,125694,2,0,L|45:233,3,26.6666666666667,2|2|2|2,0:0|0:0|0:0|0:0,0:0:0:0:
121,167,126086,5,0,3:0:0:0:
78,80,126331,5,2,0:3:0:0:
108,120,126478,1,8,0:0:0:0:
204,46,126723,5,2,0:3:0:0:
197,89,126870,1,8,0:0:0:0:
276,128,127066,5,0,0:0:0:0:
345,73,127262,2,0,L|439:83,1,80,8|0,1:0|3:0,0:0:0:0:
298,252,127654,6,0,L|129:240,1,160,4|0,3:2|0:0,0:0:0:0:
117,264,128145,2,0,L|110:299,6,20,2|0|0|0|0|0|0,0:1|0:0|0:0|0:0|0:0|0:0|1:0,0:0:0:0:
42,167,128635,1,2,0:0:0:0:
42,167,128831,2,0,L|56:72,1,80,2|0,0:0|0:0,0:0:0:0:
165,12,129223,5,2,3:2:0:0:
230,58,129419,1,0,0:0:0:0:
307,76,129615,1,2,3:2:0:0:
383,53,129811,1,0,0:0:0:0:
512,160,130007,5,2,1:2:0:0:
436,137,130203,1,0,0:0:0:0:
359,155,130399,1,2,0:2:0:0:
294,201,130595,1,0,0:0:0:0:
251,357,130792,6,0,P|151:342|73:334,1,160,0|0,3:0|0:0,0:0:0:0:
92,335,131282,2,0,L|59:340,6,20,2|0|0|0|0|0|0,0:1|0:0|0:0|0:0|0:0|0:0|1:0,0:0:0:0:
114,242,131772,1,2,0:0:0:0:
76,153,131968,2,0,L|159:137,1,80,2|0,0:0|0:0,0:0:0:0:
154,137,132556,5,0,3:0:0:0:
248,158,132752,1,0,3:0:0:0:
269,64,132948,1,0,1:0:0:0:
175,43,133145,1,0,1:0:0:0:
175,43,133243,1,0,1:0:0:0:
175,43,133341,5,0,1:0:0:0:
45,92,133537,1,0,3:0:0:0:
91,222,133733,1,0,1:0:0:0:
223,176,133929,5,4,3:2:0:0:
252,190,134027,2,0,L|366:177,1,80,2|0,0:1|0:0,0:0:0:0:
331,180,134321,2,0,L|363:185,8,20,2|0|0|0|0|0|0|0|0,0:1|0:0|0:0|0:0|0:0|0:0|0:0|0:0|1:0,0:0:0:0:
311,298,134909,1,2,0:0:0:0:
311,298,135105,2,0,L|405:290,1,80,2|0,0:0|0:0,0:0:0:0:
417,309,135399,1,2,0:0:0:0:
417,309,135497,5,0,3:0:0:0:
491,253,135694,1,2,0:0:0:0:
465,164,135890,2,0,L|451:65,1,80,2|0,3:2|0:0,0:0:0:0:
431,61,136184,1,0,1:0:0:0:
431,61,136282,5,0,1:0:0:0:
329,71,136478,1,2,0:0:0:0:
227,83,136674,2,0,L|238:174,1,80,2|0,0:0|0:0,0:0:0:0:
108,270,137066,6,0,L|119:179,1,80,0|0,3:0|0:0,0:0:0:0:
46,64,137458,2,0,L|43:30,8,20,2|0|0|0|0|0|0|0|0,0:1|0:0|0:0|0:0|0:0|0:0|0:0|0:0|1:0,0:0:0:0:
3,167,138046,1,0,0:0:0:0:
81,252,138243,1,2,0:0:0:0:
116,142,138439,1,2,0:0:0:0:
155,358,138635,5,0,3:0:0:0:
236,304,138831,2,0,L|326:309,2,80,0|0|0,0:0|3:0|0:0,0:0:0:0:
172,189,139419,5,0,1:0:0:0:
172,109,139615,1,0,3:0:0:0:
296,149,139811,5,0,0:0:0:0:
249,214,140007,1,0,3:0:0:0:
249,84,140203,5,0,3:0:0:0:
249,84,141184,5,0,3:0:0:0:
368,83,141380,1,0,1:0:0:0:
368,83,141772,6,0,L|376:237,1,143.999995605469,4|0,3:1|3:0,0:0:0:0:
445,192,142360,1,2,0:0:0:0:
299,133,142556,2,0,L|201:142,1,71.9999978027344,2|0,3:2|0:0,0:0:0:0:
97,227,142948,2,0,L|168:233,1,71.9999978027344,0|0,1:0|0:0,0:0:0:0:
251,340,143341,5,2,3:2:0:0:
366,290,143537,1,2,0:0:0:0:
379,294,143635,1,2,0:0:0:0:
392,299,143733,2,0,L|308:288,1,71.9999978027344,0|0,3:0|0:0,0:0:0:0:
222,185,144125,2,0,P|293:179|378:158,1,143.999995605469,2|0,3:2|1:0,0:0:0:0:
470,16,144713,1,0,0:0:0:0:
503,97,144909,6,0,L|340:80,1,143.999995605469,2|0,3:2|3:0,0:0:0:0:
269,10,145497,1,2,0:2:0:0:
182,85,145694,2,0,L|190:175,1,71.9999978027344,2|0,3:2|0:0,0:0:0:0:
49,87,146086,2,0,L|57:-3,1,71.9999978027344,0|0,1:0|0:0,0:0:0:0:
105,146,146478,6,0,P|99:190|74:218,1,71.9999978027344,2|0,3:2|0:0,0:0:0:0:
116,341,146870,2,0,P|143:305|178:294,1,71.9999978027344,2|0,3:2|0:0,0:0:0:0:
276,360,147262,5,0,3:0:0:0:
362,378,147458,1,4,3:0:0:0:
380,292,147654,1,0,1:0:0:0:
294,274,147850,1,0,3:0:0:0:
445,351,148046,6,0,L|456:199,1,143.999995605469,6|0,3:2|3:0,0:0:0:0:
455,207,148831,2,0,L|368:195,1,71.9999978027344,0|0,3:0|0:0,0:0:0:0:
247,116,149223,2,0,L|318:106,1,71.9999978027344,0|0,1:0|0:0,0:0:0:0:
286,245,149615,6,0,L|198:242,1,71.9999978027344,2|0,3:2|0:0,0:0:0:0:
180,345,150007,2,0,L|92:342,1,71.9999978027344,2|0,1:2|0:0,0:0:0:0:
0,213,150399,5,2,3:2:0:0:
90,192,150595,1,0,1:0:0:0:
185,45,150792,5,2,3:2:0:0:
95,24,150988,1,0,3:0:0:0:
222,148,151184,6,0,L|386:140,1,143.999995605469,4|0,3:2|3:0,0:0:0:0:
482,224,151772,1,2,0:0:0:0:
482,224,151968,2,0,L|395:215,1,71.9999978027344,2|0,3:2|0:0,0:0:0:0:
377,342,152360,2,0,L|290:351,1,71.9999978027344,0|0,1:0|0:0,0:0:0:0:
194,314,152752,5,2,3:2:0:0:
242,210,152948,1,2,0:0:0:0:
245,196,153046,1,2,0:0:0:0:
249,182,153145,2,0,L|145:187,1,71.9999978027344,0|0,3:0|0:0,0:0:0:0:
53,90,153537,2,0,L|205:73,1,143.999995605469,2|0,3:2|1:0,0:0:0:0:
306,8,154125,1,0,0:0:0:0:
306,8,154321,6,0,L|292:169,1,143.999995605469,2|0,3:2|3:0,0:0:0:0:
370,239,154909,1,2,0:0:0:0:
482,217,155105,2,0,L|490:123,1,71.9999978027344,2|0,3:2|0:0,0:0:0:0:
402,32,155497,2,0,L|394:126,1,71.9999978027344,0|0,1:0|0:0,0:0:0:0:
344,260,155890,6,0,P|304:270|254:263,1,71.9999978027344,2|0,3:2|0:0,0:0:0:0:
180,133,156282,2,0,P|219:144|259:175,1,71.9999978027344,2|0,3:2|0:0,0:0:0:0:
163,274,156674,5,4,3:0:0:0:
84,268,156870,1,0,3:0:0:0:
130,184,157066,5,0,1:0:0:0:
117,358,157262,1,2,0:0:0:0:
213,356,157458,6,0,L|368:342,1,143.999995605469,4|0,3:2|3:0,0:0:0:0:
356,343,158243,1,0,3:0:0:0:
456,340,158439,1,0,0:0:0:0:
453,240,158635,1,0,1:0:0:0:
353,243,158831,1,0,0:0:0:0:
221,163,159027,6,0,L|232:77,1,71.9999978027344,2|0,3:2|0:0,0:0:0:0:
366,86,159419,2,0,L|355:0,1,71.9999978027344,2|0,3:2|0:0,0:0:0:0:
314,167,159811,5,2,3:2:0:0:
324,262,160007,1,4,3:0:0:0:
475,369,160203,5,2,1:2:0:0:
485,274,160399,1,0,0:0:0:0:
334,357,160595,6,0,L|198:368,1,107.999996704102,2|0,3:2|0:0,0:0:0:0:
226,365,160988,2,0,L|233:267,1,71.9999978027344,2|0,1:2|0:0,0:0:0:0:
174,192,161380,5,0,3:0:0:0:
117,112,161576,1,0,0:0:0:0:
23,242,161772,5,0,1:0:0:0:
117,272,161968,1,0,0:0:0:0:
23,143,162164,5,4,3:0:0:0:
254,122,162556,1,2,0:0:0:0:
254,122,162948,5,2,0:0:0:0:
330,66,163145,1,8,1:0:0:0:
406,122,163341,1,8,1:0:0:0:
330,178,163537,1,2,0:0:0:0:
325,206,163635,1,2,0:0:0:0:
317,233,163733,6,0,L|416:246,1,80,4|0,3:1|0:0,0:0:0:0:
499,362,164125,2,0,L|418:373,1,80,0|0,3:0|0:0,0:0:0:0:
316,322,164517,5,2,3:2:0:0:
211,328,164713,1,0,0:0:0:0:
106,334,164909,1,2,3:2:0:0:
1,340,165105,1,0,0:0:0:0:
101,223,165301,6,0,L|92:141,1,80,2|0,3:2|0:0,0:0:0:0:
105,114,165595,1,2,0:0:0:0:
105,114,165694,2,0,L|9:126,1,80,2|0,3:2|0:0,0:0:0:0:
141,11,166086,2,0,L|316:22,1,160,2|2,3:2|3:2,0:0:0:0:
445,94,166674,1,0,0:0:0:0:
445,94,166870,6,0,L|359:103,1,80,2|0,3:2|0:0,0:0:0:0:
365,102,167164,1,0,3:0:0:0:
365,102,167262,1,0,3:0:0:0:
442,198,167458,1,0,0:0:0:0:
359,272,167654,2,0,L|267:267,1,80,2|0,3:2|0:0,0:0:0:0:
285,106,168046,2,0,L|364:101,1,80,2|0,3:2|0:0,0:0:0:0:
227,186,168439,6,0,L|62:198,2,160,2|0|0,3:2|3:0|3:0,0:0:0:0:
294,260,169419,1,0,3:0:0:0:
143,332,169615,1,4,1:1:0:0:
240,376,169811,1,0,3:0:0:0:
235,360,169909,1,0,3:0:0:0:
230,344,170007,6,0,L|337:353,1,80,6|0,3:2|0:0,0:0:0:0:
325,238,170399,2,0,L|432:229,1,80,0|0,3:2|0:0,0:0:0:0:
500,108,170792,2,0,P|478:66|438:48,1,80,2|0,3:2|0:0,0:0:0:0:
296,61,171184,2,0,P|336:86|379:81,1,80,2|0,3:2|0:0,0:0:0:0:
286,218,171576,5,2,3:2:0:0:
219,152,171772,2,0,L|50:172,1,160
131,240,172360,1,2,3:2:0:0:
131,240,172458,1,2,0:0:0:0:
131,240,172556,1,2,0:0:0:0:
165,87,172752,2,0,L|157:-2,1,80,2|0,3:2|0:0,0:0:0:0:
302,79,173145,6,0,P|342:84|383:103,1,80,2|0,3:2|0:0,0:0:0:0:
412,260,173537,2,0,P|379:235|353:198,1,80,0|0,3:0|0:0,0:0:0:0:
226,124,173929,5,2,3:2:0:0:
113,140,174125,1,0,0:0:0:0:
2,309,174321,5,2,3:2:0:0:
115,325,174517,1,0,0:0:0:0:
310,253,174713,6,0,P|304:151|287:73,2,160,2|0|0,3:2|3:0|3:2,0:0:0:0:
172,374,175694,1,4,1:0:0:0:
172,374,176086,1,2,0:0:0:0:
176,358,176184,1,2,0:0:0:0:
182,343,176282,6,0,L|87:350,1,80,6|0,3:2|0:0,0:0:0:0:
0,228,176674,2,0,L|79:233,1,80,0|0,1:0|0:0,0:0:0:0:
204,175,177066,5,2,3:2:0:0:
204,175,177262,1,0,0:0:0:0:
131,64,177458,5,2,1:2:0:0:
131,64,177655,1,0,0:0:0:0:
42,165,177850,6,0,L|48:260,1,80,2|0,3:2|0:0,0:0:0:0:
161,343,178243,2,0,L|155:263,1,80,0|0,1:0|0:0,0:0:0:0:
300,324,178635,2,0,L|466:314,1,160,2|2,3:2|1:2,0:0:0:0:
459,314,179223,1,0,0:0:0:0:
507,175,179419,6,0,L|415:190,1,80,2|0,3:2|0:0,0:0:0:0:
404,71,179811,2,0,L|312:56,1,80,0|0,1:0|0:0,0:0:0:0:
263,172,180203,1,2,3:2:0:0:
176,90,180400,1,0,0:0:0:0:
83,166,180595,2,0,L|1:161,1,80,2|0,1:2|0:0,0:0:0:0:
171,225,180988,6,0,L|158:400,2,160,2|0|0,3:2|1:0|3:0,0:0:0:0:
286,99,181968,1,0,3:0:0:0:
282,67,182066,1,0,3:0:0:0:
274,35,182164,1,0,1:0:0:0:
418,42,182360,1,0,0:0:0:0:
418,42,182556,6,0,L|426:131,1,80,6|0,3:2|0:0,0:0:0:0:
452,138,182850,1,0,1:0:0:0:
461,168,182948,1,0,1:0:0:0:
472,197,183046,1,0,3:0:0:0:
483,227,183145,1,0,1:0:0:0:
429,338,183341,1,2,3:2:0:0:
338,287,183537,1,0,0:0:0:0:
256,350,183733,5,2,1:2:0:0:
256,350,183929,1,0,0:0:0:0:
185,273,184125,5,2,3:2:0:0:
185,273,184321,1,0,0:0:0:0:
266,205,184517,2,0,L|262:116,1,80,0|0,1:0|0:0,0:0:0:0:
199,23,184909,1,2,3:2:0:0:
112,127,185105,1,0,1:0:0:0:
112,127,185203,1,0,1:0:0:0:
112,127,185301,1,2,1:2:0:0:
11,35,185497,1,0,0:0:0:0:
11,219,185694,6,0,P|98:227|191:244,1,160,2|0,3:2|1:0,0:0:0:0:
169,239,186282,1,0,0:0:0:0:
129,372,186478,2,0,L|232:363,1,80,0|0,3:0|0:0,0:0:0:0:
316,297,186870,1,2,1:2:0:0:
426,362,187066,1,2,0:2:0:0:
481,203,187262,6,0,L|381:209,1,80,2|0,3:2|0:0,0:0:0:0:
275,109,187654,2,0,L|375:103,1,80,2|0,1:2|0:0,0:0:0:0:
269,237,188046,2,0,L|172:231,1,80,2|0,3:2|0:0,0:0:0:0:
159,243,188341,1,0,1:0:0:0:
159,243,188439,1,2,1:2:0:0:
100,127,188635,1,0,0:0:0:0:
194,36,188831,2,0,L|293:32,2,80,0|0|0,3:0|0:0|1:0,0:0:0:0:
194,36,190399,6,0,L|181:224,1,176.000005371094,4|0,3:1|1:0,0:0:0:0:
288,354,190988,1,0,0:0:0:0:
288,354,191086,1,0,0:0:0:0:
288,354,191184,2,0,L|396:345,1,88.000002685547,2|0,3:2|0:0,0:0:0:0:
402,255,191576,5,2,1:2:0:0:
481,240,191772,1,2,0:2:0:0:
462,343,191968,5,0,3:0:0:0:
421,152,192164,1,2,0:0:0:0:
421,152,192262,1,2,0:0:0:0:
421,152,192360,1,0,1:0:0:0:
289,57,192556,1,0,0:0:0:0:
289,57,192752,6,0,L|181:66,1,88.000002685547,2|0,3:2|0:0,0:0:0:0:
177,89,193046,1,0,1:0:0:0:
177,89,193145,2,0,L|188:184,1,88.000002685547,2|0,1:2|0:0,0:0:0:0:
43,349,193537,6,0,B|55:163,1,176.000005371094,6|0,3:2|1:0,0:0:0:0:
169,339,194124,2,0,L|344:354,1,176.000005371094,2|0,0:0|0:0,0:0:0:0:
479,188,194713,2,0,P|423:171|336:213,1,132.00000402832,2|0,1:2|0:0,0:0:0:0:
350,228,195105,5,0,3:0:0:0:
228,245,195301,1,0,0:0:0:0:
211,123,195497,1,0,1:0:0:0:
333,106,195694,1,0,0:0:0:0:
333,106,195890,2,0,L|423:112,1,88.000002685547,2|0,3:2|0:0,0:0:0:0:
251,1,196282,5,2,1:2:0:0:
129,17,196478,1,2,0:0:0:0:
250,210,196674,6,0,L|462:219,2,176.000005371094,4|0|0,3:1|1:0|3:0,0:0:0:0:
77,300,197654,1,0,0:0:0:0:
13,250,197850,2,0,L|25:142,1,88.000002685547,0|0,1:0|0:0,0:0:0:0:
190,30,198243,2,0,P|165:65|184:159,1,132.00000402832,0|0,3:0|0:0,0:0:0:0:
208,161,198635,5,2,1:2:0:0:
316,155,198831,1,2,0:0:0:0:
258,57,199027,5,2,3:2:0:0:
266,259,199223,1,2,0:0:0:0:
424,149,199419,5,2,1:2:0:0:
424,149,199811,5,2,3:2:0:0:
439,272,200007,1,0,0:0:0:0:
339,346,200203,1,0,1:0:0:0:
324,223,200399,1,0,0:0:0:0:
260,77,200595,5,2,3:2:0:0:
137,62,200791,1,0,0:0:0:0:
63,162,200987,1,0,1:0:0:0:
186,177,201183,1,0,0:0:0:0:
376,37,201380,6,0,L|487:33,2,88.000002685547,4|0|0,3:0|0:0|1:0,0:0:0:0:
217,203,201968,1,0,0:0:0:0:
255,289,202164,2,0,L|355:281,1,88.000002685547,2|0,3:2|1:0,0:0:0:0:
116,365,202556,5,0,1:0:0:0:
72,362,202654,1,0,1:0:0:0:
33,341,202752,1,0,1:0:0:0:
7,304,202850,1,0,1:0:0:0:
0,260,202948,6,0,L|26:79,1,176.000005371094,4|0,3:1|1:0,0:0:0:0:
25,85,203733,1,2,3:2:0:0:
147,52,203929,1,0,0:0:0:0:
238,135,204125,1,0,1:0:0:0:
126,294,204321,6,0,P|221:283|316:273,1,176.000005371094,2|0,0:2|0:0,0:0:0:0:
444,339,204909,1,0,1:0:0:0:
510,233,205105,1,2,0:0:0:0:
494,240,205203,1,2,0:0:0:0:
478,248,205301,2,0,L|484:146,1,88.000002685547,0|0,3:0|0:0,0:0:0:0:
391,53,205694,1,2,1:2:0:0:
290,151,205890,1,0,0:0:0:0:
109,6,206086,6,0,P|120:102|126:206,1,176.000005371094,6|0,3:2|1:0,0:0:0:0:
320,352,206674,2,0,P|210:335|129:337,1,176.000005371094,2|0,3:2|3:0,0:0:0:0:
278,200,207262,2,0,P|341:189|386:136,1,132.00000402832,2|0,1:2|0:0,0:0:0:0:
367,109,207654,5,0,3:0:0:0:
348,5,207850,1,0,0:0:0:0:
243,23,208046,1,0,1:0:0:0:
262,128,208243,1,0,0:0:0:0:
458,57,208439,6,0,L|474:155,1,88.000002685547,2|0,3:2|0:0,0:0:0:0:
386,260,208831,2,0,L|370:358,1,88.000002685547,2|0,1:2|0:0,0:0:0:0:
176,218,209223,6,0,L|160:34,2,176.000005371094,4|0|0,3:1|1:0|3:0,0:0:0:0:
51,346,210203,1,0,0:0:0:0:
3,282,210399,2,0,L|13:179,1,88.000002685547,0|0,1:0|0:0,0:0:0:0:
71,30,210792,6,0,P|167:43|262:47,1,176.000005371094,0|0,3:0|1:0,0:0:0:0:
404,154,211379,5,2,0:0:0:0:
459,249,211575,1,2,3:2:0:0:
239,249,211771,5,2,0:0:0:0:
294,154,211968,1,2,1:2:0:0:
404,345,212163,5,2,0:2:0:0:
294,344,212360,2,0,L|106:363,1,176.000005371094,2|0,3:2|1:0,0:0:0:0:
50,304,212948,5,2,0:0:0:0:
134,120,213145,2,0,L|329:132,1,176.000005371094,0|0,3:0|1:0,0:0:0:0:
362,206,213733,5,2,0:0:0:0:
508,8,213929,2,0,L|319:17,1,176.000005371094,0|0,3:0|1:0,0:0:0:0:
259,86,214516,5,2,0:0:0:0:
266,174,214712,1,0,3:0:0:0:
167,369,214909,5,8,1:0:0:0:
174,281,215105,1,8,1:0:0:0:
349,328,215301,1,8,0:0:0:0:
363,337,215399,1,8,0:0:0:0:
377,346,215497,6,0,L|386:241,1,80,4|0,3:1|0:0,0:0:0:0:
410,247,215792,1,0,1:0:0:0:
410,247,215890,1,0,1:2:0:0:
301,177,216086,1,0,0:0:0:0:
188,237,216282,2,0,L|85:246,1,80,2|0,3:2|0:0,0:0:0:0:
8,126,216674,2,0,L|87:132,1,80,2|0,1:2|0:0,0:0:0:0:
212,59,217066,5,2,3:2:0:0:
299,143,217262,1,2,0:0:0:0:
294,158,217360,1,2,0:0:0:0:
289,173,217458,2,0,L|376:167,1,80,0|0,1:2|0:0,0:0:0:0:
502,77,217850,2,0,L|422:82,1,80,2|0,3:2|0:0,0:0:0:0:
482,218,218243,2,0,L|474:310,1,80,2|0,1:2|0:0,0:0:0:0:
386,368,218635,5,2,3:2:0:0:
291,354,218831,1,0,0:0:0:0:
196,340,219027,1,0,1:2:0:0:
101,326,219223,1,0,0:0:0:0:
38,173,219419,5,2,3:2:0:0:
131,192,219615,1,0,0:0:0:0:
71,250,219811,1,2,1:2:0:0:
98,115,220007,1,0,0:0:0:0:
98,115,220399,5,2,0:2:0:0:
218,111,220595,1,2,1:2:0:0:
338,107,220792,1,2,0:2:0:0:
338,107,221184,5,2,0:2:0:0:
286,206,221380,1,2,1:2:0:0:
398,202,221576,1,2,0:2:0:0:
265,323,221772,6,0,L|179:313,1,80,6|0,3:2|0:0,0:0:0:0:
156,327,222066,1,0,1:0:0:0:
156,327,222164,1,0,1:2:0:0:
48,260,222360,1,0,0:0:0:0:
122,156,222556,1,2,3:2:0:0:
197,52,222752,2,0,L|193:26,3,26.6666666666667,0|0|0|0,0:0|0:0|0:0|1:0,0:0:0:0:
297,134,223145,1,0,0:0:0:0:
297,134,223341,6,0,L|388:127,1,80,2|0,3:2|0:0,0:0:0:0:
495,26,223733,2,0,L|415:19,1,80,0|0,1:2|0:0,0:0:0:0:
486,133,224125,1,2,3:2:0:0:
432,251,224321,2,0,L|434:283,3,26.6666666666667,0|0|0|2,0:0|0:0|0:0|1:2,0:0:0:0:
331,204,224713,1,0,0:0:0:0:
237,287,224909,6,0,L|157:280,1,80,2|0,3:2|0:0,0:0:0:0:
157,280,225203,1,0,1:0:0:0:
157,280,225301,2,0,L|166:172,1,80,0|0,1:2|0:0,0:0:0:0:
78,94,225694,5,2,3:2:0:0:
65,0,225890,1,0,0:0:0:0:
165,130,226086,5,2,1:2:0:0:
259,117,226282,1,0,0:0:0:0:
259,117,226674,5,2,0:2:0:0:
346,60,226870,1,2,1:2:0:0:
433,117,227066,1,2,0:2:0:0:
359,256,227262,5,2,3:2:0:0:
450,289,227458,1,2,0:2:0:0:
285,146,227654,5,2,1:2:0:0:
159,167,227850,1,2,1:2:0:0:
346,80,229615,6,0,L|181:75,1,160,2|0,0:2|0:0,0:0:0:0:
85,160,230792,1,8,0:0:0:0:
85,160,230988,2,0,L|176:171,1,80,2|0,0:2|0:0,0:0:0:0:
281,246,231968,2,0,L|275:304,3,40,0|0|8|0,0:0|0:0|0:0|0:0,0:0:0:0:
276,285,232752,6,0,L|272:377,1,80,2|0,0:0|0:0,0:0:0:0:
360,335,233341,2,0,L|441:344,1,80,2|0,0:0|0:0,0:0:0:0:
439,343,233929,1,8,0:0:0:0:
396,281,234909,2,0,L|391:237,4,40,2|0|8|8|0,0:0|0:0|0:0|0:0|0:0,0:0:0:0:
391,364,235890,6,0,L|64:343,1,320,2|0,0:0|0:0,0:0:0:0:
13,234,237850,2,0,L|12:188,1,40,2|0,0:0|0:0,0:0:0:0:
44,168,238243,2,0,L|39:122,1,40,2|0,0:0|0:0,0:0:0:0:
58,93,238635,1,8,0:0:0:0:
179,14,239027,6,0,L|231:9,2,40,2|0|0,0:0|0:0|0:0,0:0:0:0:
146,43,239615,2,0,L|106:39,2,40,2|0|0,0:0|0:0|0:0,0:0:0:0:
167,81,240203,2,0,L|211:87,1,40,8|0,0:0|0:0,0:0:0:0:
229,125,240595,2,0,P|292:120|324:119,1,80,2|0,0:0|0:0,0:0:0:0:
369,170,241184,2,0,L|365:214,1,40,2|0,0:0|0:0,0:0:0:0:
410,295,241772,1,8,0:0:0:0:
410,295,242164,6,0,L|315:287,1,80,4|0,3:1|0:0,0:0:0:0:
308,149,242556,2,0,L|213:157,1,80,0|0,3:0|0:0,0:0:0:0:
108,237,242948,5,2,3:2:0:0:
85,326,243145,1,0,0:0:0:0:
174,349,243341,1,10,3:2:0:0:
197,260,243537,1,2,0:0:0:0:
43,173,243733,6,0,L|58:86,1,80,2|0,3:2|0:0,0:0:0:0:
218,15,244125,1,0,3:0:0:0:
167,85,244321,2,0,L|180:264,1,160,2|0,0:0|0:0,0:0:0:0:
267,313,244909,1,10,3:2:0:0:
359,249,245105,1,2,0:0:0:0:
346,85,245301,6,0,P|266:103|164:123,1,160,2|0,3:2|3:0,0:0:0:0:
243,290,245890,2,0,P|164:272|86:256,1,160,2|0,0:0|0:0,0:0:0:0:
243,201,246478,1,10,3:2:0:0:
384,287,246674,1,2,0:0:0:0:
379,302,246772,1,2,0:0:0:0:
372,316,246870,6,0,L|452:312,1,80,0|0,3:0|0:0,0:0:0:0:
512,171,247262,2,0,L|432:167,1,80,0|0,3:0|0:0,0:0:0:0:
301,107,247654,5,2,3:2:0:0:
292,4,247850,1,8,0:0:0:0:
417,142,248046,5,10,3:2:0:0:
408,245,248242,1,0,0:0:0:0:
203,178,248439,6,0,L|34:195,1,160,4|0,3:2|3:0,0:0:0:0:
159,258,249027,1,0,0:0:0:0:
167,103,249223,2,0,L|175:16,1,80,0|0,3:0|0:0,0:0:0:0:
325,85,249615,2,0,L|333:172,1,80,8|0,3:2|0:0,0:0:0:0:
288,278,250007,5,0,3:0:0:0:
208,300,250203,1,0,0:0:0:0:
220,201,250399,5,0,3:0:0:0:
276,377,250595,1,0,0:0:0:0:
368,338,250792,6,0,L|455:346,1,80,2|8,3:2|0:0,0:0:0:0:
512,217,251184,2,0,L|432:224,1,80,10|0,3:2|0:0,0:0:0:0:
341,122,251576,5,0,3:0:0:0:
341,122,251772,1,0,3:0:0:0:
201,55,251968,5,0,3:0:0:0:
201,55,252164,1,0,3:0:0:0:
56,145,252360,5,0,3:0:0:0:
56,145,252556,1,0,3:0:0:0:
55,332,252752,5,0,3:0:0:0:
55,332,252948,1,0,3:0:0:0:
247,369,253145,5,0,3:0:0:0:
247,369,253341,1,0,3:0:0:0:
355,193,253537,5,0,1:0:0:0:
355,193,253733,1,0,1:0:0:0:
197,43,253929,5,0,3:0:0:0:
197,43,254125,1,0,1:0:0:0:
252,288,254321,5,0,1:0:0:0:
252,288,254517,1,0,1:0:0:0:
0,190,254713,6,0,L|94:182,1,80,4|0,3:1|0:0,0:0:0:0:
101,206,255007,1,8,0:0:0:0:
101,206,255105,1,8,1:2:0:0:
219,141,255301,1,0,0:0:0:0:
336,209,255497,2,0,L|429:215,1,80,2|0,3:2|0:0,0:0:0:0:
502,347,255890,2,0,L|422:352,1,80,10|0,1:2|0:0,0:0:0:0:
298,317,256282,5,2,3:2:0:0:
286,203,256478,1,2,0:0:0:0:
299,194,256576,1,2,0:0:0:0:
312,185,256674,2,0,L|213:178,1,80,8|0,1:2|0:0,0:0:0:0:
218,48,257066,2,0,L|119:41,1,80,2|0,3:2|0:0,0:0:0:0:
0,149,257458,2,0,L|99:142,1,80,10|0,1:2|0:0,0:0:0:0:
162,242,257850,5,2,3:2:0:0:
140,335,258046,1,0,0:0:0:0:
233,357,258243,1,8,1:2:0:0:
255,264,258439,1,0,0:0:0:0:
203,127,258635,5,2,3:2:0:0:
195,7,258831,1,0,0:0:0:0:
314,0,259028,1,10,1:2:0:0:
321,119,259224,1,0,0:0:0:0:
321,119,259615,5,2,0:2:0:0:
362,240,259811,1,10,1:2:0:0:
311,358,260007,1,2,0:2:0:0:
311,358,260399,5,2,0:2:0:0:
386,275,260595,1,10,1:2:0:0:
420,381,260792,1,2,0:2:0:0:
277,252,260988,6,0,L|187:263,1,80,6|0,3:2|0:0,0:0:0:0:
191,295,261282,1,8,0:0:0:0:
191,295,261380,1,8,1:2:0:0:
74,327,261576,1,0,0:0:0:0:
24,218,261772,1,2,3:2:0:0:
156,142,261968,2,0,L|191:145,3,26.6666666666667,0|0|0|0,0:0|0:0|0:0|1:0,0:0:0:0:
43,8,262360,1,0,0:0:0:0:
14,95,262556,6,0,L|104:82,1,80,2|0,3:2|0:0,0:0:0:0:
212,3,262948,2,0,L|302:16,1,80,8|0,1:2|0:0,0:0:0:0:
367,110,263341,1,2,3:2:0:0:
260,165,263537,2,0,L|228:167,3,26.6666666666667,0|0|0|10,0:0|0:0|0:0|1:2,0:0:0:0:
305,278,263929,1,0,0:0:0:0:
415,344,264125,6,0,L|420:258,1,80,2|0,3:2|0:0,0:0:0:0:
445,244,264419,1,0,0:0:0:0:
445,244,264517,2,0,L|450:158,1,80,8|0,1:2|0:0,0:0:0:0:
347,47,264909,5,2,3:2:0:0:
232,33,265105,1,0,0:0:0:0:
103,215,265301,5,10,1:2:0:0:
218,201,265497,1,0,0:0:0:0:
218,201,265890,5,2,0:2:0:0:
321,217,266086,1,2,0:2:0:0:
255,298,266282,1,2,0:2:0:0:
218,201,266674,5,2,0:2:0:0:
321,217,266870,1,2,0:2:0:0:
255,298,267066,1,2,0:2:0:0:
255,298,267458,5,2,0:2:0:0:
128,280,267654,1,2,1:2:0:0:
181,164,267850,1,2,0:2:0:0:
87,78,268046,1,2,1:2:0:0:
91,161,268243,6,0,L|89:190,3,26.6666666666667,2|0|0|12,0:0|0:0|0:0|1:0,0:0:0:0:
271,77,268635,1,12,1:0:0:0:
