osu file format v12

[General]
AudioFilename: Master feat. spiLa - Clumsy thoughts.mp3
AudioLeadIn: 2000
PreviewTime: 75003
Countdown: 0
SampleSet: Soft
StackLeniency: 0.7
Mode: 0
LetterboxInBreaks: 0

[Editor]
Bookmarks: 493,690,2258,3827,5395,6180,6964,8533,10101,11670,14807,115199,127748,215591,228140,229709,242258,254807
DistanceSpacing: 1.2
BeatDivisor: 4
GridSize: 4

[Metadata]
Title:Clumsy thoughts
TitleUnicode:Clumsy thoughts
Artist:Nekomata Master feat. *spiLa*
ArtistUnicode:Nekomata Master feat. *spiLa*
Creator:Apricot
Version:Hard
Source:
Tags:
BeatmapID:241076
BeatmapSetID:88459

[Difficulty]
HPDrainRate:6
CircleSize:4
OverallDifficulty:5
ApproachRate:7
SliderMultiplier:1.4
SliderTickRate:1

[Events]
//Background and Video events
0,0,"bg.jpg",0,0
//Break Periods
2,115399,126652
2,228144,241358
//Storyboard Layer 0 (Background)
//Storyboard Layer 1 (Fail)
//Storyboard Layer 2 (Pass)
//Storyboard Layer 3 (Foreground)
//Storyboard Sound Samples
//Background Colour Transformations
3,100,163,162,255

[TimingPoints]
690,392.156862745098,4,2,0,70,1,0
229709,-100,4,2,0,70,0,1
229807,-100,4,2,0,70,0,0
242258,-100,4,2,0,70,0,1
242356,-100,4,2,0,70,0,0
251572,-100,4,1,0,30,0,0
251964,-100,4,1,0,40,0,0
252356,-100,4,1,0,50,0,0
252748,-100,4,1,0,60,0,0
253140,-100,4,1,0,70,0,0
254709,-100,4,2,0,70,0,0

[Colours]
Combo1 : 255,253,170
Combo2 : 255,170,255
Combo3 : 170,255,255
Combo4 : 185,255,170

[HitObjects]
76,61,493,1,0,0:0:0:0:
76,61,690,2,0,P|109:64|145:82,1,70
164,160,1082,2,0,P|131:156|94:139,1,70
20,112,1474,2,0,L|8:256,1,140
40,328,2062,1,0,0:0:0:0:
120,304,2258,6,0,P|156:304|196:324,1,70
248,372,2650,2,0,P|272:336|268:300,1,70
220,244,3042,2,0,P|192:172|216:104,1,140
256,44,3631,1,0,0:0:0:0:
324,92,3827,6,0,P|360:96|404:76,1,70
428,8,4219,2,0,P|392:4|348:24,1,70
324,92,4611,1,0,0:0:0:0:
320,176,4807,1,0,0:0:0:0:
380,236,5003,1,0,0:0:0:0:
464,240,5199,1,0,0:0:0:0:
256,324,5591,5,0,0:0:0:0:
174,302,5787,1,0,0:0:0:0:
128,231,5983,1,0,0:0:0:0:
380,236,6376,5,0,0:0:0:0:
451,190,6572,1,0,0:0:0:0:
473,108,6768,1,0,0:0:0:0:
436,32,6964,6,0,P|364:12|296:32,1,140
8,192,8140,1,0,0:0:0:0:
60,352,8533,6,0,P|128:328|160:268,1,140
116,24,9513,1,0,0:0:0:0:
116,24,9709,1,0,0:0:0:0:
260,112,10101,6,0,L|404:88,2,140
208,180,11082,1,0,0:0:0:0:
196,264,11278,2,0,P|216:300|252:316,1,70
448,284,11670,5,0,0:0:0:0:
64,284,13435,5,0,0:0:0:0:
188,228,13631,1,0,0:0:0:0:
120,346,13827,1,0,0:0:0:0:
105,211,14023,1,0,0:0:0:0:
196,312,14219,1,0,0:0:0:0:
196,312,14317,1,0,0:0:0:0:
196,312,14415,2,0,P|236:332|276:336,1,70
372,340,14807,5,0,0:0:0:0:
444,296,15003,2,0,L|476:308,2,35
368,256,15395,1,0,0:0:0:0:
444,216,15591,2,0,P|476:196|492:160,1,70
492,84,15984,1,0,0:0:0:0:
424,36,16180,2,0,L|276:44,1,140
186,127,16768,2,0,L|256:124,1,70
300,196,17160,2,0,P|332:180|352:148,2,70
216,204,17748,1,0,0:0:0:0:
36,68,18140,5,0,0:0:0:0:
112,32,18337,2,0,P|148:40|176:68,1,70
108,116,18729,2,0,P|135:140|145:179,1,70
64,192,19121,2,0,P|75:227|64:265,1,70
0,308,19513,2,0,B|32:328|44:364|44:364|64:332|104:328,1,140
176,300,20101,1,0,0:0:0:0:
260,284,20297,2,0,P|300:284|336:300,2,70
176,300,20886,1,0,0:0:0:0:
304,204,21082,5,0,0:0:0:0:
248,144,21278,2,0,L|220:168,2,35
272,64,21670,1,0,0:0:0:0:
332,8,21866,2,0,L|401:1,2,70
272,64,22454,2,0,P|204:76|172:140,1,140
172,148,22944,1,0,0:0:0:0:
176,160,23042,1,0,0:0:0:0:
224,232,23239,1,0,0:0:0:0:
276,296,23435,2,0,P|264:336|236:364,2,70
312,220,24023,1,0,0:0:0:0:
492,356,24415,5,0,0:0:0:0:
408,356,24611,2,0,P|416:308|432:288,1,70
504,256,25003,2,0,P|496:208|480:188,1,70
408,156,25395,2,0,P|416:108|432:88,1,70
352,208,25788,1,0,0:0:0:0:
348,212,26376,1,0,0:0:0:0:
284,268,26572,2,0,L|208:260,1,70
148,308,26964,1,0,0:0:0:0:
84,360,27160,1,0,0:0:0:0:
84,360,27356,6,0,B|48:332|68:268|68:268|32:248,1,140
12,168,27944,1,0,0:0:0:0:
52,96,28140,2,0,P|124:60|196:64,1,140
252,108,28729,1,0,0:0:0:0:
296,180,28925,2,0,L|280:288,1,105
296,300,29317,2,0,P|324:307|363:299,1,70
487,363,29709,2,0,P|448:371|420:364,1,70
364,300,30101,1,0,0:0:0:0:
396,224,30297,1,0,0:0:0:0:
476,256,30493,6,0,B|496:180|448:180|472:112,1,140
508,44,31082,1,0,0:0:0:0:
424,28,31278,2,0,P|360:24|304:76,1,140
300,156,31866,1,0,0:0:0:0:
380,184,32062,2,0,P|396:224|392:260,1,70
256,280,32454,2,0,P|240:240|244:204,1,70
336,320,32846,2,0,P|276:364|212:356,1,140
164,288,33435,1,0,0:0:0:0:
164,288,33631,6,0,L|16:328,2,140
204,212,34611,1,0,0:0:0:0:
188,128,34807,2,0,P|176:96|148:76,1,70
68,44,35199,1,0,0:0:0:0:
64,48,35591,5,0,0:0:0:0:
59,53,35984,5,0,0:0:0:0:
28,100,36180,5,0,0:0:0:0:
20,156,36376,1,0,0:0:0:0:
52,200,36572,1,0,0:0:0:0:
96,232,36768,6,0,B|168:256|164:216|240:232,1,140
312,196,37356,1,0,0:0:0:0:
372,256,37552,2,0,B|412:288|468:264|468:264|452:304,1,140
396,360,38140,1,0,0:0:0:0:
316,340,38337,2,0,P|256:320|212:340,1,105
200,344,38729,2,0,L|120:344,1,70
22,268,39121,2,0,L|92:268,2,70
0,188,39709,1,0,0:0:0:0:
44,116,39905,6,0,P|112:108|176:140,1,140
232,196,40493,1,0,0:0:0:0:
300,248,40690,2,0,B|336:232|368:244|368:244|360:208|376:172,1,140
432,112,41278,1,0,0:0:0:0:
492,52,41474,2,0,P|520:24|556:24,1,70
512,132,41866,2,0,P|512:171|486:197,1,70
432,112,42258,2,0,P|393:101|375:70,1,70
308,32,42650,1,0,0:0:0:0:
228,56,42846,1,0,0:0:0:0:
184,128,43042,6,0,P|108:132|56:92,2,140
256,172,44023,1,0,0:0:0:0:
296,248,44219,2,0,P|327:268|360:264,1,70
436,236,44611,1,0,0:0:0:0:
410,103,45003,1,0,0:0:0:0:
509,196,45395,1,0,0:0:0:0:
374,179,45788,1,0,0:0:0:0:
493,113,46180,5,0,0:0:0:0:
428,268,46572,1,0,0:0:0:0:
272,336,46964,2,0,L|196:320,1,70
136,372,47356,2,0,P|104:348|92:316,1,70
116,240,47748,2,0,B|140:168|140:168|108:108,2,140
16,176,48729,1,0,0:0:0:0:
32,64,48925,1,0,0:0:0:0:
140,28,49121,1,0,0:0:0:0:
140,28,49219,1,0,0:0:0:0:
140,28,49317,6,0,P|180:24|216:28,1,70
272,80,49709,2,0,P|312:84|348:80,1,70,0|0,0:0|0:0,0:0:0:0:
416,40,50101,1,0,0:0:0:0:
496,64,50297,1,0,0:0:0:0:
416,40,50493,1,0,0:0:0:0:
432,124,50690,1,0,0:0:0:0:
404,204,50886,2,0,P|336:224|268:208,1,140
208,156,51474,1,0,0:0:0:0:
132,188,51670,1,0,0:0:0:0:
132,188,52062,2,0,L|60:200,1,70
4,260,52454,6,0,P|36:284|72:284,1,70
148,272,52846,1,0,0:0:0:0:
224,304,53042,1,0,0:0:0:0:
268,376,53239,2,0,P|308:380|344:368,1,70
420,364,53631,1,0,0:0:0:0:
372,296,53827,1,0,0:0:0:0:
448,264,54023,2,0,B|498:247|504:201|504:201|546:238,2,140
420,184,55003,1,0,0:0:0:0:
420,184,55101,1,0,0:0:0:0:
420,184,55199,2,0,P|432:144|456:124,1,70
512,72,55591,6,0,P|500:32|476:12,1,70
396,36,55984,2,0,P|360:44|324:36,1,70
252,72,56376,1,0,0:0:0:0:
172,92,56572,1,0,0:0:0:0:
96,56,56768,1,0,0:0:0:0:
172,92,56964,1,0,0:0:0:0:
204,168,57160,2,0,P|180:200|152:212,1,70
68,200,57552,2,0,L|-4:184,1,70
8,268,57944,1,0,0:0:0:0:
56,336,58140,1,0,0:0:0:0:
140,352,58337,1,0,0:0:0:0:
56,336,58533,1,0,0:0:0:0:
112,272,58729,6,0,P|140:244|148:208,2,70
56,336,59317,1,0,0:0:0:0:
140,352,59513,2,0,P|178:362|213:351,1,70
280,312,59905,2,0,P|308:304|346:314,1,70
416,360,60297,2,0,L|460:224,1,140
376,232,60886,1,0,0:0:0:0:
512,316,61082,1,0,0:0:0:0:
504,152,61278,1,0,0:0:0:0:
352,84,61670,1,0,0:0:0:0:
352,84,61768,1,0,0:0:0:0:
352,84,61866,6,0,L|280:96,1,70
212,52,62258,2,0,L|140:64,1,70
68,104,62650,2,0,P|32:92|16:60,2,70
144,64,63239,1,0,0:0:0:0:
140,148,63435,2,0,P|80:192|20:172,2,140
140,148,64611,2,0,P|152:184|152:224,1,70
128,296,65003,5,0,0:0:0:0:
52,328,65199,1,0,0:0:0:0:
0,264,65395,2,0,P|8:224|24:200,1,70
100,168,65788,1,0,0:0:0:0:
184,168,65984,1,0,0:0:0:0:
260,208,66180,2,0,P|280:236|280:272,1,70
248,348,66572,2,0,L|396:336,2,140
168,368,67552,1,0,0:0:0:0:
168,368,67650,1,0,0:0:0:0:
168,368,67748,2,0,P|132:368|100:352,1,70
32,308,68140,6,0,L|40:228,1,70
120,212,68533,2,0,L|113:281,1,70
40,240,68925,1,0,0:0:0:0:
16,160,69121,1,0,0:0:0:0:
60,88,69317,1,0,0:0:0:0:
20,16,69513,1,0,0:0:0:0:
60,88,69709,2,0,P|104:92|136:88,1,70
165,13,70101,2,0,P|129:9|89:13,1,70
130,89,70493,1,0,0:0:0:0:
208,124,70690,1,0,0:0:0:0:
292,120,70886,1,0,0:0:0:0:
364,76,71082,1,0,0:0:0:0:
444,104,71278,6,0,B|480:160|452:240,3,140
396,300,72650,1,0,0:0:0:0:
316,268,72846,5,0,0:0:0:0:
508,148,73239,1,0,0:0:0:0:
500,372,73631,1,0,0:0:0:0:
316,268,74023,6,0,P|280:252|244:256,1,70
208,264,74415,1,0,0:0:0:0:
172,288,74611,1,0,0:0:0:0:
152,324,74807,1,0,0:0:0:0:
72,356,75003,5,0,0:0:0:0:
33,375,75199,1,0,0:0:0:0:
4,346,75395,1,0,0:0:0:0:
23,308,75591,1,0,0:0:0:0:
64,314,75788,1,0,0:0:0:0:
124,220,75984,6,0,P|160:160|152:88,2,140
40,196,76964,1,0,0:0:0:0:
56,112,77160,1,0,0:0:0:0:
140,116,77356,2,0,B|192:128|240:96|240:96|264:128,2,140
128,200,78337,2,0,P|168:208|208:196,1,70
280,192,78729,1,0,0:0:0:0:
324,264,78925,1,0,0:0:0:0:
300,344,79121,6,0,P|372:334|412:274,1,140
396,200,79709,2,0,P|368:132|400:68,1,140
448,16,80297,1,0,0:0:0:0:
328,40,80493,1,0,0:0:0:0:
328,40,80591,1,0,0:0:0:0:
328,40,80690,2,0,P|296:52|248:52,1,70
180,28,81082,1,0,0:0:0:0:
196,112,81278,1,0,0:0:0:0:
164,192,81474,2,0,P|144:220|112:232,2,70
248,184,82062,1,0,0:0:0:0:
312,240,82258,6,0,P|348:296|304:344,1,140
224,320,82846,1,0,0:0:0:0:
140,312,83042,2,0,P|68:312|20:360,2,140
248,184,84219,2,0,P|264:152|260:112,1,70
192,76,84611,2,0,P|190:42|206:10,2,70
140,140,85199,1,0,0:0:0:0:
68,100,85395,6,0,P|43:77|31:43,1,70
84,204,85788,2,0,P|52:214|17:207,1,70
185,208,86180,2,0,P|177:240|154:267,1,70
72,288,86572,1,0,0:0:0:0:
52,368,86768,1,0,0:0:0:0:
212,320,86964,1,0,0:0:0:0:
216,328,87356,2,0,L|288:328,1,70
368,352,87748,2,0,P|396:284|368:220,1,140
296,188,88337,1,0,0:0:0:0:
196,236,88533,6,0,P|168:168|196:104,1,140
252,52,89121,1,0,0:0:0:0:
332,24,89317,2,0,P|372:28|404:44,1,70
460,96,89709,1,0,0:0:0:0:
432,176,89905,2,0,P|432:248|484:292,1,140
504,372,90493,1,0,0:0:0:0:
424,348,90690,2,0,P|363:327|300:363,1,140
216,368,91278,2,0,L|240:296,1,70
264,220,91670,6,0,P|208:176|136:192,1,140
112,264,92258,2,0,B|88:312|116:356|116:356|72:332,1,140
8,292,92846,1,0,0:0:0:0:
44,216,93042,1,0,0:0:0:0:
44,216,93140,1,0,0:0:0:0:
44,216,93239,2,0,P|56:176|52:148,1,70
0,84,93631,2,0,P|10:57|40:29,1,70
100,88,94023,2,0,P|168:100|240:68,1,140
296,20,94611,1,0,0:0:0:0:
352,84,94807,6,0,L|336:236,2,140
424,36,95788,1,0,0:0:0:0:
484,92,95984,2,0,P|492:128|480:164,1,70
424,220,96376,2,0,B|408:276|440:312|440:312|464:300|496:304,2,140
360,168,97356,1,0,0:0:0:0:
280,144,97552,1,0,0:0:0:0:
204,180,97748,1,0,0:0:0:0:
180,260,97944,6,0,B|155:337|66:286|66:286|56:380|-28:361,3,280
108,380,100493,1,0,0:0:0:0:
108,380,100690,1,0,0:0:0:0:
116,212,101082,6,0,P|128:172|120:136,1,70
44,164,101474,2,0,P|32:124|40:88,1,70
108,52,101866,2,0,P|176:24|244:52,1,140
296,104,102454,1,0,0:0:0:0:
376,124,102650,6,0,P|376:84|360:52,1,70
296,104,103042,2,0,P|296:144|312:176,1,70
356,240,103435,2,0,L|500:204,1,140
472,288,104023,1,0,0:0:0:0:
440,364,104219,6,0,L|372:347,1,70
288,360,104611,2,0,L|237:311,1,70
200,236,105003,1,0,0:0:0:0:
116,240,105199,1,0,0:0:0:0:
52,292,105395,1,0,0:0:0:0:
44,376,105591,1,0,0:0:0:0:
256,300,105984,5,0,0:0:0:0:
336,287,106180,1,0,0:0:0:0:
385,217,106376,1,0,0:0:0:0:
136,192,106768,5,0,0:0:0:0:
66,143,106964,1,0,0:0:0:0:
53,63,107160,1,0,0:0:0:0:
128,24,107356,6,0,P|200:40|240:92,1,140
256,172,107944,1,0,0:0:0:0:
228,252,108140,1,0,0:0:0:0:
148,276,108337,2,0,L|152:316,2,35
68,256,108729,1,0,0:0:0:0:
124,192,108925,6,0,P|188:164|260:172,1,140
336,200,109513,1,0,0:0:0:0:
412,232,109709,1,0,0:0:0:0:
492,208,109905,2,0,L|512:236,2,35
508,124,110297,1,0,0:0:0:0:
464,52,110493,6,0,P|388:40|332:72,1,140
272,128,111082,1,0,0:0:0:0:
248,208,111278,1,0,0:0:0:0:
272,288,111474,1,0,0:0:0:0:
264,372,111670,1,0,0:0:0:0:
196,320,111866,1,0,0:0:0:0:
272,288,112062,5,0,0:0:0:0:
356,296,112258,2,0,P|380:332|380:368,2,70
316,220,112846,5,0,0:0:0:0:
381,166,113042,2,0,P|423:174|448:199,2,70
300,140,113631,5,0,0:0:0:0:
307,55,113827,2,0,P|343:30|378:31,2,70
204,128,114415,2,0,P|180:104|140:88,1,70
128,84,114709,1,0,0:0:0:0:
108,84,114807,1,0,0:0:0:0:
28,116,115003,1,0,0:0:0:0:
12,200,115199,5,0,0:0:0:0:
432,300,127552,5,0,0:0:0:0:
432,300,127748,2,0,B|328:348|328:256|228:304,1,210
168,360,128533,2,0,P|100:376|36:344,1,140
8,268,129121,1,0,0:0:0:0:
44,192,129317,5,0,0:0:0:0:
196,120,129709,2,0,L|340:120,2,140
132,64,130689,1,0,0:0:0:0:
116,148,130886,5,0,0:0:0:0:
120,156,131278,6,0,L|136:176,8,17.5
256,256,132062,1,0,0:0:0:0:
484,364,132650,1,0,0:0:0:0:
416,316,132846,2,0,L|432:236,1,70
352,212,133239,2,0,P|292:168|280:104,1,140
308,28,133827,1,0,0:0:0:0:
392,20,134023,6,0,L|440:16,2,46.6666666666667
376,76,134415,6,0,L|395:75,7,17.5
376,76,134807,6,0,P|316:112|248:84,1,140
180,48,135395,1,0,0:0:0:0:
180,132,135591,1,0,0:0:0:0:
76,264,135984,2,0,P|16:224|4:160,2,140
160,260,136964,1,0,0:0:0:0:
204,332,137160,5,0,0:0:0:0:
200,340,137552,6,0,L|192:356,8,17.5
268,184,138337,1,0,0:0:0:0:
72,28,138925,1,0,0:0:0:0:
132,88,139121,2,0,L|116:160,1,70
96,236,139513,1,0,0:0:0:0:
172,276,139709,2,0,P|200:292|240:292,2,70
172,192,140297,6,0,P|260:88|400:68,1,280
430,204,141278,1,0,0:0:0:0:
484,80,141474,1,0,0:0:0:0:
368,148,141670,1,0,0:0:0:0:
503,162,141866,6,0,P|504:236|464:288,1,140
384,268,142454,1,0,0:0:0:0:
332,332,142650,2,0,L|188:316,1,140
120,356,143239,1,0,0:0:0:0:
60,296,143435,2,0,P|56:236|84:196,1,105
96,188,143827,2,0,L|164:208,1,70
260,148,144219,2,0,L|192:128,1,70
156,52,144611,1,0,0:0:0:0:
232,16,144807,1,0,0:0:0:0:
308,52,145003,6,0,P|344:108|336:188,1,140
296,252,145591,1,0,0:0:0:0:
216,224,145788,2,0,L|196:84,1,140
128,36,146376,1,0,0:0:0:0:
128,36,146474,1,0,0:0:0:0:
128,36,146572,2,0,P|88:40|56:56,1,70
20,188,146964,2,0,P|60:184|92:168,1,70
216,224,147356,2,0,P|224:280|196:316,1,105
176,320,147748,2,0,L|112:288,1,70
144,180,148140,6,0,P|204:140|272:160,2,140
216,220,149121,1,0,0:0:0:0:
300,220,149317,2,0,P|328:192|340:156,1,70
320,84,149709,1,0,0:0:0:0:
324,88,150101,5,0,0:0:0:0:
329,93,150494,5,0,0:0:0:0:
384,100,150689,1,0,0:0:0:0:
436,84,150886,1,0,0:0:0:0:
468,40,151082,1,0,0:0:0:0:
504,84,151278,6,0,P|524:156|500:224,1,140
436,264,151866,1,0,0:0:0:0:
408,184,152062,2,0,P|360:128|296:112,1,140
220,144,152650,1,0,0:0:0:0:
136,160,152846,2,0,P|100:152|72:128,1,70
76,48,153239,2,0,P|112:56|140:80,1,70
136,160,153631,2,0,B|104:200|56:200|56:200|88:240,1,140
156,284,154219,1,0,0:0:0:0:
84,324,154415,6,0,P|140:364|208:348,1,140
284,380,155003,1,0,0:0:0:0:
316,304,155199,2,0,P|372:264|440:280,1,140
492,344,155788,1,0,0:0:0:0:
492,344,155984,2,0,P|512:312|520:280,1,70
440,200,156376,2,0,P|420:168|411:135,1,70
300,152,156768,2,0,P|268:172|235:181,2,70
344,80,157356,1,0,0:0:0:0:
260,76,157552,6,0,B|180:88|196:44|116:56,2,140
300,152,158533,1,0,0:0:0:0:
224,192,158729,2,0,P|188:188|164:156,1,70
144,84,159121,1,0,0:0:0:0:
88,212,159513,1,0,0:0:0:0:
56,76,159905,1,0,0:0:0:0:
216,32,160297,1,0,0:0:0:0:
184,196,160689,5,0,0:0:0:0:
216,32,161082,1,0,0:0:0:0:
76,128,161474,2,0,P|52:148|4:148,2,70
140,76,162062,1,0,0:0:0:0:
156,160,162258,2,0,P|172:228|180:300,2,140
92,252,163239,1,0,0:0:0:0:
256,212,163435,1,0,0:0:0:0:
400,296,163631,1,0,0:0:0:0:
400,296,163729,1,0,0:0:0:0:
400,296,163827,6,0,P|424:264|424:232,1,70
340,244,164219,2,0,P|303:259|287:287,1,70
256,360,164611,1,0,0:0:0:0:
172,368,164807,1,0,0:0:0:0:
92,340,165003,1,0,0:0:0:0:
156,288,165199,1,0,0:0:0:0:
76,260,165395,6,0,P|40:272|16:304,2,70
132,196,165984,1,0,0:0:0:0:
68,140,166180,1,0,0:0:0:0:
72,132,166572,2,0,L|80:60,1,70
156,28,166964,6,0,P|196:20|232:36,1,70
296,72,167356,1,0,0:0:0:0:
376,44,167552,1,0,0:0:0:0:
448,88,167748,2,0,P|456:128|440:164,1,70
372,192,168140,1,0,0:0:0:0:
292,164,168337,1,0,0:0:0:0:
236,224,168533,6,0,P|176:256|100:244,2,140
316,252,169513,1,0,0:0:0:0:
316,252,169611,1,0,0:0:0:0:
316,252,169709,2,0,P|294:279|293:313,1,70
372,340,170101,6,0,P|393:312|394:278,1,70
476,300,170493,2,0,P|480:265|464:235,1,70
392,192,170886,1,0,0:0:0:0:
468,156,171082,1,0,0:0:0:0:
400,104,171278,1,0,0:0:0:0:
476,68,171474,1,0,0:0:0:0:
408,20,171670,5,0,0:0:0:0:
408,20,171866,2,0,P|340:40|320:100,1,140
312,184,172454,1,0,0:0:0:0:
247,128,172650,1,0,0:0:0:0:
234,213,172846,1,0,0:0:0:0:
170,157,173042,1,0,0:0:0:0:
156,240,173239,6,0,P|172:272|212:296,2,70
170,157,173827,1,0,0:0:0:0:
92,184,174023,2,0,P|52:180|24:156,1,70
84,100,174415,2,0,P|51:76|39:41,1,70
152,56,174807,6,0,L|300:40,1,140
404,28,175395,1,0,0:0:0:0:
256,128,175591,1,0,0:0:0:0:
434,140,175788,1,0,0:0:0:0:
328,272,176180,1,0,0:0:0:0:
328,272,176278,1,0,0:0:0:0:
328,272,176376,6,0,P|288:296|260:296,1,70
212,232,176768,2,0,P|189:232|149:256,1,70
88,312,177160,2,0,P|88:334|112:374,2,70
150,257,177748,1,0,0:0:0:0:
68,232,177944,6,0,L|-4:244,2,70
48,148,178533,1,0,0:0:0:0:
92,72,178729,1,0,0:0:0:0:
92,72,179121,2,0,L|172:60,1,70
212,128,179513,5,0,0:0:0:0:
292,156,179709,1,0,0:0:0:0:
372,136,179905,2,0,P|374:95|365:67,1,70
284,40,180298,1,0,0:0:0:0:
220,92,180494,1,0,0:0:0:0:
220,176,180690,2,0,P|234:207|265:225,1,70
348,224,181082,6,0,B|404:196|456:210|456:210|440:244,2,140
296,288,182062,1,0,0:0:0:0:
296,288,182160,1,0,0:0:0:0:
296,288,182258,2,0,P|296:324|312:356,1,70
392,376,182650,6,0,L|468:364,1,70
476,284,183042,2,0,L|406:294,1,70
336,340,183435,1,0,0:0:0:0:
252,356,183631,1,0,0:0:0:0:
168,348,183827,1,0,0:0:0:0:
112,288,184023,1,0,0:0:0:0:
36,324,184219,6,0,P|32:280|36:248,1,70
112,288,184611,2,0,P|116:252|112:212,1,70
92,136,185003,1,0,0:0:0:0:
172,156,185200,1,0,0:0:0:0:
252,136,185396,1,0,0:0:0:0:
312,80,185592,1,0,0:0:0:0:
388,120,185788,6,0,B|420:88|420:88|480:80|500:128,3,140
512,208,187160,1,0,0:0:0:0:
467,281,187356,5,0,0:0:0:0:
315,353,187748,1,0,0:0:0:0:
242,203,188140,1,0,0:0:0:0:
390,127,188533,6,0,P|420:101|430:70,1,70
412,36,188925,1,0,0:0:0:0:
373,22,189121,1,0,0:0:0:0:
332,39,189317,1,0,0:0:0:0:
260,86,189513,5,0,0:0:0:0:
224,104,189709,1,0,0:0:0:0:
193,76,189905,1,0,0:0:0:0:
212,38,190101,1,0,0:0:0:0:
253,43,190297,1,0,0:0:0:0:
300,148,190493,6,0,P|236:188|176:168,2,140
384,144,191474,1,0,0:0:0:0:
440,204,191670,1,0,0:0:0:0:
464,284,191866,2,0,B|484:312|476:352|476:352|512:344|548:360,2,140
396,332,192846,2,0,P|344:344|316:336,1,70
248,316,193239,1,0,0:0:0:0:
164,328,193435,1,0,0:0:0:0:
80,316,193631,6,0,P|68:240|104:192,1,140
184,216,194219,2,0,P|252:232|292:180,1,140
284,100,194807,1,0,0:0:0:0:
224,40,195003,1,0,0:0:0:0:
224,40,195101,1,0,0:0:0:0:
224,40,195199,2,0,L|144:56,1,70
27,98,195591,2,0,L|96:112,1,70
120,192,195984,2,0,P|112:232|88:256,2,70
120,192,196572,1,0,0:0:0:0:
192,148,196768,6,0,P|260:148|296:212,1,140
284,288,197356,1,0,0:0:0:0:
364,260,197552,2,0,B|432:232|432:280|504:256,2,140
232,364,198729,2,0,P|204:344|192:312,1,70
148,240,199121,2,0,P|114:234|82:248,2,70
232,236,199709,1,0,0:0:0:0:
292,176,199905,6,0,L|376:168,1,70
456,228,200297,2,0,P|484:200|484:160,1,70
436,72,200689,2,0,P|397:61|363:81,1,70
292,176,201082,2,0,L|220:152,1,70
92,108,201474,1,0,0:0:0:0:
84,112,201866,2,0,P|72:76|80:40,1,70
160,44,202258,2,0,P|168:116|164:192,1,140
112,248,202846,1,0,0:0:0:0:
224,268,203042,6,0,P|288:292|316:360,1,140
232,348,203631,1,0,0:0:0:0:
232,348,203827,2,0,P|196:352|156:348,1,70
84,324,204219,1,0,0:0:0:0:
16,272,204415,2,0,B|-8:244|-8:244|8:128,1,140
16,60,205003,1,0,0:0:0:0:
88,104,205199,1,0,0:0:0:0:
88,104,205395,2,0,P|124:112|168:104,2,70
124,28,205984,1,0,0:0:0:0:
208,40,206180,6,0,P|248:100|232:164,1,140
288,228,206768,2,0,P|350:213|410:253,1,140
456,324,207356,1,0,0:0:0:0:
508,256,207552,1,0,0:0:0:0:
508,256,207650,1,0,0:0:0:0:
508,256,207748,2,0,L|500:184,1,70
412,94,208140,2,0,L|420:164,1,70
372,232,208533,2,0,P|312:216|300:140,1,140
312,64,209121,1,0,0:0:0:0:
232,92,209317,6,0,B|172:84|152:140|152:140|116:116,3,140
36,116,210689,1,0,0:0:0:0:
4,192,210886,2,0,B|24:256|-20:264|16:328,2,140
36,116,211866,1,0,0:0:0:0:
92,180,212062,2,0,P|120:208|160:220,1,70
232,216,212454,6,0,P|288:104|176:44,3,280
200,130,215003,5,0,0:0:0:0:
200,130,215199,1,0,0:0:0:0:
324,244,215591,6,0,P|360:252|400:244,1,70
472,272,215984,2,0,P|480:236|472:196,1,70
400,168,216376,2,0,P|328:160|276:120,1,140
256,40,216964,1,0,0:0:0:0:
172,36,217160,6,0,L|96:56,1,70
156,120,217552,2,0,L|80:140,1,70
76,220,217944,2,0,B|146:199|146:199|207:231,1,140
140,280,218533,1,0,0:0:0:0:
100,356,218729,6,0,P|136:368|184:360,1,70
236,316,219121,2,0,P|267:313|303:325,1,70
376,364,219513,1,0,0:0:0:0:
452,332,219709,1,0,0:0:0:0:
384,284,219905,1,0,0:0:0:0:
460,248,220101,1,0,0:0:0:0:
272,196,220493,5,0,0:0:0:0:
224,264,220689,1,0,0:0:0:0:
188,188,220885,1,0,0:0:0:0:
400,112,221278,5,0,0:0:0:0:
475,146,221474,1,0,0:0:0:0:
468,63,221670,1,0,0:0:0:0:
392,28,221866,6,0,P|328:64|312:124,1,140
332,204,222454,1,0,0:0:0:0:
256,240,222650,1,0,0:0:0:0:
272,324,222846,2,0,L|304:352,2,35
192,296,223239,1,0,0:0:0:0:
180,212,223435,6,0,B|192:136|152:148|160:72,1,140
88,36,224023,1,0,0:0:0:0:
32,96,224219,1,0,0:0:0:0:
72,168,224415,2,0,L|116:176,2,35
28,240,224807,1,0,0:0:0:0:
76,308,225003,6,0,P|140:340|212:332,1,140
276,288,225591,1,0,0:0:0:0:
356,320,225788,1,0,0:0:0:0:
276,288,225984,2,0,L|240:272,2,35
344,236,226376,1,0,0:0:0:0:
376,160,226572,5,0,0:0:0:0:
460,164,226768,2,0,P|500:184|512:208,2,70
376,160,227356,2,0,L|304:144,1,70
232,180,227748,1,0,0:0:0:0:
376,160,227944,5,0,0:0:0:0:
153,307,242258,5,0,0:0:0:0:
202,134,242650,1,0,0:0:0:0:
91,242,243042,1,0,0:0:0:0:
264,199,243435,1,0,0:0:0:0:
116,156,243827,1,0,0:0:0:0:
240,284,244219,1,0,0:0:0:0:
412,241,244611,1,0,0:0:0:0:
240,284,245003,1,0,0:0:0:0:
376,92,245395,5,0,0:0:0:0:
328,264,245787,1,0,0:0:0:0:
439,156,246179,1,0,0:0:0:0:
265,200,246572,1,0,0:0:0:0:
414,243,246964,1,0,0:0:0:0:
290,114,247356,1,0,0:0:0:0:
117,157,247748,1,0,0:0:0:0:
290,114,248140,1,0,0:0:0:0:
244,276,248533,5,0,0:0:0:0:
244,276,248729,1,0,0:0:0:0:
164,304,248925,1,0,0:0:0:0:
164,304,249121,1,0,0:0:0:0:
84,280,249317,1,0,0:0:0:0:
84,280,249513,1,0,0:0:0:0:
56,200,249709,1,0,0:0:0:0:
56,200,249905,1,0,0:0:0:0:
84,104,250101,6,0,P|108:68|140:52,1,70
220,100,250493,2,0,L|296:88,1,70
449,117,250886,2,0,L|380:128,1,70
292,172,251278,2,0,P|260:200|252:240,1,70
264,336,251670,5,0,0:0:0:0:
264,336,251866,1,0,0:0:0:0:
372,360,252062,1,0,0:0:0:0:
372,360,252258,1,0,0:0:0:0:
476,316,252454,1,0,0:0:0:0:
476,316,252650,1,0,0:0:0:0:
480,204,252846,1,0,0:0:0:0:
480,204,253042,1,0,0:0:0:0:
356,236,253239,5,0,0:0:0:0:
372,112,253435,1,0,0:0:0:0:
356,236,253631,1,0,0:0:0:0:
240,184,253827,1,0,0:0:0:0:
356,236,254023,1,0,0:0:0:0:
288,116,254219,2,0,L|268:80,2,35
436,323,254808,6,0,P|403:320|367:302,1,70
348,224,255200,2,0,P|381:228|418:245,1,70
492,272,255592,2,0,L|504:128,1,140
472,56,256180,1,0,0:0:0:0:
392,80,256376,6,0,P|356:80|316:60,1,70
264,12,256768,2,0,P|240:48|244:84,1,70
292,140,257160,2,0,P|320:212|296:280,1,140
256,340,257749,1,0,0:0:0:0:
188,292,257945,6,0,P|152:288|108:308,1,70
84,376,258337,2,0,P|120:380|164:360,1,70
188,292,258729,1,0,0:0:0:0:
192,208,258925,1,0,0:0:0:0:
132,148,259121,1,0,0:0:0:0:
48,144,259317,1,0,0:0:0:0:
256,60,259709,5,0,0:0:0:0:
338,82,259905,1,0,0:0:0:0:
384,153,260101,1,0,0:0:0:0:
132,148,260494,5,0,0:0:0:0:
61,194,260690,1,0,0:0:0:0:
39,276,260886,1,0,0:0:0:0:
76,352,261082,6,0,P|148:372|216:352,1,140
260,292,261670,2,0,P|308:292|336:308,1,70
400,340,262062,2,0,L|388:384,2,35
424,260,262454,1,0,0:0:0:0:
508,244,262651,6,0,P|476:187|408:163,1,140
328,188,263239,2,0,P|308:152|312:120,1,70
364,60,263631,2,0,L|408:68,2,35
280,48,264023,1,0,0:0:0:0:
196,36,264219,6,0,P|132:24|68:56,2,140
232,112,265200,1,0,0:0:0:0:
196,188,265396,2,0,P|164:168|152:132,1,70
232,112,265788,5,0,0:0:0:0:
120,340,267553,5,0,0:0:0:0:
64,216,267749,1,0,0:0:0:0:
182,284,267945,1,0,0:0:0:0:
47,299,268141,1,0,0:0:0:0:
148,208,268337,1,0,0:0:0:0:
148,208,268435,1,0,0:0:0:0:
148,208,268533,2,0,P|168:168|172:128,1,70
