osu file format v14

[General]
AudioFilename: audio.mp3
AudioLeadIn: 0
PreviewTime: 75165
Countdown: 0
SampleSet: Soft
StackLeniency: 0.7
Mode: 0
LetterboxInBreaks: 0
WidescreenStoryboard: 1

[Editor]
DistanceSpacing: 1.5
BeatDivisor: 4
GridSize: 16
TimelineZoom: 2.2

[Metadata]
Title:Clumsy thoughts
TitleUnicode:Clumsy thoughts
Artist:Nekomata Master feat. *spiLa*
ArtistUnicode:猫叉Master feat. *spiLa*
Creator:AJT
Version:Hard
Source:REFLEC BEAT colette -Winter-
Tags:japanese pop electronic video game co2021 corsace open 2021 ro64 hd3 naoyuki sato 佐藤直之 crevice konami jubeat plus saucer jukebeat aistre alphabet venax lasse
BeatmapID:3160766
BeatmapSetID:1544696

[Difficulty]
HPDrainRate:4.5
CircleSize:3.8
OverallDifficulty:6
ApproachRate:7
SliderMultiplier:1.4
SliderTickRate:1

[Events]
//Background and Video events
0,0,"bg.jpg",0,0
//Break Periods
//Storyboard Layer 0 (Background)
//Storyboard Layer 1 (Fail)
//Storyboard Layer 2 (Pass)
//Storyboard Layer 3 (Foreground)
//Storyboard Layer 4 (Overlay)
//Storyboard Sound Samples

[TimingPoints]
852,392.156862745098,4,2,0,70,1,0
852,-133.333333333333,4,2,0,70,0,0
11832,-133.333333333333,4,2,0,80,0,0
12028,-133.333333333333,4,2,0,80,0,0
14969,-100,4,2,0,90,0,0
27518,-117.647058823529,4,2,0,80,0,0
36930,-111.111111111111,4,2,0,80,0,0
49479,-100,4,2,0,90,0,0
75165,-100,4,2,0,75,0,0
76146,-80,4,2,0,100,0,0
80459,-80,4,2,0,100,0,0
88646,-80,4,2,0,5,0,0
88695,-80,4,2,0,100,0,0
90067,-80,4,2,0,100,0,0
93008,-80,4,2,0,100,0,0
109087,-80,4,2,0,100,0,0
112224,-133.333333333333,4,2,0,100,0,0

[Colours]
Combo1 : 98,240,158
Combo2 : 244,200,117
Combo3 : 28,111,249
Combo4 : 248,146,116

[HitObjects]
512,0,852,6,0,P|507:33|501:66,1,52.5000020027161,6|0,0:0|0:0,0:0:0:0:
425,60,1244,2,0,P|430:93|436:126,1,52.5000020027161,2|0,0:0|0:0,0:0:0:0:
484,171,1636,2,0,P|479:204|473:237,1,52.5000020027161
397,231,2028,2,0,P|402:264|408:297,1,52.5000020027161,2|0,0:0|0:0,0:0:0:0:
364,374,2420,6,0,P|340:363|324:343,1,52.5000020027161
255,303,2812,2,0,P|231:292|205:292,1,52.5000020027161,2|0,0:0|0:0,0:0:0:0:
154,351,3204,2,0,P|128:360|93:357,3,52.5000020027161,0|0|2|0,0:0|0:0|0:0|0:0,0:0:0:0:
105,265,3989,5,0,0:0:0:0:
105,265,4185,1,0,0:0:0:0:
156,205,4381,2,0,P|150:179|142:154,1,52.5000020027161,2|0,0:0|0:0,0:0:0:0:
74,100,4773,5,0,0:0:0:0:
74,100,4969,1,0,0:0:0:0:
23,39,5165,2,0,P|17:65|9:90,1,52.5000020027161,2|2,0:0|0:0,0:0:0:0:
156,34,5753,5,2,0:0:0:0:
234,27,5950,1,2,0:0:0:0:
312,19,6146,1,2,0:0:0:0:
480,160,6538,5,2,0:0:0:0:
402,153,6735,1,10,0:0:0:0:
324,145,6931,1,2,0:0:0:0:
224,208,7126,6,0,P|249:210|276:222,1,52.5000020027161,6|0,1:2|0:0,0:0:0:0:
346,258,7518,2,0,P|295:191|223:163,1,157.500006008148,10|0,0:0|0:0,0:0:0:0:
193,99,8302,1,10,0:0:0:0:
80,224,8695,6,0,P|79:261|86:291,1,52.5000020027161,2|0,3:2|0:0,0:0:0:0:
15,318,9087,2,0,P|117:318|174:340,1,157.500006008148,10|0,0:0|0:0,0:0:0:0:
247,312,9871,1,10,0:0:0:0:
300,369,10067,1,0,0:0:0:0:
339,286,10263,6,0,P|301:280|276:276,1,52.5000020027161,2|0,3:2|0:0,0:0:0:0:
352,208,10655,2,0,P|390:202|415:198,1,52.5000020027161,10|0,0:0|0:0,0:0:0:0:
480,128,11048,5,0,0:0:0:0:
464,50,11244,1,0,0:0:0:0:
387,30,11440,1,10,0:0:0:0:
318,69,11636,1,2,1:2:0:0:
243,44,11832,5,4,3:0:0:0:
16,208,12224,6,0,P|18:181|12:153,1,52.5000020027161
144,288,12812,2,0,P|117:286|89:292,2,52.5000020027161
218,313,13401,5,2,3:0:0:0:
369,355,13793,1,2,3:0:0:0:
484,248,14185,1,2,0:3:0:0:
452,175,14381,2,0,L|462:151,3,17.500000667572,2|0|0|4,0:0|0:0|0:0|0:0,0:0:0:0:
373,180,14773,1,2,0:0:0:0:
283,125,14969,5,6,3:2:0:0:
178,110,15165,2,0,P|157:120|142:132,3,23.3333333333333,2|0|0|10,0:0|0:0|0:0|0:0,0:0:0:0:
259,44,15557,1,2,0:0:0:0:
159,11,15753,2,0,P|103:17|82:24,2,70,2|0|8,3:2|0:0|0:0,0:0:0:0:
259,44,16342,1,0,0:0:0:0:
0,224,16734,5,2,0:0:0:0:
90,278,16930,1,10,0:0:0:0:
12,349,17126,1,0,0:0:0:0:
90,278,17322,2,0,P|120:263|155:267,1,70,2|0,3:2|0:0,0:0:0:0:
230,340,17714,1,10,0:0:0:0:
323,293,17910,2,0,P|288:288|257:303,1,70,0|2,0:0|3:2,0:0:0:0:
233,201,18302,5,2,0:0:0:0:
290,122,18499,1,10,0:0:0:0:
290,122,18695,1,0,0:0:0:0:
233,42,18891,2,0,L|237:4,3,23.3333333333333,2|0|0|2,3:2|0:0|0:0|0:0,0:0:0:0:
119,43,19283,1,10,0:0:0:0:
119,43,19479,1,2,0:0:0:0:
119,43,19675,6,0,P|114:78|129:109,1,70,2|0,3:2|0:0,0:0:0:0:
92,199,20067,2,0,P|60:212|41:241,1,70,10|0,0:0|0:0,0:0:0:0:
88,326,20459,1,2,3:2:0:0:
182,351,20655,2,0,P|201:360|219:354,3,23.3333333333333,8|2|0|8,0:0|0:0|0:0|0:0,0:0:0:0:
299,340,21048,1,2,0:0:0:0:
240,261,21244,5,6,3:2:0:0:
314,196,21440,2,0,P|296:193|274:194,3,23.3333333333333,2|0|0|8,0:0|0:0|0:0|0:0,0:0:0:0:
388,243,21832,1,0,0:0:0:0:
439,151,22028,5,2,3:2:0:0:
360,81,22224,1,2,0:0:0:0:
458,45,22420,1,10,0:0:0:0:
439,151,22616,1,2,0:0:0:0:
490,354,23008,6,0,P|510:359|523:373,3,23.3333333333333,2|0|0|8,0:0|0:0|0:0|0:0,0:0:0:0:
406,357,23401,1,0,0:0:0:0:
335,278,23597,5,2,3:2:0:0:
246,292,23793,1,2,0:0:0:0:
172,366,23989,1,10,0:0:0:0:
260,380,24185,1,2,0:0:0:0:
0,0,24577,5,2,0:0:0:0:
87,57,24773,1,10,0:0:0:0:
79,161,24969,1,0,0:0:0:0:
167,216,25165,2,0,P|181:211|196:212,3,23.3333333333333,2|0|0|2,3:2|0:0|0:0|0:0,0:0:0:0:
196,315,25557,1,10,0:0:0:0:
300,305,25753,1,2,0:0:0:0:
201,343,25950,5,4,3:0:0:0:
16,384,26538,1,2,2:0:0:0:
16,384,26636,1,0,0:0:0:0:
16,384,26734,2,0,P|1:344|0:310,1,70,2|6,3:2|0:0,0:0:0:0:
47,223,27126,1,4,0:0:0:0:
142,179,27322,1,2,0:0:0:0:
179,98,27518,6,0,P|112:126|74:103,1,119.000002269745,2|0,3:2|3:0,0:0:0:0:
125,31,28106,1,0,0:0:0:0:
212,15,28302,2,0,P|276:36|343:36,1,119.000002269745,2|10,3:2|0:0,0:0:0:0:
395,93,28891,1,0,0:0:0:0:
395,93,29087,6,0,P|408:123|408:154,1,59.5000011348725,2|0,3:2|0:0,0:0:0:0:
398,238,29479,2,0,P|356:243|332:257,1,59.5000011348725,2|0,3:2|0:0,0:0:0:0:
312,335,29871,2,0,P|285:323|256:322,1,59.5000011348725,2|2,0:0|0:0,0:0:0:0:
169,303,30263,1,10,0:0:0:0:
169,303,30459,1,2,0:0:0:0:
115,374,30655,6,0,P|114:314|106:255,1,119.000002269745,2|0,3:2|3:0,0:0:0:0:
136,171,31244,1,0,0:0:0:0:
225,170,31440,2,0,P|181:166|165:96,1,119.000002269745,2|10,3:2|0:0,0:0:0:0:
247,75,32028,1,0,0:0:0:0:
336,144,32224,5,2,3:2:0:0:
391,74,32420,1,0,0:0:0:0:
391,74,32616,2,0,L|387:149,1,59.5000011348725,2|0,3:2|0:0,0:0:0:0:
467,181,33008,2,0,B|409:155|401:216|337:182,1,119.000002269745,2|6,3:2|3:2,0:0:0:0:
289,241,33597,1,2,0:0:0:0:
208,160,33793,6,0,B|183:120|131:119|137:138|82:142|53:83,1,178.500003404617,6|0,1:2|0:0,0:0:0:0:
32,176,34577,2,0,P|35:209|48:237,1,59.5000011348725,2|0,3:2|0:0,0:0:0:0:
126,271,34969,1,10,0:0:0:0:
89,352,35165,1,0,0:0:0:0:
176,370,35361,5,2,3:2:0:0:
351,339,35753,1,2,1:2:0:0:
176,370,36146,5,2,3:2:0:0:
264,356,36342,1,10,1:2:0:0:
351,339,36538,1,8,3:0:0:0:
304,256,36734,1,8,3:0:0:0:
416,256,36930,6,0,P|418:189|442:120,1,125.999996154785,6|0,1:2|1:0,0:0:0:0:
344,106,37518,1,0,0:0:0:0:
421,52,37714,2,0,P|430:3|366:-4,1,125.999996154785,2|10,3:2|0:0,0:0:0:0:
332,25,38204,1,0,0:0:0:0:
332,25,38302,1,0,0:0:0:0:
265,92,38499,6,0,P|228:107|193:111,1,62.9999980773926,2|0,3:2|0:0,0:0:0:0:
121,154,38891,2,0,P|158:162|190:178,1,62.9999980773926,2|2,1:2|0:0,0:0:0:0:
213,260,39283,1,2,0:0:0:0:
284,321,39479,1,2,0:0:0:0:
364,271,39675,1,10,0:0:0:0:
431,337,39871,1,2,0:0:0:0:
506,279,40067,6,0,P|423:285|382:313,1,125.999996154785,2|0,3:2|1:0,0:0:0:0:
311,361,40655,1,0,0:0:0:0:
271,274,40852,2,0,P|253:326|202:303,1,125.999996154785,2|10,3:2|0:0,0:0:0:0:
201,208,41440,1,0,0:0:0:0:
131,123,41636,5,2,3:2:0:0:
71,56,41832,1,0,0:0:0:0:
157,38,42028,2,0,P|190:21|223:16,1,62.9999980773926,2|0,1:2|0:0,0:0:0:0:
306,45,42420,2,0,P|323:78|328:111,1,62.9999980773926,2|2,3:2|1:2,0:0:0:0:
354,193,42812,1,10,0:0:0:0:
285,258,43008,1,2,0:0:0:0:
288,368,43204,6,0,B|243:395|175:363|211:346|151:314|101:345,1,188.999994232178,6|0,1:2|0:0,0:0:0:0:
56,262,43989,1,2,3:2:0:0:
85,172,44185,1,0,0:0:0:0:
178,183,44381,1,10,0:0:0:0:
197,90,44577,1,0,0:0:0:0:
282,130,44773,5,2,3:2:0:0:
466,77,45165,1,2,1:2:0:0:
282,130,45557,5,2,0:0:0:0:
374,104,45753,1,8,3:0:0:0:
466,77,45950,1,8,3:0:0:0:
512,272,46342,5,2,3:2:0:0:
340,352,46734,1,2,1:2:0:0:
131,232,47126,5,2,3:2:0:0:
183,153,47322,1,2,0:0:0:0:
276,142,47518,1,10,0:0:0:0:
361,182,47714,1,2,0:0:0:0:
422,298,47910,5,6,3:0:0:0:
433,14,48891,1,8,0:0:0:0:
433,14,49087,2,0,P|429:52|438:83,1,62.9999980773926,8|0,0:0|0:0,0:0:0:0:
403,111,49381,1,2,0:0:0:0:
403,111,49479,5,6,3:2:0:0:
329,36,49675,1,0,0:0:0:0:
224,22,49871,1,2,3:2:0:0:
123,51,50067,1,0,0:0:0:0:
62,136,50263,2,0,P|76:170|111:183,1,70,2|0,3:2|0:0,0:0:0:0:
208,180,50655,1,2,1:2:0:0:
210,284,50851,1,0,0:0:0:0:
104,279,51048,5,2,3:2:0:0:
210,284,51244,1,0,0:0:0:0:
280,361,51440,1,2,3:2:0:0:
377,321,51636,1,0,0:0:0:0:
473,362,51832,1,2,3:2:0:0:
453,153,52224,5,2,1:2:0:0:
453,153,52420,1,0,0:0:0:0:
416,224,52616,2,0,P|390:225|328:239,1,70,2|0,3:2|0:0,0:0:0:0:
287,292,53008,2,0,P|286:318|272:380,2,70,2|0|2,3:2|0:0|3:2,0:0:0:0:
215,251,53597,1,0,0:0:0:0:
123,266,53793,1,2,1:2:0:0:
93,179,53989,1,0,0:0:0:0:
93,179,54185,5,2,3:2:0:0:
244,34,54577,1,2,3:2:0:0:
0,0,54969,1,2,3:2:0:0:
0,0,55361,6,0,P|14:40|16:80,1,70,6|0,1:2|0:0,0:0:0:0:
50,114,55655,1,2,0:0:0:0:
50,114,55753,5,2,3:2:0:0:
148,77,55949,1,0,0:0:0:0:
248,108,56146,1,2,3:2:0:0:
286,205,56342,1,0,0:0:0:0:
390,197,56538,6,0,P|351:186|320:185,1,70,2|0,3:2|0:0,0:0:0:0:
216,175,56931,1,2,1:2:0:0:
124,225,57127,1,0,0:0:0:0:
163,326,57322,5,2,3:2:0:0:
73,358,57518,1,2,0:0:0:0:
73,358,57910,1,0,0:0:0:0:
176,336,58106,2,0,P|181:296|189:265,1,70,2|0,3:2|0:0,0:0:0:0:
230,170,58499,2,0,P|238:204|242:240,1,70,2|0,1:2|0:0,0:0:0:0:
306,322,58891,5,2,3:2:0:0:
414,321,59087,1,0,0:0:0:0:
414,321,59283,2,0,P|428:285|430:251,1,70,2|0,3:2|0:0,0:0:0:0:
452,151,59675,5,2,3:2:0:0:
365,91,59871,1,0,0:0:0:0:
266,126,60067,1,2,1:2:0:0:
169,84,60263,1,0,0:0:0:0:
96,192,60459,5,2,3:2:0:0:
239,345,60851,1,2,3:2:0:0:
512,384,61244,5,2,3:2:0:0:
512,384,61440,2,0,P|501:325|491:216,1,140,6|0,0:0|0:0,0:0:0:0:
457,205,61930,1,2,0:0:0:0:
457,205,62028,5,2,3:2:0:0:
358,169,62224,1,0,0:0:0:0:
292,250,62420,1,10,0:0:0:0:
189,227,62616,1,0,0:0:0:0:
245,315,62812,6,0,P|242:274|227:236,1,70,2|0,3:2|0:0,0:0:0:0:
258,145,63204,1,10,0:0:0:0:
172,83,63401,1,0,0:0:0:0:
241,4,63597,5,2,3:2:0:0:
342,29,63793,1,0,0:0:0:0:
404,113,63989,1,10,0:0:0:0:
500,70,64185,1,0,0:0:0:0:
482,173,64381,1,2,3:2:0:0:
416,384,64773,2,0,P|409:355|376:321,1,70,10|0,0:0|0:0,0:0:0:0:
289,367,65165,5,2,3:2:0:0:
289,367,65361,1,0,0:0:0:0:
209,306,65557,1,10,0:0:0:0:
209,306,65753,1,0,0:0:0:0:
267,226,65950,1,2,3:2:0:0:
207,147,66146,1,0,0:0:0:0:
241,55,66342,1,10,0:0:0:0:
150,16,66538,1,0,0:0:0:0:
54,35,66734,5,2,3:2:0:0:
170,209,67126,1,10,0:0:0:0:
0,384,67518,1,2,3:2:0:0:
0,384,67910,1,10,0:0:0:0:
74,310,68106,1,2,0:0:0:0:
192,368,68302,6,0,P|230:372|267:355,1,70,6|0,3:2|0:0,0:0:0:0:
308,260,68695,2,0,P|278:273|240:276,1,70,10|0,0:0|0:0,0:0:0:0:
169,199,69087,1,2,3:2:0:0:
111,286,69283,2,0,P|121:243|138:136,1,140,2|0,0:0|0:0,0:0:0:0:
76,62,69871,5,2,3:2:0:0:
172,19,70067,1,0,0:0:0:0:
172,19,70263,2,0,P|230:8|255:5,1,70,10|0,0:0|0:0,0:0:0:0:
303,90,70655,5,2,3:2:0:0:
348,72,70851,1,0,3:0:0:0:
410,81,71048,1,10,0:0:0:0:
474,145,71244,1,2,0:0:0:0:
462,40,71440,6,0,P|444:133|436:325,1,280,2|2,0:0|3:2,3:2:0:0:
335,348,72420,1,0,0:0:0:0:
272,263,72616,2,0,P|258:260|191:277,1,70,10|2,0:0|0:0,0:0:0:0:
151,359,73008,6,0,P|147:302|124:200,3,140,2|10|2|8,3:2|0:0|3:2|0:0,0:0:0:0:
57,152,74381,1,0,0:0:0:0:
57,152,74577,2,0,P|24:153|31:120,2,70,0|0|8,3:2|0:0|0:0,0:0:0:0:
112,80,75165,6,0,P|111:47|144:54,4,70,2|0|0|2|0,0:0|0:0|0:0|0:0|0:0,0:0:0:0:
256,128,76146,6,0,B|288:104|336:135|319:149|357:193|415:162,1,175,2|8,3:2|0:0,0:0:0:0:
323,256,76734,1,2,0:0:0:0:
323,256,76832,1,2,0:0:0:0:
323,256,76930,2,0,P|313:303|295:352,1,87.5,2|0,3:2|0:0,0:0:0:0:
167,333,77322,1,10,0:0:0:0:
193,262,77518,6,0,P|124:320|40:355,2,175,2|2|0,0:0|0:0|0:0,0:0:0:0:
144,160,78499,1,2,3:2:0:0:
144,160,78695,2,0,P|95:128|41:111,1,87.5,0|10,0:0|0:0,0:0:0:0:
224,96,79087,1,2,0:0:0:0:
224,96,79185,1,2,0:0:0:0:
224,96,79283,6,0,P|307:91|402:78,1,175,2|8,3:2|0:0,0:0:0:0:
512,160,79871,2,0,P|425:147|338:143,1,175,2|0,0:0|0:0,0:0:0:0:
192,336,80459,6,0,P|232:220|442:251,1,350,10|10,0:0|0:0,0:0:0:0:
430,234,81440,1,0,0:0:0:0:
488,331,81636,5,2,3:2:0:0:
375,349,81832,1,8,0:0:0:0:
375,349,82028,1,10,0:0:0:0:
266,313,82224,1,0,0:2:0:0:
128,352,82420,5,6,3:2:0:0:
256,192,82518,12,2,83989,3:2:0:0:
27,35,84381,6,0,P|79:32|123:56,1,87.5,10|0,0:0|0:0,0:0:0:0:
138,156,84773,2,0,P|128:198|117:252,2,87.5,2|0|10,3:2|0:0|0:0,0:0:0:0:
315,313,85557,5,2,3:2:0:0:
396,364,85753,1,0,0:0:0:0:
470,305,85949,1,10,3:2:0:0:
435,216,86145,1,0,0:0:0:0:
340,221,86342,5,2,3:2:0:0:
340,221,86538,1,0,0:0:0:0:
305,132,86734,1,10,3:2:0:0:
210,137,86931,1,0,0:0:0:0:
170,243,87126,2,0,B|175:179|159:58,1,175,6|10,3:2|0:0,0:0:0:0:
160,68,87714,1,2,0:0:0:0:
160,68,87910,5,2,3:2:0:0:
95,0,88106,1,10,0:0:0:0:
240,16,88302,1,8,0:0:0:0:
240,16,88695,6,0,P|239:75|274:186,1,175,6|8,3:2|0:0,0:0:0:0:
346,271,89283,1,2,0:0:0:0:
422,186,89479,2,0,P|448:176|478:250,1,131.25,2|0,3:2|0:0,0:0:0:0:
473,269,89871,1,10,0:0:0:0:
394,345,90067,6,0,P|300:355|206:369,2,175,2|0|2,0:0|0:0|0:0,0:0:0:0:
286,307,91048,1,2,3:2:0:0:
188,248,91244,1,0,0:0:0:0:
74,256,91440,1,10,0:0:0:0:
96,144,91636,1,2,0:0:0:0:
5,213,91832,6,0,P|67:203|197:169,1,175,6|8,3:2|0:0,0:0:0:0:
301,137,92420,2,0,P|221:144|205:66,1,175,6|0,0:0|0:0,0:0:0:0:
349,23,93008,6,0,B|432:52|458:160|412:161|400:265|505:321,1,350,14|10,0:0|0:0,0:0:0:0:
494,315,93989,1,0,0:0:0:0:
386,351,94185,5,2,3:2:0:0:
292,286,94381,1,8,0:0:0:0:
185,326,94577,1,10,0:0:0:0:
91,262,94773,1,0,0:0:0:0:
0,384,94969,5,6,3:2:0:0:
256,192,95067,12,2,96538,3:2:0:0:
0,0,97125,5,0,0:0:0:0:
0,0,97321,5,2,3:2:0:0:
86,18,97518,1,2,0:0:0:0:
153,98,97714,1,10,0:0:0:0:
167,210,97910,1,2,0:0:0:0:
137,337,98106,1,2,3:2:0:0:
256,192,98204,12,10,100067,0:0:0:0:
512,0,100655,5,10,0:0:0:0:
489,111,100851,1,10,0:0:0:0:
0,0,101244,5,6,3:2:0:0:
18,85,101440,1,0,0:0:0:0:
99,102,101636,1,10,0:0:0:0:
85,188,101832,1,0,0:0:0:0:
33,256,102028,1,2,3:2:0:0:
56,340,102224,1,0,0:0:0:0:
139,366,102420,1,10,0:0:0:0:
204,308,102616,1,0,0:0:0:0:
299,342,102812,6,0,P|339:344|385:324,1,87.5,2|0,3:2|0:0,0:0:0:0:
492,255,103204,2,0,P|452:257|406:237,1,87.5,10|0,0:0|0:0,0:0:0:0:
289,183,103597,2,0,P|329:185|375:165,1,87.5,2|0,3:2|0:0,0:0:0:0:
484,98,103989,2,0,P|444:100|398:80,1,87.5,10|0,0:0|0:0,0:0:0:0:
325,11,104381,5,2,3:2:0:0:
237,0,104577,1,0,0:0:0:0:
179,65,104773,1,10,0:0:0:0:
198,152,104970,1,0,0:0:0:0:
181,238,105165,1,2,3:2:0:0:
94,253,105361,1,0,0:0:0:0:
39,186,105557,1,10,0:0:0:0:
76,107,105753,1,0,0:0:0:0:
325,24,106146,5,2,0:0:0:0:
370,108,106342,1,10,0:0:0:0:
373,204,106538,1,2,0:0:0:0:
208,368,106930,5,2,0:0:0:0:
202,271,107126,1,10,0:0:0:0:
141,196,107322,1,2,0:0:0:0:
49,148,107518,6,0,L|65:50,1,87.5,6|0,3:2|0:0,0:0:0:0:
145,12,107910,2,0,L|243:28,1,87.5,10|0,0:0|0:0,0:0:0:0:
255,119,108302,2,0,L|271:217,1,87.5,2|2,3:2|0:0,0:0:0:0:
351,255,108694,2,0,L|449:239,1,87.5,8|2,0:0|0:0,0:0:0:0:
419,145,109087,5,2,3:2:0:0:
394,25,109283,1,0,0:0:0:0:
325,148,109479,1,10,0:0:0:0:
367,29,109675,1,0,0:0:0:0:
245,105,109871,1,2,3:2:0:0:
334,33,110067,1,2,0:0:0:0:
244,13,110263,1,8,0:0:0:0:
244,13,110459,1,2,0:0:0:0:
144,64,110655,6,0,L|46:80,1,87.5,2|0,3:2|0:0,0:0:0:0:
8,160,111047,2,0,L|24:258,1,87.5,10|0,0:0|0:0,0:0:0:0:
99,323,111440,1,2,3:2:0:0:
189,291,111636,1,0,0:0:0:0:
275,334,111832,1,8,0:0:0:0:
371,334,112028,1,0,0:0:0:0:
266,356,112224,5,4,3:0:0:0:
331,263,112420,2,0,P|336:230|346:194,1,52.5000020027161,2|0,0:0|0:0,0:0:0:0:
370,143,112812,1,0,0:0:0:0:
112,160,113204,2,0,P|107:127|97:91,1,52.5000020027161,2|0,0:0|0:0,0:0:0:0:
73,40,113596,1,0,0:0:0:0:
304,64,113989,5,2,0:0:0:0:
421,102,114185,1,2,3:2:0:0:
421,225,114381,1,2,0:0:0:0:
304,264,114577,1,2,3:2:0:0:
231,164,114773,2,0,P|217:161|202:163,3,17.500000667572,2|2|2|8,0:0|0:0|0:0|0:0,0:0:0:0:
96,224,115165,5,12,0:0:0:0:
