osu file format v14

[General]
AudioFilename: audio.mp3
AudioLeadIn: 0
PreviewTime: 108250
Countdown: 0
SampleSet: Soft
StackLeniency: 0.5
Mode: 0
LetterboxInBreaks: 0
WidescreenStoryboard: 0

[Editor]
Bookmarks: 68,19924,43078,59629,76181,92733,109284,142388,158940,183767,200319,216871,233422,266526,281009,285146
DistanceSpacing: 0.8
BeatDivisor: 4
GridSize: 32
TimelineZoom: 1.6

[Metadata]
Title:REcorrection
TitleUnicode:REcorrection
Artist:Nekomata Master feat. Tokiwa Yu
ArtistUnicode:猫叉Master feat. 常盤ゆう
Creator:eiri-
Version:Remembrance
Source:pop'n music 20 fantasia
Tags:Ayyri FLUFFY POP フルフィーポップ BEMANI KONAMI Video Game Japanese Crevice
BeatmapID:2225652
BeatmapSetID:1062851

[Difficulty]
HPDrainRate:5
CircleSize:5
OverallDifficulty:8
ApproachRate:8.7
SliderMultiplier:1.6
SliderTickRate:1

[Events]
//Background and Video events
0,0,"REcorrection.jpg",0,0
//Break Periods
//Storyboard Layer 0 (Background)
//Storyboard Layer 1 (Fail)
//Storyboard Layer 2 (Pass)
//Storyboard Layer 3 (Foreground)
//Storyboard Layer 4 (Overlay)
//Storyboard Sound Samples

[TimingPoints]
68,816.326530612245,4,2,1,30,1,0
1700,909.090909090909,4,2,1,30,1,0
2154,784.313725490196,4,2,1,30,1,0
2546,829.875518672199,4,2,1,30,1,0
3375,784.313725490196,4,2,1,30,1,0
4943,606.060606060606,4,2,1,30,1,0
5549,845.070422535211,4,2,1,30,1,0
7239,705.882352941176,4,2,1,30,1,0
7944,789.473684210526,4,2,1,30,1,0
8338,895.522388059701,4,2,1,30,1,0
9233,845.070422535211,4,2,1,30,1,0
9655,750,4,2,1,30,1,0
10030,705.882352941176,4,2,1,30,1,0
10507,714.285714285714,4,2,1,30,1,0
10869,769.230769230769,4,2,1,30,1,0
11253,882.352941176471,4,2,1,30,1,0
11694,854.092526690391,4,2,1,30,1,0
12548,1000,4,2,1,30,1,0
13048,729.483282674772,4,2,1,30,1,0
13412,875.912408759124,4,2,1,30,1,0
13849,779.220779220779,4,2,1,30,1,0
14238,789.473684210526,4,2,1,30,1,0
14632,681.818181818182,4,2,1,30,1,0
15462,857.142857142857,4,2,1,30,1,0
15890,800,4,2,1,30,1,0
16290,937.5,4,2,1,30,1,0
17227,895.522388059701,4,2,1,30,1,0
18161,1764.70588235294,4,2,1,30,1,0
19924,933.125972006221,4,2,1,40,1,0
21479,736.196319018405,4,2,1,40,1,0
21847,740.740740740741,4,2,1,40,1,0
22271,759.493670886076,4,2,1,40,1,0
23030,824.175824175824,4,2,1,40,1,0
23854,854.700854700855,4,2,1,40,1,0
24281,825.309491059147,4,2,1,40,1,0
24693,638.297872340426,4,2,1,40,1,0
26452,674.157303370787,4,2,1,40,1,0
27306,769.230769230769,4,2,1,40,1,0
28847,800,4,2,1,40,1,0
29650,759.493670886076,4,2,1,40,1,0
30409,800,4,2,1,40,1,0
30809,882.352941176471,4,2,1,40,1,0
31250,875.912408759124,4,2,1,40,1,0
32125,800,4,2,1,40,1,0
32525,769.230769230769,4,2,1,40,1,0
32909,857.142857142857,4,2,1,40,1,0
33337,888.888888888889,4,2,1,40,1,0
34721,769.230769230769,4,2,1,40,1,0
35105,895.522388059701,4,2,1,40,1,0
35552,789.473684210526,4,2,1,40,1,0
36341,714.285714285714,4,2,1,40,1,0
36698,833.333333333333,4,2,1,40,1,0
37114,779.220779220779,4,2,1,40,1,0
37503,909.090909090909,4,2,1,40,1,0
37957,960,4,2,1,40,1,0
38437,975.609756097561,4,2,1,40,1,0
38924,1000,4,2,1,40,1,0
39657,666.666666666667,4,2,1,40,1,0
42424,571.428571428571,4,2,1,45,1,0
42941,487.80487804878,4,2,1,47,1,0
43078,517.241379310345,4,2,1,50,1,0
59629,-100,4,2,1,55,0,0
76181,-100,4,2,1,60,0,0
92733,-80,4,2,1,70,0,0
109284,-66.6666666666667,4,2,1,80,0,1
139802,-100,4,2,1,70,0,1
140319,-133.333333333333,4,2,1,65,0,1
141353,-80,4,2,1,60,0,1
142388,-100,4,2,1,50,0,0
158940,-133.333333333333,4,2,1,40,0,0
175491,-133.333333333333,4,2,1,20,0,0
176526,-133.333333333333,4,2,1,23,0,0
177560,-133.333333333333,4,2,1,25,0,0
178595,-133.333333333333,4,2,1,27,0,0
179629,-133.333333333333,4,2,1,30,0,0
180664,-133.333333333333,4,2,1,33,0,0
181181,-133.333333333333,4,2,1,35,0,0
181440,-133.333333333333,4,2,1,40,0,0
183509,-133.333333333333,4,2,1,50,0,0
183767,-100,4,2,1,55,0,0
200319,-100,4,2,1,60,0,0
216871,-80,4,2,1,70,0,0
233422,-66.6666666666667,4,2,1,80,0,1
263940,-100,4,2,1,70,0,1
264457,-133.333333333333,4,2,1,65,0,1
265491,-80,4,2,1,60,0,1
266526,-100,4,2,1,50,0,0
281009,-1000,4,2,1,30,0,0
281138,-1000,4,2,1,5,0,0

[Colours]
Combo1 : 205,158,158
Combo2 : 179,211,148
Combo3 : 146,206,209
Combo4 : 206,193,140

[HitObjects]
256,192,68,5,2,0:0:0:0:
256,192,1700,5,2,0:0:0:0:
256,160,2154,1,0,0:0:0:0:
256,32,2546,5,2,0:0:0:0:
256,352,3375,1,0,0:0:0:0:
256,32,4943,1,0,0:0:0:0:
256,192,5549,5,2,0:0:0:0:
256,192,7239,5,0,0:0:0:0:
256,192,7944,5,2,0:0:0:0:
320,128,8338,1,0,0:0:0:0:
192,128,8785,1,2,0:0:0:0:
256,32,9233,5,2,0:0:0:0:
384,128,9655,1,2,0:0:0:0:
128,128,10030,1,2,0:0:0:0:
256,32,10507,5,2,0:0:0:0:
256,32,10869,5,0,0:0:0:0:
256,192,11253,1,0,0:0:0:0:
256,32,11694,1,0,0:0:0:0:
256,192,12548,5,2,0:0:0:0:
256,192,13048,5,2,0:0:0:0:
352,192,13412,1,0,0:0:0:0:
224,192,13849,5,2,0:0:0:0:
384,192,14238,1,0,0:0:0:0:
192,192,14632,5,2,0:0:0:0:
320,288,15462,5,2,0:0:0:0:
256,352,15890,1,0,0:0:0:0:
192,224,16290,5,2,0:0:0:0:
352,320,17227,5,2,0:0:0:0:
96,352,18161,5,2,0:0:0:0:
256,192,19924,5,2,0:0:0:0:
256,192,21479,5,2,0:0:0:0:
256,320,21847,1,0,0:0:0:0:
256,32,22271,5,2,0:0:0:0:
256,64,23030,5,0,0:0:0:0:
256,192,23854,5,2,0:0:0:0:
256,288,24281,1,2,0:0:0:0:
256,32,24693,5,2,0:0:0:0:
256,320,26452,1,2,0:0:0:0:
256,192,27306,5,2,0:0:0:0:
256,32,28847,5,2,0:0:0:0:
256,192,29650,5,2,0:0:0:0:
256,96,30409,5,2,0:0:0:0:
256,128,30809,1,0,0:0:0:0:
256,0,31250,5,2,0:0:0:0:
256,384,32125,5,2,0:0:0:0:
256,352,32525,1,0,0:0:0:0:
256,384,32909,5,2,0:0:0:0:
256,288,33337,1,0,0:0:0:0:
256,384,33781,5,2,0:0:0:0:
256,192,34721,5,2,0:0:0:0:
256,320,35105,1,0,0:0:0:0:
256,160,35552,1,0,0:0:0:0:
256,352,36341,5,2,0:0:0:0:
192,288,36698,1,0,0:0:0:0:
320,256,37114,1,2,0:0:0:0:
256,384,37503,1,2,0:0:0:0:
352,352,37957,1,0,0:0:0:0:
192,288,38437,1,2,0:0:0:0:
320,192,38924,1,2,0:0:0:0:
256,32,39657,5,2,0:0:0:0:
92,59,42424,5,2,0:0:0:0:
101,48,42495,1,2,0:0:0:0:
112,71,42566,1,2,0:0:0:0:
172,205,42941,1,2,0:0:0:0:
181,216,43001,1,2,0:0:0:0:
192,193,43078,6,0,L|17:211,2,160,10|0|2,0:0|0:0|0:0,0:0:0:0:
277,234,44371,1,0,0:0:0:0:
320,96,44629,1,0,1:0:0:0:
380,149,44888,1,0,0:0:0:0:
380,149,45017,1,0,0:0:0:0:
380,149,45146,6,0,L|395:52,1,80,10|0,0:0|0:0,0:0:0:0:
465,190,45664,2,0,L|480:93,1,80,2|0,0:0|0:0,0:0:0:0:
277,234,46181,2,0,L|262:137,1,80,2|2,0:0|0:0,0:0:0:0:
264,154,46526,1,2,0:0:0:0:
431,232,46698,1,2,0:0:0:0:
431,232,47215,6,0,B|348:195|367:277|257:277,1,160,10|0,0:0|0:0,0:0:0:0:
287,275,48250,2,0,P|316:302|337:335,1,80,2|0,0:0|0:0,0:0:0:0:
255,375,48767,2,2,L|229:368,5,13.3333333333333,2|0|0|0|0|0,0:0|0:0|0:0|0:0|0:0|0:0,0:1:0:0:
213,361,49026,1,2,0:0:0:0:
391,317,49284,6,0,P|370:284|341:257,1,80,10|0,0:0|0:0,0:0:0:0:
304,182,49629,2,0,P|339:163|378:155,1,80,2|0,0:0|0:0,0:0:0:0:
219,110,49974,2,0,P|213:149|218:189,1,80,2|0,0:0|0:0,0:0:0:0:
310,69,50319,2,0,P|276:26|213:5,1,120,2|0,0:0|0:0,0:0:0:0:
218,189,50836,2,0,P|274:170|312:125,1,120,2|0,0:0|0:0,0:0:0:0:
112,108,51353,6,0,B|95:147|95:147|116:274,2,160,10|0|2,0:0|0:0|0:0,0:0:0:0:
173,158,52646,1,0,0:0:0:0:
205,25,52905,1,2,1:2:0:0:
279,59,53164,1,0,0:0:0:0:
279,59,53293,1,0,0:0:0:0:
279,59,53422,6,0,L|377:47,1,80,10|0,0:0|0:0,0:0:0:0:
312,125,53940,2,0,L|410:113,1,80,2|0,0:0|0:0,0:0:0:0:
302,228,54457,2,0,L|204:216,1,80,2|2,0:0|0:0,0:0:0:0:
222,218,54802,1,2,0:0:0:0:
275,306,54974,2,2,L|272:326,5,13.3333333333333,2|0|0|0|0|0,0:0|0:0|0:0|0:0|0:0|0:0,0:1:0:0:
275,306,55491,6,0,B|382:321|382:321|422:294|404:248,1,160,10|0,0:0|0:0,0:0:0:0:
409,279,56526,2,0,L|426:176,1,80,2|2,0:0|0:0,0:0:0:0:
422,200,56871,1,2,0:0:0:0:
261,220,57302,1,0,0:0:0:0:
261,220,57431,1,0,0:0:0:0:
261,220,57560,6,0,B|236:139|310:119|257:33,1,160,10|0,0:0|0:0,0:0:0:0:
261,83,58595,2,0,B|236:164|310:184|257:270,1,160,10|0,0:0|1:0,0:0:0:0:
236,309,59371,1,2,0:0:0:0:
368,370,59629,6,0,L|351:190,3,160,10|2|2|0,0:0|0:0|0:0|0:0,0:0:0:0:
379,127,61569,1,2,0:0:0:0:
379,127,61698,6,0,L|237:155,1,120,10|2,0:0|0:0,0:0:0:0:
256,161,62151,1,2,0:0:0:0:
250,171,62215,2,0,L|137:194,1,106.666666666667,2|2,0:0|0:0,0:0:0:0:
152,198,62646,1,2,0:0:0:0:
152,198,62733,2,0,L|10:226,1,120,2|0,0:0|0:0,0:0:0:0:
34,221,63250,1,2,0:0:0:0:
65,146,63509,1,2,0:0:0:0:
7,20,63767,6,0,P|70:56|179:52,3,160,10|0|0|2,0:0|0:0|0:0|0:0,0:0:0:0:
227,28,65577,1,2,0:0:0:0:
205,174,65836,5,10,0:0:0:0:
205,174,66353,1,2,0:0:0:0:
278,128,66612,1,2,0:0:0:0:
278,128,66741,1,2,0:0:0:0:
278,128,66871,1,10,0:0:0:0:
299,283,67129,1,2,0:0:0:0:
326,214,67388,1,10,0:0:0:0:
326,214,67905,6,0,B|369:192|369:192|498:226,2,160,10|2|2,0:0|0:0|0:0,0:0:0:0:
189,314,69327,1,2,0:0:0:0:
189,314,69457,2,0,P|165:255|110:230,1,120,2|2,0:0|0:0,0:0:0:0:
121,242,69909,1,2,0:0:0:0:
124,253,69974,6,0,P|175:224|194:179,1,106.666666666667,10|2,0:0|0:0,0:0:0:0:
198,188,70405,1,2,0:0:0:0:
198,188,70491,2,0,P|233:234|291:246,1,120,2|0,0:0|0:0,0:0:0:0:
355,205,71009,1,2,0:0:0:0:
332,125,71267,1,0,0:0:0:0:
150,149,71526,1,2,0:0:0:0:
173,69,71784,1,2,0:0:0:0:
385,145,72043,6,0,B|443:131|443:131|427:11,2,160,10|0|2,0:0|0:0|0:0,0:0:0:0:
385,145,73336,1,2,0:0:0:0:
368,80,73595,1,2,0:0:0:0:
495,101,73853,1,2,0:0:0:0:
460,309,74112,6,0,L|476:212,1,80,10|0,0:0|0:0,0:0:0:0:
270,267,74629,1,10,0:0:0:0:
289,180,74888,2,0,L|301:114,1,40,0|0,0:0|0:0,0:0:0:0:
322,19,75146,1,10,0:0:0:0:
381,71,75405,1,2,0:0:0:0:
381,71,75534,1,2,0:0:0:0:
381,71,75664,2,0,L|271:56,1,80,2|0,1:2|0:0,0:0:0:0:
212,120,76009,1,0,3:0:0:0:
205,109,76095,1,0,3:0:0:0:
195,127,76181,6,0,P|207:178|230:227,1,80,14|0,0:0|0:0,0:0:0:0:
126,258,76698,2,0,P|114:309|91:358,1,80,2|0,0:0|0:0,0:0:0:0:
301,304,77215,2,0,P|313:355|336:404,1,80,2|0,0:0|0:0,0:0:0:0:
377,215,77603,1,2,0:0:0:0:
377,215,77733,2,0,L|395:78,1,120,2|2,1:2|0:0,0:0:0:0:
395,104,78185,1,2,0:0:0:0:
397,111,78250,6,0,L|270:128,1,106.666666666667,10|2,0:0|0:0,0:0:0:0:
297,132,78681,1,2,0:0:0:0:
297,132,78767,2,0,L|315:-5,1,120,2|0,0:0|0:0,0:0:0:0:
312,13,79284,1,2,0:0:0:0:
219,40,79543,1,2,0:0:0:0:
127,179,79802,1,2,1:2:0:0:
38,151,80061,1,2,0:0:0:0:
192,48,80319,6,0,L|218:224,3,160,10|0|0|2,0:0|0:0|0:0|1:2,0:0:0:0:
288,160,82129,1,2,0:0:0:0:
327,345,82388,6,0,L|384:334,2,40,10|0|0,0:0|0:0|0:0,0:0:0:0:
230,310,82905,1,2,0:0:0:0:
230,310,83164,1,2,0:0:0:0:
338,320,83422,1,10,0:0:0:0:
346,281,83552,2,0,L|330:166,1,80,2|0,1:2|0:0,0:0:0:0:
335,202,83940,2,0,L|453:227,1,120,2|0,1:2|0:0,0:0:0:0:
497,236,84457,6,0,B|487:192|487:192|447:318,2,160,14|2|2,0:0|0:0|0:0,0:0:0:0:
497,236,85750,1,2,0:0:0:0:
396,95,86009,2,0,P|346:68|268:61,1,120,2|2,1:2|0:0,0:0:0:0:
277,66,86461,1,2,0:0:0:0:
269,72,86526,6,0,P|219:99|148:108,1,106.666666666667,10|2,0:0|0:0,0:0:0:0:
177,115,86957,1,2,0:0:0:0:
177,115,87043,2,0,P|127:88|56:79,1,106.666666666667,2|2,0:0|0:0,0:0:0:0:
78,78,87474,1,2,0:0:0:0:
78,78,87560,5,2,0:0:0:0:
157,51,87819,1,2,0:0:0:0:
208,209,88078,1,2,1:2:0:0:
129,236,88337,1,2,0:0:0:0:
287,182,88595,6,0,B|301:228|301:228|274:363,2,160,10|0|2,0:0|0:0|0:0,0:0:0:0:
221,232,89888,1,2,0:0:0:0:
368,304,90146,1,2,1:2:0:0:
278,332,90405,1,2,0:0:0:0:
376,383,90664,6,0,L|368:304,1,80,10|0,0:0|0:0,0:0:0:0:
348,121,91181,1,2,1:2:0:0:
348,121,92474,1,2,3:2:0:0:
356,99,92733,6,0,L|192:122,1,150,14|0,0:0|0:0,0:0:0:0:
166,128,93250,1,2,1:2:0:0:
190,40,93509,1,2,0:0:0:0:
228,236,93767,1,8,0:0:0:0:
312,216,94026,2,0,L|304:319,2,100,2|2|2,0:0|1:2|0:0,0:0:0:0:
327,67,94802,5,10,0:0:0:0:
341,78,94931,1,2,0:0:0:0:
381,62,95060,2,0,L|376:-13,1,50,2|0,0:0|0:0,0:0:0:0:
258,146,95319,1,2,1:2:0:0:
427,193,95578,1,2,0:0:0:0:
434,178,95707,1,2,0:0:0:0:
403,195,95836,5,10,0:0:0:0:
207,228,96095,1,2,0:0:0:0:
344,134,96353,1,2,1:2:0:0:
320,241,96612,1,2,0:0:0:0:
192,58,96871,6,0,B|151:40|151:40|32:73,1,150,10|0,0:0|0:0,0:0:0:0:
8,88,97388,1,2,1:2:0:0:
145,121,97646,2,0,L|133:234,1,100,2|8,0:0|0:0,0:0:0:0:
338,153,98164,1,2,0:0:0:0:
327,53,98422,1,2,1:2:0:0:
130,132,98681,6,0,L|256:145,1,100,2|10,0:0|0:0,0:0:0:0:
269,146,99069,1,2,0:0:0:0:
269,146,99198,2,0,L|263:90,1,50,2|0,0:0|0:0,0:0:0:0:
412,189,99457,2,0,L|406:245,1,50,2|0,1:2|0:0,0:0:0:0:
223,301,99715,1,2,0:0:0:0:
223,301,99845,1,2,0:0:0:0:
223,301,99974,2,0,L|97:314,1,100,10|0,0:0|0:0,0:0:0:0:
310,246,100491,5,2,1:2:0:0:
307,263,100621,1,2,0:0:0:0:
316,302,100750,1,10,0:0:0:0:
313,340,100879,1,2,3:2:0:0:
313,340,100944,1,2,3:2:0:0:
313,340,101009,6,0,P|386:294|365:215,1,150,14|0,0:0|0:0,0:0:0:0:
360,199,101526,1,2,1:2:0:0:
481,261,101784,2,0,L|496:146,1,100,2|8,0:0|0:0,0:0:0:0:
508,59,102302,1,2,0:0:0:0:
313,98,102560,1,2,1:2:0:0:
376,54,102819,6,0,P|389:106|364:154,1,100,2|10,0:0|0:0,0:0:0:0:
333,178,103207,1,2,0:0:0:0:
333,178,103336,2,0,L|252:168,1,50,2|0,0:0|0:0,0:0:0:0:
280,331,103595,2,0,L|361:321,1,50,2|0,1:2|0:0,0:0:0:0:
175,269,103853,1,2,0:0:0:0:
175,269,103983,1,2,0:0:0:0:
175,269,104112,5,10,0:0:0:0:
193,187,104371,1,2,0:0:0:0:
373,239,104629,1,2,1:2:0:0:
355,321,104888,1,2,0:0:0:0:
337,75,105146,5,14,0:0:0:0:
355,157,105405,1,0,0:0:0:0:
280,331,105664,1,2,1:2:0:0:
377,139,105922,2,0,L|372:252,1,100,2|0,0:0|1:0,0:0:0:0:
382,232,106310,1,0,0:0:0:0:
391,225,106440,2,0,L|310:234,1,50,10|10,0:0|0:0,0:0:0:0:
113,246,106698,6,0,B|214:257|179:148|304:176,2,200,14|2|2,0:0|0:0|0:0,0:0:0:0:
66,202,107991,1,0,3:0:0:0:
66,202,108056,1,0,3:0:0:0:
66,202,108121,1,0,3:0:0:0:
66,202,108185,1,0,3:0:0:0:
66,202,108250,5,2,1:2:0:0:
113,246,108379,2,0,L|106:131,1,100,2|0,1:2|0:0,0:0:0:0:
100,54,108767,1,10,0:0:0:0:
142,66,108896,1,10,0:0:0:0:
184,78,109026,2,0,L|260:63,1,50,10|0,0:0|0:0,0:0:0:0:
426,33,109284,5,14,0:0:0:0:
383,138,109543,1,2,3:2:0:0:
383,138,109672,1,2,3:2:0:0:
383,138,109802,1,2,1:2:0:0:
512,241,110060,1,2,0:0:0:0:
253,374,110319,6,0,P|253:297|330:276,1,160.000006103516,10|2,0:0|0:0,0:0:0:0:
323,284,110750,1,2,0:0:0:0:
324,295,110836,1,2,1:2:0:0:
140,280,111095,1,2,0:0:0:0:
177,97,111353,6,0,L|164:18,1,60.0000022888184,10|0,0:0|3:0,0:0:0:0:
195,191,111612,1,2,3:2:0:0:
121,156,111871,1,2,1:2:0:0:
333,169,112129,1,2,0:0:0:0:
333,169,112388,5,10,0:0:0:0:
317,243,112646,1,2,0:0:0:0:
389,304,112905,1,2,1:2:0:0:
405,230,113163,1,2,0:0:0:0:
221,376,113422,6,0,L|204:241,1,120.000004577637,10|0,0:0|0:0,0:0:0:0:
360,234,113940,1,2,1:2:0:0:
319,323,114198,1,2,0:0:0:0:
315,128,114457,2,0,L|461:158,1,120.000004577637,10|0,0:0|0:0,0:0:0:0:
197,215,114974,2,0,L|51:245,1,120.000004577637,2|0,1:2|0:0,0:0:0:0:
7,103,115491,6,0,L|31:32,2,60.0000022888184,10|0|0,0:0|3:0|3:0,0:0:0:0:
7,103,116009,1,2,1:2:0:0:
192,320,116267,1,2,0:0:0:0:
192,320,116353,1,2,0:0:0:0:
192,320,116440,1,2,0:0:0:0:
192,320,116526,6,0,P|286:272|303:172,1,180.000006866455,10|0,0:0|0:0,0:0:0:0:
208,206,117043,2,0,P|242:286|323:319,1,180.000006866455,2|0,1:2|0:0,0:0:0:0:
256,128,117560,5,14,0:0:0:0:
384,128,117819,1,2,0:0:0:0:
128,128,118078,1,2,1:2:0:0:
256,32,118336,1,2,0:0:0:0:
256,308,118595,6,0,L|256:128,1,160.000006103516,10|2,0:0|0:0,0:0:0:0:
256,136,119026,1,2,0:0:0:0:
256,120,119112,1,2,1:2:0:0:
398,145,119371,1,2,0:0:0:0:
345,1,119629,6,0,L|371:78,1,60.0000022888184,10|0,0:0|3:0,0:0:0:0:
169,0,119888,1,2,3:2:0:0:
114,145,120146,1,2,1:2:0:0:
262,70,120405,1,2,0:0:0:0:
262,70,120534,1,2,0:0:0:0:
262,70,120664,5,10,0:0:0:0:
276,142,120922,1,2,0:0:0:0:
194,126,121181,1,2,1:2:0:0:
180,54,121439,1,2,0:0:0:0:
371,102,121698,6,0,L|513:86,1,120.000004577637,10|0,0:0|0:0,0:0:0:0:
411,299,122215,1,2,1:2:0:0:
375,211,122473,1,2,0:0:0:0:
512,240,122733,1,10,0:0:0:0:
512,240,122991,1,2,0:0:0:0:
160,320,123250,2,0,L|178:164,1,120.000004577637,6|0,1:2|0:0,0:0:0:0:
309,361,123767,5,10,0:0:0:0:
309,361,123896,2,0,B|368:370|368:370|435:324,1,120.000004577637,2|0,1:2|0:0,0:0:0:0:
457,307,124284,1,2,1:2:0:0:
197,250,124543,1,2,0:0:0:0:
197,250,124672,1,2,0:0:0:0:
197,250,124802,6,0,L|57:265,1,120.000004577637,10|0,0:0|3:0,0:0:0:0:
79,272,125125,1,0,3:0:0:0:
80,281,125190,1,0,3:0:0:0:
127,185,125319,2,0,L|111:104,1,60.0000022888184,2|8,1:2|0:0,0:0:0:0:
267,100,125578,2,0,L|278:158,1,60.0000022888184,8|8,0:0|0:0,0:0:0:0:
170,0,125836,5,14,0:0:0:0:
364,59,126095,1,2,3:2:0:0:
364,59,126224,1,2,3:2:0:0:
364,59,126353,1,2,1:2:0:0:
243,106,126612,1,2,0:0:0:0:
275,334,126871,6,0,P|357:296|342:212,1,160.000006103516,10|2,0:0|0:0,0:0:0:0:
352,225,127302,1,2,0:0:0:0:
342,214,127388,1,2,1:2:0:0:
121,301,127646,1,2,0:0:0:0:
274,309,127905,6,0,L|283:228,1,60.0000022888184,10|0,0:0|3:0,0:0:0:0:
93,316,128164,1,2,3:2:0:0:
126,172,128422,1,2,1:2:0:0:
200,243,128681,1,2,0:0:0:0:
200,243,128940,5,10,0:0:0:0:
245,177,129198,1,2,0:0:0:0:
280,249,129457,1,2,1:2:0:0:
235,315,129715,1,2,0:0:0:0:
145,120,129974,6,0,P|62:133|22:155,1,120.000004577637,10|0,0:0|0:0,0:0:0:0:
211,196,130491,1,2,1:2:0:0:
177,123,130750,1,2,0:0:0:0:
382,164,131009,2,0,L|367:294,1,120.000004577637,10|0,0:0|0:0,0:0:0:0:
195,60,131526,2,0,L|210:190,1,120.000004577637,2|0,1:2|0:0,0:0:0:0:
462,74,132043,6,0,L|475:-33,2,60.0000022888184,10|0|0,0:0|3:0|3:0,0:0:0:0:
462,74,132560,1,2,1:2:0:0:
320,320,132819,1,2,0:0:0:0:
320,320,132905,1,2,0:0:0:0:
320,320,132992,1,2,0:0:0:0:
320,320,133078,6,0,P|226:272|209:172,1,180.000006866455,10|0,0:0|0:0,0:0:0:0:
304,206,133595,2,0,P|270:286|189:319,1,180.000006866455,2|0,1:2|0:0,0:0:0:0:
256,128,134112,5,14,0:0:0:0:
256,224,134371,1,2,0:0:0:0:
256,32,134629,1,2,1:2:0:0:
256,128,134888,1,2,0:0:0:0:
256,352,135146,6,0,L|443:337,1,160.000006103516,10|2,0:0|0:0,0:0:0:0:
413,349,135578,1,2,0:0:0:0:
411,359,135664,1,2,1:2:0:0:
274,240,135922,1,2,0:0:0:0:
511,194,136181,6,0,L|502:114,1,60.0000022888184,10|0,0:0|3:0,0:0:0:0:
469,273,136439,1,2,3:2:0:0:
491,52,136697,1,2,1:2:0:0:
344,85,136956,1,2,0:0:0:0:
344,85,137085,1,2,0:0:0:0:
344,85,137215,5,10,0:0:0:0:
323,160,137473,1,2,0:0:0:0:
257,92,137733,1,2,1:2:0:0:
278,17,137991,1,2,0:0:0:0:
354,289,138250,6,0,P|290:251|210:248,1,120.000004577637,14|2,0:0|0:0,0:0:0:0:
171,266,138638,1,2,0:0:0:0:
156,297,138766,1,2,1:2:0:0:
411,359,139026,1,6,0:0:0:0:
381,215,139284,1,10,0:0:0:0:
473,268,139542,1,2,0:0:0:0:
134,336,139802,6,0,L|153:186,1,120,6|0,1:2|0:0,0:0:0:0:
161,251,140319,6,0,L|150:335,2,60.0000022888184,2|0|0,0:0|0:0|0:0,0:0:0:0:
161,251,141095,1,2,0:0:0:0:
267,301,141353,6,0,B|318:313|318:313|392:284,1,100,2|0,1:2|3:0,0:0:0:0:
361,286,141677,1,0,3:0:0:0:
360,276,141741,1,0,3:0:0:0:
284,325,141870,2,0,L|292:401,1,50,10|8,0:0|0:0,0:0:0:0:
416,192,142129,2,0,L|408:116,1,50,8|8,0:0|0:0,0:0:0:0:
32,192,142387,5,14,0:0:0:0:
32,192,144457,5,2,0:0:0:0:
82,146,144974,1,0,0:0:0:0:
64,68,145491,1,2,0:0:0:0:
153,16,146009,1,0,0:0:0:0:
256,96,146526,5,2,0:0:0:0:
256,192,147560,1,0,0:0:0:0:
256,352,148595,1,2,0:0:0:0:
256,320,149112,1,0,0:0:0:0:
192,192,149629,2,0,L|96:192,2,53.3333333333333,2|2|2,0:0|0:0|0:0,0:0:0:0:
320,192,150146,2,0,L|416:192,2,53.3333333333333,2|2|2,0:0|0:0|0:0,0:0:0:0:
256,96,150664,5,10,0:0:0:0:
480,192,151698,1,0,0:0:0:0:
480,192,152733,5,2,0:0:0:0:
430,146,153250,1,0,0:0:0:0:
448,68,153767,1,2,0:0:0:0:
359,16,154285,1,0,0:0:0:0:
256,96,154802,5,2,0:0:0:0:
256,192,155836,1,0,0:0:0:0:
256,352,156871,5,10,0:0:0:0:
256,32,157905,5,10,0:0:0:0:
256,140,158681,1,2,0:0:0:0:
256,156,158810,1,2,0:0:0:0:
256,192,158940,5,10,0:0:0:0:
256,192,159974,2,0,B|325:181|325:181|374:262|374:262|464:291,2,240.000009155274,2|2|2,0:0|0:0|0:0,0:0:0:0:
256,192,163078,5,10,0:0:0:0:
256,192,164112,2,0,B|187:181|187:181|138:262|138:262|48:291,2,240.000009155274,2|2|2,0:0|0:0|0:0,0:0:0:0:
256,192,167215,5,10,0:0:0:0:
256,192,168250,2,0,B|313:156|313:156|399:198|399:198|502:190,2,240.000009155274,2|2|2,0:0|0:0|0:0,0:0:0:0:
256,192,171353,5,10,0:0:0:0:
256,192,172388,2,0,B|199:156|199:156|113:198|113:198|10:190,2,240.000009155274,2|2|2,0:0|0:0|0:0,0:0:0:0:
256,192,175491,5,2,0:0:0:0:
256,192,176009,5,2,0:0:0:0:
256,184,176526,5,2,0:0:0:0:
256,184,177044,5,2,0:0:0:0:
256,172,177560,5,2,0:0:0:0:
256,172,178078,5,2,0:0:0:0:
256,152,178595,5,2,0:0:0:0:
256,152,179113,5,2,0:0:0:0:
256,120,179629,5,2,0:0:0:0:
256,120,180147,5,2,0:0:0:0:
256,72,180664,5,2,0:0:0:0:
256,72,181182,5,2,0:0:0:0:
256,192,181440,1,2,0:0:0:0:
256,192,183509,1,2,0:0:0:0:
327,128,183767,6,0,P|255:96|185:128,3,160,10|10|10|8,0:0|0:0|0:0|1:2,0:0:0:0:
185,256,185707,1,2,0:0:0:0:
185,256,185836,6,0,L|62:273,1,120,10|2,0:0|0:0,0:0:0:0:
70,264,186289,1,2,0:0:0:0:
73,255,186353,2,0,L|56:137,1,106.666666666667,10|2,0:0|0:0,0:0:0:0:
63,156,186784,1,2,0:0:0:0:
63,156,186871,2,0,L|186:139,1,120,10|0,0:0|0:0,0:0:0:0:
181,139,187388,1,10,1:2:0:0:
149,69,187646,1,2,0:0:0:0:
312,0,187905,6,0,L|288:183,3,160,10|8|8|10,0:0|0:0|0:0|1:2,0:0:0:0:
271,254,189715,1,2,0:0:0:0:
100,187,189974,5,10,0:0:0:0:
100,187,190103,1,2,0:0:0:0:
100,187,190233,1,2,0:0:0:0:
120,91,190491,1,10,0:0:0:0:
253,236,190750,1,2,0:0:0:0:
253,236,190879,1,2,0:0:0:0:
253,236,191009,5,10,0:0:0:0:
210,321,191267,1,2,0:0:0:0:
210,321,191396,1,2,0:0:0:0:
210,321,191526,1,10,1:2:0:0:
269,250,191784,1,0,0:0:0:0:
376,352,192043,6,0,P|453:350|501:282,2,160,10|10|10,0:0|0:0|0:0,0:0:0:0:
184,240,193465,1,2,0:0:0:0:
184,240,193595,2,0,P|119:230|65:244,1,120,10|2,1:2|0:0,0:0:0:0:
62,250,194047,1,2,0:0:0:0:
56,256,194112,6,0,P|92:201|103:157,1,106.666666666667,10|2,0:0|0:0,0:0:0:0:
109,168,194543,1,2,0:0:0:0:
109,168,194629,2,0,P|93:117|46:60,1,120,10|0,0:0|0:0,0:0:0:0:
52,65,195146,1,10,0:0:0:0:
163,81,195405,1,2,0:0:0:0:
145,262,195664,1,10,1:2:0:0:
35,246,195923,1,2,0:0:0:0:
250,194,196181,6,0,L|229:376,2,160,10|8|10,0:0|0:0|0:0,0:0:0:0:
184,100,197474,1,2,0:0:0:0:
234,176,197733,1,10,1:2:0:0:
165,74,197991,1,2,0:0:0:0:
392,106,198250,6,0,L|483:91,1,80,10|0,0:0|0:0,0:0:0:0:
400,215,198767,1,10,0:0:0:0:
260,159,199026,2,0,L|269:85,1,40,0|0,0:0|0:0,0:0:0:0:
277,10,199284,1,10,0:0:0:0:
361,51,199543,1,2,0:0:0:0:
361,51,199672,1,2,0:0:0:0:
361,51,199802,2,0,L|270:36,1,80,2|0,1:2|0:0,0:0:0:0:
121,106,200146,1,0,3:0:0:0:
138,118,200233,1,0,3:0:0:0:
161,107,200319,6,0,P|131:66|91:54,1,80,14|0,0:0|0:0,0:0:0:0:
190,242,200836,2,0,P|225:224|245:190,1,80,10|0,0:0|0:0,0:0:0:0:
53,259,201353,2,0,P|68:295|101:317,1,80,10|0,0:0|0:0,0:0:0:0:
178,177,201741,1,2,0:0:0:0:
178,177,201871,2,0,L|159:25,1,120,10|2,1:2|0:0,0:0:0:0:
168,66,202323,1,2,0:0:0:0:
172,74,202388,6,0,L|301:90,1,106.666666666667,10|2,0:0|0:0,0:0:0:0:
284,93,202819,1,2,0:0:0:0:
284,93,202905,2,0,L|303:245,1,120,10|0,0:0|0:0,0:0:0:0:
298,212,203422,1,10,0:0:0:0:
385,172,203681,1,2,0:0:0:0:
358,0,203940,1,10,1:2:0:0:
271,40,204199,1,2,0:0:0:0:
501,91,204457,6,0,L|484:266,2,160,10|8|8,0:0|0:0|0:0,0:0:0:0:
380,142,205750,1,0,0:0:0:0:
271,40,206009,1,10,1:2:0:0:
357,123,206267,1,2,0:0:0:0:
168,168,206526,6,0,L|100:185,2,40,10|0|0,0:0|0:0|0:0,0:0:0:0:
268,204,207043,1,10,0:0:0:0:
268,204,207302,1,2,0:0:0:0:
195,67,207560,1,10,0:0:0:0:
157,87,207690,2,0,L|67:65,1,80,2|0,1:2|0:0,0:0:0:0:
79,68,208078,2,0,L|114:209,1,120,10|0,1:2|0:0,0:0:0:0:
124,227,208595,6,0,B|152:188|152:188|183:315,2,160,14|10|10,0:0|0:0|0:0,0:0:0:0:
50,346,209888,1,2,0:0:0:0:
17,156,210146,2,0,P|67:129|145:122,1,120,10|2,1:2|0:0,0:0:0:0:
136,127,210598,1,2,0:0:0:0:
145,133,210664,6,0,P|195:160|266:169,1,106.666666666667,10|2,0:0|0:0,0:0:0:0:
250,175,211094,1,2,0:0:0:0:
250,175,211181,2,0,P|300:148|371:139,1,106.666666666667,10|2,0:0|0:0,0:0:0:0:
349,138,211611,1,2,0:0:0:0:
349,138,211697,5,10,0:0:0:0:
270,111,211956,1,2,0:0:0:0:
219,269,212215,1,10,1:2:0:0:
298,296,212474,1,2,0:0:0:0:
330,60,212733,6,0,L|150:89,2,160,10|8|10,0:0|0:0|0:0,0:0:0:0:
287,199,214026,1,2,0:0:0:0:
226,7,214284,1,10,1:2:0:0:
360,53,214543,1,2,0:0:0:0:
273,234,214802,6,0,L|194:226,1,80,10|0,0:0|0:0,0:0:0:0:
11,206,215319,1,10,1:2:0:0:
11,206,216612,1,2,3:2:0:0:
3,184,216871,6,0,L|167:207,1,150,14|0,0:0|0:0,0:0:0:0:
193,213,217388,1,2,1:2:0:0:
161,105,217646,1,2,0:0:0:0:
66,270,217905,1,8,0:0:0:0:
118,218,218164,2,0,L|126:321,2,100,2|2|2,0:0|1:2|0:0,0:0:0:0:
107,63,218940,5,10,0:0:0:0:
133,42,219069,1,2,0:0:0:0:
164,55,219198,2,0,L|159:130,1,50,2|0,0:0|0:0,0:0:0:0:
145,298,219457,1,2,1:2:0:0:
316,207,219716,1,2,0:0:0:0:
313,190,219845,1,2,0:0:0:0:
303,220,219974,5,10,0:0:0:0:
337,361,220233,1,2,0:0:0:0:
341,174,220491,1,2,1:2:0:0:
319,384,220750,1,2,0:0:0:0:
297,120,221009,6,0,B|338:102|338:102|457:135,1,150,10|0,0:0|0:0,0:0:0:0:
481,150,221526,1,2,1:2:0:0:
244,189,221784,2,0,L|256:302,1,100,2|8,0:0|0:0,0:0:0:0:
366,191,222302,1,2,0:0:0:0:
355,91,222560,1,2,1:2:0:0:
218,165,222819,6,0,L|92:152,1,100,2|10,0:0|0:0,0:0:0:0:
79,151,223207,1,2,0:0:0:0:
79,151,223336,2,0,L|85:207,1,50,2|0,0:0|0:0,0:0:0:0:
176,93,223595,2,0,L|182:37,1,50,2|0,1:2|0:0,0:0:0:0:
168,277,223853,1,2,0:0:0:0:
168,277,223983,1,2,0:0:0:0:
168,277,224112,2,0,L|294:290,1,100,10|0,0:0|0:0,0:0:0:0:
442,264,224629,5,2,1:2:0:0:
427,254,224759,1,2,0:0:0:0:
382,278,224888,1,10,0:0:0:0:
345,266,225017,1,2,3:2:0:0:
345,266,225082,1,2,3:2:0:0:
345,266,225147,6,0,P|370:348|455:357,1,150,14|0,0:0|0:0,0:0:0:0:
468,349,225664,1,2,1:2:0:0:
411,198,225922,2,0,L|426:83,1,100,2|8,0:0|0:0,0:0:0:0:
504,188,226440,1,2,0:0:0:0:
270,217,226698,1,2,1:2:0:0:
341,174,226957,6,0,P|354:226|329:274,1,100,2|10,0:0|0:0,0:0:0:0:
298,298,227345,1,2,0:0:0:0:
298,298,227474,2,0,L|217:288,1,50,2|0,0:0|0:0,0:0:0:0:
424,354,227733,2,0,L|505:344,1,50,2|0,1:2|0:0,0:0:0:0:
374,190,227991,1,2,0:0:0:0:
374,190,228121,1,2,0:0:0:0:
374,190,228250,5,10,0:0:0:0:
356,272,228509,1,2,0:0:0:0:
176,220,228767,1,2,1:2:0:0:
194,138,229026,1,2,0:0:0:0:
427,246,229284,5,14,0:0:0:0:
305,217,229543,1,0,0:0:0:0:
116,313,229802,1,2,1:2:0:0:
334,202,230060,2,0,L|329:315,1,100,2|0,0:0|1:0,0:0:0:0:
354,329,230448,1,0,0:0:0:0:
354,329,230578,2,0,L|359:240,1,50,10|10,0:0|0:0,0:0:0:0:
368,85,230836,6,0,B|267:96|302:-13|177:15,2,200,14|2|2,0:0|0:0|0:0,0:0:0:0:
428,54,232130,1,0,3:0:0:0:
428,54,232195,1,0,3:0:0:0:
428,54,232260,1,0,3:0:0:0:
428,54,232324,1,0,3:0:0:0:
428,54,232389,5,2,1:2:0:0:
475,98,232518,2,0,L|468:-17,1,100,2|0,1:2|0:0,0:0:0:0:
338,173,232906,1,10,0:0:0:0:
380,185,233035,1,10,0:0:0:0:
422,197,233165,2,0,L|498:182,1,50,10|0,0:0|0:0,0:0:0:0:
351,14,233423,5,14,0:0:0:0:
218,91,233681,1,2,3:2:0:0:
218,91,233810,1,2,3:2:0:0:
218,91,233940,1,2,1:2:0:0:
308,158,234198,1,2,0:0:0:0:
185,318,234457,6,0,P|228:236|311:254,1,160.000006103516,10|2,0:0|0:0,0:0:0:0:
286,248,234888,1,2,0:0:0:0:
286,260,234974,1,2,1:2:0:0:
111,301,235233,1,2,0:0:0:0:
144,105,235491,6,0,L|134:179,1,60.0000022888184,10|0,0:0|3:0,0:0:0:0:
112,34,235750,1,2,3:2:0:0:
70,96,236009,1,2,1:2:0:0:
306,61,236267,1,2,0:0:0:0:
306,61,236526,5,10,0:0:0:0:
291,131,236784,1,2,0:0:0:0:
355,184,237043,1,2,1:2:0:0:
370,114,237301,1,2,0:0:0:0:
213,292,237560,6,0,L|349:276,1,120.000004577637,10|0,0:0|0:0,0:0:0:0:
173,209,238078,1,2,1:2:0:0:
253,375,238336,1,2,0:0:0:0:
265,150,238595,2,0,L|283:6,1,120.000004577637,10|0,0:0|0:0,0:0:0:0:
138,110,239112,2,0,L|156:254,1,120.000004577637,2|0,1:2|0:0,0:0:0:0:
448,96,239629,6,0,L|463:-13,2,60.0000022888184,10|0|0,0:0|3:0|3:0,0:0:0:0:
448,96,240146,1,2,1:2:0:0:
320,320,240405,1,2,0:0:0:0:
320,320,240491,1,2,0:0:0:0:
320,320,240578,1,2,0:0:0:0:
320,320,240664,6,0,P|226:272|209:172,1,180.000006866455,10|0,0:0|0:0,0:0:0:0:
304,206,241181,2,0,P|270:286|189:319,1,180.000006866455,2|0,1:2|0:0,0:0:0:0:
256,128,241698,5,14,0:0:0:0:
384,192,241957,1,2,0:0:0:0:
128,192,242215,1,2,1:2:0:0:
256,32,242474,1,2,0:0:0:0:
256,192,242733,6,0,L|256:384,1,160.000006103516,10|2,0:0|0:0,0:0:0:0:
256,364,243164,1,2,0:0:0:0:
256,376,243250,1,2,1:2:0:0:
416,320,243509,1,2,0:0:0:0:
238,153,243767,6,0,L|249:66,1,60.0000022888184,10|0,0:0|3:0,0:0:0:0:
271,265,244026,1,2,3:2:0:0:
189,227,244284,1,2,1:2:0:0:
402,193,244543,1,2,0:0:0:0:
402,193,244672,1,2,0:0:0:0:
402,193,244802,5,10,0:0:0:0:
369,259,245060,1,2,0:0:0:0:
416,320,245319,1,2,1:2:0:0:
449,254,245577,1,2,0:0:0:0:
197,331,245836,6,0,L|77:316,1,120.000004577637,10|0,0:0|0:0,0:0:0:0:
178,251,246353,1,2,1:2:0:0:
314,364,246612,1,2,0:0:0:0:
337,282,246871,1,10,0:0:0:0:
224,328,247129,1,2,0:0:0:0:
512,315,247388,2,0,L|498:160,1,120.000004577637,6|0,1:2|0:0,0:0:0:0:
310,282,247905,5,10,0:0:0:0:
310,282,248034,2,0,B|249:294|249:294|149:251,1,120.000004577637,2|0,1:2|0:0,0:0:0:0:
157,251,248422,1,2,1:2:0:0:
361,200,248681,1,2,0:0:0:0:
361,200,248810,1,2,0:0:0:0:
361,200,248940,6,0,L|348:60,1,120.000004577637,10|0,0:0|3:0,0:0:0:0:
355,88,249263,1,0,3:0:0:0:
361,96,249328,1,0,3:0:0:0:
281,140,249457,2,0,L|208:127,1,60.0000022888184,2|8,1:2|0:0,0:0:0:0:
443,238,249715,2,0,L|516:225,1,60.0000022888184,8|8,0:0|0:0,0:0:0:0:
288,352,249974,5,14,0:0:0:0:
249,163,250233,1,2,3:2:0:0:
249,163,250362,1,2,3:2:0:0:
249,163,250491,1,2,1:2:0:0:
195,271,250750,1,2,0:0:0:0:
464,203,251009,6,0,P|496:133|487:42,1,160.000006103516,10|2,0:0|0:0,0:0:0:0:
485,43,251440,1,2,0:0:0:0:
479,35,251526,1,2,1:2:0:0:
283,68,251784,1,2,0:0:0:0:
470,121,252043,6,0,L|379:137,1,60.0000022888184,10|0,0:0|3:0,0:0:0:0:
222,168,252302,1,2,3:2:0:0:
320,192,252560,1,2,1:2:0:0:
288,320,252819,1,2,0:0:0:0:
288,320,253078,5,10,0:0:0:0:
351,359,253336,1,2,0:0:0:0:
356,284,253595,1,2,1:2:0:0:
293,245,253853,1,2,0:0:0:0:
68,348,254112,6,0,L|86:185,1,120.000004577637,10|0,0:0|0:0,0:0:0:0:
199,324,254629,1,2,1:2:0:0:
4,370,254888,1,2,0:0:0:0:
90,152,255146,2,0,L|225:182,1,120.000004577637,10|0,0:0|0:0,0:0:0:0:
121,39,255664,2,0,L|-14:69,1,120.000004577637,2|0,1:2|0:0,0:0:0:0:
318,99,256181,6,0,L|306:197,2,60.0000022888184,10|0|0,0:0|3:0|3:0,0:0:0:0:
318,99,256698,1,2,1:2:0:0:
192,320,256957,1,2,0:0:0:0:
192,320,257043,1,2,0:0:0:0:
192,320,257130,1,2,0:0:0:0:
192,320,257216,6,0,P|286:272|303:172,1,180.000006866455,10|0,0:0|0:0,0:0:0:0:
208,206,257733,2,0,P|242:286|323:319,1,180.000006866455,2|0,1:2|0:0,0:0:0:0:
256,128,258250,5,14,0:0:0:0:
256,256,258509,1,2,0:0:0:0:
256,0,258767,1,2,1:2:0:0:
256,128,259026,1,2,0:0:0:0:
256,384,259284,6,0,L|448:352,1,160.000006103516,10|2,0:0|0:0,0:0:0:0:
413,367,259715,1,2,0:0:0:0:
413,377,259802,1,2,1:2:0:0:
187,268,260060,1,2,0:0:0:0:
459,204,260319,6,0,L|449:117,1,60.0000022888184,10|0,0:0|3:0,0:0:0:0:
419,325,260578,1,2,3:2:0:0:
363,250,260836,1,2,1:2:0:0:
164,280,261095,1,2,0:0:0:0:
164,280,261224,1,2,0:0:0:0:
164,280,261353,5,10,0:0:0:0:
206,216,261612,1,2,0:0:0:0:
240,285,261871,1,2,1:2:0:0:
198,349,262130,1,2,0:0:0:0:
136,99,262388,6,0,L|273:124,1,120.000004577637,14|2,0:0|0:0,0:0:0:0:
354,153,262776,1,2,0:0:0:0:
344,179,262905,1,2,1:2:0:0:
322,0,263164,1,6,0:0:0:0:
439,52,263422,1,10,0:0:0:0:
282,101,263681,1,2,0:0:0:0:
410,299,263940,6,0,L|391:149,1,120,6|0,1:2|0:0,0:0:0:0:
383,214,264457,6,0,L|394:298,2,60.0000022888184,2|0|0,0:0|0:0|0:0,0:0:0:0:
383,214,265233,1,2,0:0:0:0:
247,300,265491,6,0,B|196:312|196:312|122:283,1,100,2|0,1:2|3:0,0:0:0:0:
153,285,265815,1,0,3:0:0:0:
154,275,265879,1,0,3:0:0:0:
230,324,266008,2,0,L|222:400,1,50,10|8,0:0|0:0,0:0:0:0:
98,191,266267,2,0,L|106:115,1,50,8|8,0:0|0:0,0:0:0:0:
482,191,266525,5,14,0:0:0:0:
482,191,267560,5,0,0:0:0:0:
482,191,268595,5,2,0:0:0:0:
432,145,269112,1,0,0:0:0:0:
450,67,269629,1,2,0:0:0:0:
361,15,270147,1,0,0:0:0:0:
258,95,270664,5,2,0:0:0:0:
258,191,271698,1,0,0:0:0:0:
256,352,272733,6,0,P|301:375|362:367,1,80,2|0,0:0|0:0,0:0:0:0:
329,221,273078,2,0,P|291:235|264:263,1,80,2|0,0:0|0:0,0:0:0:0:
144,287,273422,2,0,P|121:254|115:214,1,80,2|0,0:0|0:0,0:0:0:0:
235,91,273767,2,0,L|226:210,1,120,2|0,0:0|0:0,0:0:0:0:
185,35,274284,2,0,L|307:61,1,120,2|0,0:0|0:0,0:0:0:0:
32,192,274802,5,2,0:0:0:0:
32,192,275836,5,0,0:0:0:0:
32,192,276871,5,2,0:0:0:0:
80,145,277388,1,0,0:0:0:0:
62,67,277905,1,2,0:0:0:0:
151,15,278423,1,0,0:0:0:0:
254,95,278940,5,2,0:0:0:0:
254,191,279974,5,0,0:0:0:0:
254,191,281009,6,0,B|284:232|232:269|254:313,1,128,2|0,0:0|0:0,0:0:0:0:
