osu file format v14

[General]
AudioFilename: audio.mp3
AudioLeadIn: 0
PreviewTime: 109568
Countdown: 0
SampleSet: Normal
StackLeniency: 0.7
Mode: 1
LetterboxInBreaks: 0
WidescreenStoryboard: 0

[Editor]
Bookmarks: 43490,93146,142801,184180,217284,266939
DistanceSpacing: 1.3
BeatDivisor: 4
GridSize: 32
TimelineZoom: 2.2

[Metadata]
Title:REcorrection
TitleUnicode:REcorrection
Artist:Nekomata Master feat. Tokiwa Yu
ArtistUnicode:猫叉Master feat. 常盤ゆう
Creator:_DUSK_
Version:Oni
Source:pop'n music 20 fantasia
Tags:naoyuki sato FLUFFY POP フルフィーポップ BEMANI KONAMI Video Game Japanese Crevice
BeatmapID:2092000
BeatmapSetID:999894

[Difficulty]
HPDrainRate:5
CircleSize:5
OverallDifficulty:5.3
ApproachRate:9
SliderMultiplier:1.4
SliderTickRate:1

[Events]
//Background and Video events
0,0,"sunriseboatBG.jpg",0,0
//Break Periods
2,182053,183580
//Storyboard Layer 0 (Background)
//Storyboard Layer 1 (Fail)
//Storyboard Layer 2 (Pass)
//Storyboard Layer 3 (Foreground)
//Storyboard Layer 4 (Overlay)
//Storyboard Sound Samples

[TimingPoints]
41423,517.241379310345,4,1,0,30,1,0
43491,517.241379310345,4,1,0,30,1,0
43491,-111.111111111111,4,1,0,30,0,0
60042,-105.263157894737,4,1,0,30,0,0
75042,-104.166666666667,4,1,0,30,0,0
75301,-103.092783505155,4,1,0,30,0,0
75559,-102.040816326531,4,1,0,30,0,0
75818,-101.010101010101,4,1,0,30,0,0
76077,-99.009900990099,4,1,0,30,0,0
91077,-97.0873786407767,4,1,0,30,0,0
91335,-95.2380952380952,4,1,0,30,0,0
91594,-93.4579439252336,4,1,0,30,0,0
92887,-92.5925925925926,4,1,0,30,0,0
93016,-90.9090909090909,4,1,0,30,0,0
93146,-90.0900900900901,4,1,0,60,0,0
100904,-89.2857142857143,4,1,0,60,0,0
101034,-87.719298245614,4,1,0,60,0,0
101163,-86.9565217391304,4,1,0,60,0,0
101292,-85.4700854700855,4,1,0,60,0,0
101422,-84.7457627118644,4,1,0,60,0,0
107628,-87.719298245614,4,1,0,60,0,0
108146,-92.5925925925926,4,1,0,60,0,0
108534,-90.9090909090909,4,1,0,60,0,0
108663,-90.0900900900901,4,1,0,60,0,0
108792,-89.2857142857143,4,1,0,60,0,0
109051,-88.4955752212389,4,1,0,60,0,0
109180,-87.719298245614,4,1,0,60,0,0
109439,-86.2068965517241,4,1,0,60,0,0
109568,-85.4700854700855,4,1,0,60,0,0
109697,-84.7457627118644,4,1,0,60,0,1
126249,-83.3333333333333,4,1,0,60,0,1
140215,-83.3333333333333,4,1,0,60,0,0
142930,-111.111111111111,4,1,0,60,0,0
144870,-100,4,1,0,30,0,0
160387,-102.040816326531,4,1,0,30,0,0
161422,-104.166666666667,4,1,0,30,0,0
162456,-106.382978723404,4,1,0,30,0,0
163491,-108.695652173913,4,1,0,30,0,0
167628,-111.111111111111,4,1,0,30,0,0
171766,-113.636363636364,4,1,0,30,0,0
175775,-113.636363636364,4,1,0,10,0,0
175904,-117.647058823529,4,1,0,10,0,0
176422,-119.047619047619,4,1,0,10,0,0
176939,-120.481927710843,4,1,0,10,0,0
177456,-121.951219512195,4,1,0,10,0,0
177973,-123.456790123457,4,1,0,10,0,0
178491,-125,4,1,0,10,0,0
179008,-126.582278481013,4,1,0,10,0,0
179525,-128.205128205128,4,1,0,10,0,0
180042,-129.87012987013,4,1,0,10,0,0
180559,-131.578947368421,4,1,0,10,0,0
181077,-133.333333333333,4,1,0,10,0,0
181594,-135.135135135135,4,1,0,10,0,0
181853,-133.333333333333,4,1,0,10,0,0
184180,-100,4,1,0,60,0,0
198663,-99.009900990099,4,1,0,60,0,0
198922,-98.0392156862745,4,1,0,60,0,0
199180,-97.0873786407767,4,1,0,60,0,0
199439,-96.1538461538461,4,1,0,60,0,0
199697,-95.2380952380952,4,1,0,60,0,0
200215,-94.3396226415094,4,1,0,60,0,0
215215,-92.5925925925926,4,1,0,60,0,0
215473,-90.9090909090909,4,1,0,60,0,0
215732,-89.2857142857143,4,1,0,60,0,0
215861,-93.4579439252336,4,1,0,60,0,0
217025,-92.5925925925926,4,1,0,60,0,0
217154,-90.9090909090909,4,1,0,60,0,0
217284,-90.0900900900901,4,1,0,60,0,0
225042,-89.2857142857143,4,1,0,60,0,0
225172,-87.719298245614,4,1,0,60,0,0
225301,-86.9565217391304,4,1,0,60,0,0
225430,-85.4700854700855,4,1,0,60,0,0
225559,-84.7457627118644,4,1,0,60,0,0
231766,-87.719298245614,4,1,0,60,0,0
232284,-92.5925925925926,4,1,0,60,0,0
232672,-90.9090909090909,4,1,0,60,0,0
232801,-90.0900900900901,4,1,0,60,0,0
232930,-89.2857142857143,4,1,0,60,0,0
233189,-88.4955752212389,4,1,0,60,0,0
233318,-87.719298245614,4,1,0,60,0,0
233577,-86.2068965517241,4,1,0,60,0,0
233706,-85.4700854700855,4,1,0,60,0,0
233835,-84.7457627118644,4,1,0,60,0,1
242111,-83.3333333333333,4,1,0,60,0,1
250387,-81.9672131147541,4,1,0,60,0,1
258663,-80.6451612903226,4,1,0,60,0,1
264353,-80.6451612903226,4,1,0,60,0,0
267068,-111.111111111111,4,1,0,30,0,0
281551,-111.111111111111,4,1,0,5,0,0

[HitObjects]
256,192,43491,5,8,0:0:0:0:
256,192,45559,1,0,0:0:0:0:
256,192,47111,1,8,0:0:0:0:
256,192,47628,1,0,0:0:0:0:
256,192,49439,1,0,0:0:0:0:
256,192,49697,1,8,0:0:0:0:
256,192,50387,1,8,0:0:0:0:
256,192,50732,1,8,0:0:0:0:
256,192,51249,1,8,0:0:0:0:
256,192,51766,1,0,0:0:0:0:
256,192,53835,1,0,0:0:0:0:
256,192,55387,1,8,0:0:0:0:
256,192,55904,1,0,0:0:0:0:
256,192,57973,1,0,0:0:0:0:
256,192,59008,1,8,0:0:0:0:
256,192,59525,1,0,0:0:0:0:
256,192,60042,1,4,0:0:0:0:
256,192,60559,1,8,0:0:0:0:
256,192,61077,1,8,0:0:0:0:
256,192,61982,1,0,0:0:0:0:
256,192,62111,1,8,0:0:0:0:
256,192,62499,1,8,0:0:0:0:
256,192,62628,1,0,0:0:0:0:
256,192,62973,1,0,0:0:0:0:
256,192,63146,1,8,0:0:0:0:
256,192,63404,1,0,0:0:0:0:
256,192,63663,1,8,0:0:0:0:
256,192,64180,1,0,0:0:0:0:
256,192,64697,1,8,0:0:0:0:
256,192,64956,1,8,0:0:0:0:
256,192,65215,1,0,0:0:0:0:
256,192,66249,1,8,0:0:0:0:
256,192,66766,1,0,0:0:0:0:
256,192,67025,1,8,0:0:0:0:
256,192,67284,1,0,0:0:0:0:
256,192,67542,1,8,0:0:0:0:
256,192,67672,1,0,0:0:0:0:
256,192,67801,1,8,0:0:0:0:
256,192,68318,1,0,0:0:0:0:
256,192,69741,1,0,0:0:0:0:
256,192,69870,1,8,0:0:0:0:
256,192,70258,1,8,0:0:0:0:
256,192,70387,1,0,0:0:0:0:
256,192,70732,1,0,0:0:0:0:
256,192,70904,1,8,0:0:0:0:
256,192,71163,1,0,0:0:0:0:
256,192,71422,1,8,0:0:0:0:
256,192,71939,1,8,0:0:0:0:
256,192,72197,1,8,0:0:0:0:
256,192,72456,1,0,0:0:0:0:
256,192,72973,1,0,0:0:0:0:
256,192,73491,1,8,0:0:0:0:
256,192,74525,1,0,0:0:0:0:
256,192,75042,1,0,0:0:0:0:
256,192,75301,1,8,0:0:0:0:
256,192,75559,1,0,0:0:0:0:
256,192,75818,1,8,0:0:0:0:
256,192,76077,1,0,0:0:0:0:
256,192,76594,1,12,0:0:0:0:
256,192,77111,1,0,0:0:0:0:
256,192,78016,1,0,0:0:0:0:
256,192,78146,1,8,0:0:0:0:
256,192,78534,1,8,0:0:0:0:
256,192,78663,1,0,0:0:0:0:
256,192,79008,1,0,0:0:0:0:
256,192,79180,1,8,0:0:0:0:
256,192,79697,1,8,0:0:0:0:
256,192,80215,1,0,0:0:0:0:
256,192,80473,1,8,0:0:0:0:
256,192,80732,1,0,0:0:0:0:
256,192,81249,1,0,0:0:0:0:
256,192,81766,1,8,0:0:0:0:
256,192,82284,1,8,0:0:0:0:
256,192,82542,1,8,0:0:0:0:
256,192,82801,1,0,0:0:0:0:
256,192,83835,1,0,0:0:0:0:
256,192,83965,1,8,0:0:0:0:
256,192,84353,1,0,0:0:0:0:
256,192,84870,1,12,0:0:0:0:
256,192,85904,1,0,0:0:0:0:
256,192,86163,1,8,0:0:0:0:
256,192,86422,1,8,0:0:0:0:
256,192,86809,1,8,0:0:0:0:
256,192,86939,1,0,0:0:0:0:
256,192,87284,1,0,0:0:0:0:
256,192,87456,1,8,0:0:0:0:
256,192,87801,1,8,0:0:0:0:
256,192,87973,1,0,0:0:0:0:
256,192,88491,1,8,0:0:0:0:
256,192,88749,1,8,0:0:0:0:
256,192,89008,1,0,0:0:0:0:
256,192,89525,1,0,0:0:0:0:
256,192,90042,1,8,0:0:0:0:
256,192,90559,1,8,0:0:0:0:
256,192,91077,1,0,0:0:0:0:
256,192,91335,1,0,0:0:0:0:
256,192,91594,1,8,0:0:0:0:
256,192,92887,1,8,0:0:0:0:
256,192,93016,1,8,0:0:0:0:
256,192,93146,1,0,0:0:0:0:
256,192,93534,1,8,0:0:0:0:
256,192,93663,1,0,0:0:0:0:
256,192,93922,1,8,0:0:0:0:
256,192,94180,1,0,0:0:0:0:
256,192,94697,1,8,0:0:0:0:
256,192,94956,1,0,0:0:0:0:
256,192,95215,1,0,0:0:0:0:
256,192,95473,1,8,0:0:0:0:
256,192,95732,1,0,0:0:0:0:
256,192,95991,1,0,0:0:0:0:
256,192,96120,1,0,0:0:0:0:
256,192,96249,1,0,0:0:0:0:
256,192,96508,1,8,0:0:0:0:
256,192,96766,1,0,0:0:0:0:
256,192,97284,1,8,0:0:0:0:
256,192,97801,1,8,0:0:0:0:
256,192,98059,1,8,0:0:0:0:
256,192,98318,1,0,0:0:0:0:
256,192,98577,1,8,0:0:0:0:
256,192,98835,1,8,0:0:0:0:
256,192,99094,1,8,0:0:0:0:
256,192,99353,1,0,0:0:0:0:
256,192,99611,1,8,0:0:0:0:
256,192,99741,1,8,0:0:0:0:
256,192,99870,1,0,0:0:0:0:
256,192,100128,1,8,0:0:0:0:
256,192,100387,1,0,0:0:0:0:
256,192,100646,1,0,0:0:0:0:
256,192,100904,1,8,0:0:0:0:
256,192,101034,1,8,0:0:0:0:
256,192,101163,1,0,0:0:0:0:
256,192,101292,1,0,0:0:0:0:
256,192,101422,1,0,0:0:0:0:
256,192,101809,1,8,0:0:0:0:
256,192,101939,1,0,0:0:0:0:
256,192,102197,1,8,0:0:0:0:
256,192,102456,1,0,0:0:0:0:
256,192,102973,1,8,0:0:0:0:
256,192,103232,1,0,0:0:0:0:
256,192,103491,1,8,0:0:0:0:
256,192,103620,1,8,0:0:0:0:
256,192,103749,1,0,0:0:0:0:
256,192,104008,1,8,0:0:0:0:
256,192,104266,1,0,0:0:0:0:
256,192,104525,1,8,0:0:0:0:
256,192,104784,1,8,0:0:0:0:
256,192,105042,1,8,0:0:0:0:
256,192,105301,1,0,0:0:0:0:
256,192,105559,1,12,0:0:0:0:
256,192,106077,1,0,0:0:0:0:
256,192,106335,1,8,0:0:0:0:
256,192,106594,1,0,0:0:0:0:
256,192,106982,1,0,0:0:0:0:
256,192,107111,1,8,0:0:0:0:
256,192,107628,1,8,0:0:0:0:
256,192,108146,1,8,0:0:0:0:
256,192,108404,1,0,0:0:0:0:
256,192,108534,1,0,0:0:0:0:
256,192,108663,1,8,0:0:0:0:
256,192,108792,1,8,0:0:0:0:
256,192,109051,1,8,0:0:0:0:
256,192,109180,1,0,0:0:0:0:
256,192,109439,1,8,0:0:0:0:
256,192,109568,1,8,0:0:0:0:
256,192,109697,1,0,0:0:0:0:
256,192,109956,1,8,0:0:0:0:
256,192,110215,1,8,0:0:0:0:
256,192,110473,1,8,0:0:0:0:
256,192,110732,1,0,0:0:0:0:
256,192,111077,1,0,0:0:0:0:
256,192,111249,1,8,0:0:0:0:
256,192,111508,1,8,0:0:0:0:
256,192,111766,1,0,0:0:0:0:
256,192,112025,1,0,0:0:0:0:
256,192,112284,1,8,0:0:0:0:
256,192,112413,1,0,0:0:0:0:
256,192,112542,1,8,0:0:0:0:
256,192,112801,1,8,0:0:0:0:
256,192,113059,1,8,0:0:0:0:
256,192,113318,1,0,0:0:0:0:
256,192,113835,1,8,0:0:0:0:
256,192,114353,1,8,0:0:0:0:
256,192,114611,1,8,0:0:0:0:
256,192,114870,1,0,0:0:0:0:
256,192,115128,1,0,0:0:0:0:
256,192,115387,1,8,0:0:0:0:
256,192,115646,1,0,0:0:0:0:
256,192,115904,1,8,0:0:0:0:
256,192,116422,1,8,0:0:0:0:
256,192,116680,1,8,0:0:0:0:
256,192,116809,1,8,0:0:0:0:
256,192,116939,1,0,0:0:0:0:
256,192,117197,1,0,0:0:0:0:
256,192,117327,1,0,0:0:0:0:
256,192,117456,1,0,0:0:0:0:
256,192,117715,1,0,0:0:0:0:
256,192,117973,1,12,0:0:0:0:
256,192,118361,1,8,0:0:0:0:
256,192,118491,1,0,0:0:0:0:
256,192,118749,1,8,0:0:0:0:
256,192,119008,1,0,0:0:0:0:
256,192,119353,1,0,0:0:0:0:
256,192,119525,1,8,0:0:0:0:
256,192,119784,1,8,0:0:0:0:
256,192,120042,1,0,0:0:0:0:
256,192,120301,1,8,0:0:0:0:
256,192,120559,1,8,0:0:0:0:
256,192,120818,1,8,0:0:0:0:
256,192,120947,1,8,0:0:0:0:
256,192,121077,1,0,0:0:0:0:
256,192,121335,1,0,0:0:0:0:
256,192,121594,1,8,0:0:0:0:
256,192,122111,1,8,0:0:0:0:
256,192,122628,1,8,0:0:0:0:
256,192,122887,1,0,0:0:0:0:
256,192,123146,1,8,0:0:0:0:
256,192,123404,1,8,0:0:0:0:
256,192,123663,1,0,0:0:0:0:
256,192,124180,1,8,0:0:0:0:
256,192,124439,1,8,0:0:0:0:
256,192,124568,1,8,0:0:0:0:
256,192,124697,1,0,0:0:0:0:
256,192,124956,1,0,0:0:0:0:
256,192,125215,1,8,0:0:0:0:
256,192,125473,1,0,0:0:0:0:
256,192,125732,1,8,0:0:0:0:
256,192,125861,1,0,0:0:0:0:
256,192,125991,1,0,0:0:0:0:
256,192,126249,1,12,0:0:0:0:
256,192,126637,1,0,0:0:0:0:
256,192,126766,1,8,0:0:0:0:
256,192,127025,1,8,0:0:0:0:
256,192,127284,1,0,0:0:0:0:
256,192,127628,1,0,0:0:0:0:
256,192,127801,1,8,0:0:0:0:
256,192,128059,1,8,0:0:0:0:
256,192,128318,1,0,0:0:0:0:
256,192,128835,1,0,0:0:0:0:
256,192,129094,1,0,0:0:0:0:
256,192,129353,1,8,0:0:0:0:
256,192,129611,1,8,0:0:0:0:
256,192,129870,1,0,0:0:0:0:
256,192,130128,1,0,0:0:0:0:
256,192,130387,1,8,0:0:0:0:
256,192,130904,1,8,0:0:0:0:
256,192,131163,1,0,0:0:0:0:
256,192,131422,1,0,0:0:0:0:
256,192,131680,1,8,0:0:0:0:
256,192,131939,1,8,0:0:0:0:
256,192,132197,1,8,0:0:0:0:
256,192,132456,1,0,0:0:0:0:
256,192,132973,1,8,0:0:0:0:
256,192,133232,1,0,0:0:0:0:
256,192,133361,1,8,0:0:0:0:
256,192,133491,1,0,0:0:0:0:
256,192,133749,1,0,0:0:0:0:
256,192,133878,1,0,0:0:0:0:
256,192,134008,1,0,0:0:0:0:
256,192,134266,1,0,0:0:0:0:
256,192,134525,1,12,0:0:0:0:
256,192,134913,1,0,0:0:0:0:
256,192,135042,1,8,0:0:0:0:
256,192,135301,1,0,0:0:0:0:
256,192,135559,1,8,0:0:0:0:
256,192,135904,1,8,0:0:0:0:
256,192,136077,1,0,0:0:0:0:
256,192,136335,1,8,0:0:0:0:
256,192,136594,1,0,0:0:0:0:
256,192,136853,1,8,0:0:0:0:
256,192,137111,1,0,0:0:0:0:
256,192,137370,1,8,0:0:0:0:
256,192,137499,1,8,0:0:0:0:
256,192,137628,1,0,0:0:0:0:
256,192,137887,1,8,0:0:0:0:
256,192,138146,1,0,0:0:0:0:
256,192,138663,1,12,0:0:0:0:
256,192,139180,1,8,0:0:0:0:
256,192,139439,1,8,0:0:0:0:
256,192,139697,1,0,0:0:0:0:
256,192,139956,1,0,0:0:0:0:
256,192,140215,1,12,0:0:0:0:
256,192,140732,1,8,0:0:0:0:
256,192,140991,1,8,0:0:0:0:
256,192,141120,1,8,0:0:0:0:
256,192,141249,1,0,0:0:0:0:
256,192,141508,1,0,0:0:0:0:
256,192,141766,1,8,0:0:0:0:
256,192,142025,1,0,0:0:0:0:
256,192,142154,1,0,0:0:0:0:
256,192,142284,1,8,0:0:0:0:
256,192,142542,1,8,0:0:0:0:
256,192,142801,1,12,0:0:0:0:
256,192,144870,1,0,0:0:0:0:
256,192,146422,1,8,0:0:0:0:
256,192,146939,1,0,0:0:0:0:
256,192,149008,1,0,0:0:0:0:
256,192,150042,1,0,0:0:0:0:
256,192,151077,1,0,0:0:0:0:
256,192,153146,1,0,0:0:0:0:
256,192,154697,1,8,0:0:0:0:
256,192,155215,1,0,0:0:0:0:
256,192,157284,1,8,0:0:0:0:
256,192,158318,1,8,0:0:0:0:
256,192,159353,1,0,0:0:0:0:
256,192,160387,1,8,0:0:0:0:
256,192,161422,1,8,0:0:0:0:
256,192,162456,1,8,0:0:0:0:
256,192,163491,1,0,0:0:0:0:
256,192,164525,1,8,0:0:0:0:
256,192,165559,1,0,0:0:0:0:
256,192,166594,1,0,0:0:0:0:
256,192,167628,1,8,0:0:0:0:
256,192,168663,1,8,0:0:0:0:
256,192,169697,1,0,0:0:0:0:
256,192,170732,1,0,0:0:0:0:
256,192,171766,1,8,0:0:0:0:
256,192,172801,1,8,0:0:0:0:
256,192,173835,1,0,0:0:0:0:
256,192,174870,1,0,0:0:0:0:
256,192,175904,1,8,0:0:0:0:
256,192,176422,1,8,0:0:0:0:
256,192,176939,1,8,0:0:0:0:
256,192,177456,1,8,0:0:0:0:
256,192,177973,1,8,0:0:0:0:
256,192,178491,1,8,0:0:0:0:
256,192,179008,1,8,0:0:0:0:
256,192,179525,1,8,0:0:0:0:
256,192,180042,1,8,0:0:0:0:
256,192,180559,1,8,0:0:0:0:
256,192,181077,1,8,0:0:0:0:
256,192,181594,1,8,0:0:0:0:
256,192,181853,1,8,0:0:0:0:
256,192,184180,5,4,0:0:0:0:
256,192,184697,1,0,0:0:0:0:
256,192,185215,1,0,0:0:0:0:
256,192,186120,1,0,0:0:0:0:
256,192,186249,1,8,0:0:0:0:
256,192,186637,1,8,0:0:0:0:
256,192,186766,1,0,0:0:0:0:
256,192,187284,1,0,0:0:0:0:
256,192,187801,1,0,0:0:0:0:
256,192,188059,1,8,0:0:0:0:
256,192,188318,1,0,0:0:0:0:
256,192,188835,1,0,0:0:0:0:
256,192,189353,1,0,0:0:0:0:
256,192,190387,1,0,0:0:0:0:
256,192,191422,1,0,0:0:0:0:
256,192,191939,1,0,0:0:0:0:
256,192,192197,1,8,0:0:0:0:
256,192,192456,1,0,0:0:0:0:
256,192,192973,1,0,0:0:0:0:
256,192,193491,1,0,0:0:0:0:
256,192,193878,1,0,0:0:0:0:
256,192,194008,1,8,0:0:0:0:
256,192,194396,1,8,0:0:0:0:
256,192,194525,1,0,0:0:0:0:
256,192,195042,1,0,0:0:0:0:
256,192,195559,1,0,0:0:0:0:
256,192,196077,1,0,0:0:0:0:
256,192,196335,1,8,0:0:0:0:
256,192,196594,1,0,0:0:0:0:
256,192,197111,1,0,0:0:0:0:
256,192,197628,1,0,0:0:0:0:
256,192,198663,1,0,0:0:0:0:
256,192,198922,1,0,0:0:0:0:
256,192,199180,1,0,0:0:0:0:
256,192,199439,1,8,0:0:0:0:
256,192,199697,1,0,0:0:0:0:
256,192,200215,1,0,0:0:0:0:
256,192,200732,1,12,0:0:0:0:
256,192,201249,1,0,0:0:0:0:
256,192,201766,1,0,0:0:0:0:
256,192,202154,1,0,0:0:0:0:
256,192,202284,1,8,0:0:0:0:
256,192,202672,1,8,0:0:0:0:
256,192,202801,1,0,0:0:0:0:
256,192,203146,1,0,0:0:0:0:
256,192,203318,1,8,0:0:0:0:
256,192,203835,1,0,0:0:0:0:
256,192,204353,1,0,0:0:0:0:
256,192,204611,1,8,0:0:0:0:
256,192,204870,1,0,0:0:0:0:
256,192,205387,1,0,0:0:0:0:
256,192,205904,1,0,0:0:0:0:
256,192,206422,1,8,0:0:0:0:
256,192,206680,1,8,0:0:0:0:
256,192,206939,1,0,0:0:0:0:
256,192,207456,1,0,0:0:0:0:
256,192,207715,1,0,0:0:0:0:
256,192,207973,1,0,0:0:0:0:
256,192,208232,1,8,0:0:0:0:
256,192,208361,1,0,0:0:0:0:
256,192,208491,1,8,0:0:0:0:
256,192,208749,1,0,0:0:0:0:
256,192,209008,1,12,0:0:0:0:
256,192,209525,1,0,0:0:0:0:
256,192,210042,1,0,0:0:0:0:
256,192,210301,1,8,0:0:0:0:
256,192,210559,1,8,0:0:0:0:
256,192,210947,1,8,0:0:0:0:
256,192,211077,1,0,0:0:0:0:
256,192,211422,1,0,0:0:0:0:
256,192,211594,1,8,0:0:0:0:
256,192,211939,1,8,0:0:0:0:
256,192,212111,1,0,0:0:0:0:
256,192,212628,1,8,0:0:0:0:
256,192,212887,1,8,0:0:0:0:
256,192,213146,1,0,0:0:0:0:
256,192,213663,1,0,0:0:0:0:
256,192,214180,1,0,0:0:0:0:
256,192,214439,1,0,0:0:0:0:
256,192,214697,1,8,0:0:0:0:
256,192,215215,1,0,0:0:0:0:
256,192,215473,1,0,0:0:0:0:
256,192,215732,1,8,0:0:0:0:
256,192,217025,1,8,0:0:0:0:
256,192,217154,1,8,0:0:0:0:
256,192,217284,1,0,0:0:0:0:
256,192,217672,1,8,0:0:0:0:
256,192,217801,1,0,0:0:0:0:
256,192,218059,1,8,0:0:0:0:
256,192,218318,1,0,0:0:0:0:
256,192,218835,1,8,0:0:0:0:
256,192,219094,1,0,0:0:0:0:
256,192,219353,1,0,0:0:0:0:
256,192,219611,1,8,0:0:0:0:
256,192,219870,1,0,0:0:0:0:
256,192,220128,1,0,0:0:0:0:
256,192,220258,1,0,0:0:0:0:
256,192,220387,1,0,0:0:0:0:
256,192,220646,1,8,0:0:0:0:
256,192,220904,1,0,0:0:0:0:
256,192,221422,1,8,0:0:0:0:
256,192,221939,1,8,0:0:0:0:
256,192,222197,1,8,0:0:0:0:
256,192,222456,1,0,0:0:0:0:
256,192,222715,1,8,0:0:0:0:
256,192,222973,1,8,0:0:0:0:
256,192,223232,1,8,0:0:0:0:
256,192,223491,1,0,0:0:0:0:
256,192,223749,1,8,0:0:0:0:
256,192,223878,1,8,0:0:0:0:
256,192,224008,1,0,0:0:0:0:
256,192,224266,1,8,0:0:0:0:
256,192,224525,1,0,0:0:0:0:
256,192,224784,1,0,0:0:0:0:
256,192,225042,1,8,0:0:0:0:
256,192,225172,1,8,0:0:0:0:
256,192,225301,1,0,0:0:0:0:
256,192,225430,1,0,0:0:0:0:
256,192,225559,1,0,0:0:0:0:
256,192,225947,1,8,0:0:0:0:
256,192,226077,1,0,0:0:0:0:
256,192,226335,1,8,0:0:0:0:
256,192,226594,1,0,0:0:0:0:
256,192,227111,1,8,0:0:0:0:
256,192,227370,1,0,0:0:0:0:
256,192,227628,1,8,0:0:0:0:
256,192,227758,1,8,0:0:0:0:
256,192,227887,1,0,0:0:0:0:
256,192,228146,1,8,0:0:0:0:
256,192,228404,1,0,0:0:0:0:
256,192,228663,1,8,0:0:0:0:
256,192,228922,1,8,0:0:0:0:
256,192,229180,1,8,0:0:0:0:
256,192,229439,1,0,0:0:0:0:
256,192,229697,1,12,0:0:0:0:
256,192,230215,1,0,0:0:0:0:
256,192,230473,1,8,0:0:0:0:
256,192,230732,1,0,0:0:0:0:
256,192,231120,1,0,0:0:0:0:
256,192,231249,1,8,0:0:0:0:
256,192,231766,1,8,0:0:0:0:
256,192,232284,1,8,0:0:0:0:
256,192,232542,1,0,0:0:0:0:
256,192,232672,1,0,0:0:0:0:
256,192,232801,1,8,0:0:0:0:
256,192,232930,1,8,0:0:0:0:
256,192,233189,1,8,0:0:0:0:
256,192,233318,1,0,0:0:0:0:
256,192,233577,1,8,0:0:0:0:
256,192,233706,1,8,0:0:0:0:
256,192,233835,1,0,0:0:0:0:
256,192,234094,1,8,0:0:0:0:
256,192,234353,1,8,0:0:0:0:
256,192,234611,1,8,0:0:0:0:
256,192,234870,1,0,0:0:0:0:
256,192,235215,1,0,0:0:0:0:
256,192,235387,1,8,0:0:0:0:
256,192,235646,1,8,0:0:0:0:
256,192,235904,1,0,0:0:0:0:
256,192,236163,1,0,0:0:0:0:
256,192,236422,1,8,0:0:0:0:
256,192,236551,1,0,0:0:0:0:
256,192,236680,1,8,0:0:0:0:
256,192,236939,1,8,0:0:0:0:
256,192,237197,1,8,0:0:0:0:
256,192,237456,1,0,0:0:0:0:
256,192,237973,1,8,0:0:0:0:
256,192,238491,1,8,0:0:0:0:
256,192,238749,1,8,0:0:0:0:
256,192,239008,1,8,0:0:0:0:
256,192,239266,1,0,0:0:0:0:
256,192,239525,1,8,0:0:0:0:
256,192,239784,1,0,0:0:0:0:
256,192,240042,1,8,0:0:0:0:
256,192,240559,1,8,0:0:0:0:
256,192,240818,1,8,0:0:0:0:
256,192,240947,1,8,0:0:0:0:
256,192,241077,1,0,0:0:0:0:
256,192,241335,1,0,0:0:0:0:
256,192,241465,1,0,0:0:0:0:
256,192,241594,1,0,0:0:0:0:
256,192,241853,1,0,0:0:0:0:
256,192,242111,1,12,0:0:0:0:
256,192,242499,1,8,0:0:0:0:
256,192,242628,1,0,0:0:0:0:
256,192,242887,1,8,0:0:0:0:
256,192,243146,1,0,0:0:0:0:
256,192,243491,1,0,0:0:0:0:
256,192,243663,1,8,0:0:0:0:
256,192,243922,1,8,0:0:0:0:
256,192,244180,1,0,0:0:0:0:
256,192,244439,1,8,0:0:0:0:
256,192,244697,1,8,0:0:0:0:
256,192,244956,1,8,0:0:0:0:
256,192,245085,1,8,0:0:0:0:
256,192,245215,1,0,0:0:0:0:
256,192,245473,1,0,0:0:0:0:
256,192,245732,1,8,0:0:0:0:
256,192,246249,1,8,0:0:0:0:
256,192,246766,1,8,0:0:0:0:
256,192,247025,1,0,0:0:0:0:
256,192,247284,1,8,0:0:0:0:
256,192,247542,1,8,0:0:0:0:
256,192,247801,1,0,0:0:0:0:
256,192,248318,1,8,0:0:0:0:
256,192,248577,1,8,0:0:0:0:
256,192,248706,1,8,0:0:0:0:
256,192,248835,1,0,0:0:0:0:
256,192,249094,1,0,0:0:0:0:
256,192,249353,1,8,0:0:0:0:
256,192,249611,1,0,0:0:0:0:
256,192,249870,5,8,0:0:0:0:
256,192,249999,1,0,0:0:0:0:
256,192,250128,1,0,0:0:0:0:
256,192,250387,1,12,0:0:0:0:
256,192,250775,1,0,0:0:0:0:
256,192,250904,1,8,0:0:0:0:
256,192,251163,1,8,0:0:0:0:
256,192,251422,1,0,0:0:0:0:
256,192,251766,1,0,0:0:0:0:
256,192,251939,1,8,0:0:0:0:
256,192,252197,1,8,0:0:0:0:
256,192,252456,1,0,0:0:0:0:
256,192,252973,1,0,0:0:0:0:
256,192,253232,1,8,0:0:0:0:
256,192,253491,1,8,0:0:0:0:
256,192,253749,1,8,0:0:0:0:
256,192,254008,1,0,0:0:0:0:
256,192,254266,1,8,0:0:0:0:
256,192,254525,1,0,0:0:0:0:
256,192,255042,1,8,0:0:0:0:
256,192,255301,1,8,0:0:0:0:
256,192,255559,1,0,0:0:0:0:
256,192,255818,1,0,0:0:0:0:
256,192,256077,1,8,0:0:0:0:
256,192,256335,1,0,0:0:0:0:
256,192,256594,1,0,0:0:0:0:
256,192,257111,1,8,0:0:0:0:
256,192,257370,1,8,0:0:0:0:
256,192,257499,1,8,0:0:0:0:
256,192,257628,1,0,0:0:0:0:
256,192,257887,1,8,0:0:0:0:
256,192,258016,1,0,0:0:0:0:
256,192,258146,1,0,0:0:0:0:
256,192,258404,1,0,0:0:0:0:
256,192,258663,1,12,0:0:0:0:
256,192,259051,1,0,0:0:0:0:
256,192,259180,1,8,0:0:0:0:
256,192,259439,1,0,0:0:0:0:
256,192,259697,1,8,0:0:0:0:
256,192,260042,1,8,0:0:0:0:
256,192,260215,1,0,0:0:0:0:
256,192,260473,1,8,0:0:0:0:
256,192,260603,1,8,0:0:0:0:
256,192,260732,1,0,0:0:0:0:
256,192,260991,1,8,0:0:0:0:
256,192,261249,1,0,0:0:0:0:
256,192,261508,1,8,0:0:0:0:
256,192,261766,1,0,0:0:0:0:
256,192,262025,1,0,0:0:0:0:
256,192,262284,1,8,0:0:0:0:
256,192,262801,1,12,0:0:0:0:
256,192,263318,1,8,0:0:0:0:
256,192,263577,1,8,0:0:0:0:
256,192,263835,1,0,0:0:0:0:
256,192,264094,1,0,0:0:0:0:
256,192,264353,1,12,0:0:0:0:
256,192,264870,1,8,0:0:0:0:
256,192,265128,1,8,0:0:0:0:
256,192,265258,1,8,0:0:0:0:
256,192,265387,1,0,0:0:0:0:
256,192,265646,1,0,0:0:0:0:
256,192,265904,1,8,0:0:0:0:
256,192,266163,1,0,0:0:0:0:
256,192,266292,1,0,0:0:0:0:
256,192,266422,5,8,0:0:0:0:
256,192,266680,1,8,0:0:0:0:
256,192,266939,1,12,0:0:0:0:
256,192,269008,5,0,0:0:0:0:
256,192,270559,1,8,0:0:0:0:
256,192,271077,1,0,0:0:0:0:
256,192,272887,1,0,0:0:0:0:
256,192,273146,1,8,0:0:0:0:
256,192,273835,1,8,0:0:0:0:
256,192,274180,1,8,0:0:0:0:
256,192,274697,1,8,0:0:0:0:
256,192,275215,1,0,0:0:0:0:
256,192,277284,1,0,0:0:0:0:
256,192,278835,1,8,0:0:0:0:
256,192,279353,1,0,0:0:0:0:
256,192,281422,1,0,0:0:0:0:
256,192,281680,12,0,285559,0:0:0:0:
