osu file format v14

[General]
AudioFilename: audio.mp3
AudioLeadIn: 0
PreviewTime: 42742
Countdown: 0
SampleSet: Normal
StackLeniency: 0.7
Mode: 1
LetterboxInBreaks: 0
WidescreenStoryboard: 0

[Editor]
DistanceSpacing: 1.3
BeatDivisor: 4
GridSize: 32
TimelineZoom: 2.2

[Metadata]
Title:REcorrection (Cut Ver.)
TitleUnicode:REcorrection (Cut Ver.)
Artist:Nekomata Master feat. Tokiwa Yu
ArtistUnicode:猫叉Master feat. 常盤ゆう
Creator:Skull Kid
Version:Muzukashii
Source:pop'n music 20 fantasia
Tags:naoyuki sato FLUFFY POP フルフィーポップ BEMANI KONAMI Video Game Japanese Crevice version
BeatmapID:2664309
BeatmapSetID:1056704

[Difficulty]
HPDrainRate:7
CircleSize:4
OverallDifficulty:4
ApproachRate:9
SliderMultiplier:1.4
SliderTickRate:1

[Events]
//Background and Video events
0,0,"BG.jpg",0,0
//Break Periods
//Storyboard Layer 0 (Background)
//Storyboard Layer 1 (Fail)
//Storyboard Layer 2 (Pass)
//Storyboard Layer 3 (Foreground)
//Storyboard Layer 4 (Overlay)
//Storyboard Sound Samples

[TimingPoints]
41411,517.241379310345,4,1,0,20,1,8
41411,-125,4,1,0,20,0,0
43479,517.241379310345,4,1,0,20,1,0
43479,-125,4,1,0,20,0,0
59772,-111.111111111111,4,1,0,30,0,0
76323,-100,4,1,0,40,0,0
92875,-83.3333333333333,4,1,0,50,0,0
107358,-90.9090909090909,4,1,0,40,0,0
109427,-90.9090909090909,4,1,0,55,0,0
109685,-76.9230769230769,4,1,0,55,0,1
140461,-76.9230769230769,4,1,0,40,0,1
140720,-86.9565217391304,4,1,0,40,0,0

[HitObjects]
256,192,43479,5,0,0:0:0:0:
256,192,44513,1,8,0:0:0:0:
256,192,45547,1,0,0:0:0:0:
256,192,45806,1,8,0:0:0:0:
256,192,46582,1,0,0:0:0:0:
256,192,46841,1,8,0:0:0:0:
256,192,47099,1,0,0:0:0:0:
256,192,47616,1,0,0:0:0:0:
256,192,48651,1,8,0:0:0:0:
256,192,49427,1,0,0:0:0:0:
256,192,49685,1,8,0:0:0:0:
256,192,50030,1,0,0:0:0:0:
256,192,50375,1,0,0:0:0:0:
256,192,50720,1,8,0:0:0:0:
256,192,51237,1,8,0:0:0:0:
256,192,51754,1,0,0:0:0:0:
256,192,52789,1,8,0:0:0:0:
256,192,53823,1,0,0:0:0:0:
256,192,54082,1,8,0:0:0:0:
256,192,54858,1,0,0:0:0:0:
256,192,55116,1,8,0:0:0:0:
256,192,55375,1,0,0:0:0:0:
256,192,55892,1,0,0:0:0:0:
256,192,56151,1,8,0:0:0:0:
256,192,56927,1,0,0:0:0:0:
256,192,57185,1,8,0:0:0:0:
256,192,57961,1,0,0:0:0:0:
256,192,60030,1,4,0:0:0:0:
256,192,60547,1,0,0:0:0:0:
256,192,61065,1,8,0:0:0:0:
256,192,61970,1,0,0:0:0:0:
256,192,62099,1,8,0:0:0:0:
256,192,62616,1,8,0:0:0:0:
256,192,63134,1,0,0:0:0:0:
256,192,63392,1,0,0:0:0:0:
256,192,63651,1,8,0:0:0:0:
256,192,64168,1,0,0:0:0:0:
256,192,65203,1,8,0:0:0:0:
256,192,65720,1,0,0:0:0:0:
256,192,65979,1,8,0:0:0:0:
256,192,66237,1,0,0:0:0:0:
256,192,66754,1,8,0:0:0:0:
256,192,67013,1,8,0:0:0:0:
256,192,67272,1,0,0:0:0:0:
256,192,67789,1,8,0:0:0:0:
256,192,68306,1,0,0:0:0:0:
256,192,69341,1,0,0:0:0:0:
256,192,69729,1,8,0:0:0:0:
256,192,69858,1,8,0:0:0:0:
256,192,70375,1,0,0:0:0:0:
256,192,70892,1,8,0:0:0:0:
256,192,71410,1,0,0:0:0:0:
256,192,71668,1,0,0:0:0:0:
256,192,71927,1,8,0:0:0:0:
256,192,72444,1,0,0:0:0:0:
256,192,73479,1,8,0:0:0:0:
256,192,73996,1,0,0:0:0:0:
256,192,74254,1,8,0:0:0:0:
256,192,74513,1,0,0:0:0:0:
256,192,75030,1,8,0:0:0:0:
256,192,75289,1,8,0:0:0:0:
256,192,75547,1,0,0:0:0:0:
256,192,75806,1,0,0:0:0:0:
256,192,76065,1,8,0:0:0:0:
256,192,76582,1,4,0:0:0:0:
256,192,77616,1,0,0:0:0:0:
256,192,78004,1,8,0:0:0:0:
256,192,78134,1,8,0:0:0:0:
256,192,78651,1,0,0:0:0:0:
256,192,79168,1,8,0:0:0:0:
256,192,79685,1,0,0:0:0:0:
256,192,79944,1,0,0:0:0:0:
256,192,80203,1,8,0:0:0:0:
256,192,80461,1,8,0:0:0:0:
256,192,80720,1,0,0:0:0:0:
256,192,81237,1,0,0:0:0:0:
256,192,81754,1,8,0:0:0:0:
256,192,82272,1,0,0:0:0:0:
256,192,82530,1,8,0:0:0:0:
256,192,82789,1,0,0:0:0:0:
256,192,83306,1,8,0:0:0:0:
256,192,83565,1,8,0:0:0:0:
256,192,83823,1,0,0:0:0:0:
256,192,84082,1,0,0:0:0:0:
256,192,84341,1,8,0:0:0:0:
256,192,84858,1,4,0:0:0:0:
256,192,85892,1,0,0:0:0:0:
256,192,86151,1,8,0:0:0:0:
256,192,86410,1,8,0:0:0:0:
256,192,86797,1,8,0:0:0:0:
256,192,86927,1,0,0:0:0:0:
256,192,87444,1,8,0:0:0:0:
256,192,87961,1,0,0:0:0:0:
256,192,88220,1,0,0:0:0:0:
256,192,88479,1,8,0:0:0:0:
256,192,88737,1,8,0:0:0:0:
256,192,88996,1,0,0:0:0:0:
256,192,89513,1,0,0:0:0:0:
256,192,90030,1,8,0:0:0:0:
256,192,90547,1,0,0:0:0:0:
256,192,91065,1,0,0:0:0:0:
256,192,91323,1,0,0:0:0:0:
256,192,91582,1,0,0:0:0:0:
256,192,93134,1,4,0:0:0:0:
256,192,93651,1,8,0:0:0:0:
256,192,93910,1,8,0:0:0:0:
256,192,94427,1,0,0:0:0:0:
256,192,94685,1,8,0:0:0:0:
256,192,94944,1,0,0:0:0:0:
256,192,95203,1,0,0:0:0:0:
256,192,95332,1,0,0:0:0:0:
256,192,95461,1,0,0:0:0:0:
256,192,95720,1,8,0:0:0:0:
256,192,95979,1,8,0:0:0:0:
256,192,96237,1,0,0:0:0:0:
256,192,96496,1,8,0:0:0:0:
256,192,96754,1,8,0:0:0:0:
256,192,97272,1,0,0:0:0:0:
256,192,97789,1,8,0:0:0:0:
256,192,98047,1,0,0:0:0:0:
256,192,98565,1,0,0:0:0:0:
256,192,98823,1,8,0:0:0:0:
256,192,99082,1,0,0:0:0:0:
256,192,99341,1,0,0:0:0:0:
256,192,99470,1,8,0:0:0:0:
256,192,99599,1,0,0:0:0:0:
256,192,99858,1,8,0:0:0:0:
256,192,100116,1,8,0:0:0:0:
256,192,100375,1,0,0:0:0:0:
256,192,101151,1,8,0:0:0:0:
256,192,101410,1,4,0:0:0:0:
256,192,101927,1,8,0:0:0:0:
256,192,102185,1,8,0:0:0:0:
256,192,102703,1,0,0:0:0:0:
256,192,102961,1,8,0:0:0:0:
256,192,103220,1,0,0:0:0:0:
256,192,103479,1,0,0:0:0:0:
256,192,103608,1,0,0:0:0:0:
256,192,103737,1,0,0:0:0:0:
256,192,103996,1,8,0:0:0:0:
256,192,104254,1,8,0:0:0:0:
256,192,104513,1,0,0:0:0:0:
256,192,104772,1,8,0:0:0:0:
256,192,105030,1,8,0:0:0:0:
256,192,105547,1,4,0:0:0:0:
256,192,105806,1,8,0:0:0:0:
256,192,106065,1,8,0:0:0:0:
256,192,106323,1,0,0:0:0:0:
256,192,106841,1,0,0:0:0:0:
256,192,107099,1,12,0:0:0:0:
256,192,107616,12,0,109168,0:0:0:0:
256,192,109685,5,4,0:0:0:0:
256,192,109944,1,0,0:0:0:0:
256,192,110203,1,8,0:0:0:0:
256,192,110461,1,8,0:0:0:0:
256,192,110979,1,0,0:0:0:0:
256,192,111237,1,8,0:0:0:0:
256,192,111496,1,0,0:0:0:0:
256,192,111754,1,8,0:0:0:0:
256,192,112013,1,8,0:0:0:0:
256,192,112272,1,0,0:0:0:0:
256,192,112530,1,0,0:0:0:0:
256,192,113047,1,8,0:0:0:0:
256,192,113306,1,0,0:0:0:0:
256,192,113565,1,0,0:0:0:0:
256,192,113823,1,8,0:0:0:0:
256,192,114082,1,0,0:0:0:0:
256,192,114341,1,8,0:0:0:0:
256,192,114599,1,8,0:0:0:0:
256,192,114858,1,0,0:0:0:0:
256,192,115375,1,8,0:0:0:0:
256,192,115892,1,0,0:0:0:0:
256,192,116668,1,8,0:0:0:0:
256,192,116797,1,8,0:0:0:0:
256,192,116927,1,8,0:0:0:0:
256,192,117185,1,0,0:0:0:0:
256,192,117444,1,8,0:0:0:0:
256,192,117961,1,4,0:0:0:0:
256,192,118220,1,0,0:0:0:0:
256,192,118479,1,8,0:0:0:0:
256,192,118737,1,8,0:0:0:0:
256,192,119254,1,0,0:0:0:0:
256,192,119513,1,8,0:0:0:0:
256,192,119772,1,0,0:0:0:0:
256,192,120030,1,8,0:0:0:0:
256,192,120289,1,8,0:0:0:0:
256,192,120547,1,0,0:0:0:0:
256,192,120806,1,0,0:0:0:0:
256,192,121323,1,8,0:0:0:0:
256,192,121582,1,0,0:0:0:0:
256,192,121841,1,0,0:0:0:0:
256,192,122099,1,8,0:0:0:0:
256,192,122358,1,0,0:0:0:0:
256,192,122616,1,8,0:0:0:0:
256,192,122875,1,8,0:0:0:0:
256,192,123134,1,0,0:0:0:0:
256,192,123392,1,0,0:0:0:0:
256,192,123651,1,8,0:0:0:0:
256,192,124168,1,0,0:0:0:0:
256,192,124427,1,8,0:0:0:0:
256,192,124556,1,8,0:0:0:0:
256,192,124685,1,8,0:0:0:0:
256,192,124944,1,8,0:0:0:0:
256,192,125203,1,0,0:0:0:0:
256,192,126237,1,4,0:0:0:0:
256,192,126496,1,0,0:0:0:0:
256,192,126754,1,8,0:0:0:0:
256,192,127013,1,8,0:0:0:0:
256,192,127530,1,0,0:0:0:0:
256,192,127789,1,8,0:0:0:0:
256,192,128047,1,0,0:0:0:0:
256,192,128306,1,8,0:0:0:0:
256,192,128565,1,8,0:0:0:0:
256,192,128823,1,0,0:0:0:0:
256,192,129082,1,0,0:0:0:0:
256,192,129599,1,8,0:0:0:0:
256,192,129858,1,0,0:0:0:0:
256,192,130116,1,0,0:0:0:0:
256,192,130375,1,8,0:0:0:0:
256,192,130634,1,0,0:0:0:0:
256,192,130892,1,8,0:0:0:0:
256,192,131151,1,8,0:0:0:0:
256,192,131410,1,0,0:0:0:0:
256,192,131927,1,8,0:0:0:0:
256,192,132444,1,0,0:0:0:0:
256,192,133220,1,8,0:0:0:0:
256,192,133349,1,8,0:0:0:0:
256,192,133479,1,8,0:0:0:0:
256,192,133737,1,0,0:0:0:0:
256,192,133996,1,8,0:0:0:0:
256,192,134513,1,4,0:0:0:0:
256,192,134772,1,0,0:0:0:0:
256,192,135030,1,8,0:0:0:0:
256,192,135289,1,8,0:0:0:0:
256,192,135806,1,0,0:0:0:0:
256,192,136065,1,8,0:0:0:0:
256,192,136323,1,0,0:0:0:0:
256,192,136582,1,8,0:0:0:0:
256,192,136841,1,8,0:0:0:0:
256,192,137099,1,0,0:0:0:0:
256,192,137358,1,0,0:0:0:0:
256,192,137875,1,8,0:0:0:0:
256,192,138134,1,0,0:0:0:0:
256,192,138392,1,0,0:0:0:0:
256,192,138651,1,12,0:0:0:0:
256,192,138910,1,0,0:0:0:0:
256,192,139168,1,8,0:0:0:0:
256,192,139427,1,8,0:0:0:0:
256,192,139685,1,0,0:0:0:0:
256,192,139944,1,0,0:0:0:0:
256,192,140203,1,12,0:0:0:0:
256,192,140720,12,0,142272,0:0:0:0:
256,192,142789,5,4,0:0:0:0:
