osu file format v14

[General]
AudioFilename: audio.mp3
AudioLeadIn: 0
PreviewTime: 80246
Countdown: 0
SampleSet: Soft
StackLeniency: 0.7
Mode: 0
LetterboxInBreaks: 0
WidescreenStoryboard: 1

[Editor]
Bookmarks: 480,4715,13185,30127,47068,64009,80950,97891,114832,125315
DistanceSpacing: 1.14
BeatDivisor: 4
GridSize: 32
TimelineZoom: 1.9

[Metadata]
Title:Element of SPADA
TitleUnicode:Element of SPADA
Artist:Nekomata Master feat. Shimotsuki Haruka
ArtistUnicode:猫叉Master feat. 霜月はるか
Creator:August
Version:Xenon's Hyper
Source:beatmania IIDX 21 SPADA
Tags:xen dakinibrave healing pop jpop japanese female vocals rhythm video game short version xayah sato naoyuki satou 飛燕流舞 佐藤直之 follow slowly handsome hehe pop'n music ラピストリア lapistoria ノスタルジア FORTE nostalgia BeatStream xenon- xehn
BeatmapID:2195775
BeatmapSetID:1046566

[Difficulty]
HPDrainRate:4.6
CircleSize:4
OverallDifficulty:6.5
ApproachRate:8
SliderMultiplier:0.999999999999999
SliderTickRate:1

[Events]
//Background and Video events
0,0,"bg.jpg",0,0
//Break Periods
//Storyboard Layer 0 (Background)
//Storyboard Layer 1 (Fail)
//Storyboard Layer 2 (Pass)
//Storyboard Layer 3 (Foreground)
//Storyboard Layer 4 (Overlay)
//Storyboard Sound Samples

[TimingPoints]
480,352.941176470588,3,2,2,40,1,0
480,-111.111111111111,3,2,2,40,0,0
3656,-111.111111111111,3,2,2,45,0,0
4362,-95.2380952380952,3,2,2,45,0,0
4715,-86.9565217391304,3,2,2,50,0,0
12391,-86.9565217391304,3,2,2,5,0,0
12479,-86.9565217391304,3,2,2,50,0,0
12832,-76.9230769230769,3,2,2,50,0,0
13185,-71.4285714285714,3,2,1,60,0,0
14244,-71.4285714285714,3,2,3,60,0,0
14421,-71.4285714285714,3,2,1,60,0,0
16362,-71.4285714285714,3,2,3,60,0,0
16715,-71.4285714285714,3,2,1,60,0,0
17421,-71.4285714285714,3,2,3,60,0,0
17774,-71.4285714285714,3,2,1,60,0,0
18479,-71.4285714285714,3,2,3,60,0,0
18832,-71.4285714285714,3,2,1,60,0,0
19538,-71.4285714285714,3,2,3,60,0,0
19715,-71.4285714285714,3,2,1,60,0,0
20597,-71.4285714285714,3,2,3,60,0,0
20774,-71.4285714285714,3,2,1,60,0,0
22715,-71.4285714285714,3,2,3,60,0,0
22891,-71.4285714285714,3,2,1,60,0,0
24832,-71.4285714285714,3,2,3,60,0,0
25185,-71.4285714285714,3,2,1,60,0,0
25891,-71.4285714285714,3,2,3,60,0,0
26068,-71.4285714285714,3,2,1,60,0,0
26950,-71.4285714285714,3,2,3,60,0,0
27127,-71.4285714285714,3,2,1,60,0,0
29156,-71.4285714285714,3,2,1,5,0,0
30127,-95.2380952380952,3,2,3,40,0,0
36744,-95.2380952380952,3,2,3,5,0,0
36832,-95.2380952380952,3,2,3,40,0,0
38597,-95.2380952380952,3,2,3,45,0,0
46009,-83.3333333333333,3,2,3,45,0,0
46362,-74.0740740740741,3,2,3,45,0,0
47068,-71.4285714285714,3,2,3,55,0,0
47421,-71.4285714285714,3,2,3,50,0,0
54479,-71.4285714285714,3,2,3,55,0,0
54832,-71.4285714285714,3,2,3,57,0,0
55185,-71.4285714285714,3,2,3,60,0,0
55538,-71.4285714285714,3,2,3,63,0,0
55891,-71.4285714285714,3,2,3,55,0,0
59774,-71.4285714285714,3,2,4,55,0,0
59950,-71.4285714285714,3,2,4,55,0,0
60038,-71.4285714285714,3,2,3,5,0,0
60127,-71.4285714285714,3,2,3,55,0,0
62950,-71.4285714285714,3,2,3,50,0,0
64009,-71.4285714285714,3,2,1,60,0,0
71421,-71.4285714285714,3,2,2,70,0,0
72127,-71.4285714285714,3,2,2,60,0,0
72479,-71.4285714285714,3,2,1,60,0,0
80244,-71.4285714285714,3,2,1,64,0,0
80597,-71.4285714285714,3,2,1,65,0,0
80685,-71.4285714285714,3,2,1,68,0,0
80774,-71.4285714285714,3,2,1,71,0,0
80862,-71.4285714285714,3,2,1,73,0,0
80950,-64.5161290322581,3,2,1,75,0,1
81568,-64.5161290322581,3,2,1,5,0,1
81656,-64.5161290322581,3,2,1,75,0,1
83685,-64.5161290322581,3,2,1,5,0,1
83774,-64.5161290322581,3,2,1,75,0,1
86509,-64.5161290322581,3,2,1,5,0,1
86597,-64.5161290322581,3,2,1,75,0,1
88627,-64.5161290322581,3,2,1,5,0,1
88715,-64.5161290322581,3,2,1,75,0,1
89421,-64.5161290322581,3,2,1,70,0,1
92156,-64.5161290322581,3,2,1,5,0,1
92244,-64.5161290322581,3,2,1,70,0,1
93215,-64.5161290322581,3,2,1,5,0,1
93303,-64.5161290322581,3,2,1,70,0,1
93656,-64.5161290322581,3,2,1,75,0,1
95774,-64.5161290322581,3,2,2,60,0,1
96127,-64.5161290322581,3,2,2,64,0,1
96479,-64.5161290322581,3,2,2,70,0,1
96832,-64.5161290322581,3,2,1,70,0,1
97097,-64.5161290322581,3,2,1,5,0,1
97185,-64.5161290322581,3,2,1,65,0,1
97538,-64.5161290322581,3,2,1,66,0,1
97627,-64.5161290322581,3,2,1,69,0,1
97715,-64.5161290322581,3,2,1,72,0,1
97803,-64.5161290322581,3,2,1,75,0,1
97891,-64.5161290322581,3,2,1,75,0,1
98509,-64.5161290322581,3,2,1,5,0,1
98597,-64.5161290322581,3,2,1,75,0,1
100627,-64.5161290322581,3,2,1,5,0,1
100715,-64.5161290322581,3,2,1,75,0,1
102744,-64.5161290322581,3,2,1,5,0,1
102832,-64.5161290322581,3,2,1,75,0,1
103450,-64.5161290322581,3,2,1,5,0,1
103538,-64.5161290322581,3,2,1,75,0,1
105568,-64.5161290322581,3,2,1,5,0,1
105656,-64.5161290322581,3,2,1,75,0,1
106362,-64.5161290322581,3,2,1,70,0,1
109097,-64.5161290322581,3,2,1,5,0,1
109185,-64.5161290322581,3,2,1,70,0,1
110156,-64.5161290322581,3,2,1,5,0,1
110244,-64.5161290322581,3,2,1,70,0,1
110597,-64.5161290322581,3,2,1,75,0,1
112715,-64.5161290322581,3,2,1,70,0,1
114038,-64.5161290322581,3,2,1,5,0,1
114127,-64.5161290322581,3,2,1,70,0,1
114479,-64.5161290322581,3,2,1,65,0,1
114832,-95.2380952380952,3,2,1,60,0,0
114921,-95.2380952380952,3,2,1,60,0,0
115009,-95.2380952380952,3,2,2,50,0,0
119068,-95.2380952380952,3,2,2,55,0,0
119421,-95.2380952380952,3,2,2,50,0,0
121186,400,4,2,2,45,1,8
121586,448.095593726662,4,2,2,40,1,8
122034,558.139534883721,4,2,2,40,1,8
122034,-100,4,2,2,40,0,8
122592,666.666666666667,4,2,2,45,1,8
123258,858.369098712446,4,2,2,35,1,8
123258,-99.009900990099,4,2,2,35,0,8
124116,1200,4,2,2,45,1,8
124190,-100,4,2,2,30,0,8
125315,-100,4,2,2,5,0,8

[Colours]
Combo1 : 152,234,248
Combo2 : 164,232,169
Combo3 : 243,197,209
Combo4 : 241,154,154

[HitObjects]
28,107,480,5,2,0:0:0:0:
111,202,832,2,0,L|105:246,2,44.999998626709,0|0|0,0:0|0:0|0:0,0:0:0:0:
194,107,1538,5,2,0:0:0:0:
328,134,1891,2,0,L|334:179,2,44.999998626709,0|0|0,0:0|0:0|0:0,0:0:0:0:
273,84,2421,1,0,0:0:0:0:
273,84,2597,5,2,0:0:0:0:
402,44,2950,2,0,L|407:0,2,44.999998626709,0|0|0,0:0|0:0|0:0,0:0:0:0:
501,142,3656,5,2,0:0:0:0:
398,215,4009,2,0,L|353:209,1,44.999998626709,2|0,0:0|0:0,0:0:0:0:
301,151,4362,2,0,L|248:157,1,52.4999983978271,0|0,0:0|0:0,0:0:0:0:
186,213,4715,6,0,P|148:176|101:202,1,115.000002193451,6|0,0:0|0:0,0:0:0:0:
31,241,5244,1,0,0:0:0:0:
31,241,5421,1,0,0:0:0:0:
102,93,5774,6,0,L|229:108,1,115.000002193451,2|0,0:0|0:0,0:0:0:0:
277,54,6303,1,0,0:0:0:0:
277,54,6479,2,0,L|334:46,1,57.5000010967254,0|0,0:0|0:0,0:0:0:0:
396,97,6832,5,2,0:0:0:0:
415,256,7185,2,0,L|351:248,1,57.5000010967254,0|0,0:0|0:0,0:0:0:0:
287,287,7538,2,0,P|275:261|278:232,1,57.5000010967254,0|0,0:0|0:0,0:0:0:0:
213,183,7891,6,0,L|85:198,1,115.000002193451,2|2,0:0|0:0,0:0:0:0:
49,261,8421,1,0,0:0:0:0:
49,261,8597,1,0,0:0:0:0:
70,101,8950,6,0,P|116:74|155:111,1,115.000002193451,6|0,0:0|0:0,0:0:0:0:
225,161,9479,1,0,0:0:0:0:
225,161,9656,1,0,0:0:0:0:
171,312,10009,5,2,0:0:0:0:
294,208,10362,2,0,L|351:215,1,57.5000010967254,2|0,0:0|0:0,0:0:0:0:
407,273,10715,2,0,L|478:264,1,57.5000010967254,2|0,0:0|0:0,0:0:0:0:
498,192,11068,6,0,L|513:64,1,115.000002193451,2|0,0:0|0:0,0:0:0:0:
453,26,11597,1,0,0:0:0:0:
453,26,11774,2,0,P|424:23|399:37,1,57.5000010967254,0|0,0:0|0:0,0:0:0:0:
342,94,12127,5,6,0:0:0:0:
499,168,12479,2,0,P|474:154|445:156,1,57.5000010967254,8|0,0:0|0:0,0:0:0:0:
385,209,12832,2,0,L|352:205,3,32.4999985122681,0|0|0|0,3:0|3:0|3:0|3:0,0:0:0:0:
342,215,13185,6,0,B|263:231|285:175|208:192,1,139.999995727539,4|8,0:1|0:0,0:0:0:0:
149,253,13715,1,0,0:0:0:0:
72,218,13891,2,0,L|63:146,1,69.9999978637695,0|0,1:0|0:0,0:0:0:0:
105,59,14244,6,0,P|60:114|-6:98,2,139.999995727539,10|8|0,0:0|0:0|1:2,0:0:0:0:
179,28,15127,1,0,0:0:0:0:
226,96,15303,6,0,L|295:87,1,69.9999978637695,8|0,0:3|0:0,0:0:0:0:
347,23,15656,2,0,P|381:20|411:38,1,69.9999978637695,8|0,0:0|0:0,0:0:0:0:
490,12,16009,2,0,P|511:39|513:73,1,69.9999978637695,0|0,1:0|0:0,0:0:0:0:
402,118,16362,6,0,L|421:276,1,139.999995727539,10|8,0:0|0:0,0:0:0:0:
359,315,16891,1,0,0:0:0:0:
293,265,17068,2,0,L|305:164,1,69.9999978637695,0|0,1:0|0:0,0:0:0:0:
241,110,17421,6,0,P|206:109|177:128,1,69.9999978637695,10|0,0:0|0:0,0:0:0:0:
97,110,17774,2,0,P|78:139|79:173,1,69.9999978637695,8|0,0:0|0:0,0:0:0:0:
15,226,18127,2,0,P|28:257|56:277,1,69.9999978637695,0|0,1:0|0:0,0:0:0:0:
126,359,18479,6,0,B|205:375|183:319|260:336,1,139.999995727539,10|8,0:0|0:0,0:0:0:0:
334,368,19009,1,0,0:0:0:0:
406,331,19185,2,0,L|393:230,1,69.9999978637695,0|0,1:0|0:0,0:0:0:0:
303,210,19538,6,0,L|320:71,1,139.999995727539,10|8,0:0|0:0,0:0:0:0:
267,7,20068,1,0,0:0:0:0:
209,65,20244,2,0,L|113:76,1,69.9999978637695,0|0,1:0|0:0,0:0:0:0:
92,5,20597,6,0,P|56:63|78:128,1,139.999995727539,10|8,0:0|0:0,0:0:0:0:
143,178,21127,1,0,0:0:0:0:
95,245,21303,2,0,L|60:249,2,34.9999989318848,0|0|0,1:0|1:0|1:0,0:0:0:0:
196,299,21656,6,0,B|275:315|253:259|328:275,1,139.999995727539,4|8,0:1|0:0,0:0:0:0:
392,222,22185,1,0,0:0:0:0:
471,248,22362,2,0,L|480:320,1,69.9999978637695,0|0,1:0|0:0,0:0:0:0:
388,368,22715,6,0,P|448:340|500:381,2,139.999995727539,10|8|0,0:0|0:0|1:0,0:0:0:0:
319,322,23597,1,0,0:0:0:0:
249,366,23774,6,0,L|179:358,1,69.9999978637695,8|0,0:3|0:0,0:0:0:0:
118,301,24127,2,0,P|116:266|134:236,1,69.9999978637695,8|0,0:0|0:0,0:0:0:0:
107,158,24479,2,0,P|135:136|169:134,1,69.9999978637695,0|0,1:0|0:0,0:0:0:0:
216,243,24832,6,0,L|354:226,1,139.999995727539,10|8,0:0|0:0,0:0:0:0:
402,156,25362,1,0,0:0:0:0:
350,90,25538,2,0,L|280:82,1,69.9999978637695,0|0,1:0|0:0,0:0:0:0:
192,10,25891,6,0,B|116:-7|138:49|59:33,1,139.999995727539,10|8,0:0|0:0,0:0:0:0:
1,94,26421,1,0,0:0:0:0:
56,155,26597,2,0,L|44:250,1,69.9999978637695,0|0,1:0|0:0,0:0:0:0:
0,317,26950,6,0,B|79:333|57:277|134:294,1,139.999995727539,10|8,0:0|0:0,0:0:0:0:
184,228,27479,2,0,P|246:207|291:256,1,139.999995727539,0|0,0:0|0:0,0:0:0:0:
318,335,28009,6,0,L|336:197,1,139.999995727539,8|8,0:3|0:0,0:0:0:0:
391,133,28538,1,0,0:0:0:0:
333,72,28715,2,0,P|318:40|325:6,1,69.9999978637695,8|0,0:0|0:0,0:0:0:0:
238,47,29068,5,4,0:1:0:0:
61,335,30127,1,12,0:0:0:0:
160,245,30479,2,0,L|287:229,1,104.999996795654,2|2,0:0|0:1,0:0:0:0:
396,222,31185,6,0,P|316:195|330:289,1,209.999993591309,2|2,0:0|0:1,0:0:0:0:
196,331,32244,2,0,B|206:246|206:246|212:227|212:227|211:207|211:207|221:122,1,209.999993591309,10|2,1:2|0:1,0:0:0:0:
122,27,33303,6,0,L|137:154,1,104.999996795654,2|0,0:0|0:0,0:0:0:0:
232,227,34009,1,2,0:1:0:0:
217,91,34362,6,0,B|263:67|263:67|304:99,1,104.999996795654,10|0,1:2|0:0,0:0:0:0:
226,217,35068,1,2,0:1:0:0:
137,110,35421,6,0,P|40:134|16:232,1,209.999993591309,2|2,0:0|0:1,0:0:0:0:
111,332,36479,2,0,B|208:320|208:320|211:322|211:322|318:309,1,209.999993591309,10|2,1:2|0:1,0:0:0:0:
432,264,37538,6,0,P|406:267|383:254,1,52.4999983978271,10|0,1:2|0:0,0:0:0:0:
397,178,37891,2,0,P|422:174|445:187,1,52.4999983978271,0|0,0:0|0:0,0:0:0:0:
512,143,38244,2,0,L|508:116,3,26.2499991989136,0|0|0|0,3:0|3:0|3:0|3:0,0:0:0:0:
499,107,38597,5,12,0:0:0:0:
381,45,38950,2,0,L|253:60,1,104.999996795654,2|2,0:0|0:0,0:0:0:0:
198,169,39656,6,0,P|184:81|110:129,1,209.999993591309,8|2,0:0|0:0,0:0:0:0:
13,32,40715,2,0,B|24:116|24:116|30:135|30:135|29:155|29:155|39:240,1,209.999993591309,8|2,0:0|0:0,0:0:0:0:
110,356,41774,6,0,L|125:228,1,104.999996795654,8|2,0:0|0:0,0:0:0:0:
247,194,42479,1,2,0:0:0:0:
356,274,42832,6,0,B|309:250|309:250|268:282,1,104.999996795654,8|2,0:0|0:0,0:0:0:0:
166,184,43538,1,2,0:0:0:0:
277,105,43891,6,0,L|290:-7,2,104.999996795654,8|2|10,0:0|0:0|0:0,0:0:0:0:
404,153,44950,2,0,P|331:170|311:243,1,157.499995193481,10|0,0:0|0:0,0:0:0:0:
377,289,45656,1,10,0:0:0:0:
266,377,46009,6,0,L|202:369,1,59.9999981689453,10|0,0:1|0:0,0:0:0:0:
156,308,46362,2,0,L|89:316,1,67.500000257492,2|0,0:1|0:0,0:0:0:0:
24,268,46715,1,2,0:1:0:0:
24,268,46891,1,0,0:0:0:0:
62,170,47068,6,0,L|216:188,1,139.999995727539,12|8,0:0|0:0,0:0:0:0:
255,256,47597,1,0,0:0:0:0:
255,256,47774,2,0,L|324:248,1,69.9999978637695,8|0,0:0|0:0,0:0:0:0:
380,310,48127,6,0,P|350:268|419:221,1,139.999995727539,10|8,0:0|0:0,0:0:0:0:
468,163,48656,1,0,0:0:0:0:
467,163,48832,2,0,L|458:93,1,69.9999978637695,8|0,0:0|0:0,0:0:0:0:
382,57,49185,6,0,P|370:11|294:35,1,139.999995727539,10|8,0:0|0:0,0:0:0:0:
226,72,49715,1,0,0:0:0:0:
226,72,49891,2,0,L|235:152,1,69.9999978637695,8|0,0:0|0:0,0:0:0:0:
304,186,50244,6,0,L|286:329,1,139.999995727539,10|8,0:0|0:0,0:0:0:0:
206,344,50774,1,0,0:0:0:0:
206,344,50950,2,0,P|180:321|145:322,1,69.9999978637695,8|0,0:0|0:0,0:0:0:0:
85,378,51303,6,0,P|50:379|24:356,1,69.9999978637695,10|0,0:0|0:0,0:0:0:0:
0,276,51656,2,0,L|8:206,1,69.9999978637695,8|0,0:0|0:0,0:0:0:0:
72,152,52009,2,0,P|107:153|133:130,1,69.9999978637695,8|0,0:0|0:0,0:0:0:0:
169,55,52362,6,0,P|155:120|211:155,1,139.999995727539,10|8,0:0|0:0,0:0:0:0:
276,216,52891,1,0,0:0:0:0:
276,216,53068,2,0,L|267:296,1,69.9999978637695,8|0,0:0|0:0,0:0:0:0:
321,350,53421,6,0,L|459:332,1,139.999995727539,10|8,0:0|0:0,0:0:0:0:
512,269,53950,1,0,0:0:0:0:
512,269,54127,2,0,P|513:234|490:208,1,69.9999978637695,8|0,0:0|0:0,0:0:0:0:
426,156,54479,6,0,L|436:76,1,69.9999978637695,10|0,0:1|0:0,0:0:0:0:
352,72,54832,2,0,L|342:152,1,69.9999978637695,2|0,0:1|0:0,0:0:0:0:
271,183,55185,2,0,L|275:217,2,34.9999989318848,2|0|0,0:1|0:0|0:0,0:0:0:0:
176,136,55538,6,0,P|114:114|71:164,1,139.999995727539,12|8,0:0|0:0,0:0:0:0:
16,227,56068,1,0,0:0:0:0:
16,227,56244,2,0,L|7:307,1,69.9999978637695,8|0,0:0|0:0,0:0:0:0:
63,359,56597,6,0,P|127:376|173:328,1,139.999995727539,10|8,0:0|0:0,0:0:0:0:
245,284,57127,1,0,0:0:0:0:
245,284,57303,2,0,L|233:189,1,69.9999978637695,8|0,0:0|0:0,0:0:0:0:
314,184,57656,6,0,L|332:30,1,139.999995727539,10|8,0:0|0:0,0:0:0:0:
265,0,58185,1,0,0:0:0:0:
265,0,58362,2,0,P|230:-1|204:22,1,69.9999978637695,8|0,0:0|0:0,0:0:0:0:
157,90,58715,6,0,P|130:67|96:69,2,69.9999978637695,10|2|10,0:1|0:0|0:1,0:0:0:0:
106,153,59244,1,2,0:0:0:0:
106,153,59421,2,0,L|118:248,1,69.9999978637695,10|2,0:1|0:0,0:0:0:0:
211,258,59774,6,0,P|240:239|274:245,1,69.9999978637695,12|0,0:0|0:0,0:0:0:0:
330,306,60127,2,0,P|331:340|309:366,1,69.9999978637695,8|0,0:0|0:0,0:0:0:0:
228,384,60479,2,0,P|197:367|185:335,1,69.9999978637695,8|0,0:0|0:0,0:0:0:0:
211,258,60832,6,0,L|228:119,1,139.999995727539,10|8,0:0|0:0,0:0:0:0:
288,61,61362,1,0,0:0:0:0:
288,61,61538,2,0,L|357:53,1,69.9999978637695,8|0,0:0|0:0,0:0:0:0:
446,0,61891,6,0,L|426:158,1,139.999995727539,12|2,0:0|0:0,0:0:0:0:
371,199,62421,2,0,P|337:193|308:212,1,69.9999978637695,0|2,0:0|0:0,0:0:0:0:
360,284,62774,1,0,0:0:0:0:
360,284,62950,5,4,0:1:0:0:
178,176,64009,6,0,P|121:144|77:192,2,139.999995727539,4|8|2,0:1|0:0|1:2,0:0:0:0:
193,258,64891,1,0,0:0:0:0:
193,258,65068,6,0,P|149:306|92:274,2,139.999995727539,8|8|2,0:3|0:0|1:2,0:0:0:0:
260,208,65950,1,0,0:0:0:0:
260,208,66127,6,0,L|403:225,1,139.999995727539,8|8,0:3|0:0,0:0:0:0:
463,171,66656,1,0,0:0:0:0:
463,171,66832,2,0,P|463:136|445:106,1,69.9999978637695,2|0,1:2|0:0,0:0:0:0:
373,64,67185,6,0,L|277:75,1,69.9999978637695,8|0,0:3|0:0,0:0:0:0:
241,128,67538,2,0,L|171:119,1,69.9999978637695,8|0,0:0|0:0,0:0:0:0:
113,65,67891,1,2,1:2:0:0:
113,65,68068,1,0,0:0:0:0:
45,113,68244,6,0,P|27:142|27:177,1,69.9999978637695,8|0,0:3|0:0,0:0:0:0:
96,224,68597,2,0,L|239:207,1,139.999995727539,8|2,0:0|1:2,0:0:0:0:
275,133,69127,1,0,0:0:0:0:
275,133,69303,6,0,L|418:151,1,139.999995727539,8|8,0:3|0:0,0:0:0:0:
471,219,69832,1,0,0:0:0:0:
471,219,70009,2,0,P|471:253|453:283,1,69.9999978637695,0|0,1:2|0:0,0:0:0:0:
481,361,70362,6,0,P|440:308|374:319,1,139.999995727539,8|8,0:3|0:0,0:0:0:0:
315,377,70891,1,0,0:0:0:0:
315,377,71068,2,0,L|220:366,1,69.9999978637695,2|0,1:2|0:0,0:0:0:0:
216,275,71421,6,0,P|166:320|103:298,1,139.999995727539,4|8,0:0|0:1,0:0:0:0:
48,239,71950,1,0,0:0:0:0:
48,239,72127,2,0,L|51:204,3,34.9999989318848,8|0|0|0,3:1|3:0|3:0|3:0,0:0:0:0:
48,193,72479,6,0,P|77:210|112:210,1,69.9999978637695,4|0,0:1|0:0,0:0:0:0:
167,148,72832,2,0,P|207:136|260:222,1,139.999995727539,8|2,0:0|1:2,0:0:0:0:
196,250,73362,1,0,0:0:0:0:
196,250,73538,6,0,L|334:232,1,139.999995727539,8|8,0:3|0:0,0:0:0:0:
401,290,74068,1,0,0:0:0:0:
401,290,74245,2,0,L|464:297,3,34.9999989318848,0|0|0|0,1:0|1:0|1:0|1:0,0:0:0:0:
444,287,74597,6,0,P|492:251|455:169,1,139.999995727539,6|8,0:0|0:0,0:0:0:0:
425,120,75127,1,0,0:0:0:0:
425,120,75303,2,0,L|355:128,1,69.9999978637695,2|0,1:2|0:0,0:0:0:0:
291,182,75656,6,0,P|262:163|228:169,1,69.9999978637695,8|0,0:3|0:0,0:0:0:0:
172,230,76009,2,0,P|171:264|193:290,1,69.9999978637695,8|0,0:0|0:0,0:0:0:0:
274,308,76361,2,0,P|305:291|317:259,1,69.9999978637695,2|0,1:2|0:0,0:0:0:0:
409,202,76715,6,0,L|392:59,1,139.999995727539,10|8,0:3|0:0,0:0:0:0:
316,33,77244,1,0,0:0:0:0:
316,33,77421,2,0,L|307:102,1,69.9999978637695,2|0,1:2|0:0,0:0:0:0:
263,172,77774,6,0,P|228:177|203:200,1,69.9999978637695,8|0,0:3|0:0,0:0:0:0:
121,197,78127,2,0,P|107:228|114:262,1,69.9999978637695,8|0,0:0|0:0,0:0:0:0:
60,325,78480,2,0,P|78:353|109:368,1,69.9999978637695,2|0,1:2|0:0,0:0:0:0:
191,295,78832,6,0,L|334:277,1,139.999995727539,8|8,0:3|0:0,0:0:0:0:
393,338,79362,1,0,0:0:0:0:
393,338,79538,2,0,L|472:348,1,69.9999978637695,8|0,0:0|0:0,0:0:0:0:
436,266,79891,5,4,0:1:0:0:
52,353,80950,6,0,L|128:362,1,77.500000591278,14|0,0:3|0:0,0:0:0:0:
198,308,81303,2,0,L|183:192,1,116.250000886917,8|0,0:0|0:0,0:0:0:0:
188,181,81656,2,0,P|214:154|252:155,1,77.500000591278,8|0,0:3|0:0,0:0:0:0:
321,210,82009,6,0,P|358:211|385:184,1,77.500000591278,2|0,1:2|0:0,0:0:0:0:
432,109,82362,2,0,L|422:32,1,77.500000591278,8|0,0:0|0:0,0:0:0:0:
340,0,82715,1,8,0:3:0:0:
274,59,82891,1,0,0:0:0:0:
183,0,83068,6,0,P|145:-1|118:25,1,77.500000591278,10|0,0:3|0:0,0:0:0:0:
77,103,83421,2,0,L|92:230,1,116.250000886917,8|0,0:0|0:0,0:0:0:0:
99,226,83774,2,0,L|87:321,1,77.500000591278,8|0,0:3|0:0,0:0:0:0:
177,313,84127,6,0,L|186:236,1,77.500000591278,2|0,1:2|0:0,0:0:0:0:
264,192,84479,2,0,L|254:115,1,77.500000591278,8|0,0:0|0:0,0:0:0:0:
295,36,84833,1,8,0:3:0:0:
368,84,85009,1,0,0:0:0:0:
447,15,85185,6,0,P|485:14|512:40,1,77.500000591278,10|0,0:3|0:0,0:0:0:0:
512,54,85450,1,0,0:0:0:0:
510,68,85538,2,0,L|498:163,1,77.500000591278,8|0,0:0|0:0,0:0:0:0:
435,205,85891,1,8,0:3:0:0:
351,174,86068,1,0,0:0:0:0:
287,235,86244,6,0,L|302:362,1,116.250000886917,2|0,1:2|0:0,0:0:0:0:
297,357,86597,2,0,P|259:364|228:343,1,77.500000591278,8|0,0:0|0:0,0:0:0:0:
203,258,86950,2,0,P|171:236|134:244,1,77.500000591278,8|0,0:3|0:0,0:0:0:0:
48,320,87303,5,10,0:3:0:0:
0,248,87479,1,0,0:0:0:0:
30,167,87656,2,0,B|50:119|50:119|155:132,1,155.000001182556,8|8,0:0|0:3,0:0:0:0:
226,82,88185,1,0,0:0:0:0:
299,131,88362,6,0,L|316:274,1,116.250000886917,2|0,1:2|0:0,0:0:0:0:
307,254,88715,2,0,P|344:246|375:267,1,77.500000591278,0|0,1:0|1:0,0:0:0:0:
440,327,89068,2,0,L|478:322,3,38.750000295639,0|0|0|0,1:0|1:0|1:0|1:0,0:0:0:0:
485,316,89421,6,0,B|494:240|494:240|491:236|491:236|500:161,1,155.000001182556,14|8,0:3|0:0,0:0:0:0:
444,94,89950,1,0,0:0:0:0:
370,142,90127,2,0,P|332:134|301:155,1,77.500000591278,8|0,0:3|0:0,0:0:0:0:
215,211,90479,6,0,L|234:52,1,155.000001182556,2|8,1:2|0:0,0:0:0:0:
158,10,91008,1,0,0:0:0:0:
88,65,91185,2,0,L|96:141,1,77.500000591278,8|0,0:3|0:0,0:0:0:0:
100,156,91450,1,0,0:0:0:0:
103,170,91538,6,0,P|71:148|34:156,1,77.500000591278,10|0,0:3|0:0,0:0:0:0:
0,238,91891,2,0,P|47:269|102:258,1,116.250000886917,8|0,0:0|0:0,0:0:0:0:
112,253,92244,2,0,L|207:265,1,77.500000591278,8|0,0:3|0:0,0:0:0:0:
254,321,92597,6,0,L|330:311,1,77.500000591278,2|0,1:2|0:0,0:0:0:0:
411,348,92950,2,0,P|418:292|388:243,1,116.250000886917,8|0,0:0|0:0,0:0:0:0:
382,236,93303,2,0,L|394:141,1,77.500000591278,8|0,0:3|0:0,0:0:0:0:
370,53,93656,6,0,B|286:36|310:107|227:89,1,155.000001182556,10|8,0:3|0:0,0:0:0:0:
158,31,94185,1,0,0:0:0:0:
81,78,94362,1,8,0:3:0:0:
101,165,94538,1,0,0:0:0:0:
192,172,94715,6,0,B|201:247|201:247|198:250|198:250|207:325,1,155.000001182556,2|8,1:2|0:0,0:0:0:0:
144,384,95244,1,0,0:0:0:0:
75,327,95421,2,0,L|84:250,1,77.500000591278,2|0,0:3|0:0,0:0:0:0:
8,173,95774,6,0,L|-1:96,1,77.500000591278,4|0,0:0|0:0,0:0:0:0:
65,37,96127,1,8,0:1:0:0:
136,87,96303,1,0,0:0:0:0:
213,46,96479,2,0,L|219:-2,3,38.750000295639,0|0|0|0,0:0|0:0|0:0|0:0,0:0:0:0:
223,0,96832,6,0,P|260:-7|291:13,1,77.500000591278,4|0,0:1|0:0,0:0:0:0:
274,100,97185,2,0,L|284:184,1,77.500000591278,0|0,1:0|1:0,0:0:0:0:
349,236,97538,1,0,1:0:0:0:
347,249,97626,1,0,1:0:0:0:
345,263,97714,1,0,1:0:0:0:
346,370,97891,6,0,P|383:377|414:357,1,77.500000591278,10|0,0:1|0:0,0:0:0:0:
476,292,98244,2,0,L|461:176,1,116.250000886917,8|0,0:0|0:0,0:0:0:0:
454,167,98597,2,0,P|427:138|390:141,1,77.500000591278,8|0,0:3|0:0,0:0:0:0:
326,200,98950,6,0,P|289:201|262:174,1,77.500000591278,2|0,1:2|0:0,0:0:0:0:
189,123,99303,2,0,L|112:133,1,77.500000591278,8|0,0:0|0:0,0:0:0:0:
48,194,99656,1,8,0:3:0:0:
88,275,99832,1,0,0:0:0:0:
201,248,100009,6,0,P|239:247|266:273,1,77.500000591278,10|0,0:3|0:0,0:0:0:0:
305,350,100362,2,0,L|432:335,1,116.250000886917,8|0,0:0|0:0,0:0:0:0:
429,341,100715,2,0,L|441:246,1,77.500000591278,8|0,0:3|0:0,0:0:0:0:
512,213,101068,6,0,L|503:136,1,77.500000591278,2|0,1:2|0:0,0:0:0:0:
439,74,101421,2,0,P|401:67|371:89,1,77.500000591278,8|0,0:0|0:0,0:0:0:0:
314,156,101774,2,0,P|283:178|246:171,1,77.500000591278,8|0,0:3|0:0,0:0:0:0:
139,137,102127,5,10,0:3:0:0:
69,187,102303,1,0,0:0:0:0:
55,185,102391,1,0,0:0:0:0:
42,184,102479,2,0,L|26:56,1,116.250000886917,8|0,0:0|0:0,0:0:0:0:
22,59,102832,2,0,L|117:70,1,77.500000591278,8|0,0:3|0:0,0:0:0:0:
182,39,103185,6,0,P|231:68|240:123,1,116.250000886917,2|0,1:2|0:0,0:0:0:0:
232,130,103538,2,0,L|242:206,1,77.500000591278,8|0,0:0|0:0,0:0:0:0:
311,262,103891,2,0,L|302:338,1,77.500000591278,8|0,0:3|0:0,0:0:0:0:
192,380,104244,5,10,0:3:0:0:
113,340,104420,1,0,0:0:0:0:
35,383,104597,2,0,B|-13:363|-13:363|0:258,1,155.000001182556,8|8,0:0|0:3,0:0:0:0:
75,214,105126,1,0,0:0:0:0:
19,145,105303,6,0,L|4:29,1,116.250000886917,2|0,1:2|0:0,0:0:0:0:
0,22,105656,2,0,P|35:7|69:22,1,77.500000591278,0|0,1:0|1:0,0:0:0:0:
151,57,106009,2,0,L|189:52,3,38.750000295639,0|0|0|0,1:0|1:0|1:0|1:0,0:0:0:0:
197,46,106362,6,0,B|188:122|188:122|191:126|191:126|182:201,1,155.000001182556,14|8,0:3|0:0,0:0:0:0:
118,261,106891,1,0,0:0:0:0:
184,319,107068,2,0,L|276:307,1,77.500000591278,8|0,0:3|0:0,0:0:0:0:
327,366,107421,6,0,P|399:348|420:276,2,155.000001182556,2|8|8,1:2|0:0|0:3,0:0:0:0:
280,295,108303,1,0,0:0:0:0:
278,281,108391,1,0,0:0:0:0:
277,268,108479,6,0,L|267:189,1,77.500000591278,10|0,0:3|0:0,0:0:0:0:
197,136,108832,2,0,L|212:9,1,116.250000886917,8|0,0:0|0:0,0:0:0:0:
207,14,109185,2,0,L|130:23,1,77.500000591278,8|0,0:3|0:0,0:0:0:0:
64,81,109538,6,0,P|74:117|62:153,1,77.500000591278,2|0,1:2|0:0,0:0:0:0:
1,213,109891,2,0,P|50:239|107:229,1,116.250000886917,8|0,0:0|0:0,0:0:0:0:
107,221,110244,2,0,L|202:233,1,77.500000591278,8|0,0:3|0:0,0:0:0:0:
288,175,110597,6,0,L|278:99,1,77.500000591278,10|0,0:3|0:0,0:0:0:0:
207,46,110950,2,0,P|273:10|342:38,1,155.000001182556,8|8,0:0|0:3,0:0:0:0:
369,122,111479,1,0,0:0:0:0:
431,59,111656,6,0,B|479:79|479:79|466:184,1,155.000001182556,2|8,1:2|0:0,0:0:0:0:
512,258,112185,1,0,0:0:0:0:
454,325,112362,2,0,L|377:316,1,77.500000591278,8|0,0:3|0:0,0:0:0:0:
326,242,112715,6,0,L|249:251,1,77.500000591278,10|0,0:3|0:0,0:0:0:0:
170,208,113068,1,8,0:0:0:0:
108,271,113244,1,0,0:0:0:0:
38,215,113421,2,0,L|47:138,1,77.500000591278,8|0,0:3|0:0,0:0:0:0:
118,84,113774,6,0,P|168:74|215:134,1,116.250000886917,8|0,0:3|0:0,0:0:0:0:
218,121,114127,2,0,L|208:44,1,77.500000591278,8|0,0:0|0:0,0:0:0:0:
284,0,114479,1,0,1:0:0:0:
364,40,114656,1,0,0:0:0:0:
314,146,114832,6,0,B|324:231|324:231|330:250|330:250|329:270|329:270|338:353,1,209.999993591309,14|0,0:3|0:0,0:0:0:0:
207,366,115891,2,0,B|197:281|197:281|191:262|191:262|192:242|192:242|182:158,1,209.999993591309,2|0,0:0|0:0,0:0:0:0:
242,104,116774,1,2,0:0:0:0:
242,104,116950,6,0,L|255:-7,2,104.999996795654,2|2|2,0:0|0:0|0:0,0:0:0:0:
101,173,118009,2,0,L|113:277,2,104.999996795654,2|2|2,0:0|0:0|0:0,0:0:0:0:
164,123,118891,1,2,0:0:0:0:
164,123,119068,6,0,L|216:129,1,52.4999983978271,4|2,0:1|0:0,0:0:0:0:
266,192,119421,2,0,L|370:179,1,104.999996795654,2|0,0:0|0:0,0:0:0:0:
487,107,120127,5,0,0:0:0:0:
512,267,120479,2,0,L|407:254,1,104.999996795654,2|2,0:0|0:0,0:0:0:0:
290,298,121186,6,0,P|243:309|206:278,1,99.9999999999999,2|2,0:0|0:0,0:0:0:0:
234,140,122034,2,0,P|280:128|317:159,1,99.9999999999999,2|2,0:0|0:0,0:0:0:0:
152,199,123258,6,0,L|52:212,1,100.916669130452,2|2,0:0|0:0,0:0:0:0:
