osu file format v14

[General]
AudioFilename: audio.mp3
AudioLeadIn: 0
PreviewTime: 80246
Countdown: 0
SampleSet: Soft
StackLeniency: 0.4
Mode: 0
LetterboxInBreaks: 0
WidescreenStoryboard: 1

[Editor]
Bookmarks: 13185,30127,47068,64009,80950,114832,125315
DistanceSpacing: 0.3
BeatDivisor: 4
GridSize: 32
TimelineZoom: 2.2

[Metadata]
Title:Element of SPADA
TitleUnicode:Element of SPADA
Artist:Nekomata Master feat. Shimotsuki Haruka
ArtistUnicode:猫叉Master feat. 霜月はるか
Creator:August
Version:Xayah's Another
Source:beatmania IIDX 21 SPADA
Tags:xen dakinibrave healing pop jpop japanese female vocals rhythm video game short version xayah sato naoyuki satou 飛燕流舞 佐藤直之 follow slowly handsome hehe pop'n music ラピストリア lapistoria ノスタルジア FORTE nostalgia BeatStream xenon- xehn
BeatmapID:2197403
BeatmapSetID:1046566

[Difficulty]
HPDrainRate:5
CircleSize:4.2
OverallDifficulty:7.8
ApproachRate:8.8
SliderMultiplier:1.6
SliderTickRate:1

[Events]
//Background and Video events
0,0,"dakinibravealsoknownasxayah1.jpg",0,0
//Break Periods
//Storyboard Layer 0 (Background)
//Storyboard Layer 1 (Fail)
//Storyboard Layer 2 (Pass)
//Storyboard Layer 3 (Foreground)
//Storyboard Layer 4 (Overlay)
//Storyboard Sound Samples

[TimingPoints]
480,352.941176470588,3,2,2,40,1,0
480,-166.666666666667,3,2,2,40,0,0
3656,-166.666666666667,3,2,2,45,0,0
4715,-166.666666666667,3,2,2,50,0,0
6038,-166.666666666667,3,2,2,5,0,0
6127,-166.666666666667,3,2,2,50,0,0
7097,-166.666666666667,3,2,2,5,0,0
7185,-166.666666666667,3,2,2,50,0,0
12391,-166.666666666667,3,2,2,5,0,0
12479,-166.666666666667,3,2,2,50,0,0
13185,-125,3,2,1,60,0,0
14244,-125,3,2,3,60,0,0
14421,-125,3,2,1,60,0,0
15568,-125,3,2,1,5,0,0
15656,-125,3,2,1,60,0,0
16362,-125,3,2,3,60,0,0
16715,-125,3,2,1,60,0,0
17421,-125,3,2,3,60,0,0
17774,-125,3,2,1,60,0,0
18479,-125,3,2,3,60,0,0
18832,-125,3,2,1,60,0,0
19538,-125,3,2,3,60,0,0
19715,-125,3,2,1,60,0,0
20597,-125,3,2,3,60,0,0
20774,-125,3,2,1,60,0,0
22715,-125,3,2,3,60,0,0
22891,-125,3,2,1,60,0,0
24832,-125,3,2,3,60,0,0
25185,-125,3,2,1,60,0,0
25891,-125,3,2,3,60,0,0
26068,-125,3,2,1,60,0,0
26950,-125,3,2,3,60,0,0
27127,-125,3,2,1,60,0,0
29156,-125,3,2,1,5,0,0
30127,-200,3,2,3,40,0,0
36744,-200,3,2,3,5,0,0
36832,-200,3,2,3,40,0,0
38597,-142.857142857143,3,2,3,45,0,0
47068,-142.857142857143,3,2,3,55,0,0
47244,-142.857142857143,3,2,3,55,0,0
47421,-142.857142857143,3,2,3,50,0,0
51568,-142.857142857143,3,2,3,5,0,0
51656,-142.857142857143,3,2,3,50,0,0
54479,-142.857142857143,3,2,3,55,0,0
54832,-111.111111111111,3,2,3,57,0,0
55185,-111.111111111111,3,2,3,60,0,0
55538,-142.857142857143,3,2,3,63,0,0
55803,-142.857142857143,3,2,3,5,0,0
55891,-142.857142857143,3,2,3,55,0,0
59774,-142.857142857143,3,2,4,55,0,0
59950,-142.857142857143,3,2,4,55,0,0
60038,-142.857142857143,3,2,3,5,0,0
60127,-142.857142857143,3,2,3,55,0,0
62950,-200,3,2,3,50,0,0
64009,-111.111111111111,3,2,1,60,0,0
71421,-111.111111111111,3,2,2,70,0,0
72127,-111.111111111111,3,2,2,60,0,0
72479,-111.111111111111,3,2,1,60,0,0
80244,-200,3,2,1,64,0,0
80597,-200,3,2,1,65,0,0
80685,-200,3,2,1,68,0,0
80774,-200,3,2,1,71,0,0
80862,-200,3,2,1,73,0,0
80950,-100,3,2,1,75,0,1
81215,-100,3,2,1,5,0,1
81303,-100,3,2,1,75,0,1
83332,-100,3,2,1,5,0,1
83421,-100,3,2,1,75,0,1
88627,-100,3,2,1,5,0,1
88715,-100,3,2,1,75,0,1
89421,-100,3,2,1,70,0,1
93656,-100,3,2,1,75,0,1
95774,-100,3,2,2,60,0,1
96127,-100,3,2,2,64,0,1
96479,-100,3,2,2,70,0,1
96832,-100,3,2,1,70,0,1
97097,-100,3,2,1,5,0,1
97185,-100,3,2,1,65,0,1
97538,-100,3,2,1,66,0,1
97627,-100,3,2,1,69,0,1
97715,-100,3,2,1,72,0,1
97803,-100,3,2,1,75,0,1
97891,-100,3,2,1,75,0,1
100274,-100,3,2,1,5,0,1
100362,-100,3,2,1,75,0,1
105568,-100,3,2,1,5,0,1
105656,-100,3,2,1,75,0,1
106362,-100,3,2,1,70,0,1
110597,-100,3,2,1,75,0,1
112715,-100,3,2,1,70,0,1
114479,-100,3,2,1,65,0,1
114832,-200,3,2,1,60,0,0
114921,-200,3,2,1,60,0,0
115009,-200,3,2,2,50,0,0
119068,-200,3,2,2,55,0,0
119421,-200,3,2,2,50,0,0
121186,400,4,2,2,45,1,8
121586,448.095593726662,4,2,2,40,1,8
122034,558.139534883721,4,2,2,40,1,8
122592,666.666666666667,4,2,2,45,1,8
123258,858.369098712446,4,2,2,35,1,8
124116,1200,4,2,2,45,1,8
124190,-100,4,2,2,30,0,8
125315,-100,4,2,2,5,0,8

[Colours]
Combo1 : 152,234,248
Combo2 : 164,232,169
Combo3 : 243,197,209
Combo4 : 241,154,154

[HitObjects]
214,191,480,5,2,0:0:0:0:
220,183,832,2,0,P|223:127|223:114,2,47.9999985351563,0|0|0,0:0|0:0|0:0,0:0:0:0:
76,183,1538,5,2,0:0:0:0:
70,174,1891,2,0,P|67:118|67:105,1,47.9999985351563,0|0,0:0|0:0,0:0:0:0:
133,238,2244,2,0,P|132:262|130:286,1,47.9999985351563,0|0,0:0|0:0,0:0:0:0:
75,350,2597,5,2,0:0:0:0:
64,343,2950,2,0,B|35:337|4:337|5:336,2,47.9999985351563,0|0|0,0:0|0:0|0:0,0:0:0:0:
206,374,3656,6,0,P|220:323|224:314,1,47.9999985351563,2|0,0:0|0:0,0:0:0:0:
323,316,4009,2,0,P|308:265|304:255,1,47.9999985351563,2|0,0:0|0:0,0:0:0:0:
237,200,4361,1,0,0:0:0:0:
237,200,4538,1,0,0:0:0:0:
304,126,4715,6,0,P|344:135|369:143,1,47.9999985351563,6|0,0:0|0:0,0:0:0:0:
410,77,5068,2,0,P|433:70|457:65,2,47.9999985351563,0|0|0,0:0|0:0|0:0,0:0:0:0:
338,35,5597,1,0,0:0:0:0:
263,195,5774,6,0,P|259:125|256:107,1,71.9999978027344,2|0,0:0|0:0,0:0:0:0:
229,89,6127,2,0,P|229:47|234:21,1,47.9999985351563,0|0,0:0|0:0,0:0:0:0:
166,140,6479,2,0,P|143:129|123:116,1,47.9999985351563,0|0,0:0|0:0,0:0:0:0:
27,224,6832,6,0,P|85:220|112:221,1,71.9999978027344,2|0,0:0|0:0,0:0:0:0:
118,228,7185,1,0,0:0:0:0:
172,313,7362,1,0,0:0:0:0:
210,224,7538,2,0,P|212:200|216:175,1,47.9999985351563,0|0,0:0|0:0,0:0:0:0:
349,351,7891,5,2,0:0:0:0:
394,281,8068,2,0,L|418:284,2,15.9999995117188,2|2|2,0:0|0:0|0:0,0:0:0:0:
371,281,8244,2,0,P|365:243|363:224,1,47.9999985351563,2|0,0:0|0:0,0:0:0:0:
412,160,8597,2,0,P|419:123|421:104,1,47.9999985351563,0|0,0:0|0:0,0:0:0:0:
273,67,8950,6,0,P|313:94|314:157,1,95.9999970703126,6|0,0:0|0:0,0:0:0:0:
282,228,9479,1,0,0:0:0:0:
202,129,9656,2,0,P|235:132|271:139,1,47.9999985351563,0|0,0:0|0:0,0:0:0:0:
125,103,10009,6,0,P|75:108|57:117,1,47.9999985351563,2|0,0:0|0:0,0:0:0:0:
158,203,10362,2,0,P|111:183|92:181,1,47.9999985351563,2|0,0:0|0:0,0:0:0:0:
140,306,10715,2,0,P|109:265|93:254,1,47.9999985351563,2|0,0:0|0:0,0:0:0:0:
230,372,11068,6,0,P|240:330|264:259,1,95.9999970703126,2|0,0:0|0:0,0:0:0:0:
326,178,11597,1,0,0:0:0:0:
217,118,11774,2,0,P|229:157|236:180,1,47.9999985351563,0|0,0:0|0:0,0:0:0:0:
291,75,12127,6,0,P|300:47|309:20,1,47.9999985351563,6|0,0:0|0:0,0:0:0:0:
374,196,12479,1,8,0:0:0:0:
411,112,12656,1,0,0:0:0:0:
334,300,12832,1,0,3:0:0:0:
310,294,12920,1,0,3:0:0:0:
286,293,13008,1,0,3:0:0:0:
263,298,13096,1,0,3:0:0:0:
240,306,13185,6,0,P|229:237|235:162,1,128,4|8,0:1|0:0,0:0:0:0:
267,100,13715,1,0,0:0:0:0:
154,179,13891,2,0,B|114:171|73:156|73:156,1,64,0|0,1:0|0:0,0:0:0:0:
218,51,14244,6,0,B|303:45|285:95|364:85,1,128,10|8,0:0|0:0,0:0:0:0:
413,34,14774,1,0,0:0:0:0:
363,164,14950,1,0,1:2:0:0:
225,59,15127,1,0,0:0:0:0:
225,59,15215,1,0,0:0:0:0:
225,59,15303,6,0,P|230:112|232:157,1,96,8|0,0:3|0:0,0:0:0:0:
217,244,15656,2,0,P|267:231|305:231,1,64,8|0,0:0|0:0,0:0:0:0:
129,178,16009,2,0,P|78:165|40:165,1,64,0|0,1:0|0:0,0:0:0:0:
25,299,16362,6,0,P|103:308|132:360,1,128,10|8,0:0|0:0,0:0:0:0:
207,251,16891,1,0,0:0:0:0:
91,188,17068,2,0,P|98:222|101:257,1,64,0|0,1:0|0:0,0:0:0:0:
185,148,17421,6,0,P|201:114|231:79,1,64,10|0,0:0|0:0,0:0:0:0:
196,258,17774,2,0,P|158:260|113:252,1,64,8|0,0:0|0:0,0:0:0:0:
286,193,18127,2,0,P|307:224|322:267,1,64,0|0,1:0|0:0,0:0:0:0:
375,45,18479,6,0,P|353:77|338:120,1,64,10|0,0:0|0:0,0:0:0:0:
332,249,18832,2,0,P|319:216|299:188,1,64,8|0,0:0|0:0,0:0:0:0:
176,112,19185,2,0,P|210:116|244:113,1,64,0|0,1:0|0:0,0:0:0:0:
469,187,19538,6,0,P|397:198|359:265,1,128,10|8,0:0|0:0,0:0:0:0:
457,282,20068,1,0,0:0:0:0:
470,174,20244,2,0,P|448:121|432:101,1,64,0|0,1:0|0:0,0:0:0:0:
352,264,20597,6,0,B|277:261|283:301|217:292,1,128,10|8,0:0|0:0,0:0:0:0:
212,167,21127,1,0,0:0:0:0:
212,167,21215,1,0,0:0:0:0:
212,167,21303,2,0,P|218:184|221:200,1,32,0|0,1:0|1:0,0:0:0:0:
147,257,21479,2,0,P|141:274|137:290,1,32,0|0,1:0|1:0,0:0:0:0:
274,364,21656,6,0,P|284:275|300:210,1,128,4|8,0:1|0:0,0:0:0:0:
354,156,22185,1,0,0:0:0:0:
443,263,22362,2,0,P|389:248|360:232,1,64,0|0,1:0|0:0,0:0:0:0:
245,133,22715,6,0,P|303:127|343:48,1,128,10|8,0:0|0:0,0:0:0:0:
180,63,23244,1,0,0:0:0:0:
135,141,23421,2,0,P|126:175|124:209,1,64,0|0,1:0|0:0,0:0:0:0:
205,333,23774,5,8,0:3:0:0:
205,333,23950,1,0,0:0:0:0:
278,214,24127,2,0,P|241:225|209:259,1,64,8|0,0:0|0:0,0:0:0:0:
143,214,24479,2,0,P|133:251|147:295,1,64,0|0,1:0|0:0,0:0:0:0:
296,357,24832,6,0,P|281:295|272:268,1,64,10|0,0:0|0:0,0:0:0:0:
375,207,25185,2,0,P|365:240|358:274,1,64,8|0,0:0|0:0,0:0:0:0:
266,142,25538,2,0,P|275:175|282:210,1,64,0|0,1:0|0:0,0:0:0:0:
454,81,25891,6,0,P|393:90|361:170,1,128,10|8,0:0|0:0,0:0:0:0:
447,172,26421,1,0,0:0:0:0:
363,57,26597,2,0,P|317:53|281:68,1,64,0|0,1:0|0:0,0:0:0:0:
253,123,26862,1,0,0:0:0:0:
253,123,26950,6,0,P|191:149|122:114,1,128,10|8,0:0|0:0,0:0:0:0:
357,66,27479,2,0,B|338:232|341:223,1,128
305,273,27921,1,0,0:0:0:0:
305,273,28009,6,0,B|314:352|312:339,1,64,8|0,0:3|0:0,0:0:0:0:
454,248,28362,1,8,0:0:0:0:
266,197,28538,1,0,0:0:0:0:
449,127,28715,5,8,0:0:0:0:
372,215,28891,1,0,0:0:0:0:
358,40,29068,5,4,0:1:0:0:
341,357,30127,5,12,0:0:0:0:
341,357,30479,2,0,P|341:303|336:263,1,80,2|2,0:0|0:1,0:0:0:0:
454,160,31185,6,0,P|414:160|360:147,1,80,2|0,0:0|0:0,0:0:0:0:
306,94,31715,1,0,0:0:0:0:
306,94,31891,2,0,P|307:58|310:38,1,40,2|0,0:1|0:0,0:0:0:0:
247,181,32244,6,0,P|264:232|264:268,1,80,10|0,1:2|0:0,0:0:0:0:
243,356,32774,1,0,0:0:0:0:
243,356,32950,2,0,P|208:351|190:345,1,40,2|0,0:1|0:0,0:0:0:0:
64,298,33303,6,0,L|156:282,1,80,2|0,0:0|0:0,0:0:0:0:
176,196,33832,1,0,0:0:0:0:
176,196,34009,2,0,L|134:203,1,40,2|0,0:1|0:0,0:0:0:0:
281,384,34362,6,0,P|283:335|290:291,1,80,10|0,1:2|0:0,0:0:0:0:
342,230,34891,1,0,0:0:0:0:
342,230,35068,2,0,P|377:214|396:210,1,40,2|0,0:1|0:0,0:0:0:0:
447,154,35421,6,0,P|410:145|363:126,1,80,2|0,0:0|0:0,0:0:0:0:
310,67,35950,1,0,0:0:0:0:
310,67,36127,2,0,P|275:83|256:87,1,40,2|0,0:1|0:0,0:0:0:0:
157,48,36479,6,0,L|68:25,2,80,10|0|2,1:2|0:0|0:1,0:0:0:0:
244,39,37362,1,0,0:0:0:0:
244,39,37538,5,10,1:2:0:0:
220,117,37715,1,0,0:0:0:0:
197,195,37891,1,0,0:0:0:0:
220,117,38068,1,0,0:0:0:0:
312,101,38244,1,0,3:0:0:0:
327,104,38332,1,0,3:0:0:0:
343,107,38420,1,0,3:0:0:0:
359,110,38508,1,0,3:0:0:0:
374,113,38596,5,12,0:0:0:0:
402,301,38950,2,0,P|408:270|417:246,1,55.9999982910157,2|0,0:0|0:0,0:0:0:0:
326,377,39303,2,0,P|319:346|310:322,1,55.9999982910157,2|0,0:0|0:0,0:0:0:0:
255,176,39656,6,0,B|183:171|126:205,1,111.999996582031,8|2,0:0|0:0,0:0:0:0:
55,155,40185,1,0,0:0:0:0:
82,35,40362,2,0,P|110:78|113:105,1,55.9999982910157,2|0,0:0|0:0,0:0:0:0:
0,229,40715,6,0,P|7:201|90:172,1,111.999996582031,8|2,0:0|0:0,0:0:0:0:
166,227,41244,1,0,0:0:0:0:
238,151,41421,2,0,P|249:114|253:76,1,55.9999982910157,2|0,0:0|0:0,0:0:0:0:
166,227,41774,5,8,0:0:0:0:
166,227,42127,2,0,P|210:236|244:247,1,55.9999982910157,2|0,0:0|0:0,0:0:0:0:
68,310,42479,2,0,P|94:302|121:297,1,55.9999982910157,2|0,0:0|0:0,0:0:0:0:
18,143,42832,6,0,P|78:150|145:154,1,111.999996582031,8|2,0:0|0:0,0:0:0:0:
225,142,43362,1,0,0:0:0:0:
152,19,43538,2,0,P|165:53|173:92,1,55.9999982910157,2|0,0:0|0:0,0:0:0:0:
307,0,43891,6,0,P|293:35|284:72,1,55.9999982910157,8|0,0:0|0:0,0:0:0:0:
390,134,44244,2,0,P|381:96|367:61,1,55.9999982910157,2|0,0:0|0:0,0:0:0:0:
276,202,44597,2,0,P|284:164|298:129,1,55.9999982910157,10|0,0:0|0:0,0:0:0:0:
232,280,44950,6,0,B|296:267|282:313|356:295,1,111.999996582031,10|2,0:0|0:0,0:0:0:0:
443,279,45479,1,0,0:0:0:0:
389,208,45656,2,0,P|337:217|314:232,1,55.9999982910157,10|0,0:0|0:0,0:0:0:0:
442,148,46009,6,0,P|394:134|372:121,1,55.9999982910157,10|0,0:1|0:0,0:0:0:0:
306,0,46362,2,0,P|317:46|317:71,1,55.9999982910157,2|0,0:1|0:0,0:0:0:0:
246,192,46715,2,0,P|280:157|302:144,1,55.9999982910157,2|0,0:1|0:0,0:0:0:0:
114,100,47068,6,0,P|152:96|189:90,1,55.9999982910157,12|0,0:0|0:0,0:0:0:0:
92,251,47421,1,8,0:0:0:0:
57,173,47597,1,0,0:0:0:0:
0,300,47774,2,0,B|0:264|9:223,1,55.9999982910157,8|0,0:0|0:0,0:0:0:0:
0,88,48127,6,0,P|53:89|130:77,1,111.999996582031,10|8,0:0|0:0,0:0:0:0:
221,25,48656,1,0,0:0:0:0:
278,94,48832,2,0,P|267:142|262:171,1,55.9999982910157,8|0,0:0|0:0,0:0:0:0:
139,186,49185,6,0,P|158:222|175:303,1,111.999996582031,10|8,0:0|0:0,0:0:0:0:
252,365,49715,1,0,0:0:0:0:
338,276,49891,2,0,P|310:274|282:269,1,55.9999982910157,8|0,0:0|0:0,0:0:0:0:
131,232,50244,6,0,P|78:304|87:341,1,111.999996582031,10|8,0:0|0:0,0:0:0:0:
161,307,50774,1,0,0:0:0:0:
201,180,50950,2,0,P|203:130|202:100,1,55.9999982910157,8|0,0:0|0:0,0:0:0:0:
254,301,51303,6,0,P|308:329|350:332,1,83.9999974365235,10|0,0:0|0:0,0:0:0:0:
345,325,51656,2,0,P|408:323|416:326,1,55.9999982910157,8|0,0:0|0:0,0:0:0:0:
423,234,52009,2,0,P|478:263|483:270,1,55.9999982910157,8|0,0:0|0:0,0:0:0:0:
321,144,52362,6,0,P|305:216|297:279,1,111.999996582031,10|8,0:0|0:0,0:0:0:0:
407,191,52891,1,0,0:0:0:0:
279,60,53068,1,8,0:0:0:0:
321,144,53244,1,0,0:0:0:0:
456,59,53421,6,0,P|405:55|367:5,1,111.999996582031,10|8,0:0|0:0,0:0:0:0:
321,144,53950,1,0,0:0:0:0:
172,71,54127,2,0,P|220:67|238:64,1,55.9999982910157,8|0,0:0|0:0,0:0:0:0:
97,151,54479,6,0,P|133:159|161:181,1,55.9999982910157,10|0,0:1|0:0,0:0:0:0:
315,156,54832,1,2,0:1:0:0:
304,181,54920,1,0,0:0:0:0:
295,208,55008,1,0,0:0:0:0:
289,235,55096,1,0,0:0:0:0:
285,263,55185,2,0,B|280:317,1,35.9999989013672,2|0,0:1|0:0,0:0:0:0:
176,204,55362,2,0,B|170:163,1,35.9999989013672
145,347,55538,6,0,L|42:361,1,83.9999974365235,12|0,0:0|0:0,0:0:0:0:
53,364,55891,2,0,P|64:321|70:289,1,55.9999982910157,8|0,0:0|0:0,0:0:0:0:
16,206,56244,2,0,P|5:163|-1:131,1,55.9999982910157,8|0,0:0|0:0,0:0:0:0:
198,135,56597,6,0,P|132:173|127:221,1,111.999996582031,10|8,0:0|0:0,0:0:0:0:
10,140,57127,1,0,0:0:0:0:
16,273,57303,2,0,P|21:245|25:217,1,55.9999982910157,8|0,0:0|0:0,0:0:0:0:
10,37,57656,6,0,P|53:69|127:69,1,111.999996582031,10|8,0:0|0:0,0:0:0:0:
222,31,58185,1,0,0:0:0:0:
137,178,58362,1,8,0:0:0:0:
109,73,58538,1,0,0:0:0:0:
172,288,58715,6,0,B|234:283|219:315|281:313,1,111.999996582031,10|10,0:1|0:1,0:0:0:0:
363,265,59244,1,2,0:0:0:0:
271,172,59421,2,0,P|279:227|279:247,1,55.9999982910157,10|2,0:1|0:0,0:0:0:0:
136,209,59774,6,0,P|162:179|194:168,1,55.9999982910157,12|0,0:0|0:0,0:0:0:0:
212,36,60127,2,0,P|224:73|218:106,1,55.9999982910157,8|0,0:0|0:0,0:0:0:0:
323,188,60479,2,0,P|284:180|258:158,1,55.9999982910157,8|0,0:0|0:0,0:0:0:0:
288,353,60832,6,0,P|351:320|415:316,1,111.999996582031,10|8,0:0|0:0,0:0:0:0:
505,338,61362,1,0,0:0:0:0:
437,230,61538,2,0,P|397:223|364:212,1,55.9999982910157,8|0,0:0|0:0,0:0:0:0:
219,365,61891,6,0,P|246:357|273:353,1,55.9999982910157,12|0,0:0|0:0,0:0:0:0:
372,225,62244,1,2,0:0:0:0:
164,190,62421,2,0,P|191:197|218:201,1,55.9999982910157,0|2,0:0|0:0,0:0:0:0:
312,113,62774,1,0,0:0:0:0:
206,29,62950,6,0,P|218:93|116:71,1,200,4|0,0:1|0:0,0:0:0:0:
340,21,64009,6,0,P|324:80|326:117,1,71.9999978027344,4|0,0:1|0:0,0:0:0:0:
337,273,64362,2,0,P|332:237|320:203,1,71.9999978027344,8|0,0:0|0:0,0:0:0:0:
231,145,64715,1,2,1:2:0:0:
104,251,64891,1,0,0:0:0:0:
104,251,64979,1,0,0:0:0:0:
104,251,65068,6,0,L|180:238,1,71.9999978027344,8|0,0:3|0:0,0:0:0:0:
315,358,65421,2,0,L|239:345,1,71.9999978027344,8|0,0:0|0:0,0:0:0:0:
311,205,65774,1,2,1:2:0:0:
434,370,65950,1,0,0:0:0:0:
434,370,66038,1,0,0:0:0:0:
434,370,66127,6,0,P|452:317|465:290,1,71.9999978027344,8|0,0:3|0:0,0:0:0:0:
384,138,66479,2,0,P|398:171|408:205,1,71.9999978027344,8|0,0:0|0:0,0:0:0:0:
300,304,66832,2,0,P|251:288|232:273,1,71.9999978027344,2|0,1:2|0:0,0:0:0:0:
145,321,67097,1,0,0:0:0:0:
145,321,67185,6,0,P|110:329|80:349,1,71.9999978027344,8|0,0:3|0:0,0:0:0:0:
0,217,67538,2,0,P|30:236|64:245,1,71.9999978027344,8|0,0:0|0:0,0:0:0:0:
197,136,67891,1,2,1:2:0:0:
110,86,68068,1,0,0:0:0:0:
110,86,68156,1,0,0:0:0:0:
110,86,68244,5,8,0:3:0:0:
133,194,68421,1,0,0:0:0:0:
297,72,68597,2,0,P|219:52|200:38,1,71.9999978027344,8|0,0:0|0:0,0:0:0:0:
420,213,68950,2,0,P|342:233|323:247,1,71.9999978027344,2|0,1:2|0:0,0:0:0:0:
264,218,69215,1,0,0:0:0:0:
264,218,69303,6,0,P|275:258|281:297,1,71.9999978027344,8|0,0:3|0:0,0:0:0:0:
399,382,69656,2,0,P|405:346|415:311,1,71.9999978027344,8|0,0:0|0:0,0:0:0:0:
490,232,70009,1,0,1:2:0:0:
333,331,70185,1,0,0:0:0:0:
385,125,70362,6,0,P|393:185|395:227,1,71.9999978027344,8|0,0:3|0:0,0:0:0:0:
241,355,70715,2,0,P|244:319|250:284,1,71.9999978027344,8|0,0:0|0:0,0:0:0:0:
299,205,70979,1,0,0:0:0:0:
299,205,71068,2,0,P|251:194|221:173,1,71.9999978027344,2|0,1:2|0:0,0:0:0:0:
36,68,71421,5,4,0:0:0:0:
73,43,71509,1,0,0:0:0:0:
117,37,71597,1,0,0:0:0:0:
159,51,71685,1,0,0:0:0:0:
192,82,71773,5,8,0:1:0:0:
209,79,71862,1,0,0:0:0:0:
227,77,71950,1,0,0:0:0:0:
245,76,72038,1,0,0:0:0:0:
262,74,72127,6,0,L|316:68,1,35.9999989013672,8|0,3:1|3:0,0:0:0:0:
164,170,72303,2,0,L|218:175,1,35.9999989013672,0|0,3:0|3:0,0:0:0:0:
19,137,72479,6,0,P|23:101|35:67,1,71.9999978027344,4|0,0:1|0:0,0:0:0:0:
171,253,72832,2,0,P|166:217|154:183,1,71.9999978027344,8|0,0:0|0:0,0:0:0:0:
13,148,73185,1,2,1:2:0:0:
0,272,73361,1,0,0:0:0:0:
0,272,73449,1,0,0:0:0:0:
0,272,73538,6,0,L|76:259,1,71.9999978027344,8|0,0:3|0:0,0:0:0:0:
172,356,73891,2,0,L|242:368,1,71.9999978027344,8|0,0:0|0:0,0:0:0:0:
402,185,74244,1,0,1:0:0:0:
377,196,74332,1,0,1:0:0:0:
357,214,74420,1,0,1:0:0:0:
345,238,74508,1,0,1:0:0:0:
340,264,74597,6,0,P|354:297|364:331,1,71.9999978027344,6|0,0:0|0:0,0:0:0:0:
266,128,74950,2,0,P|252:161|242:195,1,71.9999978027344,8|0,0:0|0:0,0:0:0:0:
118,113,75302,2,0,P|167:97|186:82,1,71.9999978027344,2|0,1:2|0:0,0:0:0:0:
268,29,75567,1,0,0:0:0:0:
268,29,75655,6,0,P|303:37|333:57,1,71.9999978027344,8|0,0:3|0:0,0:0:0:0:
448,119,76009,2,0,P|483:111|513:91,1,71.9999978027344,8|0,0:0|0:0,0:0:0:0:
380,211,76361,1,2,1:2:0:0:
249,47,76538,1,0,0:0:0:0:
249,47,76626,1,0,0:0:0:0:
249,47,76714,5,10,0:3:0:0:
355,107,76891,1,0,0:0:0:0:
175,135,77067,2,0,P|97:115|78:101,1,71.9999978027344,8|0,0:0|0:0,0:0:0:0:
344,221,77420,2,0,P|377:208|413:205,1,71.9999978027344,2|0,1:2|0:0,0:0:0:0:
512,201,77685,1,0,0:0:0:0:
512,201,77773,6,0,P|501:241|495:280,1,71.9999978027344,8|0,0:3|0:0,0:0:0:0:
361,381,78126,2,0,P|355:345|345:310,1,71.9999978027344,8|0,0:0|0:0,0:0:0:0:
251,205,78479,1,2,1:2:0:0:
178,362,78656,1,0,0:0:0:0:
178,362,78745,1,0,0:0:0:0:
178,362,78832,5,8,0:3:0:0:
257,299,79009,1,0,0:0:0:0:
110,180,79185,1,8,0:0:0:0:
169,278,79362,1,0,0:0:0:0:
169,278,79450,1,0,0:0:0:0:
169,278,79538,2,0,P|181:227|193:177,1,71.9999978027344,8|0,0:0|0:0,0:0:0:0:
224,74,79891,5,4,0:1:0:0:
224,74,80244,6,0,L|233:116,1,40,0|0,0:0|0:0,0:0:0:0:
143,21,80597,2,0,L|134:63,1,40,0|0,0:0|0:0,0:0:0:0:
0,188,80950,6,0,P|62:191|83:268,1,120,14|0,0:3|0:0,0:0:0:0:
102,253,81303,2,0,P|89:305|85:338,1,80,8|0,0:0|0:0,0:0:0:0:
192,169,81656,1,8,0:3:0:0:
247,306,81832,1,0,0:0:0:0:
400,172,82009,6,0,P|352:187|300:197,1,80,2|0,1:2|0:0,0:0:0:0:
377,349,82362,2,0,P|388:299|405:249,1,80,8|0,0:0|0:0,0:0:0:0:
477,61,82715,2,0,P|488:110|505:160,1,80,8|0,0:3|0:0,0:0:0:0:
232,87,83068,6,0,P|272:99|358:70,1,120,10|0,0:3|0:0,0:0:0:0:
353,66,83421,2,0,P|324:35|282:28,1,80,8|0,0:0|0:0,0:0:0:0:
177,189,83774,1,8,0:3:0:0:
131,44,83950,1,0,0:0:0:0:
264,151,84127,6,0,P|324:149|369:142,1,80,2|0,1:2|0:0,0:0:0:0:
126,286,84479,2,0,P|186:288|231:295,1,80,8|0,0:0|0:0,0:0:0:0:
267,159,84832,1,8,0:3:0:0:
126,57,85009,1,0,0:0:0:0:
374,24,85185,6,0,P|406:70|412:114,1,80,10|0,0:3|0:0,0:0:0:0:
477,172,85450,1,0,0:0:0:0:
465,175,85538,2,0,P|433:221|427:265,1,80,8|0,0:0|0:0,0:0:0:0:
489,358,85891,5,8,0:3:0:0:
353,230,86068,1,0,0:0:0:0:
261,360,86244,2,0,P|304:343|370:335,1,80,2|0,1:2|0:0,0:0:0:0:
148,238,86597,2,0,P|108:229|71:214,1,80,8|0,0:0|0:0,0:0:0:0:
348,158,86950,2,0,P|308:166|271:181,1,80,8|0,0:3|0:0,0:0:0:0:
130,356,87303,5,10,0:3:0:0:
197,164,87479,1,0,0:0:0:0:
273,361,87656,1,8,0:0:0:0:
157,258,87832,1,0,0:0:0:0:
46,384,88009,1,8,0:3:0:0:
217,313,88185,1,0,0:0:0:0:
38,192,88362,6,0,P|25:229|25:269,1,80,2|0,1:2|0:0,0:0:0:0:
82,81,88715,2,0,P|82:43|68:2,1,80,0|0,1:0|1:0,0:0:0:0:
109,242,89068,5,0,1:0:0:0:
135,214,89156,1,0,1:0:0:0:
172,200,89244,1,0,1:0:0:0:
210,201,89332,1,0,1:0:0:0:
243,213,89421,6,0,P|296:225|350:128,1,160,14|8,0:3|0:0,0:0:0:0:
272,323,89950,1,0,0:0:0:0:
357,139,90127,1,8,0:3:0:0:
451,270,90303,1,0,0:0:0:0:
512,103,90479,6,0,B|422:86|450:147|355:128,1,160,2|8,1:2|0:0,0:0:0:0:
218,9,91009,1,0,0:0:0:0:
362,118,91185,1,8,0:3:0:0:
137,124,91362,1,0,0:0:0:0:
137,124,91450,1,0,0:0:0:0:
137,124,91538,6,0,P|192:105|234:115,1,80,10|0,0:3|0:0,0:0:0:0:
412,206,91891,2,0,P|372:206|336:189,1,80,8|0,0:0|0:0,0:0:0:0:
383,41,92244,1,8,0:3:0:0:
481,130,92421,1,0,0:0:0:0:
252,236,92597,6,0,P|247:187|232:139,1,80,2|0,1:2|0:0,0:0:0:0:
370,321,92950,2,0,P|330:349|295:386,1,80,8|0,0:0|0:0,0:0:0:0:
120,195,93303,2,0,P|80:166|45:129,1,80,8|0,0:3|0:0,0:0:0:0:
154,384,93656,6,0,P|159:344|172:306,1,80,10|0,0:3|0:0,0:0:0:0:
358,213,94009,1,8,0:0:0:0:
266,359,94185,1,0,0:0:0:0:
234,159,94362,1,8,0:3:0:0:
311,280,94538,1,0,0:0:0:0:
373,80,94715,6,0,P|365:119|362:159,1,80,2|0,1:2|0:0,0:0:0:0:
421,255,94979,1,0,0:0:0:0:
428,262,95068,2,0,P|436:301|439:341,1,80,8|0,0:0|0:0,0:0:0:0:
352,171,95421,1,2,0:3:0:0:
512,263,95597,1,0,0:0:0:0:
512,70,95774,5,4,0:0:0:0:
477,50,95862,1,0,0:0:0:0:
437,48,95950,1,0,0:0:0:0:
400,62,96038,1,0,0:0:0:0:
373,91,96126,5,8,0:1:0:0:
345,119,96215,1,0,0:0:0:0:
308,134,96303,1,0,0:0:0:0:
269,132,96391,1,0,0:0:0:0:
233,115,96479,6,0,L|226:64,1,40,0|0,0:0|0:0,0:0:0:0:
334,229,96656,2,0,L|328:268,1,40,0|0,0:0|0:0,0:0:0:0:
64,217,96832,6,0,P|111:198|154:200,1,80,4|0,0:1|0:0,0:0:0:0:
232,356,97185,5,0,1:0:0:0:
207,332,97273,1,0,1:0:0:0:
199,299,97361,1,0,1:0:0:0:
209,267,97449,1,0,1:0:0:0:
234,244,97538,2,0,B|277:239|292:233|292:232,1,40,0|0,1:0|1:0,0:0:0:0:
341,131,97715,2,0,B|384:136|399:142|399:143,1,40,0|0,1:0|1:0,0:0:0:0:
328,301,97891,6,0,P|363:336|414:344,1,80,10|0,0:1|0:0,0:0:0:0:
489,201,98244,2,0,P|441:213|408:253,1,80,8|0,0:0|0:0,0:0:0:0:
255,100,98597,2,0,P|285:125|324:133,1,80,8|0,0:3|0:0,0:0:0:0:
179,207,98950,6,0,P|131:222|79:232,1,80,2|0,1:2|0:0,0:0:0:0:
280,332,99303,2,0,P|328:347|380:357,1,80,8|0,0:0|0:0,0:0:0:0:
159,384,99656,2,0,P|170:345|178:306,1,80,8|0,0:3|0:0,0:0:0:0:
224,112,100009,6,0,P|184:124|98:95,1,120,10|0,0:3|0:0,0:0:0:0:
92,87,100362,2,0,P|104:151|104:178,1,80,8|0,0:0|0:0,0:0:0:0:
45,311,100715,1,8,0:3:0:0:
100,175,100891,1,0,0:0:0:0:
267,249,101068,6,0,P|207:251|162:258,1,80,2|0,1:2|0:0,0:0:0:0:
415,345,101421,2,0,P|375:349|335:349,1,80,8|0,0:0|0:0,0:0:0:0:
258,260,101773,1,8,0:3:0:0:
365,169,101950,1,0,0:0:0:0:
269,54,102126,6,0,P|223:85|179:92,1,80,10|0,0:3|0:0,0:0:0:0:
105,167,102391,1,0,0:0:0:0:
97,156,102479,2,0,P|51:124|7:118,1,80,8|0,0:0|0:0,0:0:0:0:
42,361,102832,5,8,0:3:0:0:
158,243,103009,1,0,0:0:0:0:
207,384,103185,2,0,P|250:367|316:359,1,80,2|0,1:2|0:0,0:0:0:0:
76,269,103538,2,0,P|36:260|-1:245,1,80,8|0,0:0|0:0,0:0:0:0:
238,212,103891,2,0,P|278:203|315:188,1,80,8|0,0:3|0:0,0:0:0:0:
168,21,104244,5,10,0:3:0:0:
124,174,104421,1,0,0:0:0:0:
33,30,104597,1,8,0:0:0:0:
146,95,104774,1,0,0:0:0:0:
10,212,104950,2,0,P|15:166|23:123,1,80,8|0,0:3|0:0,0:0:0:0:
215,194,105303,6,0,P|291:220|314:223,1,80,2|0,1:2|0:0,0:0:0:0:
90,350,105656,2,0,P|166:324|189:321,1,80,0|0,1:0|1:0,0:0:0:0:
466,329,106009,5,0,1:0:0:0:
437,335,106097,1,0,1:0:0:0:
408,329,106185,1,0,1:0:0:0:
384,310,106273,1,0,1:0:0:0:
372,283,106362,6,0,B|378:202|385:124,1,160,14|8,0:3|0:0,0:0:0:0:
246,263,106891,1,0,0:0:0:0:
350,194,107068,1,8,0:3:0:0:
219,117,107244,1,0,0:0:0:0:
123,309,107421,6,0,B|213:292|185:353|280:334,1,160,2|8,1:2|0:0,0:0:0:0:
357,186,107950,1,0,0:0:0:0:
240,254,108126,1,8,0:3:0:0:
441,334,108303,1,0,0:0:0:0:
441,334,108391,1,0,0:0:0:0:
441,334,108479,6,0,P|460:282|464:236,1,80,10|0,0:3|0:0,0:0:0:0:
320,93,108832,2,0,P|327:132|342:169,1,80,8|0,0:0|0:0,0:0:0:0:
464,243,109185,1,8,0:3:0:0:
437,95,109362,1,0,0:0:0:0:
298,253,109538,6,0,P|340:248|389:237,1,80,2|0,1:2|0:0,0:0:0:0:
218,124,109891,2,0,P|176:119|127:108,1,80,8|0,0:0|0:0,0:0:0:0:
170,314,110244,1,8,0:3:0:0:
299,232,110421,1,0,0:0:0:0:
107,250,110597,6,0,P|85:291|89:348,1,80,10|0,0:3|0:0,0:0:0:0:
189,183,110950,2,0,P|235:181|282:149,1,80,8|0,0:0|0:0,0:0:0:0:
90,146,111303,2,0,P|65:106|14:81,1,80,8|0,0:3|0:0,0:0:0:0:
208,285,111656,6,0,P|259:297|293:317,1,80,2|0,1:2|0:0,0:0:0:0:
405,273,111921,1,0,0:0:0:0:
405,273,112009,2,0,P|456:261|490:241,1,80,8|0,0:0|0:0,0:0:0:0:
334,106,112362,1,8,0:3:0:0:
263,208,112538,1,0,0:0:0:0:
456,107,112715,6,0,P|459:56|470:-1,1,80,10|0,0:3|0:0,0:0:0:0:
471,13,112979,1,0,0:0:0:0:
480,0,113068,1,8,0:0:0:0:
512,223,113244,1,0,0:0:0:0:
342,143,113421,2,0,P|262:137|237:138,1,80,8|0,0:3|0:0,0:0:0:0:
96,285,113774,5,8,0:3:0:0:
124,275,113862,1,0,0:0:0:0:
153,274,113950,1,0,0:0:0:0:
182,283,114038,1,0,0:0:0:0:
206,301,114126,1,8,0:0:0:0:
230,318,114215,1,0,0:0:0:0:
258,327,114303,1,0,0:0:0:0:
288,326,114391,1,0,0:0:0:0:
316,315,114479,2,0,P|321:290|324:257,1,40,0|0,1:0|0:0,0:0:0:0:
356,135,114656,2,0,P|358:154|362:174,1,40,0|0,0:0|0:0,0:0:0:0:
236,238,114832,6,0,B|151:223|169:275|75:259,1,160,14|0,0:3|0:0,0:0:0:0:
101,338,115891,2,0,L|113:168,1,160,2|0,0:0|0:0,0:0:0:0:
76,98,116774,1,2,0:0:0:0:
150,43,116950,6,0,P|191:27|238:37,2,80,2|2|2,0:0|0:0|0:0,0:0:0:0:
166,143,118009,2,0,L|224:152,1,40,2|0,0:0|0:0,0:0:0:0:
272,100,118362,2,0,L|330:91,1,40,2|0,0:0|0:0,0:0:0:0:
390,40,118715,1,2,0:0:0:0:
390,40,118891,1,2,0:0:0:0:
439,116,119068,6,0,L|450:163,1,40,4|2,0:1|0:0,0:0:0:0:
454,256,119421,1,2,0:0:0:0:
454,256,119597,1,2,0:0:0:0:
371,201,119774,1,2,0:0:0:0:
371,201,119950,1,2,0:0:0:0:
293,290,120127,6,0,P|321:282|350:279,1,40,0|0,0:0|0:0,0:0:0:0:
228,226,120479,2,0,P|208:222|189:216,1,40,2|0,0:0|0:0,0:0:0:0:
143,320,120832,2,0,P|171:312|200:309,1,40,2|0,0:0|0:0,0:0:0:0:
353,365,121186,5,2,0:0:0:0:
449,151,121586,5,2,0:0:0:0:
309,88,122034,5,2,0:0:0:0:
244,151,122592,5,2,0:0:0:0:
290,202,123258,5,2,0:0:0:0:
299,181,124116,5,2,0:0:0:0:
