osu file format v14

[General]
AudioFilename: audio.mp3
AudioLeadIn: 0
PreviewTime: 80246
Countdown: 0
SampleSet: Soft
StackLeniency: 0.4
Mode: 0
LetterboxInBreaks: 0
WidescreenStoryboard: 0

[Editor]
Bookmarks: 13185,30127,47068,64009,114832,125315
DistanceSpacing: 0.7
BeatDivisor: 4
GridSize: 32
TimelineZoom: 2.3

[Metadata]
Title:Element of SPADA
TitleUnicode:Element of SPADA
Artist:Nekomata Master feat. Shimotsuki Haruka
ArtistUnicode:猫叉Master feat. 霜月はるか
Creator:August
Version:Loyalty
Source:beatmania IIDX 21 SPADA
Tags:xen dakinibrave healing pop jpop japanese female vocals rhythm video game short version xayah sato naoyuki satou 飛燕流舞 佐藤直之 follow slowly handsome hehe pop'n music ラピストリア lapistoria ノスタルジア FORTE nostalgia BeatStream xenon- xehn
BeatmapID:2187833
BeatmapSetID:1046566

[Difficulty]
HPDrainRate:5.4
CircleSize:4.5
OverallDifficulty:8.3
ApproachRate:9
SliderMultiplier:1.7
SliderTickRate:1

[Events]
//Background and Video events
0,0,"bg.jpg",0,0
//Break Periods
//Storyboard Layer 0 (Background)
//Storyboard Layer 1 (Fail)
//Storyboard Layer 2 (Pass)
//Storyboard Layer 3 (Foreground)
//Storyboard Layer 4 (Overlay)
//Storyboard Sound Samples

[TimingPoints]
480,352.941176470588,3,2,2,65,1,0
480,-166.666666666667,3,2,2,40,0,0
3656,-142.857142857143,3,2,2,45,0,0
4715,-142.857142857143,3,2,2,50,0,0
4716,-133.333333333333,3,2,2,50,0,0
10009,-111.111111111111,3,2,2,50,0,0
10362,-100,3,2,2,50,0,0
10715,-86.9565217391303,3,2,2,50,0,0
11068,-125,3,2,2,50,0,0
12391,-125,3,2,2,5,0,0
12479,-125,3,2,2,50,0,0
12832,-133.333333333333,3,2,2,50,0,0
13185,-90.9090909090909,3,2,1,60,0,0
14244,-90.9090909090909,3,2,3,60,0,0
14421,-90.9090909090909,3,2,1,60,0,0
15656,-90.9090909090909,3,2,1,60,0,0
16009,-166.666666666667,3,2,1,60,0,0
16362,-86.9565217391304,3,2,3,60,0,0
16715,-90.9090909090909,3,2,1,60,0,0
17068,-166.666666666667,3,2,1,60,0,0
17421,-83.3333333333333,3,2,3,60,0,0
17774,-166.666666666667,3,2,1,60,0,0
18127,-100,3,2,1,60,0,0
18479,-71.4285714285714,3,2,3,60,0,0
18832,-166.666666666667,3,2,1,60,0,0
19185,-83.3333333333333,3,2,1,60,0,0
19538,-71.4285714285714,3,2,3,60,0,0
19715,-71.4285714285714,3,2,1,60,0,0
20244,-166.666666666667,3,2,1,60,0,0
20597,-83.3333333333333,3,2,3,60,0,0
20774,-83.3333333333333,3,2,1,60,0,0
21656,-90.9090909090909,3,2,1,60,0,0
22715,-90.9090909090909,3,2,3,60,0,0
22891,-90.9090909090909,3,2,1,60,0,0
24127,-76.9230769230769,3,2,1,60,0,0
24479,-181.818181818182,3,2,1,60,0,0
24832,-76.9230769230769,3,2,3,60,0,0
25185,-181.818181818182,3,2,1,60,0,0
25538,-76.9230769230769,3,2,1,60,0,0
25891,-83.3333333333333,3,2,3,60,0,0
26068,-83.3333333333333,3,2,1,60,0,0
26597,-181.818181818182,3,2,1,60,0,0
26950,-90.9090909090909,3,2,3,60,0,0
27127,-90.9090909090909,3,2,1,60,0,0
29068,-153.846153846154,3,2,1,60,0,0
29156,-153.846153846154,3,2,1,5,0,0
30038,-153.846153846154,3,2,1,5,0,0
30127,-125,3,2,3,40,0,0
34362,-105.263157894737,3,2,3,40,0,0
35068,-125,3,2,3,40,0,0
36744,-125,3,2,3,5,0,0
36832,-125,3,2,3,40,0,0
38597,-117.647058823529,3,2,3,45,0,0
46009,-125,3,2,3,45,0,0
46362,-111.111111111111,3,2,3,45,0,0
46715,-100,3,2,3,45,0,0
47068,-100,3,2,3,55,0,0
47421,-100,3,2,3,50,0,0
54479,-111.111111111111,3,2,3,55,0,0
54832,-100,3,2,3,57,0,0
55185,-90.9090909090909,3,2,3,60,0,0
55538,-90.9090909090909,3,2,3,63,0,0
55891,-100,3,2,3,55,0,0
59774,-100,3,2,4,55,0,0
60038,-100,3,2,3,5,0,0
60127,-100,3,2,3,55,0,0
62950,-111.111111111111,3,2,3,50,0,0
64009,-90.9090909090909,3,2,1,60,0,0
65068,-86.9565217391304,3,2,1,60,0,0
65421,-80,3,2,1,60,0,0
65774,-74.0740740740741,3,2,1,60,0,0
66127,-90.9090909090909,3,2,1,60,0,0
69303,-83.3333333333333,3,2,1,60,0,0
69656,-76.9230769230769,3,2,1,60,0,0
70362,-90.9090909090909,3,2,1,60,0,0
71421,-90.9090909090909,3,2,2,70,0,0
72127,-90.9090909090909,3,2,2,60,0,0
72479,-86.9565217391304,3,2,1,60,0,0
76715,-90.9090909090909,3,2,1,60,0,0
78832,-86.9565217391304,3,2,1,60,0,0
79538,-100,3,2,1,60,0,0
79891,-117.647058823529,3,2,1,60,0,0
80244,-117.647058823529,3,2,1,64,0,0
80597,-117.647058823529,3,2,1,65,0,0
80685,-117.647058823529,3,2,1,68,0,0
80774,-117.647058823529,3,2,1,71,0,0
80862,-117.647058823529,3,2,1,73,0,0
80950,-76.9230769230769,3,2,1,75,0,0
85185,-80,3,2,1,75,0,0
86244,-80,3,2,1,75,0,0
88627,-80,3,2,1,5,0,0
88715,-80,3,2,1,75,0,0
89421,-80,3,2,1,70,0,0
92950,-76.9230769230769,3,2,1,70,0,0
93303,-74.0740740740741,3,2,1,70,0,0
93656,-76.9230769230769,3,2,1,75,0,0
95774,-76.9230769230769,3,2,2,60,0,0
96127,-76.9230769230769,3,2,2,64,0,0
96479,-76.9230769230769,3,2,2,70,0,0
96832,-74.0740740740739,3,2,1,70,0,0
97097,-74.0740740740739,3,2,1,5,0,0
97185,-76.9230769230769,3,2,1,65,0,0
97362,-76.9230769230769,3,2,1,65,0,0
97538,-100,3,2,1,66,0,0
97627,-100,3,2,1,69,0,0
97715,-100,3,2,1,72,0,0
97803,-100,3,2,1,75,0,0
97891,-76.9230769230769,3,2,1,75,0,0
102127,-80,3,2,1,75,0,0
103185,-80,3,2,1,75,0,0
105568,-80,3,2,1,5,0,0
105656,-80,3,2,1,75,0,0
106362,-80,3,2,1,70,0,0
109891,-83.3333333333333,3,2,1,70,0,0
110244,-86.9565217391304,3,2,1,70,0,0
110597,-80,3,2,1,75,0,0
112715,-80,3,2,1,70,0,0
113774,-83.3333333333333,3,2,1,70,0,0
114127,-83.3333333333333,3,2,1,70,0,0
114479,-83.3333333333333,3,2,1,65,0,0
114832,-133.333333333333,3,2,1,60,0,0
115009,-153.846153846153,3,2,2,50,0,0
118009,-166.666666666667,3,2,2,50,0,0
119068,-133.333333333333,3,2,2,55,0,0
119421,-125,3,2,2,50,0,0
120479,-153.846153846154,3,2,2,50,0,0
121186,400,4,2,2,50,1,8
121186,-133.333333333333,4,2,2,45,0,0
121586,448.095593726662,4,2,2,40,1,8
122034,558.139534883721,4,2,2,40,1,8
122034,-133.333333333333,4,2,2,40,0,0
122592,666.666666666667,4,2,2,45,1,8
123258,858.369098712446,4,2,2,45,1,8
123258,-133.333333333333,4,2,2,35,0,0
124116,1200,4,2,2,45,1,8
124190,-100,4,2,2,30,0,8
125315,-100,4,2,2,5,0,8

[Colours]
Combo1 : 233,233,233
Combo2 : 164,232,169
Combo3 : 243,197,209
Combo4 : 241,154,154
Combo5 : 152,234,248
Combo6 : 185,45,48

[HitObjects]
141,50,480,5,2,0:0:0:0:
141,50,832,2,0,P|130:74|129:99,1,50.9999984436036,0|0,0:0|0:0,0:0:0:0:
152,173,1185,2,0,P|171:189|194:199,1,50.9999984436036,0|0,0:0|0:0,0:0:0:0:
320,103,1538,5,2,0:0:0:0:
320,103,1891,2,0,P|330:126|331:151,1,50.9999984436036,0|0,0:0|0:0,0:0:0:0:
309,226,2244,1,0,0:0:0:0:
304,225,2421,1,0,0:0:0:0:
152,173,2597,5,2,0:0:0:0:
152,173,2950,2,0,P|141:197|140:222,1,50.9999984436036,0|0,0:0|0:0,0:0:0:0:
163,296,3303,2,0,P|182:312|205:322,1,50.9999984436036,0|0,0:0|0:0,0:0:0:0:
331,226,3656,5,2,0:0:0:0:
331,226,4009,2,0,L|327:266,3,29.7499990921021,2|0|0|0,0:0|0:0|0:0|0:0,0:0:0:0:
308,326,4362,2,0,L|268:330,1,29.7499990921021,0|0,0:0|0:0,0:0:0:0:
305,332,4538,2,0,L|265:336,1,29.7499990921021,0|0,0:0|0:0,0:0:0:0:
114,351,4715,37,6,0:0:0:0:
114,351,5068,2,0,P|83:343|52:348,1,63.7500024318696
51,253,5421,2,0,P|21:264|0:287,1,63.7500024318696,0|0,0:0|0:0,0:0:0:0:
57,136,5774,5,2,0:0:0:0:
57,136,6127,2,0,P|87:128|118:133,1,63.7500024318696
120,38,6479,1,0,0:0:0:0:
126,37,6656,1,0,0:0:0:0:
204,176,6832,5,2,0:0:0:0:
204,176,7185,2,0,P|196:206|201:237,1,63.7500024318696,0|0,0:0|0:0,0:0:0:0:
288,133,7538,1,0,0:0:0:0:
286,127,7715,1,0,0:0:0:0:
365,238,7891,6,0,P|372:207|367:176,1,63.7500024318696,2|2,0:0|0:0,0:0:0:0:
372,170,8127,1,2,0:0:0:0:
377,164,8185,1,2,0:0:0:0:
381,159,8244,2,0,P|413:159|443:170,1,63.7500024318696,2|0,0:0|0:0,0:0:0:0:
512,257,8597,2,0,P|480:256|450:245,1,63.7500024318696,0|0,0:0|0:0,0:0:0:0:
376,49,8950,37,6,0:0:0:0:
376,49,9303,2,0,P|407:44|435:30,1,63.7500024318696,0|0,0:0|0:0,0:0:0:0:
331,121,9656,2,0,P|352:144|381:158,1,63.7500024318696,0|0,0:0|0:0,0:0:0:0:
306,2,10009,6,0,P|268:0|232:13,1,76.4999976654053,2|0,0:0|0:0,0:0:0:0:
109,0,10362,2,0,P|94:39|101:81,1,85,2|0,0:0|0:0,0:0:0:0:
46,186,10715,2,0,P|85:214|133:217,1,97.7500018644333,2|0,0:0|0:0,0:0:0:0:
325,99,11068,5,2,0:0:0:0:
325,99,11421,2,0,P|294:87|260:87,1,68,0|0,0:0|0:0,0:0:0:0:
355,190,11774,1,0,0:0:0:0:
354,197,11950,1,0,0:0:0:0:
294,373,12127,6,0,L|306:272,1,102,6|0,0:0|0:0,0:0:0:0:
306,272,12479,1,8,0:0:0:0:
375,331,12656,1,0,0:0:0:0:
225,314,12832,1,0,3:0:0:0:
206,317,12921,1,0,3:0:0:0:
187,321,13009,1,0,3:0:0:0:
168,324,13097,1,0,3:0:0:0:
128,299,13185,38,0,L|145:181,1,93.5000028533936,4|0,0:1|0:0,0:0:0:0:
6,121,13538,2,0,B|42:111|76:130|76:130|67:153,1,93.5000028533936,8|0,0:0|0:0,0:0:0:0:
153,135,13803,1,0,0:0:0:0:
160,128,13891,2,0,L|177:10,1,93.5000028533936,0|0,1:0|0:0,0:0:0:0:
377,66,14244,2,0,P|289:74|240:0,1,187.000005706787,10|8,0:0|0:0,0:0:0:0:
265,83,14774,5,0,0:0:0:0:
428,9,14950,1,0,1:2:0:0:
325,0,15127,1,0,0:0:0:0:
305,172,15303,5,8,0:3:0:0:
305,172,15656,6,0,P|279:211|283:257,1,93.5000028533936,8|0,0:0|0:0,0:0:0:0:
512,355,16009,38,0,L|462:348,1,50.9999984436036,0|0,1:0|0:0,0:0:0:0:
492,274,16362,6,0,B|437:259|395:297|395:297|356:331|308:322,1,195.500003728867,10|8,0:0|0:0,0:0:0:0:
217,283,16891,1,0,0:0:0:0:
0,253,17068,6,0,L|58:261,1,50.9999984436036,0|0,1:0|0:0,0:0:0:0:
122,297,17421,6,0,P|130:247|107:202,1,101.999996887207,10|0,0:0|0:0,0:0:0:0:
148,0,17774,38,0,L|139:58,1,50.9999984436036,8|0,0:0|0:0,0:0:0:0:
95,118,18127,6,0,P|134:131|176:124,1,85,0|0,1:0|0:0,0:0:0:0:
319,6,18479,6,0,P|284:52|289:110,1,118.999996368408,10|0,0:0|0:0,0:0:0:0:
512,185,18832,6,0,L|453:193,1,50.9999984436036,8|0,0:0|0:0,0:0:0:0:
390,229,19185,38,0,P|381:179|404:134,1,101.999996887207,0|0,1:0|0:0,0:0:0:0:
376,44,19538,6,0,P|309:93|203:-1,1,237.999992736817,10|8,0:0|0:0,0:0:0:0:
38,8,20068,1,0,0:0:0:0:
48,15,20156,1,0,0:0:0:0:
58,22,20244,6,0,L|49:80,1,50.9999984436036,0|0,1:0|0:0,0:0:0:0:
0,137,20597,6,0,B|46:168|93:142|93:142|147:110|193:141,1,203.999993774414,10|8,0:0|0:0,0:0:0:0:
271,231,21127,1,0,0:0:0:0:
173,299,21303,1,0,1:0:0:0:
176,318,21391,1,0,1:0:0:0:
180,337,21479,1,0,1:0:0:0:
184,357,21568,1,0,1:0:0:0:
222,382,21656,38,0,L|340:365,1,93.5000028533936,4|0,0:1|0:0,0:0:0:0:
378,220,22009,2,0,B|387:256|368:290|368:290|346:281,1,93.5000028533936,8|0,0:0|0:0,0:0:0:0:
386,360,22274,1,0,0:0:0:0:
395,365,22362,2,0,L|513:348,1,93.5000028533936,0|0,1:0|0:0,0:0:0:0:
444,154,22715,2,0,P|361:121|295:180,1,187.000005706787,10|8,0:0|0:0,0:0:0:0:
246,111,23244,5,0,0:0:0:0:
376,203,23421,1,0,1:0:0:0:
316,262,23597,1,0,0:0:0:0:
306,52,23774,5,8,0:3:0:0:
306,52,24127,6,0,B|336:78|336:78|408:68,1,110.499994941712,8|0,0:0|0:0,0:0:0:0:
178,0,24479,38,0,P|169:21|168:44,1,46.7500014266968,0|0,1:0|0:0,0:0:0:0:
100,144,24832,6,0,B|70:170|70:170|-2:160,1,110.499994941712,10|0,0:0|0:0,0:0:0:0:
235,82,25185,6,0,P|243:103|244:126,1,46.7500014266968,8|0,0:0|0:0,0:0:0:0:
308,247,25538,6,0,B|338:273|338:273|410:263,1,110.499994941712,0|0,1:0|0:0,0:0:0:0:
512,194,25891,38,0,B|500:277|500:277|474:300|474:300|462:386,1,203.999993774414,10|8,0:0|0:0,0:0:0:0:
292,340,26421,1,0,0:0:0:0:
283,349,26509,1,0,0:0:0:0:
273,358,26597,6,0,P|249:358|227:352,1,46.7500014266968,0|0,1:0|0:0,0:0:0:0:
166,280,26950,6,0,B|125:320|125:320|144:188,1,187.000005706787,10|8,0:0|0:0,0:0:0:0:
224,115,27479,1,0,0:0:0:0:
305,191,27656,2,0,L|400:177,1,93.5000028533936,0|0,1:0|0:0,0:0:0:0:
449,97,27921,1,0,0:0:0:0:
453,88,28009,2,0,P|445:42|412:10,1,93.5000028533936,8|0,0:3|0:0,0:0:0:0:
218,117,28362,37,8,0:0:0:0:
378,78,28538,1,0,0:0:0:0:
307,197,28715,69,8,0:0:0:0:
260,5,28891,1,0,0:0:0:0:
109,167,29068,22,0,B|84:208|107:252|107:252|22:244|-2:136|73:92,1,303.874986089707,4|0,0:1|0:0,0:0:0:0:
68,94,30127,5,12,0:0:0:0:
238,227,30479,6,0,P|204:225|173:211,1,68,2|0,0:0|0:0,0:0:0:0:
288,164,30832,2,0,P|306:135|334:115,1,68,2|0,0:1|0:0,0:0:0:0:
301,278,31185,2,0,L|439:297,1,136,2|0,0:0|0:0,0:0:0:0:
436,297,31891,2,0,P|434:263|420:232,1,68,2|0,0:1|0:0,0:0:0:0:
253,343,32244,6,0,L|114:362,1,136,10|0,1:2|0:0,0:0:0:0:
118,362,32950,2,0,P|120:328|134:297,1,68,2|0,0:1|0:0,0:0:0:0:
265,202,33303,2,0,L|245:63,1,136,2|0,0:0|0:0,0:0:0:0:
246,67,34009,2,0,P|244:101|230:132,1,68,2|0,0:1|0:0,0:0:0:0:
39,62,34362,38,0,B|86:70|101:115|101:115|109:64|142:25|142:25|166:46|160:78,1,242.249993531227,10|0,1:2|0:0,0:0:0:0:
29,137,35068,6,0,P|15:167|15:201,1,68,2|0,0:1|0:0,0:0:0:0:
134,297,35421,2,0,L|298:273,1,136,2|0,0:0|0:0,0:0:0:0:
268,277,36127,2,0,L|336:287,1,68,2|0,0:1|0:0,0:0:0:0:
187,184,36479,2,0,P|183:134|212:92,1,102,10|0,1:2|0:0,0:0:0:0:
220,91,36832,2,0,L|303:104,1,68
332,190,37185,2,0,L|415:177,1,68,2|0,0:1|0:0,0:0:0:0:
412,39,37538,5,10,1:2:0:0:
500,76,37715,1,0,0:0:0:0:
501,66,37803,1,0,0:0:0:0:
503,56,37891,1,0,0:0:0:0:
433,113,38068,1,0,0:0:0:0:
509,173,38244,1,0,3:0:0:0:
511,189,38332,1,0,3:0:0:0:
510,206,38420,1,0,3:0:0:0:
510,223,38508,1,0,3:0:0:0:
480,251,38596,5,12,0:0:0:0:
480,251,38950,2,0,P|486:286|507:315,1,72.2500013780594,2|0,0:0|0:0,0:0:0:0:
389,226,39303,2,0,P|373:258|373:294,1,72.2500013780594,2|0,0:0|0:0,0:0:0:0:
175,154,39656,2,0,P|238:188|308:176,1,144.500002756119,8|2,0:0|0:0,0:0:0:0:
175,154,40362,2,0,P|190:186|190:222,1,72.2500013780594,2|0,0:0|0:0,0:0:0:0:
0,318,40715,38,0,P|62:284|132:296,1,144.500002756119,8|2,0:0|0:0,0:0:0:0:
0,318,41421,2,0,P|15:285|15:249,1,72.2500013780594,2|0,0:0|0:0,0:0:0:0:
106,49,41774,2,0,P|72:112|84:182,1,144.500002756119,8|2,0:0|0:0,0:0:0:0:
106,49,42479,2,0,P|73:33|37:33,1,72.2500013780594,2|0,0:0|0:0,0:0:0:0:
175,209,42832,6,0,P|244:197|307:231,1,144.500002756119,8|2,0:0|0:0,0:0:0:0:
175,209,43538,2,0,P|159:176|159:140,1,72.2500013780594,2|0,0:0|0:0,0:0:0:0:
230,287,43891,2,0,L|218:369,1,72.2500013780594,8|0,0:0|0:0,0:0:0:0:
384,345,44244,2,0,P|351:329|315:329,1,72.2500013780594,2|0,0:0|0:0,0:0:0:0:
444,271,44597,2,0,P|476:286|512:286,1,72.2500013780594,10|0,0:0|0:0,0:0:0:0:
499,67,44950,6,0,B|490:126|490:126|502:146|502:146|493:207,1,144.500002756119,10|2,0:0|0:0,0:0:0:0:
412,134,45479,1,0,0:0:0:0:
304,152,45656,2,0,L|215:165,1,72.2500013780594,10|0,0:0|0:0,0:0:0:0:
320,11,46009,6,0,P|339:39|347:72,1,68,10|0,0:1|0:0,0:0:0:0:
304,152,46274,1,0,0:0:0:0:
298,158,46362,2,0,P|260:160|224:146,1,76.4999976654053,2|0,0:1|0:0,0:0:0:0:
123,162,46627,1,0,0:0:0:0:
115,165,46715,2,0,P|94:201|92:243,1,85,2|0,0:1|0:0,0:0:0:0:
201,271,46979,1,0,0:0:0:0:
208,276,47068,37,12,0:0:0:0:
208,276,47421,6,0,L|301:262,1,85,8|0,0:0|0:0,0:0:0:0:
380,302,47774,2,0,L|473:288,1,85,8|0,0:0|0:0,0:0:0:0:
294,168,48127,2,0,P|296:86|368:48,1,170,10|8,0:0|0:0,0:0:0:0:
363,128,48656,1,0,0:0:0:0:
214,159,48832,2,0,L|120:145,1,85,8|0,0:0|0:0,0:0:0:0:
0,324,49185,6,0,P|71:286|74:205,1,170,10|8,0:0|0:0,0:0:0:0:
3,243,49715,1,0,0:0:0:0:
62,104,49891,2,0,L|48:10,1,85,8|0,0:0|0:0,0:0:0:0:
268,47,50244,2,0,P|195:83|128:38,1,170,10|8,0:0|0:0,0:0:0:0:
201,3,50774,1,0,0:0:0:0:
293,125,50950,2,0,L|306:218,1,85,8|0,0:0|0:0,0:0:0:0:
414,0,51303,6,0,L|390:168,1,170,10|8,0:0|0:0,0:0:0:0:
450,242,51832,1,0,0:0:0:0:
347,342,52009,2,0,P|388:350|428:335,1,85,8|0,0:0|0:0,0:0:0:0:
220,250,52362,2,0,L|51:225,1,170,10|8,0:0|0:0,0:0:0:0:
0,145,52891,1,0,0:0:0:0:
106,60,53068,2,0,P|66:44|25:52,1,85,8|0,0:0|0:0,0:0:0:0:
270,168,53421,38,0,L|245:0,1,170,10|8,0:0|0:0,0:0:0:0:
178,93,53950,1,0,0:0:0:0:
338,124,54127,1,8,0:0:0:0:
270,168,54303,1,0,0:0:0:0:
430,199,54479,6,0,P|467:203|500:184,1,76.4999976654053,10|0,0:1|0:0,0:0:0:0:
384,265,54744,1,0,0:0:0:0:
383,277,54832,2,0,P|404:312|444:326,1,85,2|0,0:1|0:0,0:0:0:0:
295,257,55097,1,0,0:0:0:0:
284,261,55185,2,0,P|267:303|286:345,1,93.5000028533936,2|0,0:1|0:0,0:0:0:0:
212,205,55450,1,0,0:0:0:0:
200,201,55538,6,0,L|101:217,1,93.5000028533936,12|0,0:0|0:0,0:0:0:0:
31,69,55891,2,0,P|47:107|39:149,1,85,8|0,0:0|0:0,0:0:0:0:
23,235,56156,1,0,0:0:0:0:
17,241,56244,2,0,P|8:282|24:321,1,85,8|0,0:0|0:0,0:0:0:0:
130,123,56597,2,0,L|317:149,1,170,10|8,0:0|0:0,0:0:0:0:
393,115,57127,1,0,0:0:0:0:
396,17,57303,2,0,P|354:8|316:25,1,85,8|0,0:0|0:0,0:0:0:0:
216,88,57568,1,0,0:0:0:0:
218,96,57656,6,0,L|245:283,1,170,10|8,0:0|0:0,0:0:0:0:
232,363,58185,1,0,0:0:0:0:
328,382,58362,2,0,P|369:391|408:374,1,85,8|0,0:0|0:0,0:0:0:0:
408,236,58715,5,10,0:1:0:0:
362,320,58891,1,2,0:0:0:0:
365,149,59068,5,10,0:1:0:0:
415,255,59244,1,2,0:0:0:0:
268,130,59421,69,10,0:1:0:0:
422,274,59597,1,2,0:0:0:0:
198,201,59774,22,0,P|136:211|80:182,1,127.5,12|0,0:0|0:0,0:0:0:0:
77,173,60127,2,0,L|64:259,1,85,8|0,0:0|0:0,0:0:0:0:
167,372,60479,2,0,L|156:288,1,85,8|0,0:0|0:0,0:0:0:0:
281,78,60832,6,0,P|202:58|149:119,1,170,10|8,0:0|0:0,0:0:0:0:
225,132,61362,1,0,0:0:0:0:
347,39,61538,2,0,P|385:57|427:57,1,85,8|0,0:0|0:0,0:0:0:0:
505,96,61803,1,0,0:0:0:0:
512,100,61891,2,0,P|517:141|505:182,1,85,12|0,0:0|0:0,0:0:0:0:
395,268,62244,37,2,0:0:0:0:
429,50,62421,1,0,0:0:0:0:
306,221,62597,5,2,0:0:0:0:
505,182,62774,1,0,0:0:0:0:
217,174,62950,38,0,B|188:137|188:137|203:249,1,152.999995330811,4|2,0:1|0:0,0:0:0:0:
69,203,63479,1,0,0:0:0:0:
79,207,63568,1,0,0:0:0:0:
88,211,63656,2,0,P|106:207|122:196,1,38.2499988327027,2|0,0:0|0:0,0:0:0:0:
88,122,63832,2,0,P|84:103|73:87,1,38.2499988327027
136,273,64009,6,0,P|103:306|58:316,1,93.5000028533936,4|0,0:1|0:0,0:0:0:0:
273,254,64362,2,0,P|295:213|290:167,1,93.5000028533936,8|0,0:0|0:0,0:0:0:0:
210,305,64627,1,0,0:0:0:0:
209,313,64715,2,0,P|233:352|275:371,1,93.5000028533936,2|0,1:2|0:0,0:0:0:0:
327,95,65068,2,0,L|295:-1,1,97.7500018644333,8|0,0:3|0:0,0:0:0:0:
373,253,65421,2,0,L|406:353,1,106.25,8|0,0:0|0:0,0:0:0:0:
214,141,65774,2,0,L|105:106,1,114.750000437737,2|0,1:2|0:0,0:0:0:0:
136,384,66127,38,0,P|223:351|313:326,1,187.000005706787,8|8,0:3|0:0,0:0:0:0:
156,198,66656,1,0,0:0:0:0:
150,206,66744,1,0,0:0:0:0:
144,214,66832,2,0,P|131:259|120:304,1,93.5000028533936,2|0,1:2|0:0,0:0:0:0:
22,261,67097,1,0,0:0:0:0:
28,266,67185,2,0,P|40:311|51:356,1,93.5000028533936,8|0,0:3|0:0,0:0:0:0:
55,155,67538,2,0,L|70:47,1,93.5000028533936,8|0,0:0|0:0,0:0:0:0:
265,192,67891,1,2,1:2:0:0:
156,198,68068,1,0,0:0:0:0:
366,161,68244,5,8,0:3:0:0:
242,68,68421,1,0,0:0:0:0:
333,233,68597,2,0,P|340:280|343:326,1,93.5000028533936,8|0,0:0|0:0,0:0:0:0:
413,226,68862,1,0,0:0:0:0:
420,220,68950,2,0,P|466:213|511:201,1,93.5000028533936,2|0,1:2|0:0,0:0:0:0:
260,288,69303,2,0,L|137:305,1,101.999996887207,8|0,0:3|0:0,0:0:0:0:
366,161,69656,2,0,L|383:27,1,110.499994941712,8|0,0:0|0:0,0:0:0:0:
333,233,70009,1,0,1:2:0:0:
444,116,70185,1,0,0:0:0:0:
304,0,70362,6,0,B|269:8|229:10|229:10|202:38|202:38|166:37|130:48,1,187.000005706787,8|8,0:3|0:0,0:0:0:0:
0,174,70891,1,0,0:0:0:0:
13,179,70979,1,0,0:0:0:0:
25,184,71068,2,0,P|28:137|4:98,1,93.5000028533936,2|0,1:2|0:0,0:0:0:0:
104,232,71332,1,0,0:0:0:0:
114,233,71421,2,0,P|153:208|171:166,1,93.5000028533936,4|0,0:0|0:0,0:0:0:0:
21,280,71774,2,0,P|-1:275|-25:273,1,46.7500014266968,8|0,0:1|0:0,0:0:0:0:
109,339,71950,2,0,P|131:334|155:332,1,46.7500014266968
242,204,72127,1,8,3:1:0:0:
235,226,72215,1,0,3:0:0:0:
232,249,72303,1,0,3:0:0:0:
232,272,72391,1,0,3:0:0:0:
272,298,72479,5,4,0:1:0:0:
346,223,72656,1,0,0:0:0:0:
333,384,72832,2,0,P|422:363|438:272,1,195.500003728867,8|2,0:0|1:2,0:0:0:0:
361,305,73362,1,0,0:0:0:0:
511,236,73538,2,0,P|480:200|433:189,1,97.7500018644333,8|0,0:3|0:0,0:0:0:0:
415,24,73891,2,0,P|370:43|345:84,1,97.7500018644333,8|0,0:0|0:0,0:0:0:0:
215,135,74244,1,0,1:0:0:0:
311,0,74420,1,0,1:0:0:0:
295,8,74508,1,0,1:0:0:0:
280,18,74597,38,0,P|265:114|258:212,1,195.500003728867,6|8,0:0|0:0,0:0:0:0:
163,258,75127,1,0,0:0:0:0:
24,151,75303,2,0,P|73:157|122:160,1,97.7500018644333,2|0,1:2|0:0,0:0:0:0:
56,248,75568,1,0,0:0:0:0:
53,258,75656,2,0,P|62:305|74:353,1,97.7500018644333,8|0,0:3|0:0,0:0:0:0:
193,187,76009,2,0,P|227:219|265:251,1,97.7500018644333,8|0,0:0|0:0,0:0:0:0:
235,49,76362,2,0,P|282:54|331:58,1,97.7500018644333,2|0,1:2|0:0,0:0:0:0:
512,232,76715,6,0,P|471:154|383:162,1,187.000005706787,10|8,0:3|0:0,0:0:0:0:
325,335,77244,1,0,0:0:0:0:
345,246,77421,1,2,1:2:0:0:
433,225,77597,1,0,0:0:0:0:
237,356,77774,37,8,0:3:0:0:
351,241,77950,1,0,0:0:0:0:
268,153,78127,5,8,0:0:0:0:
331,340,78303,1,0,0:0:0:0:
150,317,78479,69,2,1:2:0:0:
364,144,78656,1,0,0:0:0:0:
370,139,78744,1,0,0:0:0:0:
375,133,78832,54,0,P|423:143|472:147,1,97.7500018644333,8|0,0:3|0:0,0:0:0:0:
149,191,79185,2,0,P|100:185|52:174,1,97.7500018644333,8|0,0:0|0:0,0:0:0:0:
16,103,79450,1,0,0:0:0:0:
23,86,79538,1,8,0:0:0:0:
87,264,79715,1,0,0:0:0:0:
226,117,79891,6,0,P|227:99|230:81,3,36.1250006890297,4|0|0|0,0:1|0:0|0:0|0:0,0:0:0:0:
275,191,80244,1,0,0:0:0:0:
262,196,80332,1,0,0:0:0:0:
248,195,80421,1,0,0:0:0:0:
237,187,80509,1,0,0:0:0:0:
270,173,80597,21,0,0:0:0:0:
316,178,80685,1,0,0:0:0:0:
357,219,80774,1,0,0:0:0:0:
352,287,80862,1,0,0:0:0:0:
286,327,80950,70,0,P|232:315|177:308,1,110.499994941712,14|0,0:3|0:0,0:0:0:0:
0,185,81303,2,0,P|40:222|78:262,1,110.499994941712,8|0,0:0|0:0,0:0:0:0:
168,198,81568,1,0,0:0:0:0:
163,171,81656,2,0,P|185:120|212:72,1,110.499994941712,8|0,0:3|0:0,0:0:0:0:
383,12,82009,5,2,1:2:0:0:
287,14,82185,1,0,0:0:0:0:
462,67,82362,1,8,0:0:0:0:
383,12,82538,1,0,0:0:0:0:
493,157,82715,1,8,0:3:0:0:
462,67,82891,1,0,0:0:0:0:
466,248,83068,70,0,P|453:302|445:357,1,110.499994941712,10|0,0:3|0:0,0:0:0:0:
369,169,83421,2,0,P|326:205|287:244,1,110.499994941712,8|0,0:0|0:0,0:0:0:0:
348,63,83685,1,0,0:0:0:0:
322,52,83774,2,0,P|266:56|211:65,1,110.499994941712,8|0,0:3|0:0,0:0:0:0:
195,265,84127,5,2,1:2:0:0:
288,243,84303,1,0,0:0:0:0:
113,216,84479,1,8,0:0:0:0:
200,178,84655,1,0,0:0:0:0:
31,167,84832,69,8,0:3:0:0:
62,371,85009,1,0,0:0:0:0:
75,374,85097,1,0,0:0:0:0:
88,376,85185,6,0,P|119:334|129:283,1,106.25,10|0,0:3|0:0,0:0:0:0:
279,161,85538,2,0,P|328:144|380:150,1,106.25,8|0,0:0|0:0,0:0:0:0:
101,93,85891,2,0,P|60:58|40:10,1,106.25,8|0,0:3|0:0,0:0:0:0:
231,256,86244,70,0,P|241:307|248:360,1,106.25,2|0,1:2|0:0,0:0:0:0:
381,150,86597,2,0,P|427:126|480:127,1,106.25,8|0,0:0|0:0,0:0:0:0:
336,246,86950,1,8,0:3:0:0:
234,101,87127,1,0,0:0:0:0:
241,111,87215,1,0,0:0:0:0:
248,121,87303,6,0,P|195:110|143:106,1,106.25,10|0,0:3|0:0,0:0:0:0:
338,32,87656,2,0,P|390:42|442:46,1,106.25,8|0,0:0|0:0,0:0:0:0:
312,176,88009,69,8,0:3:0:0:
221,3,88185,1,0,0:0:0:0:
117,169,88362,6,0,B|93:205|87:244|87:244|67:210|33:186,1,159.375,2|0,1:2|0:0,0:0:0:0:
5,188,88715,70,0,P|3:161|-2:135,1,53.125,0|0,1:0|1:0,0:0:0:0:
80,36,88891,2,0,P|65:58|56:83,1,53.125,0|0,1:0|1:0,0:0:0:0:
87,244,89068,1,0,1:0:0:0:
120,267,89156,1,0,1:0:0:0:
156,282,89244,1,0,1:0:0:0:
196,290,89332,1,0,1:0:0:0:
262,276,89421,6,0,B|281:132|281:132|280:170|297:203,1,212.5,14|8,0:3|0:0,0:0:0:0:
322,329,89950,1,0,0:0:0:0:
456,264,90127,2,0,P|403:266|352:254,1,106.25,8|0,0:3|0:0,0:0:0:0:
431,37,90479,70,0,B|440:101|440:101|501:124|501:124|513:207,1,212.5,2|8,1:2|0:0,0:0:0:0:
456,264,91009,1,0,0:0:0:0:
324,165,91185,1,8,0:3:0:0:
287,356,91362,1,0,0:0:0:0:
293,344,91450,1,0,0:0:0:0:
298,333,91538,6,0,P|350:328|393:357,1,106.25,10|0,0:3|0:0,0:0:0:0:
242,219,91891,2,0,P|292:207|324:166,1,106.25,8|0,0:0|0:0,0:0:0:0:
152,308,92244,2,0,P|195:334|213:383,1,106.25,8|0,0:3|0:0,0:0:0:0:
104,190,92597,2,0,P|137:150|139:98,1,106.25,2|0,1:2|0:0,0:0:0:0:
0,260,92950,2,0,P|-3:314|28:357,1,110.499994941712,8|0,0:0|0:0,0:0:0:0:
139,97,93303,2,0,P|95:61|39:64,1,114.750000437737,8|0,0:3|0:0,0:0:0:0:
209,298,93656,69,10,0:3:0:0:
173,198,93832,1,0,0:0:0:0:
319,103,94009,5,8,0:0:0:0:
277,217,94185,1,0,0:0:0:0:
138,98,94362,69,8,0:3:0:0:
284,224,94538,1,0,0:0:0:0:
230,15,94715,6,0,P|279:-9|334:-3,1,110.499994941712,2|0,1:2|0:0,0:0:0:0:
502,154,95068,1,8,0:0:0:0:
386,58,95244,1,0,0:0:0:0:
392,96,95332,1,0,0:0:0:0:
399,134,95421,1,2,0:3:0:0:
495,43,95597,1,0,0:0:0:0:
433,240,95774,5,4,0:0:0:0:
418,223,95862,1,0,0:0:0:0:
400,210,95950,1,0,0:0:0:0:
379,203,96038,1,0,0:0:0:0:
357,199,96127,1,8,0:1:0:0:
335,199,96215,1,0,0:0:0:0:
314,206,96303,1,0,0:0:0:0:
295,215,96391,1,0,0:0:0:0:
275,254,96480,5,0,0:0:0:0:
224,277,96568,1,0,0:0:0:0:
171,260,96656,1,0,0:0:0:0:
154,207,96744,1,0,0:0:0:0:
178,156,96832,6,0,P|192:240|201:326,1,172.125000656605,4|0,0:1|0:0,0:0:0:0:
223,352,97185,6,0,P|241:330|261:312,1,55.2499974708558,0|0,1:0|1:0,0:0:0:0:
114,365,97362,2,0,P|90:351|64:341,1,55.2499974708558,0|0,1:0|1:0,0:0:0:0:
321,383,97538,21,0,1:0:0:0:
346,348,97626,1,0,1:0:0:0:
353,306,97714,1,0,1:0:0:0:
342,266,97802,1,0,1:0:0:0:
294,219,97891,70,0,P|302:165|313:111,1,110.499994941712,10|0,0:1|0:0,0:0:0:0:
144,0,98244,2,0,P|153:54|160:109,1,110.499994941712,8|0,0:0|0:0,0:0:0:0:
256,14,98509,1,0,0:0:0:0:
280,0,98597,2,0,P|334:9|389:15,1,110.499994941712,8|0,0:3|0:0,0:0:0:0:
512,158,98950,5,2,1:2:0:0:
389,141,99127,1,0,0:0:0:0:
372,264,99303,1,8,0:0:0:0:
390,135,99479,1,0,0:0:0:0:
267,118,99656,1,8,0:3:0:0:
397,136,99832,1,0,0:0:0:0:
414,5,100009,70,0,P|434:57|459:106,1,110.499994941712,10|0,0:3|0:0,0:0:0:0:
253,247,100362,2,0,P|287:204|327:166,1,110.499994941712,8|0,0:0|0:0,0:0:0:0:
249,0,100627,1,0,0:0:0:0:
221,1,100715,2,0,P|267:31|317:56,1,110.499994941712,8|0,0:3|0:0,0:0:0:0:
181,164,101068,5,2,1:2:0:0:
279,115,101244,1,0,0:0:0:0:
94,78,101421,1,8,0:0:0:0:
192,29,101597,1,0,0:0:0:0:
228,214,101774,69,8,0:3:0:0:
41,142,101950,1,0,0:0:0:0:
33,132,102038,1,0,0:0:0:0:
26,122,102127,6,0,P|17:71|36:22,1,106.25,10|0,0:3|0:0,0:0:0:0:
121,241,102479,2,0,P|128:292|161:333,1,106.25,8|0,0:0|0:0,0:0:0:0:
251,105,102832,2,0,P|273:58|317:29,1,106.25,8|0,0:3|0:0,0:0:0:0:
380,276,103185,70,0,P|328:266|276:259,1,106.25,2|0,1:2|0:0,0:0:0:0:
496,213,103539,2,0,P|498:160|473:113,1,106.25,8|0,0:0|0:0,0:0:0:0:
310,175,103891,1,8,0:3:0:0:
405,14,104069,1,0,0:0:0:0:
395,7,104157,1,0,0:0:0:0:
385,0,104244,5,10,0:3:0:0:
405,180,104421,1,0,0:0:0:0:
203,136,104598,2,0,P|191:188|188:241,1,106.25,8|0,0:0|0:0,0:0:0:0:
296,86,104951,69,8,0:3:0:0:
105,177,105127,1,0,0:0:0:0:
287,288,105304,6,0,B|330:293|358:261|358:261|338:221|297:216,1,159.375,2|0,1:2|0:0,0:0:0:0:
270,222,105657,70,0,P|272:195|277:169,1,53.125,0|0,1:0|1:0,0:0:0:0:
204,336,105832,2,0,P|218:357|227:382,1,53.125,0|0,1:0|1:0,0:0:0:0:
56,241,106009,1,0,1:0:0:0:
30,201,106097,1,0,1:0:0:0:
29,156,106185,1,0,1:0:0:0:
52,116,106273,1,0,1:0:0:0:
119,100,106362,6,0,B|151:90|190:89|190:89|240:41|240:41|278:42|313:32,1,212.5,14|8,0:3|0:0,0:0:0:0:
177,0,106891,1,0,0:0:0:0:
163,167,107068,2,0,P|147:217|143:270,1,106.25,8|0,0:3|0:0,0:0:0:0:
335,383,107421,70,0,B|377:373|413:391|413:391|393:322|381:254,1,212.5,2|8,1:2|0:0,0:0:0:0:
321,188,107950,1,0,0:0:0:0:
480,295,108127,1,8,0:3:0:0:
512,144,108304,1,0,0:0:0:0:
506,132,108392,1,0,0:0:0:0:
500,120,108480,6,0,P|448:114|404:144,1,106.25,10|0,0:3|0:0,0:0:0:0:
480,295,108832,2,0,P|430:309|382:289,1,106.25,8|0,0:0|0:0,0:0:0:0:
373,66,109185,2,0,P|332:98|320:149,1,106.25,8|0,0:3|0:0,0:0:0:0:
332,351,109538,2,0,P|289:380|237:377,1,106.25,2|0,1:2|0:0,0:0:0:0:
240,151,109891,2,0,P|190:151|151:120,1,101.999996887207,8|0,0:0|0:0,0:0:0:0:
269,307,110244,2,0,P|293:256|279:202,1,97.7500018644333,8|0,0:3|0:0,0:0:0:0:
22,262,110597,5,10,0:3:0:0:
30,339,110774,1,0,0:0:0:0:
100,370,110950,1,8,0:0:0:0:
161,324,111127,1,0,0:0:0:0:
152,249,111303,1,8,0:3:0:0:
82,219,111480,1,0,0:0:0:0:
174,341,111656,53,2,1:2:0:0:
82,219,111832,1,0,0:0:0:0:
277,269,112009,5,8,0:0:0:0:
219,80,112185,1,0,0:0:0:0:
322,139,112362,69,8,0:3:0:0:
174,210,112538,1,0,0:0:0:0:
401,271,112715,6,0,P|453:275|497:248,1,106.25,10|0,0:3|0:0,0:0:0:0:
322,139,113068,1,8,0:0:0:0:
433,189,113244,1,0,0:0:0:0:
505,90,113421,1,8,0:3:0:0:
394,40,113597,1,0,0:0:0:0:
359,206,113774,69,8,0:3:0:0:
236,90,113950,1,0,0:0:0:0:
189,71,114038,1,0,0:0:0:0:
140,83,114126,1,8,0:0:0:0:
107,121,114214,1,0,0:0:0:0:
100,170,114302,1,0,0:0:0:0:
124,215,114391,1,0,0:0:0:0:
136,227,114479,21,0,1:0:0:0:
138,243,114567,1,0,0:0:0:0:
139,260,114655,1,0,0:0:0:0:
136,277,114743,1,0,0:0:0:0:
76,310,114832,5,14,0:3:0:0:
76,310,115891,6,0,B|148:307|181:237|181:237|198:317|273:333,1,276.249987354279,2|2,0:0|0:0,0:0:0:0:
356,277,116950,2,0,L|481:294,2,110.499994941712,2|2|2,0:0|0:0|0:0,0:0:0:0:
356,277,118009,6,0,P|353:252|345:228,1,50.9999984436036,2|0,0:0|0:0,0:0:0:0:
265,153,118362,2,0,P|240:147|214:147,1,50.9999984436036,2|0,0:0|0:0,0:0:0:0:
126,213,118715,1,2,0:0:0:0:
163,227,118891,1,2,0:0:0:0:
57,255,119068,37,4,0:1:0:0:
157,188,119244,1,2,0:0:0:0:
78,117,119421,6,0,B|93:73|68:33|68:33|18:54|-8:88|-14:140|33:181,1,272,2|0,0:0|0:0,0:0:0:0:
30,178,120479,2,0,P|19:203|2:224,1,55.2499974708558,2|0,0:0|0:0,0:0:0:0:
30,312,120832,2,0,P|53:326|79:333,1,55.2499974708558,2|0,0:0|0:0,0:0:0:0:
191,213,121186,5,2,0:0:0:0:
306,227,121586,5,2,0:0:0:0:
261,121,122034,37,2,0:0:0:0:
447,106,122592,5,2,0:0:0:0:
348,46,123258,5,2,0:0:0:0:
420,218,124116,5,2,0:0:0:0:
256,192,124190,12,0,125315,0:0:0:0:
