osu file format v14

[General]
AudioFilename: chrono diver -fragment-.mp3
AudioLeadIn: 2000
PreviewTime: 67263
Countdown: 0
SampleSet: Normal
StackLeniency: 0.7
Mode: 0
LetterboxInBreaks: 0
WidescreenStoryboard: 0

[Editor]
Bookmarks: 5966,16344,26722,47479,52668,68236,86398,105858,117533
DistanceSpacing: 1.2
BeatDivisor: 4
GridSize: 4
TimelineZoom: 2.2

[Metadata]
Title:chrono diver -fragment-
TitleUnicode:chrono diver -fragment-
Artist:Nekomata Master feat. Misawa Aki
ArtistUnicode:猫叉Master feat.三澤秋
Creator:moph
Version:Normal
Source:beatmania IIDX 22 PENDUAL
Tags:naoyuki sato follow slowly healing drum'n'bass Rizen tasuke912
BeatmapID:815299
BeatmapSetID:372200

[Difficulty]
HPDrainRate:3
CircleSize:3
OverallDifficulty:4
ApproachRate:5
SliderMultiplier:0.799999999999999
SliderTickRate:1

[Events]
//Background and Video events
0,0,"bg.jpg",0,0
//Break Periods
//Storyboard Layer 0 (Background)
//Storyboard Layer 1 (Fail)
//Storyboard Layer 2 (Pass)
//Storyboard Layer 3 (Foreground)
//Storyboard Sound Samples

[TimingPoints]
777,324.324324324324,4,2,1,5,1,0
2074,-100,4,2,1,10,0,0
3371,-100,4,2,1,15,0,0
4668,-100,4,2,1,20,0,0
5966,-100,4,2,1,50,0,0
16344,-100,4,1,1,70,0,0
21776,-100,4,1,2,60,0,0
21939,-100,4,1,1,70,0,0
24371,-100,4,1,2,60,0,0
25182,-100,4,1,1,70,0,0
26966,-100,4,1,2,60,0,0
27128,-100,4,1,1,70,0,0
29560,-100,4,1,2,60,0,0
29722,-100,4,1,1,70,0,0
32155,-100,4,1,2,60,0,0
32317,-100,4,1,1,70,0,0
34749,-100,4,1,2,60,0,0
34912,-100,4,1,1,70,0,0
37344,-100,4,1,2,60,0,0
37506,-100,4,1,1,70,0,0
39939,-100,4,1,2,60,0,0
40101,-100,4,1,1,70,0,0
45128,-100,4,1,2,60,0,0
45290,-100,4,1,1,70,0,0
65885,-100,4,1,2,60,0,0
66047,-100,4,1,1,70,0,0
66533,-100,4,1,2,60,0,0
66695,-100,4,1,1,70,0,0
68236,-100,4,1,1,70,0,1
68479,-100,4,1,2,60,0,1
68641,-100,4,1,1,70,0,1
78858,-100,4,1,2,55,0,1
79020,-100,4,1,1,70,0,1
85344,-100,4,1,2,55,0,1
85831,-100,4,1,2,70,0,1
86074,-100,4,1,1,70,0,0
86398,-100,4,1,1,70,0,1
86641,-100,4,1,2,55,0,1
86804,-100,4,1,1,70,0,1
94425,-100,4,1,2,55,0,1
94587,-100,4,1,1,70,0,1
97020,-100,4,1,2,55,0,1
97182,-100,4,1,1,70,0,1
102533,-100,4,1,2,55,0,1
102695,-100,4,1,1,70,0,1
103831,-100,4,1,2,55,0,1
103993,-100,4,1,1,70,0,1
105858,-100,4,1,1,70,0,0
107155,-100,4,2,1,70,0,0
107236,-100,4,2,1,20,0,0
109668,-100,4,2,1,40,0,0
109831,-100,4,2,1,20,0,0
112263,-100,4,2,1,40,0,0
112506,-100,4,2,1,5,0,0

[Colours]
Combo1 : 168,148,180
Combo2 : 126,141,194
Combo3 : 172,168,187
Combo4 : 142,174,193

[HitObjects]
256,192,777,12,0,4668,0:0:0:0:
80,256,5966,6,0,P|128:240|248:264,1,160,2|0,0:1|0:0,0:0:0:0:
296,328,6939,1,0,0:0:0:0:
392,328,7263,2,0,L|408:220,1,79.9999999999999,2|0,0:0|0:0,0:0:0:0:
404,152,7912,2,0,L|388:44,1,79.9999999999999,2|0,0:0|0:0,0:0:0:0:
300,44,8560,6,0,P|238:27|179:51,2,120,2|0|0,0:0|0:0|0:0,0:0:0:0:
340,132,9858,1,2,0:0:0:0:
244,123,10182,1,0,0:0:0:0:
184,200,10506,2,0,L|76:208,1,79.9999999999999,0|0,0:0|0:0,0:0:0:0:
128,300,11155,6,0,L|8:309,2,120,2|0|0,0:1|0:0|0:0,0:0:0:0:
212,344,12452,2,0,L|304:336,1,79.9999999999999,2|0,0:0|0:0,0:0:0:0:
364,272,13101,1,2,0:0:0:0:
412,356,13425,1,0,0:0:0:0:
480,288,13749,6,0,P|500:232|460:116,1,160,2|0,0:0|0:0,0:0:0:0:
396,84,14722,1,0,0:0:0:0:
336,160,15047,2,0,L|164:160,1,160,2|0,0:0|0:0,0:0:0:0:
116,84,16020,1,0,0:0:0:0:
34,136,16345,6,0,P|10:211|32:288,1,160,6|8,0:0|0:0,0:0:0:0:
216,344,17641,2,0,L|400:320,1,160,0|8,0:0|0:0,0:0:0:0:
444,144,18939,5,0,0:0:0:0:
288,32,19587,1,8,0:0:0:0:
372,204,20236,1,0,0:0:0:0:
216,92,20885,1,8,0:0:0:0:
300,264,21533,6,0,P|352:292|448:256,1,160,12|8,0:0|0:0,0:0:0:0:
488,176,22506,1,8,0:0:0:0:
444,88,22831,2,0,L|364:60,1,79.9999999999999,8|8,0:0|0:0,0:0:0:0:
272,64,23479,2,0,L|196:92,1,79.9999999999999,8|8,0:0|0:0,0:0:0:0:
108,56,24128,6,0,B|92:100|112:144|112:144|84:176|24:184|24:184|32:224|64:244|96:248|144:240,1,320,8|8,0:0|0:0,0:0:0:0:
216,208,25749,1,0,0:0:0:0:
284,276,26074,2,0,L|352:364,1,79.9999999999999,0|10,0:0|0:0,0:0:0:0:
428,332,26722,6,0,P|456:272|408:176,1,160,4|0,0:0|0:0,0:0:0:0:
348,128,27695,1,8,0:0:0:0:
392,40,28020,2,0,P|356:30|310:37,1,79.9999999999999,0|8,0:0|0:0,0:0:0:0:
244,104,28668,2,0,P|204:112|160:104,1,79.9999999999999,0|8,0:0|0:0,0:0:0:0:
72,132,29317,6,0,L|44:16,2,120,0|0|8,0:0|0:0|0:0,0:0:0:0:
44,224,30614,2,0,L|64:308,1,79.9999999999999,0|8,0:0|0:0,0:0:0:0:
140,356,31263,1,0,0:0:0:0:
204,284,31587,1,8,0:0:0:0:
284,336,31912,6,0,P|356:360|444:336,1,160,4|0,0:0|0:0,0:0:0:0:
412,248,32885,1,8,0:0:0:0:
412,152,33209,2,0,L|432:68,1,79.9999999999999,0|8,0:0|0:0,0:0:0:0:
344,32,33858,2,0,L|324:116,1,79.9999999999999,0|8,0:0|0:0,0:0:0:0:
248,168,34506,6,0,P|196:181|126:152,2,120,0|0|8,0:0|0:0|0:0,0:0:0:0:
196,88,35804,1,8,0:0:0:0:
100,72,36128,1,8,0:0:0:0:
40,148,36452,2,0,L|44:256,1,79.9999999999999,0|8,0:0|0:0,0:0:0:0:
36,324,37101,6,0,B|112:308|112:308|212:332,1,160,6|0,0:0|0:0,0:0:0:0:
284,352,38074,1,8,0:0:0:0:
376,328,38398,2,0,L|464:304,1,79.9999999999999,0|8,0:0|0:0,0:0:0:0:
420,216,39047,2,0,L|342:237,1,79.9999999999999,0|8,0:0|0:0,0:0:0:0:
260,188,39695,6,0,P|240:124|268:48,2,120,0|0|8,0:0|0:0|0:0,0:0:0:0:
332,124,40993,2,0,L|424:112,1,79.9999999999999,0|8,0:0|0:0,0:0:0:0:
416,16,41641,2,0,L|324:28,1,79.9999999999999,0|8,0:0|0:0,0:0:0:0:
251,73,42290,6,0,L|160:88,1,79.9999999999999,4|8,0:0|0:0,0:0:0:0:
84,48,42939,1,0,0:0:0:0:
92,144,43263,1,8,0:0:0:0:
64,236,43587,2,0,L|76:328,1,79.9999999999999,0|8,0:0|0:0,0:0:0:0:
168,340,44236,2,0,L|157:260,1,79.9999999999999,0|8,0:0|0:0,0:0:0:0:
228,196,44885,6,0,P|304:176|404:212,1,160,0|0,0:0|0:0,0:0:0:0:
448,264,45858,1,8,0:0:0:0:
472,172,46182,2,0,L|468:92,1,79.9999999999999,8|8,0:0|0:0,0:0:0:0:
377,116,46831,2,0,L|381:196,1,79.9999999999999,0|8,0:0|0:0,0:0:0:0:
448,264,47479,6,0,P|456:308|444:360,2,79.9999999999999,14|8|8,0:0|0:0|0:0,0:0:0:0:
364,308,48452,1,8,0:0:0:0:
276,348,48776,2,0,L|216:288,1,79.9999999999999,8|8,0:0|0:0,0:0:0:0:
124,292,49425,2,0,L|67:348,1,79.9999999999999,8|8,0:0|0:0,0:0:0:0:
12,272,50074,6,0,P|4:232|16:180,2,79.9999999999999,8|8|8,0:0|0:0|0:0,0:0:0:0:
98,230,51047,1,8,0:0:0:0:
88,134,51371,2,0,P|96:94|84:42,2,79.9999999999999,8|8|8,0:0|0:0|0:0,0:0:0:0:
10,193,52344,1,8,0:0:0:0:
98,230,52668,6,0,L|290:234,1,160,6|8,0:0|0:0,0:0:0:0:
444,268,53966,2,0,P|460:200|424:108,1,160,0|8,0:0|0:0,0:0:0:0:
268,20,55263,5,0,0:0:0:0:
340,200,55912,1,8,0:0:0:0:
204,336,56560,2,0,L|32:336,1,160,0|8,0:0|0:0,0:0:0:0:
36,144,57858,6,0,P|96:124|196:152,1,160,0|8,0:0|0:0,0:0:0:0:
300,300,59155,2,0,P|375:322|451:302,1,160,0|8,0:0|0:0,0:0:0:0:
468,208,60128,1,0,0:0:0:0:
412,132,60452,6,0,L|408:48,1,79.9999999999999,4|0,0:0|0:0,0:0:0:0:
312,32,61101,2,0,L|315:111,1,79.9999999999999,8|0,0:0|0:0,0:0:0:0:
348,204,61749,1,0,0:0:0:0:
252,184,62074,1,0,0:0:0:0:
284,276,62398,2,0,L|287:355,1,79.9999999999999,8|0,0:0|0:0,0:0:0:0:
192,372,63047,6,0,L|24:352,1,160,0|8,0:0|0:0,0:0:0:0:
76,268,64020,1,0,0:0:0:0:
144,200,64344,2,0,P|152:160|132:108,1,79.9999999999999,0|0,0:0|0:0,0:0:0:0:
46,111,64993,2,0,P|38:71|58:19,1,79.9999999999999,8|0,0:0|0:0,0:0:0:0:
143,37,65641,6,0,B|183:37|211:69|211:69|295:21|363:49|363:49|343:105|375:153,1,320,8|8,0:0|0:0,0:0:0:0:
428,361,67749,6,0,L|424:293,1,40,8|10,0:0|0:0,0:0:0:0:
493,253,68236,2,0,P|421:225|345:265,1,160,4|0,0:0|0:0,0:0:0:0:
280,325,69209,1,8,0:0:0:0:
184,328,69533,2,0,L|92:328,1,79.9999999999999,0|8,0:0|0:0,0:0:0:0:
60,244,70182,2,0,L|140:244,1,79.9999999999999,0|8,0:0|0:0,0:0:0:0:
220,188,70831,6,0,P|228:144|216:100,2,79.9999999999999,0|8|0,0:0|0:0|0:0,0:0:0:0:
132,152,71804,1,8,0:0:0:0:
144,56,72128,2,0,P|180:28|236:24,1,79.9999999999999,0|8,0:0|0:0,0:0:0:0:
260,16,72614,1,0,0:0:0:0:
308,20,72776,2,0,P|346:29|376:54,1,79.9999999999999,0|8,0:0|0:0,0:0:0:0:
304,116,73425,6,0,L|304:200,1,79.9999999999999,4|8,0:0|0:0,0:0:0:0:
340,284,74074,1,0,0:0:0:0:
436,296,74398,1,8,0:0:0:0:
472,208,74722,2,0,P|432:200|384:216,1,79.9999999999999,0|8,0:0|0:0,0:0:0:0:
368,248,75209,1,0,0:0:0:0:
340,284,75371,2,0,P|301:292|261:286,1,79.9999999999999,0|8,0:0|0:0,0:0:0:0:
168,264,76020,6,0,L|60:276,2,79.9999999999999,0|8|0,0:0|0:0|0:0,0:0:0:0:
132,176,76993,1,8,0:0:0:0:
164,84,77317,2,0,L|84:75,2,79.9999999999999,0|8|0,0:0|0:0|0:0,0:0:0:0:
236,20,78290,1,8,0:0:0:0:
308,84,78614,6,0,P|384:60|464:100,1,160,6|0,0:0|0:0,0:0:0:0:
380,152,79587,1,8,0:0:0:0:
436,228,79912,2,0,L|436:316,1,79.9999999999999,0|8,0:0|0:0,0:0:0:0:
340,320,80560,2,0,L|340:232,1,79.9999999999999,0|8,0:0|0:0,0:0:0:0:
380,152,81209,6,0,P|340:144|300:152,1,79.9999999999999,0|8,0:0|0:0,0:0:0:0:
272,188,81695,1,0,0:0:0:0:
240,224,81858,2,0,P|200:232|160:224,1,79.9999999999999,0|8,0:0|0:0,0:0:0:0:
84,172,82506,1,0,0:0:0:0:
80,268,82830,1,8,0:0:0:0:
0,208,83155,2,0,P|-8:168|4:120,1,79.9999999999999,0|8,0:0|0:0,0:0:0:0:
64,60,83804,6,0,L|144:32,1,79.9999999999999,4|8,0:0|0:0,0:0:0:0:
188,28,84290,1,0,0:0:0:0:
236,32,84452,2,0,L|311:58,1,79.9999999999999,0|8,0:0|0:0,0:0:0:0:
404,32,85101,2,0,B|420:88|382:128|382:128|407:151|407:151|371:200|396:260,1,240,8|8,0:0|0:0,0:0:0:0:
344,332,86398,6,0,P|284:320|168:348,1,160,6|0,0:0|0:0,0:0:0:0:
96,368,87371,1,8,0:0:0:0:
40,292,87695,2,0,L|32:188,1,79.9999999999999,0|8,0:0|0:0,0:0:0:0:
128,204,88344,2,0,L|120:100,1,79.9999999999999,0|8,0:0|0:0,0:0:0:0:
64,48,88993,6,0,P|104:32|156:36,1,79.9999999999999,0|8,0:0|0:0,0:0:0:0:
212,96,89641,1,0,0:0:0:0:
240,4,89966,1,8,0:0:0:0:
304,76,90290,2,0,L|412:72,1,79.9999999999999,0|8,0:0|0:0,0:0:0:0:
424,44,90776,1,0,0:0:0:0:
464,16,90939,2,0,P|476:64|468:112,1,79.9999999999999,0|8,0:0|0:0,0:0:0:0:
472,192,91587,5,6,0:0:0:0:
464,288,91912,1,8,0:0:0:0:
384,236,92236,2,0,P|340:228|300:240,1,79.9999999999999,0|8,0:0|0:0,0:0:0:0:
288,324,92885,2,0,L|208:326,1,79.9999999999999,0|8,0:0|0:0,0:0:0:0:
164,344,93371,1,0,0:0:0:0:
120,364,93533,2,0,L|40:366,1,79.9999999999999,0|8,0:0|0:0,0:0:0:0:
12,276,94182,6,0,P|-8:220|16:112,1,160,0|0,0:0|0:0,0:0:0:0:
80,60,95155,1,8,0:0:0:0:
168,96,95479,2,0,L|264:108,1,79.9999999999999,0|8,0:0|0:0,0:0:0:0:
288,80,95966,1,8,0:0:0:0:
320,44,96128,2,0,L|416:56,1,79.9999999999999,0|8,0:0|0:0,0:0:0:0:
468,124,96776,6,0,P|500:192|456:300,1,160,6|0,0:0|0:0,0:0:0:0:
388,252,97749,1,8,0:0:0:0:
316,316,98074,2,0,L|216:320,1,79.9999999999999,0|8,0:0|0:0,0:0:0:0:
196,232,98722,2,0,L|296:228,1,79.9999999999999,0|8,0:0|0:0,0:0:0:0:
316,140,99371,6,0,P|320:92|304:40,2,79.9999999999999,0|8|0,0:0|0:0|0:0,0:0:0:0:
228,104,100344,1,8,0:0:0:0:
148,48,100668,2,0,L|56:52,1,79.9999999999999,0|8,0:0|0:0,0:0:0:0:
52,96,101155,1,8,0:0:0:0:
40,144,101317,2,0,L|124:140,1,79.9999999999999,0|8,0:0|0:0,0:0:0:0:
209,175,101966,6,0,B|233:243|213:303|213:303|76:454|-13:310|40:175|169:215|193:251|174:339|243:361|320:347,1,639.999999999999,4|0,0:0|0:0,0:0:0:0:
402,310,104885,5,0,0:0:0:0:
491,345,105209,2,0,P|495:301|483:253,2,79.9999999999999,8|8|4,0:0|0:0|0:0,0:0:0:0:
160,266,107155,6,0,B|137:261|119:243|106:219|108:192|108:192|108:162|128:136|149:122|179:121|179:121|208:120|240:136|253:167|253:192|253:192|255:213|260:237|282:257|311:264|333:261|333:261|361:259|383:244|398:216|398:191|398:191|399:163|382:131|342:119,2,639.999999999999,2|0|2,0:1|0:0|0:0,0:0:0:0:
256,192,112506,12,0,117371,0:0:0:0:
