osu file format v14

[General]
AudioFilename: chrono diver -fragment-.mp3
AudioLeadIn: 2000
PreviewTime: 67263
Countdown: 0
SampleSet: Normal
StackLeniency: 0.7
Mode: 0
LetterboxInBreaks: 0
WidescreenStoryboard: 0

[Editor]
Bookmarks: 5966,16344,26722,47479,52668,68236,86398,105858,117533
DistanceSpacing: 1.6
BeatDivisor: 4
GridSize: 4
TimelineZoom: 2.2

[Metadata]
Title:chrono diver -fragment-
TitleUnicode:chrono diver -fragment-
Artist:Nekomata Master feat. Misawa Aki
ArtistUnicode:猫叉Master feat.三澤秋
Creator:moph
Version:Hyper
Source:beatmania IIDX 22 PENDUAL
Tags:naoyuki sato follow slowly healing drum'n'bass Rizen tasuke912
BeatmapID:815905
BeatmapSetID:372200

[Difficulty]
HPDrainRate:5.5
CircleSize:3.7
OverallDifficulty:6.5
ApproachRate:8
SliderMultiplier:1.4
SliderTickRate:2

[Events]
//Background and Video events
0,0,"bg.jpg",0,0
//Break Periods
//Storyboard Layer 0 (Background)
//Storyboard Layer 1 (Fail)
//Storyboard Layer 2 (Pass)
//Storyboard Layer 3 (Foreground)
//Storyboard Sound Samples

[TimingPoints]
777,324.324324324324,4,2,1,5,1,0
2074,-100,4,2,1,10,0,0
3371,-100,4,2,1,15,0,0
4668,-100,4,2,1,20,0,0
5966,-133.333333333333,4,2,1,50,0,0
16344,-117.647058823529,4,1,1,60,0,0
21533,-100,4,1,1,75,0,0
68236,-83.3333333333333,4,1,1,75,0,1
86074,-83.3333333333333,4,1,1,75,0,0
86398,-83.3333333333333,4,1,1,75,0,1
105858,-83.3333333333333,4,1,1,75,0,0
107155,-156.25,4,2,1,70,0,0
107236,-156.25,4,2,1,20,0,0
109668,-156.25,4,2,1,40,0,0
109831,-156.25,4,2,1,20,0,0
112263,-156.25,4,2,1,40,0,0
112506,-153.846153846154,4,2,1,5,0,0

[Colours]
Combo1 : 168,148,180
Combo2 : 126,141,194
Combo3 : 172,168,187
Combo4 : 142,174,193

[HitObjects]
256,192,777,12,0,5641,0:0:0:0:
88,284,5966,6,0,P|76:224|92:180,1,105.000004005432,2|0,0:1|0:0,0:0:0:0:
144,112,6452,2,0,L|256:148,1,105.000004005432
304,76,6939,1,0,0:0:0:0:
304,76,7101,1,0,0:0:0:0:
380,124,7263,6,0,L|448:152,1,52.5000020027161,2|0,0:0|0:0,0:0:0:0:
440,232,7587,2,0,L|372:260,1,52.5000020027161,0|0,0:0|0:0,0:0:0:0:
332,320,7912,2,0,P|288:332|228:312,1,105.000004005432,2|0,0:0|0:0,0:0:0:0:
152,276,8398,1,0,0:0:0:0:
76,324,8560,6,0,P|64:296|84:216,1,105.000004005432,2|0,0:0|0:0,0:0:0:0:
156,184,9047,1,0,0:0:0:0:
80,136,9209,2,0,L|72:76,1,52.5000020027161,0|0,0:0|0:0,0:0:0:0:
160,92,9533,2,0,L|160:32,1,52.5000020027161,0|0,0:0|0:0,0:0:0:0:
248,56,9858,6,0,P|300:40|360:64,1,105.000004005432,2|0,0:0|0:0,0:0:0:0:
300,136,10344,1,0,0:0:0:0:
396,136,10506,1,0,0:0:0:0:
484,280,10831,2,0,L|484:244,3,26.2500010013581,0|0|0|0,0:0|0:0|0:0|0:0,0:0:0:0:
468,292,11155,6,0,L|352:324,1,105.000004005432,2|0,0:1|0:0,0:0:0:0:
292,368,11641,2,0,P|280:316|308:256,1,105.000004005432,0|0,0:0|0:0,0:0:0:0:
376,228,12128,1,0,0:0:0:0:
376,228,12290,1,0,0:0:0:0:
300,184,12452,6,0,L|224:184,1,52.5000020027161,2|0,0:0|0:0,0:0:0:0:
196,256,12776,2,0,L|120:256,1,52.5000020027161,0|0,0:0|0:0,0:0:0:0:
64,300,13101,2,0,P|52:252|76:192,1,105.000004005432,2|0,0:0|0:0,0:0:0:0:
172,56,13749,6,0,B|224:68|224:68|288:56,1,105.000004005432,2|0,0:0|0:0,0:0:0:0:
361,36,14236,1,0,0:0:0:0:
441,74,14398,2,0,L|449:130,1,52.5000020027161
379,182,14722,2,0,L|387:238,1,52.5000020027161,0|0,0:0|0:0,0:0:0:0:
391,246,14966,1,0,0:0:0:0:
395,258,15047,6,0,P|351:282|279:290,1,105.000004005432,2|0,0:0|0:0,0:0:0:0:
217,251,15533,1,0,0:0:0:0:
170,326,15695,2,0,L|110:354,1,52.5000020027161
59,283,16020,2,0,L|119:255,1,52.5000020027161
116,176,16344,6,0,P|124:124|104:48,1,119.000002269745,6|0,0:0|0:0,0:0:0:0:
109,59,16831,1,0,0:0:0:0:
204,60,16993,2,0,L|344:32,1,119.000002269745,8|0,0:0|0:0,0:0:0:0:
320,36,17479,1,0,0:0:0:0:
416,32,17641,6,0,L|408:100,1,59.5000011348725,0|0,0:0|0:0,0:0:0:0:
348,168,17966,2,0,L|356:236,1,59.5000011348725
408,304,18290,2,0,P|356:320|280:292,1,119.000002269745,8|0,0:0|0:0,0:0:0:0:
228,236,18776,1,0,0:0:0:0:
160,304,18939,6,0,L|100:328,2,59.5000011348725,0|0|0,0:0|0:0|0:0,0:0:0:0:
132,212,19425,1,0,0:0:0:0:
52,160,19587,2,0,P|36:112|60:36,1,119.000002269745,8|0,0:0|0:0,0:0:0:0:
132,104,20074,1,0,0:0:0:0:
192,28,20236,6,0,L|260:36,1,59.5000011348725
320,100,20560,2,0,L|388:88,1,59.5000011348725
468,140,20885,1,8,0:0:0:0:
468,140,21047,1,0,0:0:0:0:
384,192,21209,1,0,0:0:0:0:
384,192,21371,1,0,0:0:0:0:
380,312,21533,6,0,L|380:396,1,70,12|0,0:0|0:0,0:0:0:0:
260,364,21858,2,0,L|260:294,1,70,8|0,0:0|0:0,0:0:0:0:
295,179,22182,2,0,P|263:171|223:179,1,70,8|0,0:0|0:0,0:0:0:0:
140,260,22506,2,0,P|108:268|68:260,1,70,8|0,0:0|0:0,0:0:0:0:
0,168,22831,5,8,0:0:0:0:
112,144,22993,1,0,0:0:0:0:
36,60,23155,1,8,0:0:0:0:
144,32,23317,1,0,0:0:0:0:
224,108,23479,2,0,L|312:116,1,70,8|0,0:0|0:0,0:0:0:0:
372,32,23804,2,0,L|460:40,1,70,8|0,0:0|0:0,0:0:0:0:
436,152,24128,6,0,L|488:144,3,35,8|0|0|0,0:0|0:0|0:0|0:0,0:0:0:0:
448,228,24452,2,0,L|500:220,3,35,8|0|0|0,0:0|0:0|0:0|0:0,0:0:0:0:
384,280,24776,2,0,L|349:285,3,35,8|0|0|0,0:0|0:0|0:0|0:0,0:0:0:0:
396,356,25100,2,0,L|361:361,3,35,8|0|0|0,0:0|0:0|0:0|0:0,0:0:0:0:
464,312,25425,5,8,0:0:0:0:
244,348,25749,2,0,P|160:360|92:340,1,140,0|0,0:0|0:0,0:0:0:0:
14,283,26236,1,8,0:0:0:0:
100,212,26398,2,0,L|76:120,1,70,10|0,0:0|0:0,0:0:0:0:
152,56,26722,6,0,P|212:36|296:68,1,140,4|8,0:0|0:0,0:0:0:0:
376,124,27209,1,0,0:0:0:0:
484,92,27371,2,0,P|492:140|476:188,1,70,0|0,0:0|0:0,0:0:0:0:
404,236,27695,2,0,L|408:332,1,70,8|0,0:0|0:0,0:0:0:0:
304,352,28020,6,0,L|228:340,1,70,0|0,0:0|0:0,0:0:0:0:
124,340,28344,2,0,L|54:350,1,70,8|0,0:0|0:0,0:0:0:0:
80,244,28668,1,0,0:0:0:0:
80,244,28831,1,0,0:0:0:0:
24,148,28993,2,0,P|16:104|32:64,1,70,8|0,0:0|0:0,0:0:0:0:
104,4,29317,6,0,L|256:32,1,140,0|8,0:0|0:0,0:0:0:0:
200,128,29804,2,0,L|112:112,2,70
312,128,30290,2,0,L|400:112,1,70,8|0,0:0|0:0,0:0:0:0:
464,48,30614,6,0,P|484:120|460:188,1,140,0|8,0:0|0:0,0:0:0:0:
356,220,31101,1,0,0:0:0:0:
424,320,31263,1,0,0:0:0:0:
424,320,31344,1,0,0:0:0:0:
424,320,31425,1,0,0:0:0:0:
320,360,31587,2,0,L|224:360,1,70,8|0,0:0|0:0,0:0:0:0:
140,344,31912,6,0,P|120:280|156:196,1,140,4|8,0:0|0:0,0:0:0:0:
248,172,32398,1,0,0:0:0:0:
144,128,32560,2,0,L|60:128,1,70,0|0,0:0|0:0,0:0:0:0:
16,32,32885,2,0,L|100:32,1,70,8|0,0:0|0:0,0:0:0:0:
196,52,33209,6,0,P|248:64|344:48,1,140,0|8,0:0|0:0,0:0:0:0:
436,12,33695,1,0,0:0:0:0:
400,120,33858,2,0,P|396:172|404:200,1,70,0|0,0:0|0:0,0:0:0:0:
500,236,34182,2,0,P|504:288|496:316,1,70,8|0,0:0|0:0,0:0:0:0:
400,356,34506,6,0,L|244:344,1,140,0|8,0:0|0:0,0:0:0:0:
152,376,34993,1,0,0:0:0:0:
180,268,35155,1,0,0:0:0:0:
180,268,35317,1,0,0:0:0:0:
72,296,35479,2,0,L|-8:288,1,70,8|0,0:0|0:0,0:0:0:0:
16,176,35804,6,0,L|100:184,1,70,8|0,0:0|0:0,0:0:0:0:
192,148,36128,1,8,0:0:0:0:
192,148,36290,1,8,0:0:0:0:
108,76,36452,1,0,0:0:0:0:
108,76,36533,1,0,0:0:0:0:
108,76,36614,1,8,0:0:0:0:
216,44,36776,2,0,L|300:52,1,70,8|0,0:0|0:0,0:0:0:0:
392,20,37101,6,0,B|384:68|384:68|400:184,1,140,6|8,0:0|0:0,0:0:0:0:
372,268,37587,1,0,0:0:0:0:
476,228,37749,2,0,P|484:272|476:312,1,70,0|0,0:0|0:0,0:0:0:0:
396,372,38074,2,0,L|312:372,1,70,8|0,0:0|0:0,0:0:0:0:
232,308,38398,6,0,P|212:248|236:164,1,140,0|8,0:0|0:0,0:0:0:0:
300,88,38885,1,0,0:0:0:0:
300,88,38966,1,0,0:0:0:0:
300,88,39047,2,0,L|212:92,1,70,0|0,0:0|0:0,0:0:0:0:
128,140,39371,2,0,L|48:144,1,70,8|0,0:0|0:0,0:0:0:0:
24,248,39695,6,0,B|132:244|132:244|100:268,1,140,0|8,0:0|0:0,0:0:0:0:
40,356,40182,1,0,0:0:0:0:
152,344,40344,2,0,L|216:296,1,70,0|0,0:0|0:0,0:0:0:0:
320,304,40668,2,0,L|376:346,1,70,8|0,0:0|0:0,0:0:0:0:
464,272,40993,6,0,P|480:220|448:132,1,140,0|8,0:0|0:0,0:0:0:0:
364,208,41479,1,0,0:0:0:0:
364,208,41560,1,0,0:0:0:0:
364,208,41641,2,0,L|268:208,1,70,0|8,0:0|0:0,0:0:0:0:
204,136,41966,2,0,P|196:100|212:56,1,70,8|0,0:0|0:0,0:0:0:0:
100,28,42290,6,0,P|80:96|100:176,1,140,4|8,0:0|0:0,0:0:0:0:
156,256,42776,2,0,L|56:284,1,70,0|0,0:0|0:0,0:0:0:0:
8,352,43101,1,0,0:0:0:0:
120,368,43263,2,0,L|208:344,1,70,8|0,0:0|0:0,0:0:0:0:
300,352,43587,6,0,L|367:370,2,70,0|0|8,0:0|0:0|0:0,0:0:0:0:
248,252,44074,1,0,0:0:0:0:
248,252,44155,1,0,0:0:0:0:
248,252,44236,2,0,P|240:200|248:168,1,70,0|0,0:0|0:0,0:0:0:0:
340,128,44560,1,8,0:0:0:0:
436,184,44722,1,0,0:0:0:0:
408,76,44885,6,0,P|344:43|273:73,1,140,0|8,0:0|0:0,0:0:0:0:
184,124,45371,2,0,P|148:128|108:124,1,70,0|0,0:0|0:0,0:0:0:0:
16,68,45695,1,0,0:0:0:0:
116,16,45858,2,0,P|152:12|192:16,1,70,8|0,0:0|0:0,0:0:0:0:
281,70,46182,5,8,0:0:0:0:
281,70,46344,1,0,0:0:0:0:
184,124,46506,1,8,0:0:0:0:
184,124,46668,1,8,0:0:0:0:
288,184,46831,2,0,L|336:184,2,35,0|0|8,0:0|0:0|0:0,0:0:0:0:
192,240,47155,2,0,P|188:280|204:332,1,70,8|0,0:0|0:0,0:0:0:0:
292,360,47479,6,0,L|364:340,1,70,14|0,0:0|0:0,0:0:0:0:
472,328,47804,2,0,L|452:232,1,70,8|0,0:0|0:0,0:0:0:0:
456,148,48128,2,0,L|470:79,1,70,8|0,0:0|0:0,0:0:0:0:
364,52,48452,2,0,L|292:72,1,70,8|0,0:0|0:0,0:0:0:0:
192,36,48776,5,8,0:0:0:0:
192,36,48939,1,0,0:0:0:0:
88,80,49101,2,0,P|80:120|96:168,1,70,8|0,0:0|0:0,0:0:0:0:
188,196,49425,1,8,0:0:0:0:
188,196,49588,1,0,0:0:0:0:
108,272,49749,2,0,P|100:312|116:360,1,70,8|0,0:0|0:0,0:0:0:0:
212,308,50074,6,0,L|152:308,5,35,8|0|0|0|8|0,0:0|0:0|0:0|0:0|0:0|0:0,0:0:0:0:
288,352,50560,6,0,L|336:352,5,35,0|0|8|0|0|0,0:0|0:0|0:0|0:0|0:0|0:0,0:0:0:0:
304,268,51047,6,0,L|364:268,5,35,8|0|0|0|8|0,0:0|0:0|0:0|0:0|0:0|0:0,0:0:0:0:
228,224,51533,6,0,L|180:224,5,35,0|0|8|0|0|0,0:0|0:0|0:0|0:0|0:0|0:0,0:0:0:0:
304,184,52020,6,0,P|308:144|296:104,1,70,8|8,0:0|0:0,0:0:0:0:
224,32,52344,1,8,0:0:0:0:
152,116,52506,1,0,0:0:0:0:
152,116,52587,1,0,0:0:0:0:
152,116,52668,6,0,P|80:96|8:124,1,140,6|0,0:0|0:0,0:0:0:0:
84,208,53155,1,0,0:0:0:0:
16,296,53317,2,0,P|88:316|160:288,1,140,8|0,0:0|0:0,0:0:0:0:
212,204,53804,1,0,0:0:0:0:
296,280,53966,6,0,L|432:356,1,140,0|0,0:0|0:0,0:0:0:0:
488,260,54452,1,0,0:0:0:0:
392,204,54614,2,0,P|384:168|396:128,1,70,8|0,0:0|0:0,0:0:0:0:
488,76,54939,2,0,L|408:52,1,70,0|0,0:0|0:0,0:0:0:0:
308,52,55263,6,0,B|240:72|240:72|156:48,1,140,0|0,0:0|0:0,0:0:0:0:
72,96,55749,1,0,0:0:0:0:
164,160,55912,2,0,P|172:192|160:244,1,70,8|0,0:0|0:0,0:0:0:0:
72,284,56236,1,0,0:0:0:0:
72,284,56398,1,0,0:0:0:0:
172,336,56560,6,0,L|320:320,1,140,0|0,0:0|0:0,0:0:0:0:
416,356,57047,1,0,0:0:0:0:
392,248,57209,2,0,L|372:160,1,70,8|0,0:0|0:0,0:0:0:0:
340,76,57533,2,0,P|380:68|416:80,1,70,0|0,0:0|0:0,0:0:0:0:
300,148,57858,6,0,P|264:104|280:20,1,140,0|0,0:0|0:0,0:0:0:0:
275,25,58344,1,0,0:0:0:0:
180,84,58506,2,0,L|36:40,1,140,8|0,0:0|0:0,0:0:0:0:
46,43,58993,1,0,0:0:0:0:
8,148,59155,6,0,P|4:184|12:224,1,70,0|0,0:0|0:0,0:0:0:0:
120,192,59479,2,0,P|124:228|116:268,1,70,0|0,0:0|0:0,0:0:0:0:
44,344,59804,2,0,L|204:348,1,140,8|0,0:0|0:0,0:0:0:0:
284,300,60290,1,8,0:0:0:0:
284,300,60371,1,0,0:0:0:0:
284,300,60452,6,0,L|444:304,1,140,4|0,0:0|0:0,0:0:0:0:
496,220,60939,1,0,0:0:0:0:
388,196,61101,2,0,P|368:128|396:52,1,140,8|0,0:0|0:0,0:0:0:0:
387,63,61587,1,0,0:0:0:0:
284,100,61749,6,0,P|252:80|208:64,1,70,0|0,0:0|0:0,0:0:0:0:
108,68,62074,2,0,P|75:81|46:100,1,70,0|0,0:0|0:0,0:0:0:0:
128,176,62398,1,8,0:0:0:0:
128,176,62560,1,0,0:0:0:0:
20,204,62722,1,0,0:0:0:0:
20,204,62884,1,8,0:0:0:0:
104,296,63047,6,0,L|248:260,1,140,0|0,0:0|0:0,0:0:0:0:
312,348,63533,1,0,0:0:0:0:
416,308,63695,2,0,P|424:264|408:224,1,70,8|0,0:0|0:0,0:0:0:0:
324,176,64020,2,0,P|317:141|325:108,1,70,0|8,0:0|0:0,0:0:0:0:
428,60,64344,6,0,B|360:76|360:76|276:56,1,140,0|0,0:0|0:0,0:0:0:0:
188,104,64831,1,0,0:0:0:0:
80,72,64993,2,0,P|72:108|84:152,1,70,8|0,0:0|0:0,0:0:0:0:
180,188,65317,2,0,L|168:276,1,70,0|8,0:0|0:0,0:0:0:0:
76,316,65641,5,8,0:0:0:0:
76,316,65804,1,0,0:0:0:0:
180,360,65966,1,8,0:0:0:0:
180,360,66129,1,0,0:0:0:0:
280,316,66290,2,0,L|288:264,3,35,8|0|0|0,0:0|0:0|0:0|0:0,0:0:0:0:
352,328,66614,2,0,L|360:276,3,35,8|0|0|0,0:0|0:0|0:0|0:0,0:0:0:0:
424,340,66939,5,8,0:0:0:0:
424,340,67749,5,8,0:0:0:0:
484,248,67912,2,0,P|488:212|472:160,1,70,10|0,0:0|0:0,0:0:0:0:
476,168,68155,5,0,0:0:0:0:
468,156,68236,2,0,B|388:184|388:184|300:156,1,167.999994873047,4|8,0:0|0:0,0:0:0:0:
196,104,68722,1,0,0:0:0:0:
76,144,68885,2,0,P|72:100|80:56,1,83.9999974365235,0|0,0:0|0:0,0:0:0:0:
156,224,69209,2,0,P|160:268|152:312,1,83.9999974365235,8|0,0:0|0:0,0:0:0:0:
36,260,69533,5,0,0:0:0:0:
156,224,69695,1,0,0:0:0:0:
248,312,69858,2,0,L|332:292,1,83.9999974365235,8|0,0:0|0:0,0:0:0:0:
448,248,70182,2,0,P|454:289|450:330,2,83.9999974365235,0|0|8,0:0|0:0|0:0,0:0:0:0:
348,168,70668,1,0,0:0:0:0:
424,68,70831,6,0,P|360:40|248:84,1,167.999994873047,0|8,0:0|0:0,0:0:0:0:
216,180,71317,1,0,0:0:0:0:
268,64,71479,2,0,L|164:64,1,83.9999974365235,0|0,0:0|0:0,0:0:0:0:
64,20,71804,2,0,P|56:61|64:101,1,83.9999974365235,8|0,0:0|0:0,0:0:0:0:
112,220,72128,5,0,0:0:0:0:
112,220,72290,1,0,0:0:0:0:
68,336,72452,2,0,P|116:344|168:328,1,83.9999974365235,8|0,0:0|0:0,0:0:0:0:
252,264,72776,2,0,L|332:328,1,83.9999974365235,0|0,0:0|0:0,0:0:0:0:
328,324,73020,1,0,0:0:0:0:
340,332,73101,2,0,P|388:340|440:324,1,83.9999974365235,8|0,0:0|0:0,0:0:0:0:
436,212,73425,5,4,0:0:0:0:
324,156,73587,1,0,0:0:0:0:
424,88,73749,1,8,0:0:0:0:
316,32,73912,1,0,0:0:0:0:
208,96,74074,2,0,P|164:100|92:92,1,83.9999974365235,0|0,0:0|0:0,0:0:0:0:
28,180,74398,2,0,P|72:176|144:184,1,83.9999974365235,8|0,0:0|0:0,0:0:0:0:
132,304,74722,6,0,B|212:276|212:276|320:312,1,167.999994873047,0|8,0:0|0:0,0:0:0:0:
408,352,75209,1,0,0:0:0:0:
408,352,75290,1,0,0:0:0:0:
408,352,75371,2,0,P|412:300|408:268,1,83.9999974365235,0|0,0:0|0:0,0:0:0:0:
332,168,75695,1,8,0:0:0:0:
416,72,75858,1,0,0:0:0:0:
292,56,76020,6,0,L|120:56,1,167.999994873047,0|8,0:0|0:0,0:0:0:0:
8,100,76506,1,0,0:0:0:0:
124,56,76668,2,0,P|132:108|128:144,1,83.9999974365235,0|0,0:0|0:0,0:0:0:0:
32,220,76993,1,8,0:0:0:0:
32,220,77155,1,0,0:0:0:0:
104,320,77317,6,0,L|4:360,2,83.9999974365235,0|0|8,0:0|0:0|0:0,0:0:0:0:
240,344,77804,1,8,0:0:0:0:
240,344,77885,1,0,0:0:0:0:
240,344,77966,2,0,P|280:352|336:340,1,83.9999974365235,0|8,0:0|0:0,0:0:0:0:
368,228,78290,1,8,0:0:0:0:
468,304,78452,1,0,0:0:0:0:
468,304,78533,1,0,0:0:0:0:
468,304,78614,6,0,P|492:248|452:128,1,167.999994873047,6|8,0:0|0:0,0:0:0:0:
384,56,79101,1,0,0:0:0:0:
272,116,79263,2,0,P|228:124|176:108,1,83.9999974365235,0|0,0:0|0:0,0:0:0:0:
80,52,79587,2,0,L|88:148,1,83.9999974365235,8|0,0:0|0:0,0:0:0:0:
56,260,79912,6,0,B|100:280|148:260|124:244|168:228|220:248,1,167.999994873047,0|8,0:0|0:0,0:0:0:0:
312,328,80398,1,0,0:0:0:0:
432,372,80560,2,0,P|436:328|424:280,1,83.9999974365235,0|0,0:0|0:0,0:0:0:0:
336,200,80885,1,8,0:0:0:0:
456,160,81047,1,0,0:0:0:0:
360,76,81209,6,0,B|312:20|312:20|252:48|268:112,1,167.999994873047,0|8,0:0|0:0,0:0:0:0:
336,200,81695,1,0,0:0:0:0:
264,93,81858,2,0,L|164:96,1,83.9999974365235,0|0,0:0|0:0,0:0:0:0:
64,140,82182,1,8,0:0:0:0:
68,16,82344,1,0,0:0:0:0:
180,95,82506,6,0,P|188:143|176:195,1,83.9999974365235,0|0,0:0|0:0,0:0:0:0:
64,228,82831,1,8,0:0:0:0:
152,320,82993,1,8,0:0:0:0:
152,320,83074,1,0,0:0:0:0:
152,320,83155,2,0,L|256:320,1,83.9999974365235,0|8,0:0|0:0,0:0:0:0:
360,348,83479,2,0,L|444:348,1,83.9999974365235,8|0,0:0|0:0,0:0:0:0:
368,244,83804,6,0,P|344:192|376:80,1,167.999994873047,4|8,0:0|0:0,0:0:0:0:
468,168,84290,1,0,0:0:0:0:
368,244,84452,2,0,L|272:232,1,83.9999974365235,0|0,0:0|0:0,0:0:0:0:
184,308,84776,1,8,0:0:0:0:
184,308,84939,1,0,0:0:0:0:
80,236,85101,6,0,L|32:248,3,41.9999987182618,8|0|0|0,0:0|0:0|0:0|0:0,0:0:0:0:
68,160,85425,2,0,L|20:172,3,41.9999987182618,8|0|0|0,0:0|0:0|0:0|0:0,0:0:0:0:
140,100,85749,6,0,L|180:89,3,41.9999987182618,8|0|0|0,0:0|0:0|0:0|0:0,0:0:0:0:
128,24,86073,2,0,L|168:13,3,41.9999987182618,8|0|0|0,0:0|0:0|0:0|0:0,0:0:0:0:
56,72,86398,5,6,0:0:0:0:
280,184,86722,2,0,L|372:164,1,83.9999974365235,8|0,0:0|0:0,0:0:0:0:
372,40,87047,1,0,0:0:0:0:
372,40,87209,1,0,0:0:0:0:
468,120,87371,2,0,P|476:168|456:232,1,83.9999974365235,8|0,0:0|0:0,0:0:0:0:
436,324,87695,6,0,B|360:296|360:296|268:328,1,167.999994873047,0|8,0:0|0:0,0:0:0:0:
156,360,88182,1,0,0:0:0:0:
64,272,88344,2,0,P|56:224|68:176,1,83.9999974365235,0|0,0:0|0:0,0:0:0:0:
56,64,88668,2,0,L|140:76,1,83.9999974365235,8|0,0:0|0:0,0:0:0:0:
256,128,88993,6,0,P|336:156|424:124,1,167.999994873047,0|8,0:0|0:0,0:0:0:0:
332,36,89479,1,0,0:0:0:0:
412,132,89641,2,0,L|500:128,1,83.9999974365235,0|0,0:0|0:0,0:0:0:0:
496,256,89966,2,0,L|408:260,1,83.9999974365235,8|0,0:0|0:0,0:0:0:0:
332,356,90290,5,0,0:0:0:0:
268,248,90452,1,0,0:0:0:0:
196,348,90614,2,0,P|152:360|104:348,1,83.9999974365235,8|0,0:0|0:0,0:0:0:0:
28,260,90939,2,0,L|31:153,1,83.9999974365235,0|0,0:0|0:0,0:0:0:0:
37,164,91182,1,0,0:0:0:0:
43,151,91263,2,0,L|46:44,1,83.9999974365235,8|0,0:0|0:0,0:0:0:0:
160,12,91587,5,6,0:0:0:0:
160,136,91749,1,0,0:0:0:0:
268,72,91912,1,8,0:0:0:0:
388,112,92074,1,0,0:0:0:0:
388,112,92155,1,0,0:0:0:0:
388,112,92236,2,0,P|392:68|384:24,1,83.9999974365235,0|0,0:0|0:0,0:0:0:0:
296,180,92560,2,0,P|292:224|300:268,1,83.9999974365235,8|0,0:0|0:0,0:0:0:0:
416,312,92885,6,0,L|256:364,1,167.999994873047,0|8,0:0|0:0,0:0:0:0:
184,264,93371,1,0,0:0:0:0:
184,264,93452,1,0,0:0:0:0:
184,264,93533,2,0,L|92:296,1,83.9999974365235,0|0,0:0|0:0,0:0:0:0:
24,196,93858,2,0,P|12:144|28:96,1,83.9999974365235,8|0,0:0|0:0,0:0:0:0:
120,40,94182,6,0,B|200:68|200:68|296:36,1,167.999994873047,0|8,0:0|0:0,0:0:0:0:
400,80,94668,1,0,0:0:0:0:
278,41,94831,2,0,P|272:88|284:136,1,83.9999974365235,0|0,0:0|0:0,0:0:0:0:
368,212,95155,1,8,0:0:0:0:
488,176,95317,1,0,0:0:0:0:
492,300,95479,6,0,P|448:312|388:288,1,83.9999974365235,0|0,0:0|0:0,0:0:0:0:
288,328,95804,2,0,P|247:319|207:331,1,83.9999974365235,8|8,0:0|0:0,0:0:0:0:
84,360,96128,1,0,0:0:0:0:
112,236,96290,1,8,0:0:0:0:
112,236,96371,1,0,0:0:0:0:
112,236,96452,2,0,L|112:128,1,83.9999974365235,8|0,0:0|0:0,0:0:0:0:
188,52,96776,6,0,P|268:28|352:56,1,167.999994873047,6|8,0:0|0:0,0:0:0:0:
348,180,97263,1,0,0:0:0:0:
468,136,97425,2,0,P|476:180|468:228,1,83.9999974365235,0|0,0:0|0:0,0:0:0:0:
392,316,97749,2,0,L|272:316,1,83.9999974365235,8|0,0:0|0:0,0:0:0:0:
180,328,98074,6,0,B|100:356|100:356|16:328,1,167.999994873047,0|8,0:0|0:0,0:0:0:0:
100,232,98560,1,0,0:0:0:0:
56,116,98722,2,0,P|96:107|140:115,1,83.9999974365235,0|0,0:0|0:0,0:0:0:0:
244,44,99047,2,0,P|285:36|325:45,1,83.9999974365235,8|0,0:0|0:0,0:0:0:0:
400,148,99371,6,0,P|380:224|416:320,1,167.999994873047,0|8,0:0|0:0,0:0:0:0:
504,224,99858,1,0,0:0:0:0:
406,307,100020,2,0,P|358:299|310:315,1,83.9999974365235,0|0,0:0|0:0,0:0:0:0:
208,352,100344,2,0,L|120:356,1,83.9999974365235,8|0,0:0|0:0,0:0:0:0:
40,264,100668,6,0,P|20:204|52:100,1,167.999994873047,0|8,0:0|0:0,0:0:0:0:
152,32,101155,1,8,0:0:0:0:
212,144,101317,2,0,P|256:152|300:144,2,83.9999974365235,0|8|8,0:0|0:0|0:0,0:0:0:0:
260,28,101804,1,0,0:0:0:0:
364,100,101966,6,0,P|376:152|356:204,1,83.9999974365235,4|0,0:0|0:0,0:0:0:0:
256,232,102290,1,0,0:0:0:0:
360,304,102452,1,0,0:0:0:0:
244,352,102614,2,0,L|152:352,1,83.9999974365235,8|0,0:0|0:0,0:0:0:0:
56,276,102939,2,0,L|148:276,1,83.9999974365235,0|0,0:0|0:0,0:0:0:0:
204,168,103263,6,0,P|228:104|200:12,1,167.999994873047,0|0,0:0|0:0,0:0:0:0:
104,92,103749,1,0,0:0:0:0:
204,168,103912,2,0,L|296:160,1,83.9999974365235,8|0,0:0|0:0,0:0:0:0:
324,40,104236,2,0,L|407:47,1,83.9999974365235,0|0,0:0|0:0,0:0:0:0:
501,131,104560,5,0,0:0:0:0:
395,199,104722,1,0,0:0:0:0:
494,277,104885,1,0,0:0:0:0:
393,352,105047,1,0,0:0:0:0:
293,273,105209,2,0,L|189:257,1,83.9999974365235,8|0,0:0|0:0,0:0:0:0:
93,306,105533,2,0,P|85:254|93:218,1,83.9999974365235,8|8,0:0|0:0,0:0:0:0:
184,140,105858,1,12,0:0:0:0:
203,264,107155,6,0,B|160:276|130:247|113:230|112:192|112:192|112:162|132:136|153:122|183:121|183:121|212:120|244:136|257:167|258:191|258:191|259:213|264:237|286:257|315:264|337:261|337:261|365:258|387:244|402:216|402:191|402:191|403:163|387:125|351:114|329:113|305:120,2,716.8,2|0|2,0:1|0:0|0:0,0:0:0:0:
256,192,112506,12,0,117371,0:0:0:0:
