osu file format v14

[General]
AudioFilename: chrono diver -fragment-.mp3
AudioLeadIn: 2000
PreviewTime: 67263
Countdown: 0
SampleSet: Soft
StackLeniency: 0.2
Mode: 0
LetterboxInBreaks: 0
WidescreenStoryboard: 0

[Editor]
Bookmarks: 5966,16344,26722,47479,52668,68236,86398,105858,117533
DistanceSpacing: 1.9
BeatDivisor: 4
GridSize: 4
TimelineZoom: 2.899999

[Metadata]
Title:chrono diver -fragment-
TitleUnicode:chrono diver -fragment-
Artist:Nekomata Master feat. Misawa Aki
ArtistUnicode:猫叉Master feat.三澤秋
Creator:moph
Version:Extra
Source:beatmania IIDX 22 PENDUAL
Tags:naoyuki sato follow slowly healing drum'n'bass Rizen tasuke912
BeatmapID:815219
BeatmapSetID:372200

[Difficulty]
HPDrainRate:6.5
CircleSize:4.3
OverallDifficulty:8.5
ApproachRate:9.3
SliderMultiplier:1.8
SliderTickRate:2

[Events]
//Background and Video events
0,0,"bg.jpg",0,0
//Break Periods
//Storyboard Layer 0 (Background)
//Storyboard Layer 1 (Fail)
//Storyboard Layer 2 (Pass)
//Storyboard Layer 3 (Foreground)
//Storyboard Sound Samples

[TimingPoints]
777,324.324324324324,4,2,1,5,1,0
2074,-100,4,2,1,10,0,0
3371,-100,4,2,1,15,0,0
4668,-100,4,2,1,20,0,0
5641,-133.333333333333,4,2,1,50,0,0
16263,-133.333333333333,4,2,1,20,0,0
16344,-133.333333333333,4,1,1,60,0,0
21533,-100,4,1,1,75,0,0
25668,-100,4,1,1,20,0,0
25749,-100,4,1,1,75,0,0
25993,-100,4,1,1,20,0,0
26074,-100,4,1,1,75,0,0
26317,-100,4,1,1,20,0,0
26398,-100,4,1,1,75,0,0
26641,-100,4,1,1,20,0,0
26722,-100,4,1,1,75,0,0
26966,-100,4,1,1,20,0,0
27047,-100,4,1,1,75,0,0
27939,-100,4,1,1,20,0,0
28020,-100,4,1,1,75,0,0
33128,-100,4,1,1,20,0,0
33209,-100,4,1,1,75,0,0
34425,-100,4,1,1,20,0,0
34506,-100,4,1,1,75,0,0
34749,-100,4,1,1,20,0,0
34831,-100,4,1,1,75,0,0
35722,-100,4,1,1,20,0,0
35804,-100,4,1,1,75,0,0
37020,-100,4,1,1,20,0,0
37101,-100,4,1,1,75,0,0
38317,-100,4,1,1,20,0,0
38398,-100,4,1,1,75,0,0
39614,-100,4,1,1,20,0,0
39695,-100,4,1,1,75,0,0
40912,-100,4,1,1,20,0,0
40993,-100,4,1,1,75,0,0
42209,-100,4,1,1,20,0,0
42290,-100,4,1,1,75,0,0
44804,-100,4,1,1,20,0,0
44885,-100,4,1,1,75,0,0
47398,-100,4,1,1,20,0,0
47479,-100,4,1,1,75,0,0
52587,-100,4,1,1,20,0,0
52668,-100,4,1,1,75,0,0
53560,-100,4,1,1,20,0,0
53641,-100,4,1,1,75,0,0
55182,-100,4,1,1,20,0,0
55263,-100,4,1,1,75,0,0
56155,-100,4,1,1,20,0,0
56236,-100,4,1,1,75,0,0
58749,-100,4,1,1,20,0,0
58831,-100,4,1,1,75,0,0
61344,-100,4,1,1,20,0,0
61425,-100,4,1,1,75,0,0
67263,-100,4,1,1,50,0,0
67506,-100,4,1,1,5,0,0
67587,-100,4,1,1,50,0,0
67912,-100,4,1,1,65,0,0
68236,-83.3333333333333,4,1,1,75,0,1
69452,-83.3333333333333,4,1,1,20,0,1
69533,-83.3333333333333,4,1,1,75,0,1
71074,-83.3333333333333,4,1,1,20,0,1
71155,-83.3333333333333,4,1,1,75,0,1
74641,-83.3333333333333,4,1,1,20,0,1
74722,-83.3333333333333,4,1,1,75,0,1
76263,-83.3333333333333,4,1,1,20,0,1
76344,-83.3333333333333,4,1,1,75,0,1
78858,-83.3333333333333,4,1,1,20,0,1
78939,-83.3333333333333,4,1,1,75,0,1
79831,-83.3333333333333,4,1,1,20,0,1
79912,-83.3333333333333,4,1,1,75,0,1
81452,-83.3333333333333,4,1,1,20,0,1
81533,-83.3333333333333,4,1,1,75,0,1
86074,-83.3333333333333,4,1,1,75,0,0
86398,-83.3333333333333,4,1,1,75,0,1
87614,-83.3333333333333,4,1,1,25,0,1
87695,-83.3333333333333,4,1,1,75,0,1
89236,-83.3333333333333,4,1,1,20,0,1
89317,-83.3333333333333,4,1,1,75,0,1
92804,-83.3333333333333,4,1,1,20,0,1
92885,-83.3333333333333,4,1,1,75,0,1
94425,-83.3333333333333,4,1,1,20,0,1
94506,-83.3333333333333,4,1,1,75,0,1
97020,-83.3333333333333,4,1,1,20,0,1
97101,-83.3333333333333,4,1,1,75,0,1
97993,-83.3333333333333,4,1,1,20,0,1
98074,-83.3333333333333,4,1,1,75,0,1
99614,-83.3333333333333,4,1,1,20,0,1
99695,-83.3333333333333,4,1,1,75,0,1
105858,-100,4,1,1,75,0,0
107155,-200,4,2,1,70,0,0
107236,-200,4,2,1,20,0,0
109668,-200,4,2,1,40,0,0
109831,-200,4,2,1,20,0,0
112263,-200,4,2,1,40,0,0
112506,-200,4,2,1,5,0,0

[Colours]
Combo1 : 168,148,180
Combo2 : 126,141,194
Combo3 : 172,168,187
Combo4 : 142,174,193

[HitObjects]
256,192,777,12,0,5317,0:0:0:0:
256,192,5641,5,0,0:0:0:0:
268,198,5722,1,0,0:0:0:0:
281,205,5804,1,0,0:0:0:0:
294,212,5885,1,0,0:0:0:0:
304,216,5966,2,0,P|324:164|296:84,1,135.000005149842,2|0,0:1|0:0,0:0:0:0:
140,224,6452,2,0,L|264:288,1,135.000005149842
171,138,6939,2,0,P|139:130|90:145,1,67.5000025749208
47,332,7263,6,0,P|79:340|128:325,1,67.5000025749208,2|0,0:0|0:0,0:0:0:0:
122,330,7506,1,0,0:0:0:0:
131,325,7587,1,0,0:0:0:0:
220,209,7749,1,0,0:0:0:0:
309,331,7912,2,0,L|443:319,1,135.000005149842,2|0,0:0|0:0,0:0:0:0:
443,318,8398,1,0,0:0:0:0:
366,206,8560,6,0,P|350:141|382:54,1,135.000005149842,2|0,0:0|0:0,0:0:0:0:
449,35,9047,1,0,0:0:0:0:
274,108,9209,2,0,L|196:96,1,67.5000025749208
140,36,9533,1,0,0:0:0:0:
32,128,9695,1,0,0:0:0:0:
40,136,9776,1,0,0:0:0:0:
48,144,9858,6,0,L|52:300,1,135.000005149842,2|0,0:0|0:0,0:0:0:0:
164,356,10344,1,0,0:0:0:0:
200,240,10506,2,0,P|168:232|124:244,1,67.5000025749208
268,320,10831,1,0,0:0:0:0:
280,316,10912,1,0,0:0:0:0:
292,312,10993,1,0,0:0:0:0:
304,308,11074,1,0,0:0:0:0:
316,304,11155,6,0,L|448:344,1,135.000005149842,2|0,0:1|0:0,0:0:0:0:
504,260,11641,1,0,0:0:0:0:
384,160,11804,2,0,P|376:200|388:240,1,67.5000025749208
512,127,12128,2,0,L|444:103,1,67.5000025749208
369,76,12452,5,2,0:0:0:0:
369,76,12614,1,0,0:0:0:0:
304,205,12776,1,0,0:0:0:0:
304,205,12938,1,0,0:0:0:0:
455,195,13101,1,2,0:0:0:0:
455,195,13263,1,0,0:0:0:0:
295,124,13425,2,0,L|216:125,1,67.5000025749208
72,200,13749,6,0,P|132:220|208:196,1,135.000005149842,2|0,0:0|0:0,0:0:0:0:
136,116,14236,1,0,0:0:0:0:
1,169,14398,2,0,P|-4:202|9:253,2,67.5000025749208
143,123,14885,1,0,0:0:0:0:
143,123,14966,1,0,0:0:0:0:
143,123,15047,6,0,P|148:90|138:40,1,67.5000025749208,2|0,0:0|0:0,0:0:0:0:
48,88,15371,1,0,0:0:0:0:
164,232,15533,1,0,0:0:0:0:
240,64,15695,2,0,P|272:60|332:68,1,67.5000025749208
314,67,15912,1,0,0:0:0:0:
322,74,15966,1,0,0:0:0:0:
330,81,16020,2,0,P|386:89|454:77,1,101.250003862381
430,84,16344,6,0,L|433:172,1,67.5000025749208,6|0,0:0|0:0,0:0:0:0:
388,236,16668,1,0,0:0:0:0:
388,236,16831,1,0,0:0:0:0:
452,324,16993,2,0,P|388:344|317:316,1,135.000005149842,8|0,0:0|0:0,0:0:0:0:
276,228,17479,1,0,0:0:0:0:
164,336,17641,6,0,L|80:340,1,67.5000025749208
87,343,17885,1,0,0:0:0:0:
77,346,17966,1,0,0:0:0:0:
32,244,18128,1,0,0:0:0:0:
140,204,18290,2,0,P|156:140|128:64,1,135.000005149842,8|0,0:0|0:0,0:0:0:0:
28,32,18776,1,0,0:0:0:0:
136,75,18939,6,0,P|180:84|227:73,1,67.5000025749208
211,79,19182,1,0,0:0:0:0:
220,75,19263,1,0,0:0:0:0:
324,116,19425,1,0,0:0:0:0:
420,52,19587,2,0,P|440:100|420:192,1,135.000005149842,8|0,0:0|0:0,0:0:0:0:
359,273,20074,1,0,0:0:0:0:
351,279,20155,1,0,0:0:0:0:
343,286,20236,6,0,L|347:378,1,67.5000025749208
462,306,20560,1,0,0:0:0:0:
336,194,20722,1,0,0:0:0:0:
226,307,20885,1,8,0:0:0:0:
226,307,20966,1,0,0:0:0:0:
226,307,21047,1,0,0:0:0:0:
226,307,21128,1,0,0:0:0:0:
226,307,21209,1,0,0:0:0:0:
182,332,21290,1,0,0:0:0:0:
132,342,21371,1,0,0:0:0:0:
82,333,21452,1,0,0:0:0:0:
39,313,21533,6,0,L|52:219,1,90,12|0,0:0|0:0,0:0:0:0:
200,136,21858,1,8,0:0:0:0:
56,48,22020,1,0,0:0:0:0:
152,224,22182,1,8,0:0:0:0:
0,136,22344,1,0,0:0:0:0:
153,46,22506,1,8,0:0:0:0:
296,136,22668,1,0,0:0:0:0:
100,136,22831,5,8,0:0:0:0:
248,227,22993,1,0,0:0:0:0:
384,136,23155,1,8,0:0:0:0:
252,48,23317,1,0,0:0:0:0:
344,228,23479,1,8,0:0:0:0:
192,308,23641,1,0,0:0:0:0:
200,136,23804,1,8,0:0:0:0:
51,223,23966,1,0,0:0:0:0:
280,328,24128,5,8,0:0:0:0:
324,344,24209,1,0,0:0:0:0:
368,332,24290,1,0,0:0:0:0:
392,296,24371,1,0,0:0:0:0:
396,252,24452,1,8,0:0:0:0:
372,216,24533,1,0,0:0:0:0:
332,200,24614,1,0,0:0:0:0:
288,212,24695,1,0,0:0:0:0:
248,196,24776,5,8,0:0:0:0:
232,152,24858,1,0,0:0:0:0:
248,108,24939,1,0,0:0:0:0:
292,92,25020,1,0,0:0:0:0:
336,108,25101,1,8,0:0:0:0:
348,152,25182,1,0,0:0:0:0:
332,200,25263,1,0,0:0:0:0:
288,212,25344,1,0,0:0:0:0:
248,196,25425,6,0,L|112:196,1,135,8|0,0:0|0:0,0:0:0:0:
43,160,25749,2,0,P|1:165|44:143,1,135
112,92,26074,2,0,L|80:56,2,30
124,108,26236,1,0,0:0:0:0:
350,98,26398,2,0,P|280:70|220:106,1,135,10|0,0:0|0:0,0:0:0:0:
288,152,26722,6,0,B|296:200|296:200|284:292,1,135,4|0,0:0|0:0,0:0:0:0:
244,344,27047,2,0,P|284:360|340:332,1,90,8|0,0:0|0:0,0:0:0:0:
380,200,27371,1,0,0:0:0:0:
380,200,27533,1,0,0:0:0:0:
200,272,27695,2,0,P|136:288|40:252,1,135,8|0,0:0|0:0,0:0:0:0:
52,260,28020,6,0,L|56:164,1,90
192,24,28344,2,0,L|184:192,1,135,8|0,0:0|0:0,0:0:0:0:
184,180,28668,1,0,0:0:0:0:
104,48,28831,1,0,0:0:0:0:
272,92,28993,2,0,L|392:100,1,90,8|0,0:0|0:0,0:0:0:0:
416,260,29317,6,0,P|380:204|460:232,1,180,0|8,0:0|0:0,0:0:0:0:
460,328,29804,2,0,P|424:340|352:312,2,90
312,280,30290,2,0,L|216:352,1,90,8|0,0:0|0:0,0:0:0:0:
80,316,30614,6,0,P|72:268|96:212,1,90
196,116,30939,1,8,0:0:0:0:
172,276,31101,1,0,0:0:0:0:
172,276,31182,1,0,0:0:0:0:
172,276,31263,1,0,0:0:0:0:
96,136,31425,1,0,0:0:0:0:
240,36,31587,2,0,P|188:24|136:48,1,90,8|0,0:0|0:0,0:0:0:0:
144,40,31831,1,0,0:0:0:0:
132,48,31912,6,0,L|16:48,1,90,4|0,0:0|0:0,0:0:0:0:
304,120,32236,2,0,L|420:120,1,90,8|0,0:0|0:0,0:0:0:0:
328,24,32560,1,0,0:0:0:0:
196,116,32722,1,0,0:0:0:0:
344,208,32885,2,0,P|364:268|348:356,1,135,8|0,0:0|0:0,0:0:0:0:
348,360,33209,5,0,0:0:0:0:
196,284,33371,1,0,0:0:0:0:
40,336,33533,2,0,P|24:280|40:232,1,90,8|0,0:0|0:0,0:0:0:0:
37,238,33776,1,0,0:0:0:0:
45,227,33858,1,0,0:0:0:0:
196,284,34020,1,0,0:0:0:0:
29,135,34182,2,0,L|169:127,1,135,8|0,0:0|0:0,0:0:0:0:
224,184,34506,6,0,P|244:136|200:48,1,135
200,52,34831,1,8,0:0:0:0:
148,208,34993,1,0,0:0:0:0:
320,152,35155,2,0,L|432:188,1,90
280,364,35479,2,0,P|260:312|280:224,1,135,8|0,0:0|0:0,0:0:0:0:
284,220,35804,5,8,0:0:0:0:
428,296,35966,1,0,0:0:0:0:
273,235,36128,1,8,0:0:0:0:
444,280,36290,1,8,0:0:0:0:
464,104,36452,1,0,0:0:0:0:
460,96,36533,1,0,0:0:0:0:
456,88,36614,1,8,0:0:0:0:
272,52,36776,2,0,L|116:96,1,135,8|0,0:0|0:0,0:0:0:0:
72,44,37101,6,0,P|60:100|72:136,1,90,6|0,0:0|0:0,0:0:0:0:
208,188,37425,1,8,0:0:0:0:
64,236,37587,1,0,0:0:0:0:
204,292,37749,2,0,P|216:336|200:384,1,90
4,348,38074,2,0,L|144:336,1,135,8|0,0:0|0:0,0:0:0:0:
204,377,38398,6,0,L|300:369,1,90
444,340,38722,1,8,0:0:0:0:
344,224,38885,1,0,0:0:0:0:
344,224,38966,1,0,0:0:0:0:
344,224,39047,2,0,P|336:184|356:116,1,90
480,64,39371,2,0,B|416:76|416:76|336:52,1,135,8|0,0:0|0:0,0:0:0:0:
328,52,39695,6,0,L|220:72,1,90
64,112,40020,2,0,L|172:132,1,90,8|0,0:0|0:0,0:0:0:0:
216,268,40344,1,0,0:0:0:0:
216,268,40506,1,0,0:0:0:0:
72,332,40668,2,0,P|56:268|88:188,1,135,8|0,0:0|0:0,0:0:0:0:
92,192,40993,5,0,0:0:0:0:
216,268,41155,1,0,0:0:0:0:
360,192,41317,1,8,0:0:0:0:
388,224,41398,1,0,0:0:0:0:
400,268,41479,1,0,0:0:0:0:
388,312,41560,1,0,0:0:0:0:
356,344,41641,2,0,L|316:324,1,45
216,268,41804,2,0,L|256:248,1,45,8|0,0:0|0:0,0:0:0:0:
360,192,41966,2,0,P|380:132|336:40,1,135,8|0,0:0|0:0,0:0:0:0:
340,48,42290,6,0,L|220:92,1,90,4|0,0:0|0:0,0:0:0:0:
96,120,42614,2,0,P|88:68|100:32,1,90,8|0,0:0|0:0,0:0:0:0:
192,160,42939,1,0,0:0:0:0:
36,204,43101,1,0,0:0:0:0:
152,320,43263,2,0,P|200:332|248:316,1,90,8|0,0:0|0:0,0:0:0:0:
416,256,43587,6,0,P|368:244|320:260,1,90
452,332,43912,1,8,0:0:0:0:
468,188,44074,1,0,0:0:0:0:
468,188,44155,1,0,0:0:0:0:
468,188,44236,2,0,L|468:96,1,90
332,32,44560,2,0,P|268:16|172:48,1,135,8|0,0:0|0:0,0:0:0:0:
184,48,44885,6,0,L|88:48,1,90
24,184,45209,1,8,0:0:0:0:
172,220,45371,2,0,P|180:168|156:112,2,90
60,324,45858,1,8,0:0:0:0:
204,368,46020,1,0,0:0:0:0:
344,284,46182,6,0,P|392:276|456:292,1,90,8|0,0:0|0:0,0:0:0:0:
292,364,46506,1,8,0:0:0:0:
292,200,46668,1,8,0:0:0:0:
432,280,46831,1,0,0:0:0:0:
432,280,46912,1,0,0:0:0:0:
432,280,46993,1,8,0:0:0:0:
224,268,47155,2,0,P|200:224|228:132,1,135,8|0,0:0|0:0,0:0:0:0:
232,128,47479,5,14,0:0:0:0:
372,196,47641,1,0,0:0:0:0:
364,28,47804,1,8,0:0:0:0:
512,112,47966,1,0,0:0:0:0:
320,116,48128,1,8,0:0:0:0:
464,20,48290,1,0,0:0:0:0:
472,192,48452,1,8,0:0:0:0:
332,288,48614,1,0,0:0:0:0:
180,212,48776,5,8,0:0:0:0:
372,196,48939,1,0,0:0:0:0:
160,216,49101,1,8,0:0:0:0:
392,192,49263,1,0,0:0:0:0:
220,116,49425,1,8,0:0:0:0:
332,288,49587,1,0,0:0:0:0:
204,96,49749,1,8,0:0:0:0:
352,312,49912,1,0,0:0:0:0:
480,96,50074,5,8,0:0:0:0:
448,64,50155,1,0,0:0:0:0:
404,48,50236,1,0,0:0:0:0:
360,48,50317,1,0,0:0:0:0:
316,64,50398,1,8,0:0:0:0:
284,96,50479,1,0,0:0:0:0:
272,140,50560,5,0,0:0:0:0:
240,108,50641,1,0,0:0:0:0:
200,84,50722,1,8,0:0:0:0:
156,80,50804,1,0,0:0:0:0:
112,96,50885,1,0,0:0:0:0:
80,124,50966,1,0,0:0:0:0:
64,164,51047,5,8,0:0:0:0:
36,128,51128,1,0,0:0:0:0:
53,86,51209,1,0,0:0:0:0:
97,80,51290,1,0,0:0:0:0:
125,114,51371,1,8,0:0:0:0:
128,158,51452,1,0,0:0:0:0:
157,191,51533,5,0,0:0:0:0:
200,190,51614,1,0,0:0:0:0:
231,159,51695,1,8,0:0:0:0:
231,115,51776,1,0,0:0:0:0:
200,85,51857,1,0,0:0:0:0:
156,85,51938,1,0,0:0:0:0:
125,114,52020,6,0,L|131:178,1,45,8|0,0:0|0:0,0:0:0:0:
32,211,52182,2,0,L|38:275,1,45,8|0,0:0|0:0,0:0:0:0:
136,335,52344,2,0,B|201:320|201:320|284:344,1,135,8|0,0:0|0:0,0:0:0:0:
345,351,52668,6,0,L|465:323,1,90,6|0,0:0|0:0,0:0:0:0:
346,206,52993,1,0,0:0:0:0:
480,204,53155,1,0,0:0:0:0:
404,92,53317,2,0,P|355:72|264:108,1,135,8|0,0:0|0:0,0:0:0:0:
268,108,53641,2,0,L|143:97,1,90
24,168,53966,6,0,L|208:188,1,180
272,272,54452,1,0,0:0:0:0:
89,258,54614,1,8,0:0:0:0:
178,100,54776,1,0,0:0:0:0:
336,208,54939,2,0,P|360:276|336:340,1,135
324,344,55263,6,0,L|228:344,1,90
89,258,55587,1,0,0:0:0:0:
240,176,55749,1,0,0:0:0:0:
148,320,55912,2,0,P|88:344|16:304,1,135,8|0,0:0|0:0,0:0:0:0:
16,304,56236,1,0,0:0:0:0:
96,144,56398,1,0,0:0:0:0:
228,272,56560,6,0,P|240:317|228:365,1,90
156,200,56885,2,0,L|257:171,1,90
352,252,57209,1,8,0:0:0:0:
352,252,57371,1,0,0:0:0:0:
412,132,57533,1,0,0:0:0:0:
412,132,57695,1,0,0:0:0:0:
304,52,57858,6,0,L|188:84,1,90
64,128,58182,2,0,P|52:72|76:16,1,90
200,176,58506,2,0,L|56:240,1,135,8|0,0:0|0:0,0:0:0:0:
56,240,58831,1,0,0:0:0:0:
136,84,58993,1,0,0:0:0:0:
244,240,59155,6,0,P|252:292|228:348,1,90
53,327,59479,2,0,P|45:275|69:219,1,90
194,130,59804,2,0,L|291:181,1,90,8|8,0:0|0:0,0:0:0:0:
241,327,60128,2,0,L|144:276,1,90,0|8,0:0|0:0,0:0:0:0:
328,284,60452,6,0,P|340:332|328:388,1,90,4|0,0:0|0:0,0:0:0:0:
216,232,60776,1,0,0:0:0:0:
216,232,61101,2,0,P|192:184|232:100,1,135,8|0,0:0|0:0,0:0:0:0:
232,100,61425,2,0,L|140:100,1,90
161,285,61749,5,0,0:0:0:0:
161,285,61912,1,0,0:0:0:0:
272,168,62074,2,0,L|362:168,1,90
464,292,62398,1,8,0:0:0:0:
308,252,62560,1,0,0:0:0:0:
460,192,62722,1,0,0:0:0:0:
372,328,62885,1,8,0:0:0:0:
200,212,63047,6,0,P|188:168|208:112,1,90
424,20,63371,2,0,P|436:64|416:120,1,90
272,168,63695,1,8,0:0:0:0:
352,64,63858,1,0,0:0:0:0:
198,125,64020,1,0,0:0:0:0:
425,106,64182,1,8,0:0:0:0:
240,56,64344,6,0,P|196:44|148:60,1,90
64,204,64668,2,0,P|108:216|156:200,1,90
284,128,64993,1,8,0:0:0:0:
108,128,65155,1,0,0:0:0:0:
244,204,65317,1,0,0:0:0:0:
154,55,65479,1,8,0:0:0:0:
116,288,65641,5,8,0:0:0:0:
156,308,65722,1,0,0:0:0:0:
200,316,65804,1,0,0:0:0:0:
244,300,65885,1,0,0:0:0:0:
280,272,65966,1,8,0:0:0:0:
324,260,66047,1,0,0:0:0:0:
364,280,66128,1,0,0:0:0:0:
376,324,66209,1,0,0:0:0:0:
356,364,66290,5,8,0:0:0:0:
312,376,66371,1,0,0:0:0:0:
272,356,66452,1,0,0:0:0:0:
260,312,66533,1,0,0:0:0:0:
280,272,66614,1,8,0:0:0:0:
272,228,66695,1,0,0:0:0:0:
244,192,66776,1,0,0:0:0:0:
200,192,66858,1,0,0:0:0:0:
164,216,66939,5,8,0:0:0:0:
164,216,67263,6,0,P|100:236|12:204,1,135
20,208,67587,1,0,0:0:0:0:
96,120,67749,1,8,0:0:0:0:
44,300,67912,2,0,P|92:308|150:297,1,90,10|0,0:0|0:0,0:0:0:0:
148,296,68155,1,0,0:0:0:0:
164,288,68236,6,0,L|292:332,1,107.999996704102,4|0,0:0|0:0,0:0:0:0:
448,320,68560,2,0,P|456:268|432:196,1,107.999996704102,8|0,0:0|0:0,0:0:0:0:
328,156,68885,1,0,0:0:0:0:
328,156,69047,1,0,0:0:0:0:
380,32,69209,2,0,B|300:60|300:60|208:28,1,161.999995056153,8|0,0:0|0:0,0:0:0:0:
200,24,69533,5,0,0:0:0:0:
76,68,69695,1,0,0:0:0:0:
96,232,69858,1,8,0:0:0:0:
220,188,70020,1,0,0:0:0:0:
32,188,70182,2,0,P|16:236|44:292,1,107.999996704102
48,300,70425,1,0,0:0:0:0:
60,312,70506,2,0,L|212:308,1,107.999996704102,8|0,0:0|0:0,0:0:0:0:
380,348,70831,6,0,P|400:288|376:192,1,161.999995056153
368,176,71155,1,8,0:0:0:0:
264,272,71317,1,0,0:0:0:0:
408,316,71479,2,0,P|416:251|396:195,1,107.999996704102
248,92,71804,2,0,L|368:88,1,107.999996704102,8|0,0:0|0:0,0:0:0:0:
494,164,72128,5,0,0:0:0:0:
316,168,72290,1,0,0:0:0:0:
396,4,72452,1,8,0:0:0:0:
404,210,72614,1,0,0:0:0:0:
184,172,72776,2,0,L|64:176,1,107.999996704102
68,184,72993,1,0,0:0:0:0:
60,192,73047,1,0,0:0:0:0:
52,200,73101,2,0,P|36:140|60:72,1,107.999996704102,8|0,0:0|0:0,0:0:0:0:
248,92,73425,5,4,0:0:0:0:
152,260,73587,1,0,0:0:0:0:
152,28,73749,1,8,0:0:0:0:
248,204,73912,1,0,0:0:0:0:
52,200,74074,1,0,0:0:0:0:
248,92,74236,1,0,0:0:0:0:
252,328,74398,2,0,B|332:304|332:304|416:336,1,161.999995056153,8|0,0:0|0:0,0:0:0:0:
468,376,74722,6,0,P|480:316|440:260,1,107.999996704102
328,156,75047,2,0,P|316:96|336:32,1,107.999996704102,8|0,0:0|0:0,0:0:0:0:
332,44,75290,1,0,0:0:0:0:
340,36,75371,1,0,0:0:0:0:
428,204,75533,1,0,0:0:0:0:
240,152,75695,1,8,0:0:0:0:
432,108,75858,1,0,0:0:0:0:
292,244,76020,6,0,P|228:256|150:205,1,161.999995056153
141,181,76344,1,8,0:0:0:0:
279,71,76506,1,0,0:0:0:0:
268,268,76668,2,0,P|224:272|164:240,1,107.999996704102
44,128,76993,1,8,0:0:0:0:
236,148,77155,1,0,0:0:0:0:
60,240,77317,5,0,0:0:0:0:
152,56,77479,1,0,0:0:0:0:
188,255,77641,1,8,0:0:0:0:
0,316,77804,1,8,0:0:0:0:
0,316,77885,1,0,0:0:0:0:
0,316,77966,1,0,0:0:0:0:
136,164,78128,1,8,0:0:0:0:
236,332,78290,1,8,0:0:0:0:
272,356,78371,1,0,0:0:0:0:
316,360,78452,1,0,0:0:0:0:
360,352,78533,1,0,0:0:0:0:
396,324,78614,6,0,L|384:152,1,161.999995056153,6|0,0:0|0:0,0:0:0:0:
384,140,78939,1,8,0:0:0:0:
308,272,79101,1,0,0:0:0:0:
483,285,79263,2,0,L|472:148,1,107.999996704102
288,20,79587,2,0,L|299:181,1,161.999995056153,8|0,0:0|0:0,0:0:0:0:
288,196,79912,6,0,P|240:208|180:192,1,107.999996704102
0,124,80236,2,0,P|52:108|108:128,1,107.999996704102,8|0,0:0|0:0,0:0:0:0:
101,123,80479,1,0,0:0:0:0:
101,123,80560,1,0,0:0:0:0:
240,120,80722,1,0,0:0:0:0:
182,297,80885,2,0,P|170:233|186:189,1,107.999996704102,8|0,0:0|0:0,0:0:0:0:
428,249,81209,6,0,B|348:272|348:272|266:250,1,161.999995056153
256,248,81533,1,8,0:0:0:0:
344,124,81695,1,0,0:0:0:0:
400,274,81858,2,0,B|348:290|348:290|284:270,1,107.999996704102
436,188,82182,1,8,0:0:0:0:
400,376,82344,1,0,0:0:0:0:
272,176,82506,6,0,P|256:124|288:56,1,107.999996704102
504,136,82831,2,0,P|520:188|488:256,1,107.999996704102,8|8,0:0|0:0,0:0:0:0:
404,64,83155,2,0,L|516:44,1,107.999996704102,0|8,0:0|0:0,0:0:0:0:
356,256,83479,2,0,L|244:276,1,107.999996704102,8|0,0:0|0:0,0:0:0:0:
249,274,83722,1,0,0:0:0:0:
249,274,83804,5,4,0:0:0:0:
340,96,83966,1,0,0:0:0:0:
456,264,84128,1,8,0:0:0:0:
244,152,84290,1,0,0:0:0:0:
444,140,84452,1,0,0:0:0:0:
356,324,84614,1,0,0:0:0:0:
244,152,84776,1,8,0:0:0:0:
156,336,84938,1,0,0:0:0:0:
156,116,85101,5,8,0:0:0:0:
188,72,85182,1,0,0:0:0:0:
236,56,85263,1,0,0:0:0:0:
292,68,85344,1,0,0:0:0:0:
326,106,85425,1,8,0:0:0:0:
341,157,85506,1,0,0:0:0:0:
381,191,85587,1,0,0:0:0:0:
434,199,85668,1,0,0:0:0:0:
482,177,85749,5,8,0:0:0:0:
511,133,85830,1,0,0:0:0:0:
512,79,85911,1,0,0:0:0:0:
484,34,85992,1,0,0:0:0:0:
436,11,86073,1,8,0:0:0:0:
383,18,86154,1,0,0:0:0:0:
342,52,86235,1,0,0:0:0:0:
326,106,86316,1,0,0:0:0:0:
341,157,86398,6,0,L|209:189,1,107.999996704102,6|0,0:0|0:0,0:0:0:0:
40,72,86722,2,0,L|172:104,1,107.999996704102,8|0,0:0|0:0,0:0:0:0:
204,272,87047,1,0,0:0:0:0:
60,160,87209,1,0,0:0:0:0:
230,29,87371,2,0,P|254:89|226:197,1,161.999995056153,8|0,0:0|0:0,0:0:0:0:
220,192,87695,6,0,L|88:224,1,107.999996704102
316,332,88020,2,0,P|328:268|296:200,1,107.999996704102,8|0,0:0|0:0,0:0:0:0:
311,218,88263,1,0,0:0:0:0:
304,209,88344,1,0,0:0:0:0:
114,217,88506,1,0,0:0:0:0:
316,124,88668,2,0,P|368:108|436:144,1,107.999996704102,8|0,0:0|0:0,0:0:0:0:
477,339,88993,6,0,L|297:331,1,161.999995056153
288,328,89317,1,8,0:0:0:0:
368,192,89479,1,0,0:0:0:0:
448,356,89641,2,0,L|332:352,1,107.999996704102
192,224,89966,2,0,L|76:220,1,107.999996704102,8|0,0:0|0:0,0:0:0:0:
200,316,90290,5,0,0:0:0:0:
116,140,90452,1,0,0:0:0:0:
4,304,90614,2,0,L|111:307,1,107.999996704102,8|0,0:0|0:0,0:0:0:0:
272,272,90939,2,0,P|284:216|252:152,1,107.999996704102
260,160,91155,1,0,0:0:0:0:
252,152,91209,1,0,0:0:0:0:
244,144,91263,2,0,L|360:136,1,107.999996704102,8|0,0:0|0:0,0:0:0:0:
356,328,91587,5,6,0:0:0:0:
192,224,91749,1,0,0:0:0:0:
428,36,91912,1,8,0:0:0:0:
244,56,92074,1,0,0:0:0:0:
244,56,92155,1,0,0:0:0:0:
244,56,92236,1,0,0:0:0:0:
488,224,92398,1,0,0:0:0:0:
220,352,92560,2,0,L|180:180,1,161.999995056153,8|0,0:0|0:0,0:0:0:0:
152,120,92885,6,0,P|104:107|45:124,1,107.999996704102
100,240,93209,1,0,0:0:0:0:
233,128,93371,1,0,0:0:0:0:
233,128,93452,1,0,0:0:0:0:
233,128,93533,1,0,0:0:0:0:
62,39,93695,1,0,0:0:0:0:
233,128,93858,2,0,P|283:144|335:129,1,107.999996704102,8|0,0:0|0:0,0:0:0:0:
452,12,94182,6,0,L|432:188,1,161.999995056153
428,200,94506,1,8,0:0:0:0:
276,56,94668,1,0,0:0:0:0:
464,44,94831,2,0,L|449:167,1,107.999996704102
324,360,95155,2,0,P|308:312|332:240,1,107.999996704102,8|0,0:0|0:0,0:0:0:0:
352,116,95479,5,0,0:0:0:0:
416,304,95641,1,0,0:0:0:0:
228,272,95804,1,8,0:0:0:0:
352,116,95966,1,8,0:0:0:0:
416,304,96128,1,0,0:0:0:0:
228,272,96290,1,8,0:0:0:0:
228,272,96371,1,0,0:0:0:0:
228,272,96452,2,0,L|88:276,1,107.999996704102,8|0,0:0|0:0,0:0:0:0:
152,40,96776,6,0,P|184:100|164:196,1,161.999995056153,6|0,0:0|0:0,0:0:0:0:
152,196,97101,2,0,L|36:200,1,107.999996704102,8|0,0:0|0:0,0:0:0:0:
264,88,97425,1,0,0:0:0:0:
264,88,97506,1,0,0:0:0:0:
264,88,97587,1,0,0:0:0:0:
288,332,97749,2,0,P|264:268|284:172,1,161.999995056153,8|0,0:0|0:0,0:0:0:0:
296,164,98074,5,0,0:0:0:0:
384,324,98236,1,0,0:0:0:0:
200,328,98398,2,0,L|64:360,1,107.999996704102,8|0,0:0|0:0,0:0:0:0:
84,348,98641,1,0,0:0:0:0:
72,344,98722,2,0,P|56:280|84:220,1,107.999996704102
188,132,99047,1,8,0:0:0:0:
136,284,99209,1,0,0:0:0:0:
100,128,99371,6,0,P|120:76|224:56,1,161.999995056153
232,60,99695,1,8,0:0:0:0:
232,220,99858,1,0,0:0:0:0:
96,90,100020,2,0,P|136:42|192:38,1,107.999996704102
300,152,100344,1,8,0:0:0:0:
136,196,100506,1,0,0:0:0:0:
272,52,100668,6,0,L|388:52,1,107.999996704102
468,224,100993,2,0,L|352:224,1,107.999996704102,8|8,0:0|0:0,0:0:0:0:
344,224,101236,1,0,0:0:0:0:
328,224,101317,1,0,0:0:0:0:
388,132,101479,1,8,0:0:0:0:
364,328,101641,2,0,L|248:328,1,107.999996704102,8|0,0:0|0:0,0:0:0:0:
92,352,101966,5,4,0:0:0:0:
72,192,102128,1,0,0:0:0:0:
224,244,102290,1,0,0:0:0:0:
36,280,102452,1,0,0:0:0:0:
164,172,102614,1,8,0:0:0:0:
316,224,102776,1,0,0:0:0:0:
184,336,102939,1,0,0:0:0:0:
72,192,103101,1,0,0:0:0:0:
284,76,103263,5,0,0:0:0:0:
224,244,103425,1,0,0:0:0:0:
344,140,103587,1,0,0:0:0:0:
196,92,103749,1,0,0:0:0:0:
316,224,103912,1,8,0:0:0:0:
372,56,104074,1,0,0:0:0:0:
256,156,104236,1,0,0:0:0:0:
408,208,104398,1,0,0:0:0:0:
284,76,104560,5,0,0:0:0:0:
444,124,104722,1,0,0:0:0:0:
444,124,104804,1,0,0:0:0:0:
444,124,104885,1,0,0:0:0:0:
256,156,105047,1,0,0:0:0:0:
372,56,105209,1,8,0:0:0:0:
408,208,105371,1,0,0:0:0:0:
196,96,105533,1,8,0:0:0:0:
460,36,105695,1,8,0:0:0:0:
376,292,105858,5,12,0:0:0:0:
204,264,107155,6,0,B|160:276|130:247|113:230|112:192|112:192|112:162|132:136|153:122|183:121|183:121|212:120|244:136|257:167|258:191|258:191|259:213|264:237|286:257|315:264|337:261|337:261|365:258|387:244|402:216|402:191|402:191|403:163|387:125|351:114|329:113|305:120,2,720,2|0|2,0:1|0:0|0:0,0:0:0:0:
256,192,112506,12,0,117371,0:0:0:0:
