osu file format v14

[General]
AudioFilename: chrono diver -fragment-.mp3
AudioLeadIn: 0
PreviewTime: 286727
Countdown: 0
SampleSet: Soft
StackLeniency: 0.7
Mode: 0
LetterboxInBreaks: 0
EpilepsyWarning: 1
WidescreenStoryboard: 1

[Editor]
Bookmarks: 22078,63592,105105,144024,175159,186835,228349,267267,288024,324349
DistanceSpacing: 1.7
BeatDivisor: 4
GridSize: 4
TimelineZoom: 2.4

[Metadata]
Title:chrono diver -fragment-
TitleUnicode:chrono diver -fragment-
Artist:Nekomata Master feat. Misawa Aki
ArtistUnicode:猫叉Master feat.三澤秋
Creator:Sharlo
Version:Horologium
Source:beatmania IIDX 22 PENDUAL
Tags:佐藤直之 Naoyuki Sato Chaoslitz DnB Drum and Bass BEMANI KONAMI
BeatmapID:1036304
BeatmapSetID:485962

[Difficulty]
HPDrainRate:5.3
CircleSize:4
OverallDifficulty:9
ApproachRate:9.3
SliderMultiplier:1.6
SliderTickRate:1

[Events]
//Background and Video events
0,0,"BG.jpg",0,0
//Break Periods
2,175359,186281
//Storyboard Layer 0 (Background)
//Storyboard Layer 1 (Fail)
//Storyboard Layer 2 (Pass)
//Storyboard Layer 3 (Foreground)
Sprite,Foreground,Centre,"SB\triangle.png",320,240 M,0,63592,,155,225 S,13,63592,64192,0.2,0.6 R,1,63592,64192,1.6,5.8 P,0,63592,64192,A F,0,63842,64192,1,0
Sprite,Foreground,Centre,"SB\triangle.png",320,240 M,0,73970,,565,268 S,13,73970,74570,0.2,0.6 R,1,73970,74570,1.6,5.8 P,0,73970,74570,A F,0,74220,74570,1,0
Sprite,Foreground,Centre,"SB\triangle.png",320,240 M,0,84349,,455,310 S,13,84349,84949,0.2,0.6 R,1,84349,84949,1.6,5.8 P,0,84349,84949,A F,0,84599,84949,1,0
Sprite,Foreground,Centre,"SB\triangle.png",320,240 M,0,89538,,350,434 S,13,89538,90138,0.2,0.6 R,1,89538,90138,1.6,5.8 P,0,89538,90138,A F,0,89788,90138,1,0
Sprite,Foreground,Centre,"SB\triangle.png",320,240 M,0,94727,,442,289 S,13,94727,95327,0.2,0.6 R,1,94727,95327,1.6,5.8 P,0,94727,95327,A F,0,94977,95327,1,0
Sprite,Foreground,Centre,"SB\triangle.png",320,240 M,0,97321,,199,277 S,13,97321,97921,0.2,0.6 R,1,97321,97921,1.6,5.8 P,0,97321,97921,A F,0,97571,97921,1,0
Sprite,Foreground,Centre,"SB\triangle.png",320,240 M,0,103808,,210,92 S,13,103808,104408,0.2,0.6 R,1,103808,104408,1.6,5.8 P,0,103808,104408,A F,0,104058,104408,1,0
Sprite,Foreground,Centre,"SB\triangle.png",320,240 M,0,104781,,240,383 S,13,104781,105381,0.2,0.6 R,1,104781,105381,1.6,5.8 P,0,104781,105381,A F,0,105031,105381,1,0
Sprite,Foreground,Centre,"SB\triangle.png",320,240 M,0,105105,,386,196 S,13,105105,105705,0.2,0.6 R,1,105105,105705,1.6,5.8 P,0,105105,105705,A F,0,105355,105705,1,0
Sprite,Foreground,Centre,"SB\triangle.png",320,240 M,0,111267,,498,290 S,13,111267,111867,0.2,0.6 R,1,111267,111867,1.6,5.8 P,0,111267,111867,A F,0,111517,111867,1,0
Sprite,Foreground,Centre,"SB\triangle.png",320,240 M,0,115484,,484,136 S,13,115484,116084,0.2,0.6 R,1,115484,116084,1.6,5.8 P,0,115484,116084,A F,0,115734,116084,1,0
Sprite,Foreground,Centre,"SB\triangle.png",320,240 M,0,123267,,286,185 S,13,123267,123867,0.2,0.6 R,1,123267,123867,1.6,5.8 P,0,123267,123867,A F,0,123517,123867,1,0
Sprite,Foreground,Centre,"SB\triangle.png",320,240 M,0,133646,,210,126 S,13,133646,134246,0.2,0.6 R,1,133646,134246,1.6,5.8 P,0,133646,134246,A F,0,133896,134246,1,0
Sprite,Foreground,Centre,"SB\triangle.png",320,240 M,0,142727,,388,419 S,13,142727,143327,0.2,0.6 R,1,142727,143327,1.6,5.8 P,0,142727,143327,A F,0,142977,143327,1,0
Sprite,Foreground,Centre,"SB\triangle.png",320,240 M,0,144024,,356,253 S,13,144024,144624,0.2,0.6 R,1,144024,144624,1.6,5.8 P,0,144024,144624,A F,0,144274,144624,1,0
Sprite,Foreground,Centre,"SB\triangle.png",320,240 M,0,154403,,438,154 S,13,154403,155003,0.2,0.6 R,1,154403,155003,1.6,5.8 P,0,154403,155003,A F,0,154653,155003,1,0
Sprite,Foreground,Centre,"SB\triangle.png",320,240 M,0,164781,,175,200 S,13,164781,165381,0.2,0.6 R,1,164781,165381,1.6,5.8 P,0,164781,165381,A F,0,165031,165381,1,0
Sprite,Foreground,Centre,"SB\triangle.png",320,240 M,0,175159,,461,326 S,13,175159,175759,0.2,0.6 R,1,175159,175759,1.6,5.8 P,0,175159,175759,A F,0,175409,175759,1,0
Sprite,Foreground,Centre,"SB\triangle.png",320,240 M,0,186835,,461,326 S,13,186835,187435,0.2,0.6 R,1,186835,187435,1.6,5.8 P,0,186835,187435,A F,0,187085,187435,1,0
Sprite,Foreground,Centre,"SB\triangle.png",320,240 M,0,197213,,448,108 S,13,197213,197813,0.2,0.6 R,1,197213,197813,1.6,5.8 P,0,197213,197813,A F,0,197463,197813,1,0
Sprite,Foreground,Centre,"SB\triangle.png",320,240 M,0,207592,,451,191 S,13,207592,208192,0.2,0.6 R,1,207592,208192,1.6,5.8 P,0,207592,208192,A F,0,207842,208192,1,0
Sprite,Foreground,Centre,"SB\triangle.png",320,240 M,0,212781,,240,390 S,13,212781,213381,0.2,0.6 R,1,212781,213381,1.6,5.8 P,0,212781,213381,A F,0,213031,213381,1,0
Sprite,Foreground,Centre,"SB\triangle.png",320,240 M,0,217970,,184,384 S,13,217970,218570,0.2,0.6 R,1,217970,218570,1.6,5.8 P,0,217970,218570,A F,0,218220,218570,1,0
Sprite,Foreground,Centre,"SB\triangle.png",320,240 M,0,220565,,459,91 S,13,220565,221165,0.2,0.6 R,1,220565,221165,1.6,5.8 P,0,220565,221165,A F,0,220815,221165,1,0
Sprite,Foreground,Centre,"SB\triangle.png",320,240 M,0,227051,,298,279 S,13,227051,227651,0.2,0.6 R,1,227051,227651,1.6,5.8 P,0,227051,227651,A F,0,227301,227651,1,0
Sprite,Foreground,Centre,"SB\triangle.png",320,240 M,0,228024,,442,374 S,13,228024,228624,0.2,0.6 R,1,228024,228624,1.6,5.8 P,0,228024,228624,A F,0,228274,228624,1,0
Sprite,Foreground,Centre,"SB\triangle.png",320,240 M,0,228349,,576,330 S,13,228349,228949,0.2,0.6 R,1,228349,228949,1.6,5.8 P,0,228349,228949,A F,0,228599,228949,1,0
Sprite,Foreground,Centre,"SB\triangle.png",320,240 M,0,233862,,450,419 S,13,233862,234462,0.2,0.6 R,1,233862,234462,1.6,5.8 P,0,233862,234462,A F,0,234112,234462,1,0
Sprite,Foreground,Centre,"SB\triangle.png",320,240 M,0,234511,,518,178 S,13,234511,235111,0.2,0.6 R,1,234511,235111,1.6,5.8 P,0,234511,235111,A F,0,234761,235111,1,0
Sprite,Foreground,Centre,"SB\triangle.png",320,240 M,0,238727,,168,299 S,13,238727,239327,0.2,0.6 R,1,238727,239327,1.6,5.8 P,0,238727,239327,A F,0,238977,239327,1,0
Sprite,Foreground,Centre,"SB\triangle.png",320,240 M,0,246511,,314,259 S,13,246511,247111,0.2,0.6 R,1,246511,247111,1.6,5.8 P,0,246511,247111,A F,0,246761,247111,1,0
Sprite,Foreground,Centre,"SB\triangle.png",320,240 M,0,256889,,320,342 S,13,256889,257489,0.2,0.6 R,1,256889,257489,1.6,5.8 P,0,256889,257489,A F,0,257139,257489,1,0
Sprite,Foreground,Centre,"SB\triangle.png",320,240 M,0,265970,,258,93 S,13,265970,266570,0.2,0.6 R,1,265970,266570,1.6,5.8 P,0,265970,266570,A F,0,266220,266570,1,0
Sprite,Foreground,Centre,"SB\triangle.png",320,240 M,0,267267,,461,114 S,13,267267,267867,0.2,0.6 R,1,267267,267867,1.6,5.8 P,0,267267,267867,A F,0,267517,267867,1,0
Sprite,Foreground,Centre,"SB\triangle.png",320,240 M,0,272457,,568,276 S,13,272457,273057,0.2,0.6 R,1,272457,273057,1.6,5.8 P,0,272457,273057,A F,0,272707,273057,1,0
Sprite,Foreground,Centre,"SB\triangle.png",320,240 M,0,277646,,424,308 S,13,277646,278246,0.2,0.6 R,1,277646,278246,1.6,5.8 P,0,277646,278246,A F,0,277896,278246,1,0
Sprite,Foreground,Centre,"SB\triangle.png",320,240 M,0,280240,,312,344 S,13,280240,280840,0.2,0.6 R,1,280240,280840,1.6,5.8 P,0,280240,280840,A F,0,280490,280840,1,0
Sprite,Foreground,Centre,"SB\triangle.png",320,240 M,0,286726,,371,200 S,13,286726,287326,0.2,0.6 R,1,286726,287326,1.6,5.8 P,0,286726,287326,A F,0,286976,287326,1,0
Sprite,Foreground,Centre,"SB\triangle.png",320,240 M,0,287700,,488,308 S,13,287700,288300,0.2,0.6 R,1,287700,288300,1.6,5.8 P,0,287700,288300,A F,0,287950,288300,1,0
Sprite,Foreground,Centre,"SB\triangle.png",320,240 M,0,288024,,571,234 S,13,288024,288624,0.2,0.6 R,1,288024,288624,1.6,5.8 P,0,288024,288624,A F,0,288274,288624,1,0
Sprite,Foreground,Centre,"SB\triangle.png",320,240 M,0,294186,,256,302 S,13,294186,294786,0.2,0.6 R,1,294186,294786,1.6,5.8 P,0,294186,294786,A F,0,294436,294786,1,0
Sprite,Foreground,Centre,"SB\triangle.png",320,240 M,0,298403,,123,204 S,13,298403,299003,0.2,0.6 R,1,298403,299003,1.6,5.8 P,0,298403,299003,A F,0,298653,299003,1,0
Sprite,Foreground,Centre,"SB\triangle.png",320,240 M,0,306186,,97,387 S,13,306186,306786,0.2,0.6 R,1,306186,306786,1.6,5.8 P,0,306186,306786,A F,0,306436,306786,1,0
Sprite,Foreground,Centre,"SB\triangle.png",320,240 M,0,316565,,270,155 S,13,316565,317165,0.2,0.6 R,1,316565,317165,1.6,5.8 P,0,316565,317165,A F,0,316815,317165,1,0
Sprite,Foreground,Centre,"SB\triangle.png",320,240 M,0,324349,,281,90 S,13,324349,324949,0.2,0.6 R,1,324349,324949,1.6,5.8 P,0,324349,324949,A F,0,324599,324949,1,0
Sprite,Foreground,Centre,"SB\triangle.png",320,240 M,0,334727,,320,160 S,13,334727,335327,0.2,0.6 R,1,334727,335327,1.6,5.8 P,0,334727,335327,A F,0,334977,335327,1,0
Sprite,Foreground,Centre,"SB\triangle.png",320,240 M,0,343808,,520,324 S,13,343808,344408,0.2,0.6 R,1,343808,344408,1.6,5.8 P,0,343808,344408,A F,0,344058,344408,1,0
Sprite,Foreground,Centre,"SB\triangle.png",320,240 M,0,342511,,440,328 S,13,342511,343111,0.2,0.6 R,1,342511,343111,1.6,5.8 P,0,342511,343111,A F,0,342761,343111,1,0
Sprite,Foreground,Centre,"SB\triangle.png",320,240 M,0,129430,,388,176 S,13,129430,130030,0.2,0.6 R,1,129430,130030,1.6,5.8 P,0,129430,130030,A F,0,129680,130030,1,0
Sprite,Foreground,Centre,"SB\triangle.png",320,240 M,0,234186,,555,396 S,13,234186,234786,0.2,0.6 R,1,234186,234786,1.6,5.8 P,0,234186,234786,A F,0,234436,234786,1,0
Sprite,Foreground,Centre,"SB\triangle.png",320,240 M,0,252673,,237,179 S,13,252673,253273,0.2,0.6 R,1,252673,253273,1.6,5.8 P,0,252673,253273,A F,0,252923,253273,1,0
Sprite,Foreground,Centre,"SB\triangle.png",320,240 M,0,330511,,408,364 S,13,330511,331111,0.2,0.6 R,1,330511,331111,1.6,5.8 P,0,330511,331111,A F,0,330761,331111,1,0
Sprite,Foreground,Centre,"SB\triangle.png",320,240 M,0,312349,,208,95 S,13,312349,312949,0.2,0.6 R,1,312349,312949,1.6,5.8 P,0,312349,312949,A F,0,312599,312949,1,0
Sprite,Foreground,Centre,"SB\ring.png",320,240 M,0,63592,,155,225 S,13,63592,64192,0.2,0.6 R,1,63592,64192,0,1.6 P,0,63592,64192,A F,0,63842,64192,1,0
Sprite,Foreground,Centre,"SB\ring.png",320,240 M,0,73970,,565,268 S,13,73970,74570,0.2,0.6 R,1,73970,74570,0,1.6 P,0,73970,74570,A F,0,74220,74570,1,0
Sprite,Foreground,Centre,"SB\ring.png",320,240 M,0,84349,,455,310 S,13,84349,84949,0.2,0.6 R,1,84349,84949,0,1.6 P,0,84349,84949,A F,0,84599,84949,1,0
Sprite,Foreground,Centre,"SB\ring.png",320,240 M,0,89538,,350,434 S,13,89538,90138,0.2,0.6 R,1,89538,90138,0,1.6 P,0,89538,90138,A F,0,89788,90138,1,0
Sprite,Foreground,Centre,"SB\ring.png",320,240 M,0,94727,,442,289 S,13,94727,95327,0.2,0.6 R,1,94727,95327,0,1.6 P,0,94727,95327,A F,0,94977,95327,1,0
Sprite,Foreground,Centre,"SB\ring.png",320,240 M,0,97321,,199,277 S,13,97321,97921,0.2,0.6 R,1,97321,97921,0,1.6 P,0,97321,97921,A F,0,97571,97921,1,0
Sprite,Foreground,Centre,"SB\ring.png",320,240 M,0,103808,,210,92 S,13,103808,104408,0.2,0.6 R,1,103808,104408,0,1.6 P,0,103808,104408,A F,0,104058,104408,1,0
Sprite,Foreground,Centre,"SB\ring.png",320,240 M,0,104781,,240,383 S,13,104781,105381,0.2,0.6 R,1,104781,105381,0,1.6 P,0,104781,105381,A F,0,105031,105381,1,0
Sprite,Foreground,Centre,"SB\ring.png",320,240 M,0,105105,,386,196 S,13,105105,105705,0.2,0.6 R,1,105105,105705,0,1.6 P,0,105105,105705,A F,0,105355,105705,1,0
Sprite,Foreground,Centre,"SB\ring.png",320,240 M,0,111267,,498,290 S,13,111267,111867,0.2,0.6 R,1,111267,111867,0,1.6 P,0,111267,111867,A F,0,111517,111867,1,0
Sprite,Foreground,Centre,"SB\ring.png",320,240 M,0,115484,,484,136 S,13,115484,116084,0.2,0.6 R,1,115484,116084,0,1.6 P,0,115484,116084,A F,0,115734,116084,1,0
Sprite,Foreground,Centre,"SB\ring.png",320,240 M,0,123267,,286,185 S,13,123267,123867,0.2,0.6 R,1,123267,123867,0,1.6 P,0,123267,123867,A F,0,123517,123867,1,0
Sprite,Foreground,Centre,"SB\ring.png",320,240 M,0,133646,,210,126 S,13,133646,134246,0.2,0.6 R,1,133646,134246,0,1.6 P,0,133646,134246,A F,0,133896,134246,1,0
Sprite,Foreground,Centre,"SB\ring.png",320,240 M,0,142727,,388,419 S,13,142727,143327,0.2,0.6 R,1,142727,143327,0,1.6 P,0,142727,143327,A F,0,142977,143327,1,0
Sprite,Foreground,Centre,"SB\ring.png",320,240 M,0,144024,,356,253 S,13,144024,144624,0.2,0.6 R,1,144024,144624,0,1.6 P,0,144024,144624,A F,0,144274,144624,1,0
Sprite,Foreground,Centre,"SB\ring.png",320,240 M,0,154403,,438,154 S,13,154403,155003,0.2,0.6 R,1,154403,155003,0,1.6 P,0,154403,155003,A F,0,154653,155003,1,0
Sprite,Foreground,Centre,"SB\ring.png",320,240 M,0,164781,,175,200 S,13,164781,165381,0.2,0.6 R,1,164781,165381,0,1.6 P,0,164781,165381,A F,0,165031,165381,1,0
Sprite,Foreground,Centre,"SB\ring.png",320,240 M,0,175159,,461,326 S,13,175159,175759,0.2,0.6 R,1,175159,175759,0,1.6 P,0,175159,175759,A F,0,175409,175759,1,0
Sprite,Foreground,Centre,"SB\ring.png",320,240 M,0,186835,,461,326 S,13,186835,187435,0.2,0.6 R,1,186835,187435,0,1.6 P,0,186835,187435,A F,0,187085,187435,1,0
Sprite,Foreground,Centre,"SB\ring.png",320,240 M,0,197213,,448,108 S,13,197213,197813,0.2,0.6 R,1,197213,197813,0,1.6 P,0,197213,197813,A F,0,197463,197813,1,0
Sprite,Foreground,Centre,"SB\ring.png",320,240 M,0,207592,,451,191 S,13,207592,208192,0.2,0.6 R,1,207592,208192,0,1.6 P,0,207592,208192,A F,0,207842,208192,1,0
Sprite,Foreground,Centre,"SB\ring.png",320,240 M,0,212781,,240,390 S,13,212781,213381,0.2,0.6 R,1,212781,213381,0,1.6 P,0,212781,213381,A F,0,213031,213381,1,0
Sprite,Foreground,Centre,"SB\ring.png",320,240 M,0,217970,,184,384 S,13,217970,218570,0.2,0.6 R,1,217970,218570,0,1.6 P,0,217970,218570,A F,0,218220,218570,1,0
Sprite,Foreground,Centre,"SB\ring.png",320,240 M,0,220565,,459,91 S,13,220565,221165,0.2,0.6 R,1,220565,221165,0,1.6 P,0,220565,221165,A F,0,220815,221165,1,0
Sprite,Foreground,Centre,"SB\ring.png",320,240 M,0,227051,,298,279 S,13,227051,227651,0.2,0.6 R,1,227051,227651,0,1.6 P,0,227051,227651,A F,0,227301,227651,1,0
Sprite,Foreground,Centre,"SB\ring.png",320,240 M,0,228024,,442,374 S,13,228024,228624,0.2,0.6 R,1,228024,228624,0,1.6 P,0,228024,228624,A F,0,228274,228624,1,0
Sprite,Foreground,Centre,"SB\ring.png",320,240 M,0,228349,,576,330 S,13,228349,228949,0.2,0.6 R,1,228349,228949,0,1.6 P,0,228349,228949,A F,0,228599,228949,1,0
Sprite,Foreground,Centre,"SB\ring.png",320,240 M,0,233862,,450,419 S,13,233862,234462,0.2,0.6 R,1,233862,234462,0,1.6 P,0,233862,234462,A F,0,234112,234462,1,0
Sprite,Foreground,Centre,"SB\ring.png",320,240 M,0,234511,,518,178 S,13,234511,235111,0.2,0.6 R,1,234511,235111,0,1.6 P,0,234511,235111,A F,0,234761,235111,1,0
Sprite,Foreground,Centre,"SB\ring.png",320,240 M,0,238727,,168,299 S,13,238727,239327,0.2,0.6 R,1,238727,239327,0,1.6 P,0,238727,239327,A F,0,238977,239327,1,0
Sprite,Foreground,Centre,"SB\ring.png",320,240 M,0,246511,,314,259 S,13,246511,247111,0.2,0.6 R,1,246511,247111,0,1.6 P,0,246511,247111,A F,0,246761,247111,1,0
Sprite,Foreground,Centre,"SB\ring.png",320,240 M,0,256889,,320,342 S,13,256889,257489,0.2,0.6 R,1,256889,257489,0,1.6 P,0,256889,257489,A F,0,257139,257489,1,0
Sprite,Foreground,Centre,"SB\ring.png",320,240 M,0,265970,,258,93 S,13,265970,266570,0.2,0.6 R,1,265970,266570,0,1.6 P,0,265970,266570,A F,0,266220,266570,1,0
Sprite,Foreground,Centre,"SB\ring.png",320,240 M,0,267267,,461,114 S,13,267267,267867,0.2,0.6 R,1,267267,267867,0,1.6 P,0,267267,267867,A F,0,267517,267867,1,0
Sprite,Foreground,Centre,"SB\ring.png",320,240 M,0,272457,,568,276 S,13,272457,273057,0.2,0.6 R,1,272457,273057,0,1.6 P,0,272457,273057,A F,0,272707,273057,1,0
Sprite,Foreground,Centre,"SB\ring.png",320,240 M,0,277646,,424,308 S,13,277646,278246,0.2,0.6 R,1,277646,278246,0,1.6 P,0,277646,278246,A F,0,277896,278246,1,0
Sprite,Foreground,Centre,"SB\ring.png",320,240 M,0,280240,,312,344 S,13,280240,280840,0.2,0.6 R,1,280240,280840,0,1.6 P,0,280240,280840,A F,0,280490,280840,1,0
Sprite,Foreground,Centre,"SB\ring.png",320,240 M,0,286726,,371,200 S,13,286726,287326,0.2,0.6 R,1,286726,287326,0,1.6 P,0,286726,287326,A F,0,286976,287326,1,0
Sprite,Foreground,Centre,"SB\ring.png",320,240 M,0,287700,,488,308 S,13,287700,288300,0.2,0.6 R,1,287700,288300,0,1.6 P,0,287700,288300,A F,0,287950,288300,1,0
Sprite,Foreground,Centre,"SB\ring.png",320,240 M,0,288024,,571,234 S,13,288024,288624,0.2,0.6 R,1,288024,288624,0,1.6 P,0,288024,288624,A F,0,288274,288624,1,0
Sprite,Foreground,Centre,"SB\ring.png",320,240 M,0,294186,,256,302 S,13,294186,294786,0.2,0.6 R,1,294186,294786,0,1.6 P,0,294186,294786,A F,0,294436,294786,1,0
Sprite,Foreground,Centre,"SB\ring.png",320,240 M,0,298403,,123,204 S,13,298403,299003,0.2,0.6 R,1,298403,299003,0,1.6 P,0,298403,299003,A F,0,298653,299003,1,0
Sprite,Foreground,Centre,"SB\ring.png",320,240 M,0,306186,,97,387 S,13,306186,306786,0.2,0.6 R,1,306186,306786,0,1.6 P,0,306186,306786,A F,0,306436,306786,1,0
Sprite,Foreground,Centre,"SB\ring.png",320,240 M,0,129430,,388,176 S,13,129430,130030,0.2,0.6 R,1,129430,130030,0,2 P,0,129430,130030,A F,0,129680,130030,1,0
Sprite,Foreground,Centre,"SB\ring.png",320,240 M,0,234186,,555,396 S,13,234186,234786,0.2,0.6 R,1,234186,234786,0,2 P,0,234186,234786,A F,0,234436,234786,1,0
Sprite,Foreground,Centre,"SB\ring.png",320,240 M,0,252673,,237,179 S,13,252673,253273,0.2,0.6 R,1,252673,253273,0,2 P,0,252673,253273,A F,0,252923,253273,1,0
Sprite,Foreground,Centre,"SB\ring.png",320,240 M,0,330511,,408,364 S,13,330511,331111,0.2,0.6 R,1,330511,331111,0,2 P,0,330511,331111,A F,0,330761,331111,1,0
Sprite,Foreground,Centre,"SB\ring.png",320,240 M,0,316565,,270,155 S,13,316565,317165,0.2,0.6 R,1,316565,317165,0,2 P,0,316565,317165,A F,0,316815,317165,1,0
Sprite,Foreground,Centre,"SB\ring.png",320,240 M,0,324349,,281,90 S,13,324349,324949,0.2,0.6 R,1,324349,324949,0,2 P,0,324349,324949,A F,0,324599,324949,1,0
Sprite,Foreground,Centre,"SB\ring.png",320,240 M,0,334727,,320,160 S,13,334727,335327,0.2,0.6 R,1,334727,335327,0,2 P,0,334727,335327,A F,0,334977,335327,1,0
Sprite,Foreground,Centre,"SB\ring.png",320,240 M,0,343808,,520,324 S,13,343808,344408,0.2,0.6 R,1,343808,344408,0,2 P,0,343808,344408,A F,0,344058,344408,1,0
Sprite,Foreground,Centre,"SB\ring.png",320,240 M,0,342511,,440,328 S,13,342511,343111,0.2,0.6 R,1,342511,343111,0,2 P,0,342511,343111,A F,0,342761,343111,1,0
Sprite,Foreground,Centre,"SB\ring.png",320,240 M,0,312349,,208,95 S,13,312349,312949,0.2,0.6 R,1,312349,312949,0,2 P,0,312349,312949,A F,0,312599,312949,1,0
Sprite,Foreground,Centre,"SB\highlight.png",320,240 M,0,121970,,388,284 S,0,121970,,0.7 C,0,121970,,174,174,255 F,1,121970,122120,0,1 P,0,121970,122570,A F,0,122120,122570,1,0
Sprite,Foreground,Centre,"SB\highlight.png",320,240 M,0,122051,,391,323 S,0,122051,,0.7 C,0,122051,,174,174,255 F,1,122051,122201,0,1 P,0,122051,122651,A F,0,122201,122651,1,0
Sprite,Foreground,Centre,"SB\highlight.png",320,240 M,0,122132,,388,284 S,0,122132,,0.7 C,0,122132,,174,174,255 F,1,122132,122282,0,1 P,0,122132,122732,A F,0,122282,122732,1,0
Sprite,Foreground,Centre,"SB\highlight.png",320,240 M,0,122213,,391,323 S,0,122213,,0.7 C,0,122213,,174,174,255 F,1,122213,122363,0,1 P,0,122213,122813,A F,0,122363,122813,1,0
Sprite,Foreground,Centre,"SB\highlight.png",320,240 M,0,122294,,320,376 S,0,122294,,0.7 C,0,122294,,174,174,255 F,1,122294,122444,0,1 P,0,122294,122894,A F,0,122444,122894,1,0
Sprite,Foreground,Centre,"SB\highlight.png",320,240 M,0,122376,,323,415 S,0,122376,,0.7 C,0,122376,,174,174,255 F,1,122376,122526,0,1 P,0,122376,122976,A F,0,122526,122976,1,0
Sprite,Foreground,Centre,"SB\highlight.png",320,240 M,0,122457,,320,376 S,0,122457,,0.7 C,0,122457,,174,174,255 F,1,122457,122607,0,1 P,0,122457,123057,A F,0,122607,123057,1,0
Sprite,Foreground,Centre,"SB\highlight.png",320,240 M,0,122538,,323,415 S,0,122538,,0.7 C,0,122538,,174,174,255 F,1,122538,122688,0,1 P,0,122538,123138,A F,0,122688,123138,1,0
Sprite,Foreground,Centre,"SB\highlight.png",320,240 M,0,144024,,356,253 S,0,144024,,0.7 C,0,144024,,174,174,255 F,1,144024,144174,0,1 P,0,144024,144624,A F,0,144174,144624,1,0
Sprite,Foreground,Centre,"SB\highlight.png",320,240 M,0,144105,,324,249 S,0,144105,,0.7 C,0,144105,,174,174,255 F,1,144105,144255,0,1 P,0,144105,144705,A F,0,144255,144705,1,0
Sprite,Foreground,Centre,"SB\highlight.png",320,240 M,0,144186,,292,246 S,0,144186,,0.7 C,0,144186,,174,174,255 F,1,144186,144336,0,1 P,0,144186,144786,A F,0,144336,144786,1,0
Sprite,Foreground,Centre,"SB\highlight.png",320,240 M,0,144267,,260,243 S,0,144267,,0.7 C,0,144267,,174,174,255 F,1,144267,144417,0,1 P,0,144267,144867,A F,0,144417,144867,1,0
Sprite,Foreground,Centre,"SB\highlight.png",320,240 M,0,144348,,228,240 S,0,144348,,0.7 C,0,144348,,174,174,255 F,1,144348,144498,0,1 P,0,144348,144948,A F,0,144498,144948,1,0
Sprite,Foreground,Centre,"SB\highlight.png",320,240 M,0,144511,,109,315 S,0,144511,,0.7 C,0,144511,,174,174,255 F,1,144511,144661,0,1 P,0,144511,145111,A F,0,144661,145111,1,0
Sprite,Foreground,Centre,"SB\highlight.png",320,240 M,0,144592,,140,310 S,0,144592,,0.7 C,0,144592,,174,174,255 F,1,144592,144742,0,1 P,0,144592,145192,A F,0,144742,145192,1,0
Sprite,Foreground,Centre,"SB\highlight.png",320,240 M,0,144673,,171,317 S,0,144673,,0.7 C,0,144673,,174,174,255 F,1,144673,144823,0,1 P,0,144673,145273,A F,0,144823,145273,1,0
Sprite,Foreground,Centre,"SB\highlight.png",320,240 M,0,144754,,197,335 S,0,144754,,0.7 C,0,144754,,174,174,255 F,1,144754,144904,0,1 P,0,144754,145354,A F,0,144904,145354,1,0
Sprite,Foreground,Centre,"SB\highlight.png",320,240 M,0,144835,,215,361 S,0,144835,,0.7 C,0,144835,,174,174,255 F,1,144835,144985,0,1 P,0,144835,145435,A F,0,144985,145435,1,0
Sprite,Foreground,Centre,"SB\highlight.png",320,240 M,0,144997,,288,293 S,0,144997,,0.7 C,0,144997,,174,174,255 F,1,144997,145147,0,1 P,0,144997,145597,A F,0,145147,145597,1,0
Sprite,Foreground,Centre,"SB\highlight.png",320,240 M,0,145159,,384,404 S,0,145159,,0.7 C,0,145159,,174,174,255 F,1,145159,145309,0,1 P,0,145159,145759,A F,0,145309,145759,1,0
Sprite,Foreground,Centre,"SB\highlight.png",320,240 M,0,149213,,340,302 S,0,149213,,0.7 C,0,149213,,174,174,255 F,1,149213,149363,0,1 P,0,149213,149813,A F,0,149363,149813,1,0
Sprite,Foreground,Centre,"SB\highlight.png",320,240 M,0,149294,,319,277 S,0,149294,,0.7 C,0,149294,,174,174,255 F,1,149294,149444,0,1 P,0,149294,149894,A F,0,149444,149894,1,0
Sprite,Foreground,Centre,"SB\highlight.png",320,240 M,0,149375,,308,247 S,0,149375,,0.7 C,0,149375,,174,174,255 F,1,149375,149525,0,1 P,0,149375,149975,A F,0,149525,149975,1,0
Sprite,Foreground,Centre,"SB\highlight.png",320,240 M,0,149456,,306,215 S,0,149456,,0.7 C,0,149456,,174,174,255 F,1,149456,149606,0,1 P,0,149456,150056,A F,0,149606,150056,1,0
Sprite,Foreground,Centre,"SB\highlight.png",320,240 M,0,149537,,313,184 S,0,149537,,0.7 C,0,149537,,174,174,255 F,1,149537,149687,0,1 P,0,149537,150137,A F,0,149687,150137,1,0
Sprite,Foreground,Centre,"SB\highlight.png",320,240 M,0,149700,,418,341 S,0,149700,,0.7 C,0,149700,,174,174,255 F,1,149700,149850,0,1 P,0,149700,150300,A F,0,149850,150300,1,0
Sprite,Foreground,Centre,"SB\highlight.png",320,240 M,0,149781,,449,346 S,0,149781,,0.7 C,0,149781,,174,174,255 F,1,149781,149931,0,1 P,0,149781,150381,A F,0,149931,150381,1,0
Sprite,Foreground,Centre,"SB\highlight.png",320,240 M,0,149862,,452,352 S,0,149862,,0.7 C,0,149862,,174,174,255 F,1,149862,150012,0,1 P,0,149862,150462,A F,0,150012,150462,1,0
Sprite,Foreground,Centre,"SB\highlight.png",320,240 M,0,149943,,421,358 S,0,149943,,0.7 C,0,149943,,174,174,255 F,1,149943,150093,0,1 P,0,149943,150543,A F,0,150093,150543,1,0
Sprite,Foreground,Centre,"SB\highlight.png",320,240 M,0,150024,,390,365 S,0,150024,,0.7 C,0,150024,,174,174,255 F,1,150024,150174,0,1 P,0,150024,150624,A F,0,150174,150624,1,0
Sprite,Foreground,Centre,"SB\highlight.png",320,240 M,0,150186,,392,229 S,0,150186,,0.7 C,0,150186,,174,174,255 F,1,150186,150336,0,1 P,0,150186,150786,A F,0,150336,150786,1,0
Sprite,Foreground,Centre,"SB\highlight.png",320,240 M,0,150267,,423,233 S,0,150267,,0.7 C,0,150267,,174,174,255 F,1,150267,150417,0,1 P,0,150267,150867,A F,0,150417,150867,1,0
Sprite,Foreground,Centre,"SB\highlight.png",320,240 M,0,150348,,455,238 S,0,150348,,0.7 C,0,150348,,174,174,255 F,1,150348,150498,0,1 P,0,150348,150948,A F,0,150498,150948,1,0
Sprite,Foreground,Centre,"SB\highlight.png",320,240 M,0,153754,,302,375 S,0,153754,,0.7 C,0,153754,,174,174,255 F,1,153754,153904,0,1 P,0,153754,154354,A F,0,153904,154354,1,0
Sprite,Foreground,Centre,"SB\highlight.png",320,240 M,0,153835,,332,384 S,0,153835,,0.7 C,0,153835,,174,174,255 F,1,153835,153985,0,1 P,0,153835,154435,A F,0,153985,154435,1,0
Sprite,Foreground,Centre,"SB\highlight.png",320,240 M,0,153916,,363,382 S,0,153916,,0.7 C,0,153916,,174,174,255 F,1,153916,154066,0,1 P,0,153916,154516,A F,0,154066,154516,1,0
Sprite,Foreground,Centre,"SB\highlight.png",320,240 M,0,153970,,372,382 S,0,153970,,0.7 C,0,153970,,174,174,255 F,1,153970,154120,0,1 P,0,153970,154570,A F,0,154120,154570,1,0
Sprite,Foreground,Centre,"SB\highlight.png",320,240 M,0,154024,,379,379 S,0,154024,,0.7 C,0,154024,,174,174,255 F,1,154024,154174,0,1 P,0,154024,154624,A F,0,154174,154624,1,0
Sprite,Foreground,Centre,"SB\highlight.png",320,240 M,0,154078,,386,375 S,0,154078,,0.7 C,0,154078,,174,174,255 F,1,154078,154228,0,1 P,0,154078,154678,A F,0,154228,154678,1,0
Sprite,Foreground,Centre,"SB\highlight.png",320,240 M,0,154159,,417,371 S,0,154159,,0.7 C,0,154159,,174,174,255 F,1,154159,154309,0,1 P,0,154159,154759,A F,0,154309,154759,1,0
Sprite,Foreground,Centre,"SB\highlight.png",320,240 M,0,154240,,449,369 S,0,154240,,0.7 C,0,154240,,174,174,255 F,1,154240,154390,0,1 P,0,154240,154840,A F,0,154390,154840,1,0
Sprite,Foreground,Centre,"SB\highlight.png",320,240 M,0,158294,,303,223 S,0,158294,,0.7 C,0,158294,,174,174,255 F,1,158294,158444,0,1 P,0,158294,158894,A F,0,158444,158894,1,0
Sprite,Foreground,Centre,"SB\highlight.png",320,240 M,0,158457,,484,305 S,0,158457,,0.7 C,0,158457,,174,174,255 F,1,158457,158607,0,1 P,0,158457,159057,A F,0,158607,159057,1,0
Sprite,Foreground,Centre,"SB\highlight.png",320,240 M,0,158619,,319,382 S,0,158619,,0.7 C,0,158619,,174,174,255 F,1,158619,158769,0,1 P,0,158619,159219,A F,0,158769,159219,1,0
Sprite,Foreground,Centre,"SB\highlight.png",320,240 M,0,158700,,319,350 S,0,158700,,0.7 C,0,158700,,174,174,255 F,1,158700,158850,0,1 P,0,158700,159300,A F,0,158850,159300,1,0
Sprite,Foreground,Centre,"SB\highlight.png",320,240 M,0,158781,,405,240 S,0,158781,,0.7 C,0,158781,,174,174,255 F,1,158781,158931,0,1 P,0,158781,159381,A F,0,158931,159381,1,0
Sprite,Foreground,Centre,"SB\highlight.png",320,240 M,0,158943,,547,312 S,0,158943,,0.7 C,0,158943,,174,174,255 F,1,158943,159093,0,1 P,0,158943,159543,A F,0,159093,159543,1,0
Sprite,Foreground,Centre,"SB\highlight.png",320,240 M,0,159024,,515,308 S,0,159024,,0.7 C,0,159024,,174,174,255 F,1,159024,159174,0,1 P,0,159024,159624,A F,0,159174,159624,1,0
Sprite,Foreground,Centre,"SB\highlight.png",320,240 M,0,159105,,483,304 S,0,159105,,0.7 C,0,159105,,174,174,255 F,1,159105,159255,0,1 P,0,159105,159705,A F,0,159255,159705,1,0
Sprite,Foreground,Centre,"SB\highlight.png",320,240 M,0,159267,,426,205 S,0,159267,,0.7 C,0,159267,,174,174,255 F,1,159267,159417,0,1 P,0,159267,159867,A F,0,159417,159867,1,0
Sprite,Foreground,Centre,"SB\highlight.png",320,240 M,0,159348,,457,200 S,0,159348,,0.7 C,0,159348,,174,174,255 F,1,159348,159498,0,1 P,0,159348,159948,A F,0,159498,159948,1,0
Sprite,Foreground,Centre,"SB\highlight.png",320,240 M,0,159429,,489,196 S,0,159429,,0.7 C,0,159429,,174,174,255 F,1,159429,159579,0,1 P,0,159429,160029,A F,0,159579,160029,1,0
Sprite,Foreground,Centre,"SB\highlight.png",320,240 M,0,159511,,523,167 S,0,159511,,0.7 C,0,159511,,174,174,255 F,1,159511,159661,0,1 P,0,159511,160111,A F,0,159661,160111,1,0
Sprite,Foreground,Centre,"SB\highlight.png",320,240 M,0,163646,,354,112 S,0,163646,,0.7 C,0,163646,,174,174,255 F,1,163646,163796,0,1 P,0,163646,164246,A F,0,163796,164246,1,0
Sprite,Foreground,Centre,"SB\highlight.png",320,240 M,0,163700,,341,94 S,0,163700,,0.7 C,0,163700,,174,174,255 F,1,163700,163850,0,1 P,0,163700,164300,A F,0,163850,164300,1,0
Sprite,Foreground,Centre,"SB\highlight.png",320,240 M,0,163754,,354,112 S,0,163754,,0.7 C,0,163754,,174,174,255 F,1,163754,163904,0,1 P,0,163754,164354,A F,0,163904,164354,1,0
Sprite,Foreground,Centre,"SB\highlight.png",320,240 M,0,163808,,341,94 S,0,163808,,0.7 C,0,163808,,174,174,255 F,1,163808,163958,0,1 P,0,163808,164408,A F,0,163958,164408,1,0
Sprite,Foreground,Centre,"SB\highlight.png",320,240 M,0,163970,,308,200 S,0,163970,,0.7 C,0,163970,,174,174,255 F,1,163970,164120,0,1 P,0,163970,164570,A F,0,164120,164570,1,0
Sprite,Foreground,Centre,"SB\highlight.png",320,240 M,0,164024,,297,183 S,0,164024,,0.7 C,0,164024,,174,174,255 F,1,164024,164174,0,1 P,0,164024,164624,A F,0,164174,164624,1,0
Sprite,Foreground,Centre,"SB\highlight.png",320,240 M,0,164078,,308,200 S,0,164078,,0.7 C,0,164078,,174,174,255 F,1,164078,164228,0,1 P,0,164078,164678,A F,0,164228,164678,1,0
Sprite,Foreground,Centre,"SB\highlight.png",320,240 M,0,164132,,315,208 S,0,164132,,0.7 C,0,164132,,174,174,255 F,1,164132,164282,0,1 P,0,164132,164732,A F,0,164282,164732,1,0
Sprite,Foreground,Centre,"SB\highlight.png",320,240 M,0,164213,,317,239 S,0,164213,,0.7 C,0,164213,,174,174,255 F,1,164213,164363,0,1 P,0,164213,164813,A F,0,164363,164813,1,0
Sprite,Foreground,Centre,"SB\highlight.png",320,240 M,0,164294,,257,302 S,0,164294,,0.7 C,0,164294,,174,174,255 F,1,164294,164444,0,1 P,0,164294,164894,A F,0,164444,164894,1,0
Sprite,Foreground,Centre,"SB\highlight.png",320,240 M,0,164349,,244,284 S,0,164349,,0.7 C,0,164349,,174,174,255 F,1,164349,164499,0,1 P,0,164349,164949,A F,0,164499,164949,1,0
Sprite,Foreground,Centre,"SB\highlight.png",320,240 M,0,164403,,257,302 S,0,164403,,0.7 C,0,164403,,174,174,255 F,1,164403,164553,0,1 P,0,164403,165003,A F,0,164553,165003,1,0
Sprite,Foreground,Centre,"SB\highlight.png",320,240 M,0,164456,,262,309 S,0,164456,,0.7 C,0,164456,,174,174,255 F,1,164456,164606,0,1 P,0,164456,165056,A F,0,164606,165056,1,0
Sprite,Foreground,Centre,"SB\highlight.png",320,240 M,0,164537,,264,340 S,0,164537,,0.7 C,0,164537,,174,174,255 F,1,164537,164687,0,1 P,0,164537,165137,A F,0,164687,165137,1,0
Sprite,Foreground,Centre,"SB\highlight.png",320,240 M,0,164619,,175,200 S,0,164619,,0.7 C,0,164619,,174,174,255 F,1,164619,164769,0,1 P,0,164619,165219,A F,0,164769,165219,1,0
Sprite,Foreground,Centre,"SB\highlight.png",320,240 M,0,164700,,175,200 S,0,164700,,0.7 C,0,164700,,174,174,255 F,1,164700,164850,0,1 P,0,164700,165300,A F,0,164850,165300,1,0
Sprite,Foreground,Centre,"SB\highlight.png",320,240 M,0,168673,,236,337 S,0,168673,,0.7 C,0,168673,,174,174,255 F,1,168673,168823,0,1 P,0,168673,169273,A F,0,168823,169273,1,0
Sprite,Foreground,Centre,"SB\highlight.png",320,240 M,0,168754,,267,339 S,0,168754,,0.7 C,0,168754,,174,174,255 F,1,168754,168904,0,1 P,0,168754,169354,A F,0,168904,169354,1,0
Sprite,Foreground,Centre,"SB\highlight.png",320,240 M,0,168835,,299,342 S,0,168835,,0.7 C,0,168835,,174,174,255 F,1,168835,168985,0,1 P,0,168835,169435,A F,0,168985,169435,1,0
Sprite,Foreground,Centre,"SB\highlight.png",320,240 M,0,168997,,161,372 S,0,168997,,0.7 C,0,168997,,174,174,255 F,1,168997,169147,0,1 P,0,168997,169597,A F,0,169147,169597,1,0
Sprite,Foreground,Centre,"SB\highlight.png",320,240 M,0,169078,,158,403 S,0,169078,,0.7 C,0,169078,,174,174,255 F,1,169078,169228,0,1 P,0,169078,169678,A F,0,169228,169678,1,0
Sprite,Foreground,Centre,"SB\highlight.png",320,240 M,0,169159,,154,435 S,0,169159,,0.7 C,0,169159,,174,174,255 F,1,169159,169309,0,1 P,0,169159,169759,A F,0,169309,169759,1,0
Sprite,Foreground,Centre,"SB\highlight.png",320,240 M,0,169321,,122,285 S,0,169321,,0.7 C,0,169321,,174,174,255 F,1,169321,169471,0,1 P,0,169321,169921,A F,0,169471,169921,1,0
Sprite,Foreground,Centre,"SB\highlight.png",320,240 M,0,169484,,221,232 S,0,169484,,0.7 C,0,169484,,174,174,255 F,1,169484,169634,0,1 P,0,169484,170084,A F,0,169634,170084,1,0
Sprite,Foreground,Centre,"SB\highlight.png",320,240 M,0,169565,,224,263 S,0,169565,,0.7 C,0,169565,,174,174,255 F,1,169565,169715,0,1 P,0,169565,170165,A F,0,169715,170165,1,0
Sprite,Foreground,Centre,"SB\highlight.png",320,240 M,0,169646,,225,295 S,0,169646,,0.7 C,0,169646,,174,174,255 F,1,169646,169796,0,1 P,0,169646,170246,A F,0,169796,170246,1,0
Sprite,Foreground,Centre,"SB\highlight.png",320,240 M,0,169808,,146,181 S,0,169808,,0.7 C,0,169808,,174,174,255 F,1,169808,169958,0,1 P,0,169808,170408,A F,0,169958,170408,1,0
Sprite,Foreground,Centre,"SB\highlight.png",320,240 M,0,173862,,311,160 S,0,173862,,0.7 C,0,173862,,174,174,255 F,1,173862,174012,0,1 P,0,173862,174462,A F,0,174012,174462,1,0
Sprite,Foreground,Centre,"SB\highlight.png",320,240 M,0,174024,,145,201 S,0,174024,,0.7 C,0,174024,,174,174,255 F,1,174024,174174,0,1 P,0,174024,174624,A F,0,174174,174624,1,0
Sprite,Foreground,Centre,"SB\highlight.png",320,240 M,0,174186,,284,81 S,0,174186,,0.7 C,0,174186,,174,174,255 F,1,174186,174336,0,1 P,0,174186,174786,A F,0,174336,174786,1,0
Sprite,Foreground,Centre,"SB\highlight.png",320,240 M,0,174267,,252,75 S,0,174267,,0.7 C,0,174267,,174,174,255 F,1,174267,174417,0,1 P,0,174267,174867,A F,0,174417,174867,1,0
Sprite,Foreground,Centre,"SB\highlight.png",320,240 M,0,174348,,220,71 S,0,174348,,0.7 C,0,174348,,174,174,255 F,1,174348,174498,0,1 P,0,174348,174948,A F,0,174498,174948,1,0
Sprite,Foreground,Centre,"SB\highlight.png",320,240 M,0,174511,,416,192 S,0,174511,,0.7 C,0,174511,,174,174,255 F,1,174511,174661,0,1 P,0,174511,175111,A F,0,174661,175111,1,0
Sprite,Foreground,Centre,"SB\highlight.png",320,240 M,0,174673,,303,258 S,0,174673,,0.7 C,0,174673,,174,174,255 F,1,174673,174823,0,1 P,0,174673,175273,A F,0,174823,175273,1,0
Sprite,Foreground,Centre,"SB\highlight.png",320,240 M,0,174754,,305,226 S,0,174754,,0.7 C,0,174754,,174,174,255 F,1,174754,174904,0,1 P,0,174754,175354,A F,0,174904,175354,1,0
Sprite,Foreground,Centre,"SB\highlight.png",320,240 M,0,174835,,308,194 S,0,174835,,0.7 C,0,174835,,174,174,255 F,1,174835,174985,0,1 P,0,174835,175435,A F,0,174985,175435,1,0
Sprite,Foreground,Centre,"SB\highlight.png",320,240 M,0,174997,,433,93 S,0,174997,,0.7 C,0,174997,,174,174,255 F,1,174997,175147,0,1 P,0,174997,175597,A F,0,175147,175597,1,0
Sprite,Foreground,Centre,"SB\highlight.png",320,240 M,0,268565,,276,172 S,0,268565,,0.7 C,0,268565,,174,174,255 F,1,268565,268715,0,1 P,0,268565,269165,A F,0,268715,269165,1,0
Sprite,Foreground,Centre,"SB\highlight.png",320,240 M,0,268727,,196,340 S,0,268727,,0.7 C,0,268727,,174,174,255 F,1,268727,268877,0,1 P,0,268727,269327,A F,0,268877,269327,1,0
Sprite,Foreground,Centre,"SB\highlight.png",320,240 M,0,268808,,190,379 S,0,268808,,0.7 C,0,268808,,174,174,255 F,1,268808,268958,0,1 P,0,268808,269408,A F,0,268958,269408,1,0
Sprite,Foreground,Centre,"SB\highlight.png",320,240 M,0,268889,,188,419 S,0,268889,,0.7 C,0,268889,,174,174,255 F,1,268889,269039,0,1 P,0,268889,269489,A F,0,269039,269489,1,0
Sprite,Foreground,Centre,"SB\highlight.png",320,240 M,0,269051,,279,267 S,0,269051,,0.7 C,0,269051,,174,174,255 F,1,269051,269201,0,1 P,0,269051,269651,A F,0,269201,269651,1,0
Sprite,Foreground,Centre,"SB\highlight.png",320,240 M,0,269213,,275,75 S,0,269213,,0.7 C,0,269213,,174,174,255 F,1,269213,269363,0,1 P,0,269213,269813,A F,0,269363,269813,1,0
Sprite,Foreground,Centre,"SB\highlight.png",320,240 M,0,269376,,194,220 S,0,269376,,0.7 C,0,269376,,174,174,255 F,1,269376,269526,0,1 P,0,269376,269976,A F,0,269526,269976,1,0
Sprite,Foreground,Centre,"SB\highlight.png",320,240 M,0,269538,,359,120 S,0,269538,,0.7 C,0,269538,,174,174,255 F,1,269538,269688,0,1 P,0,269538,270138,A F,0,269688,270138,1,0
Sprite,Foreground,Centre,"SB\highlight.png",320,240 M,0,269619,,398,118 S,0,269619,,0.7 C,0,269619,,174,174,255 F,1,269619,269769,0,1 P,0,269619,270219,A F,0,269769,270219,1,0
Sprite,Foreground,Centre,"SB\highlight.png",320,240 M,0,269700,,438,116 S,0,269700,,0.7 C,0,269700,,174,174,255 F,1,269700,269850,0,1 P,0,269700,270300,A F,0,269850,270300,1,0
Sprite,Foreground,Centre,"SB\highlight.png",320,240 M,0,272132,,316,224 S,0,272132,,0.7 C,0,272132,,174,174,255 F,1,272132,272282,0,1 P,0,272132,272732,A F,0,272282,272732,1,0
Sprite,Foreground,Centre,"SB\highlight.png",320,240 M,0,272213,,318,200 S,0,272213,,0.7 C,0,272213,,174,174,255 F,1,272213,272363,0,1 P,0,272213,272813,A F,0,272363,272813,1,0
Sprite,Foreground,Centre,"SB\highlight.png",320,240 M,0,272294,,320,176 S,0,272294,,0.7 C,0,272294,,174,174,255 F,1,272294,272444,0,1 P,0,272294,272894,A F,0,272444,272894,1,0
Sprite,Foreground,Centre,"SB\highlight.png",320,240 M,0,272375,,322,152 S,0,272375,,0.7 C,0,272375,,174,174,255 F,1,272375,272525,0,1 P,0,272375,272975,A F,0,272525,272975,1,0
Sprite,Foreground,Centre,"SB\highlight.png",320,240 M,0,304889,,350,152 S,0,304889,,0.7 C,0,304889,,174,174,255 F,1,304889,305039,0,1 P,0,304889,305489,A F,0,305039,305489,1,0
Sprite,Foreground,Centre,"SB\highlight.png",320,240 M,0,304970,,388,160 S,0,304970,,0.7 C,0,304970,,174,174,255 F,1,304970,305120,0,1 P,0,304970,305570,A F,0,305120,305570,1,0
Sprite,Foreground,Centre,"SB\highlight.png",320,240 M,0,305051,,417,187 S,0,305051,,0.7 C,0,305051,,174,174,255 F,1,305051,305201,0,1 P,0,305051,305651,A F,0,305201,305651,1,0
Sprite,Foreground,Centre,"SB\highlight.png",320,240 M,0,305132,,429,225 S,0,305132,,0.7 C,0,305132,,174,174,255 F,1,305132,305282,0,1 P,0,305132,305732,A F,0,305282,305732,1,0
Sprite,Foreground,Centre,"SB\highlight.png",320,240 M,0,305213,,421,264 S,0,305213,,0.7 C,0,305213,,174,174,255 F,1,305213,305363,0,1 P,0,305213,305813,A F,0,305363,305813,1,0
Sprite,Foreground,Centre,"SB\highlight.png",320,240 M,0,305294,,413,303 S,0,305294,,0.7 C,0,305294,,174,174,255 F,1,305294,305444,0,1 P,0,305294,305894,A F,0,305444,305894,1,0
Sprite,Foreground,Centre,"SB\highlight.png",320,240 M,0,305375,,425,341 S,0,305375,,0.7 C,0,305375,,174,174,255 F,1,305375,305525,0,1 P,0,305375,305975,A F,0,305525,305975,1,0
Sprite,Foreground,Centre,"SB\highlight.png",320,240 M,0,305456,,454,368 S,0,305456,,0.7 C,0,305456,,174,174,255 F,1,305456,305606,0,1 P,0,305456,306056,A F,0,305606,306056,1,0
Sprite,Foreground,Centre,"SB\highlight.png",320,240 M,0,323051,,262,302 S,0,323051,,0.7 C,0,323051,,174,174,255 F,1,323051,323201,0,1 P,0,323051,323651,A F,0,323201,323651,1,0
Sprite,Foreground,Centre,"SB\highlight.png",320,240 M,0,323132,,222,305 S,0,323132,,0.7 C,0,323132,,174,174,255 F,1,323132,323282,0,1 P,0,323132,323732,A F,0,323282,323732,1,0
Sprite,Foreground,Centre,"SB\highlight.png",320,240 M,0,323213,,262,302 S,0,323213,,0.7 C,0,323213,,174,174,255 F,1,323213,323363,0,1 P,0,323213,323813,A F,0,323363,323813,1,0
Sprite,Foreground,Centre,"SB\highlight.png",320,240 M,0,323294,,222,305 S,0,323294,,0.7 C,0,323294,,174,174,255 F,1,323294,323444,0,1 P,0,323294,323894,A F,0,323444,323894,1,0
Sprite,Foreground,Centre,"SB\highlight.png",320,240 M,0,323376,,188,283 S,0,323376,,0.7 C,0,323376,,174,174,255 F,1,323376,323526,0,1 P,0,323376,323976,A F,0,323526,323976,1,0
Sprite,Foreground,Centre,"SB\highlight.png",320,240 M,0,323457,,148,279 S,0,323457,,0.7 C,0,323457,,174,174,255 F,1,323457,323607,0,1 P,0,323457,324057,A F,0,323607,324057,1,0
Sprite,Foreground,Centre,"SB\highlight.png",320,240 M,0,323538,,188,283 S,0,323538,,0.7 C,0,323538,,174,174,255 F,1,323538,323688,0,1 P,0,323538,324138,A F,0,323688,324138,1,0
Sprite,Foreground,Centre,"SB\highlight.png",320,240 M,0,323619,,148,279 S,0,323619,,0.7 C,0,323619,,174,174,255 F,1,323619,323769,0,1 P,0,323619,324219,A F,0,323769,324219,1,0
Sprite,Foreground,Centre,"SB\highlight.png",320,240 M,0,122619,,240,392 S,0,122619,,0.7 C,0,122619,,158,232,23 F,1,122619,122769,0,1 P,0,122619,123219,A F,0,122769,123219,1,0
Sprite,Foreground,Centre,"SB\highlight.png",320,240 M,0,122700,,201,398 S,0,122700,,0.7 C,0,122700,,158,232,23 F,1,122700,122850,0,1 P,0,122700,123300,A F,0,122850,123300,1,0
Sprite,Foreground,Centre,"SB\highlight.png",320,240 M,0,122781,,166,379 S,0,122781,,0.7 C,0,122781,,158,232,23 F,1,122781,122931,0,1 P,0,122781,123381,A F,0,122931,123381,1,0
Sprite,Foreground,Centre,"SB\highlight.png",320,240 M,0,122862,,151,343 S,0,122862,,0.7 C,0,122862,,158,232,23 F,1,122862,123012,0,1 P,0,122862,123462,A F,0,123012,123462,1,0
Sprite,Foreground,Centre,"SB\highlight.png",320,240 M,0,122943,,162,305 S,0,122943,,0.7 C,0,122943,,158,232,23 F,1,122943,123093,0,1 P,0,122943,123543,A F,0,123093,123543,1,0
Sprite,Foreground,Centre,"SB\highlight.png",320,240 M,0,123024,,188,275 S,0,123024,,0.7 C,0,123024,,158,232,23 F,1,123024,123174,0,1 P,0,123024,123624,A F,0,123174,123624,1,0
Sprite,Foreground,Centre,"SB\highlight.png",320,240 M,0,123105,,286,185 S,0,123105,,0.7 C,0,123105,,158,232,23 F,1,123105,123255,0,1 P,0,123105,123705,A F,0,123255,123705,1,0
Sprite,Foreground,Centre,"SB\highlight.png",320,240 M,0,123186,,286,185 S,0,123186,,0.7 C,0,123186,,158,232,23 F,1,123186,123336,0,1 P,0,123186,123786,A F,0,123336,123786,1,0
Sprite,Foreground,Centre,"SB\highlight.png",320,240 M,0,145321,,440,208 S,0,145321,,0.7 C,0,145321,,158,232,23 F,1,145321,145471,0,1 P,0,145321,145921,A F,0,145471,145921,1,0
Sprite,Foreground,Centre,"SB\highlight.png",320,240 M,0,145484,,303,330 S,0,145484,,0.7 C,0,145484,,158,232,23 F,1,145484,145634,0,1 P,0,145484,146084,A F,0,145634,146084,1,0
Sprite,Foreground,Centre,"SB\highlight.png",320,240 M,0,145565,,300,361 S,0,145565,,0.7 C,0,145565,,158,232,23 F,1,145565,145715,0,1 P,0,145565,146165,A F,0,145715,146165,1,0
Sprite,Foreground,Centre,"SB\highlight.png",320,240 M,0,145646,,297,393 S,0,145646,,0.7 C,0,145646,,158,232,23 F,1,145646,145796,0,1 P,0,145646,146246,A F,0,145796,146246,1,0
Sprite,Foreground,Centre,"SB\highlight.png",320,240 M,0,145808,,351,221 S,0,145808,,0.7 C,0,145808,,158,232,23 F,1,145808,145958,0,1 P,0,145808,146408,A F,0,145958,146408,1,0
Sprite,Foreground,Centre,"SB\highlight.png",320,240 M,0,145889,,351,221 S,0,145889,,0.7 C,0,145889,,158,232,23 F,1,145889,146039,0,1 P,0,145889,146489,A F,0,146039,146489,1,0
Sprite,Foreground,Centre,"SB\highlight.png",320,240 M,0,145970,,351,221 S,0,145970,,0.7 C,0,145970,,158,232,23 F,1,145970,146120,0,1 P,0,145970,146570,A F,0,146120,146570,1,0
Sprite,Foreground,Centre,"SB\highlight.png",320,240 M,0,146051,,353,252 S,0,146051,,0.7 C,0,146051,,158,232,23 F,1,146051,146201,0,1 P,0,146051,146651,A F,0,146201,146651,1,0
Sprite,Foreground,Centre,"SB\highlight.png",320,240 M,0,146132,,290,154 S,0,146132,,0.7 C,0,146132,,158,232,23 F,1,146132,146282,0,1 P,0,146132,146732,A F,0,146282,146732,1,0
Sprite,Foreground,Centre,"SB\highlight.png",320,240 M,0,146294,,430,314 S,0,146294,,0.7 C,0,146294,,158,232,23 F,1,146294,146444,0,1 P,0,146294,146894,A F,0,146444,146894,1,0
Sprite,Foreground,Centre,"SB\highlight.png",320,240 M,0,146457,,379,138 S,0,146457,,0.7 C,0,146457,,158,232,23 F,1,146457,146607,0,1 P,0,146457,147057,A F,0,146607,147057,1,0
Sprite,Foreground,Centre,"SB\highlight.png",320,240 M,0,150511,,230,302 S,0,150511,,0.7 C,0,150511,,158,232,23 F,1,150511,150661,0,1 P,0,150511,151111,A F,0,150661,151111,1,0
Sprite,Foreground,Centre,"SB\highlight.png",320,240 M,0,150673,,335,151 S,0,150673,,0.7 C,0,150673,,158,232,23 F,1,150673,150823,0,1 P,0,150673,151273,A F,0,150823,151273,1,0
Sprite,Foreground,Centre,"SB\highlight.png",320,240 M,0,150835,,164,198 S,0,150835,,0.7 C,0,150835,,158,232,23 F,1,150835,150985,0,1 P,0,150835,151435,A F,0,150985,151435,1,0
Sprite,Foreground,Centre,"SB\highlight.png",320,240 M,0,150916,,195,194 S,0,150916,,0.7 C,0,150916,,158,232,23 F,1,150916,151066,0,1 P,0,150916,151516,A F,0,151066,151516,1,0
Sprite,Foreground,Centre,"SB\highlight.png",320,240 M,0,150997,,227,192 S,0,150997,,0.7 C,0,150997,,158,232,23 F,1,150997,151147,0,1 P,0,150997,151597,A F,0,151147,151597,1,0
Sprite,Foreground,Centre,"SB\highlight.png",320,240 M,0,151078,,227,192 S,0,151078,,0.7 C,0,151078,,158,232,23 F,1,151078,151228,0,1 P,0,151078,151678,A F,0,151228,151678,1,0
Sprite,Foreground,Centre,"SB\highlight.png",320,240 M,0,151159,,227,192 S,0,151159,,0.7 C,0,151159,,158,232,23 F,1,151159,151309,0,1 P,0,151159,151759,A F,0,151309,151759,1,0
Sprite,Foreground,Centre,"SB\highlight.png",320,240 M,0,151321,,340,302 S,0,151321,,0.7 C,0,151321,,158,232,23 F,1,151321,151471,0,1 P,0,151321,151921,A F,0,151471,151921,1,0
Sprite,Foreground,Centre,"SB\highlight.png",320,240 M,0,151484,,194,383 S,0,151484,,0.7 C,0,151484,,158,232,23 F,1,151484,151634,0,1 P,0,151484,152084,A F,0,151634,152084,1,0
Sprite,Foreground,Centre,"SB\highlight.png",320,240 M,0,151565,,197,351 S,0,151565,,0.7 C,0,151565,,158,232,23 F,1,151565,151715,0,1 P,0,151565,152165,A F,0,151715,152165,1,0
Sprite,Foreground,Centre,"SB\highlight.png",320,240 M,0,151646,,202,319 S,0,151646,,0.7 C,0,151646,,158,232,23 F,1,151646,151796,0,1 P,0,151646,152246,A F,0,151796,152246,1,0
Sprite,Foreground,Centre,"SB\highlight.png",320,240 M,0,154403,,438,154 S,0,154403,,0.7 C,0,154403,,158,232,23 F,1,154403,154553,0,1 P,0,154403,155003,A F,0,154553,155003,1,0
Sprite,Foreground,Centre,"SB\highlight.png",320,240 M,0,154484,,435,185 S,0,154484,,0.7 C,0,154484,,158,232,23 F,1,154484,154634,0,1 P,0,154484,155084,A F,0,154634,155084,1,0
Sprite,Foreground,Centre,"SB\highlight.png",320,240 M,0,154565,,433,217 S,0,154565,,0.7 C,0,154565,,158,232,23 F,1,154565,154715,0,1 P,0,154565,155165,A F,0,154715,155165,1,0
Sprite,Foreground,Centre,"SB\highlight.png",320,240 M,0,154646,,430,249 S,0,154646,,0.7 C,0,154646,,158,232,23 F,1,154646,154796,0,1 P,0,154646,155246,A F,0,154796,155246,1,0
Sprite,Foreground,Centre,"SB\highlight.png",320,240 M,0,154727,,428,281 S,0,154727,,0.7 C,0,154727,,158,232,23 F,1,154727,154877,0,1 P,0,154727,155327,A F,0,154877,155327,1,0
Sprite,Foreground,Centre,"SB\highlight.png",320,240 M,0,154889,,474,408 S,0,154889,,0.7 C,0,154889,,158,232,23 F,1,154889,155039,0,1 P,0,154889,155489,A F,0,155039,155489,1,0
Sprite,Foreground,Centre,"SB\highlight.png",320,240 M,0,155051,,340,302 S,0,155051,,0.7 C,0,155051,,158,232,23 F,1,155051,155201,0,1 P,0,155051,155651,A F,0,155201,155651,1,0
Sprite,Foreground,Centre,"SB\highlight.png",320,240 M,0,155213,,516,260 S,0,155213,,0.7 C,0,155213,,158,232,23 F,1,155213,155363,0,1 P,0,155213,155813,A F,0,155363,155813,1,0
Sprite,Foreground,Centre,"SB\highlight.png",320,240 M,0,155376,,356,123 S,0,155376,,0.7 C,0,155376,,158,232,23 F,1,155376,155526,0,1 P,0,155376,155976,A F,0,155526,155976,1,0
Sprite,Foreground,Centre,"SB\highlight.png",320,240 M,0,155457,,352,154 S,0,155457,,0.7 C,0,155457,,158,232,23 F,1,155457,155607,0,1 P,0,155457,156057,A F,0,155607,156057,1,0
Sprite,Foreground,Centre,"SB\highlight.png",320,240 M,0,155538,,349,186 S,0,155538,,0.7 C,0,155538,,158,232,23 F,1,155538,155688,0,1 P,0,155538,156138,A F,0,155688,156138,1,0
Sprite,Foreground,Centre,"SB\highlight.png",320,240 M,0,159592,,523,167 S,0,159592,,0.7 C,0,159592,,158,232,23 F,1,159592,159742,0,1 P,0,159592,160192,A F,0,159742,160192,1,0
Sprite,Foreground,Centre,"SB\highlight.png",320,240 M,0,159673,,508,138 S,0,159673,,0.7 C,0,159673,,158,232,23 F,1,159673,159823,0,1 P,0,159673,160273,A F,0,159823,160273,1,0
Sprite,Foreground,Centre,"SB\highlight.png",320,240 M,0,159754,,482,119 S,0,159754,,0.7 C,0,159754,,158,232,23 F,1,159754,159904,0,1 P,0,159754,160354,A F,0,159904,160354,1,0
Sprite,Foreground,Centre,"SB\highlight.png",320,240 M,0,159835,,451,113 S,0,159835,,0.7 C,0,159835,,158,232,23 F,1,159835,159985,0,1 P,0,159835,160435,A F,0,159985,160435,1,0
Sprite,Foreground,Centre,"SB\highlight.png",320,240 M,0,159916,,420,121 S,0,159916,,0.7 C,0,159916,,158,232,23 F,1,159916,160066,0,1 P,0,159916,160516,A F,0,160066,160516,1,0
Sprite,Foreground,Centre,"SB\highlight.png",320,240 M,0,160078,,303,223 S,0,160078,,0.7 C,0,160078,,158,232,23 F,1,160078,160228,0,1 P,0,160078,160678,A F,0,160228,160678,1,0
Sprite,Foreground,Centre,"SB\highlight.png",320,240 M,0,160240,,240,87 S,0,160240,,0.7 C,0,160240,,158,232,23 F,1,160240,160390,0,1 P,0,160240,160840,A F,0,160390,160840,1,0
Sprite,Foreground,Centre,"SB\highlight.png",320,240 M,0,160321,,243,118 S,0,160321,,0.7 C,0,160321,,158,232,23 F,1,160321,160471,0,1 P,0,160321,160921,A F,0,160471,160921,1,0
Sprite,Foreground,Centre,"SB\highlight.png",320,240 M,0,160402,,245,150 S,0,160402,,0.7 C,0,160402,,158,232,23 F,1,160402,160552,0,1 P,0,160402,161002,A F,0,160552,161002,1,0
Sprite,Foreground,Centre,"SB\highlight.png",320,240 M,0,160565,,266,307 S,0,160565,,0.7 C,0,160565,,158,232,23 F,1,160565,160715,0,1 P,0,160565,161165,A F,0,160715,161165,1,0
Sprite,Foreground,Centre,"SB\highlight.png",320,240 M,0,160727,,334,138 S,0,160727,,0.7 C,0,160727,,158,232,23 F,1,160727,160877,0,1 P,0,160727,161327,A F,0,160877,161327,1,0
Sprite,Foreground,Centre,"SB\highlight.png",320,240 M,0,164781,,175,200 S,0,164781,,0.7 C,0,164781,,158,232,23 F,1,164781,164931,0,1 P,0,164781,165381,A F,0,164931,165381,1,0
Sprite,Foreground,Centre,"SB\highlight.png",320,240 M,0,164862,,145,188 S,0,164862,,0.7 C,0,164862,,158,232,23 F,1,164862,165012,0,1 P,0,164862,165462,A F,0,165012,165462,1,0
Sprite,Foreground,Centre,"SB\highlight.png",320,240 M,0,164943,,113,191 S,0,164943,,0.7 C,0,164943,,158,232,23 F,1,164943,165093,0,1 P,0,164943,165543,A F,0,165093,165543,1,0
Sprite,Foreground,Centre,"SB\highlight.png",320,240 M,0,165024,,86,207 S,0,165024,,0.7 C,0,165024,,158,232,23 F,1,165024,165174,0,1 P,0,165024,165624,A F,0,165174,165624,1,0
Sprite,Foreground,Centre,"SB\highlight.png",320,240 M,0,165105,,68,233 S,0,165105,,0.7 C,0,165105,,158,232,23 F,1,165105,165255,0,1 P,0,165105,165705,A F,0,165255,165705,1,0
Sprite,Foreground,Centre,"SB\highlight.png",320,240 M,0,165267,,147,298 S,0,165267,,0.7 C,0,165267,,158,232,23 F,1,165267,165417,0,1 P,0,165267,165867,A F,0,165417,165867,1,0
Sprite,Foreground,Centre,"SB\highlight.png",320,240 M,0,165430,,147,298 S,0,165430,,0.7 C,0,165430,,158,232,23 F,1,165430,165580,0,1 P,0,165430,166030,A F,0,165580,166030,1,0
Sprite,Foreground,Centre,"SB\highlight.png",320,240 M,0,165511,,176,309 S,0,165511,,0.7 C,0,165511,,158,232,23 F,1,165511,165661,0,1 P,0,165511,166111,A F,0,165661,166111,1,0
Sprite,Foreground,Centre,"SB\highlight.png",320,240 M,0,165592,,208,306 S,0,165592,,0.7 C,0,165592,,158,232,23 F,1,165592,165742,0,1 P,0,165592,166192,A F,0,165742,166192,1,0
Sprite,Foreground,Centre,"SB\highlight.png",320,240 M,0,165673,,235,290 S,0,165673,,0.7 C,0,165673,,158,232,23 F,1,165673,165823,0,1 P,0,165673,166273,A F,0,165823,166273,1,0
Sprite,Foreground,Centre,"SB\highlight.png",320,240 M,0,165754,,253,264 S,0,165754,,0.7 C,0,165754,,158,232,23 F,1,165754,165904,0,1 P,0,165754,166354,A F,0,165904,166354,1,0
Sprite,Foreground,Centre,"SB\highlight.png",320,240 M,0,165916,,269,157 S,0,165916,,0.7 C,0,165916,,158,232,23 F,1,165916,166066,0,1 P,0,165916,166516,A F,0,166066,166516,1,0
Sprite,Foreground,Centre,"SB\highlight.png",320,240 M,0,169970,,255,83 S,0,169970,,0.7 C,0,169970,,158,232,23 F,1,169970,170120,0,1 P,0,169970,170570,A F,0,170120,170570,1,0
Sprite,Foreground,Centre,"SB\highlight.png",320,240 M,0,170051,,259,114 S,0,170051,,0.7 C,0,170051,,158,232,23 F,1,170051,170201,0,1 P,0,170051,170651,A F,0,170201,170651,1,0
Sprite,Foreground,Centre,"SB\highlight.png",320,240 M,0,170132,,260,147 S,0,170132,,0.7 C,0,170132,,158,232,23 F,1,170132,170282,0,1 P,0,170132,170732,A F,0,170282,170732,1,0
Sprite,Foreground,Centre,"SB\highlight.png",320,240 M,0,170213,,257,178 S,0,170213,,0.7 C,0,170213,,158,232,23 F,1,170213,170363,0,1 P,0,170213,170813,A F,0,170363,170813,1,0
Sprite,Foreground,Centre,"SB\highlight.png",320,240 M,0,170294,,254,210 S,0,170294,,0.7 C,0,170294,,158,232,23 F,1,170294,170444,0,1 P,0,170294,170894,A F,0,170444,170894,1,0
Sprite,Foreground,Centre,"SB\highlight.png",320,240 M,0,170376,,257,178 S,0,170376,,0.7 C,0,170376,,158,232,23 F,1,170376,170526,0,1 P,0,170376,170976,A F,0,170526,170976,1,0
Sprite,Foreground,Centre,"SB\highlight.png",320,240 M,0,170457,,260,147 S,0,170457,,0.7 C,0,170457,,158,232,23 F,1,170457,170607,0,1 P,0,170457,171057,A F,0,170607,171057,1,0
Sprite,Foreground,Centre,"SB\highlight.png",320,240 M,0,170619,,388,98 S,0,170619,,0.7 C,0,170619,,158,232,23 F,1,170619,170769,0,1 P,0,170619,171219,A F,0,170769,171219,1,0
Sprite,Foreground,Centre,"SB\highlight.png",320,240 M,0,170781,,335,272 S,0,170781,,0.7 C,0,170781,,158,232,23 F,1,170781,170931,0,1 P,0,170781,171381,A F,0,170931,171381,1,0
Sprite,Foreground,Centre,"SB\highlight.png",320,240 M,0,170862,,335,272 S,0,170862,,0.7 C,0,170862,,158,232,23 F,1,170862,171012,0,1 P,0,170862,171462,A F,0,171012,171462,1,0
Sprite,Foreground,Centre,"SB\highlight.png",320,240 M,0,170943,,335,272 S,0,170943,,0.7 C,0,170943,,158,232,23 F,1,170943,171093,0,1 P,0,170943,171543,A F,0,171093,171543,1,0
Sprite,Foreground,Centre,"SB\highlight.png",320,240 M,0,171024,,366,267 S,0,171024,,0.7 C,0,171024,,158,232,23 F,1,171024,171174,0,1 P,0,171024,171624,A F,0,171174,171624,1,0
Sprite,Foreground,Centre,"SB\highlight.png",320,240 M,0,171105,,398,265 S,0,171105,,0.7 C,0,171105,,158,232,23 F,1,171105,171255,0,1 P,0,171105,171705,A F,0,171255,171705,1,0
Sprite,Foreground,Centre,"SB\highlight.png",320,240 M,0,175159,,461,326 S,0,175159,,0.7 C,0,175159,,158,232,23 F,1,175159,175309,0,1 P,0,175159,175759,A F,0,175309,175759,1,0
Sprite,Foreground,Centre,"SB\highlight.png",320,240 M,0,245213,,339,142 S,0,245213,,0.7 C,0,245213,,158,232,23 F,1,245213,245363,0,1 P,0,245213,245813,A F,0,245363,245813,1,0
Sprite,Foreground,Centre,"SB\highlight.png",320,240 M,0,245294,,299,137 S,0,245294,,0.7 C,0,245294,,158,232,23 F,1,245294,245444,0,1 P,0,245294,245894,A F,0,245444,245894,1,0
Sprite,Foreground,Centre,"SB\highlight.png",320,240 M,0,245376,,339,142 S,0,245376,,0.7 C,0,245376,,158,232,23 F,1,245376,245526,0,1 P,0,245376,245976,A F,0,245526,245976,1,0
Sprite,Foreground,Centre,"SB\highlight.png",320,240 M,0,245457,,299,137 S,0,245457,,0.7 C,0,245457,,158,232,23 F,1,245457,245607,0,1 P,0,245457,246057,A F,0,245607,246057,1,0
Sprite,Foreground,Centre,"SB\highlight.png",320,240 M,0,245538,,410,90 S,0,245538,,0.7 C,0,245538,,158,232,23 F,1,245538,245688,0,1 P,0,245538,246138,A F,0,245688,246138,1,0
Sprite,Foreground,Centre,"SB\highlight.png",320,240 M,0,245619,,449,86 S,0,245619,,0.7 C,0,245619,,158,232,23 F,1,245619,245769,0,1 P,0,245619,246219,A F,0,245769,246219,1,0
Sprite,Foreground,Centre,"SB\highlight.png",320,240 M,0,245700,,410,90 S,0,245700,,0.7 C,0,245700,,158,232,23 F,1,245700,245850,0,1 P,0,245700,246300,A F,0,245850,246300,1,0
Sprite,Foreground,Centre,"SB\highlight.png",320,240 M,0,245781,,449,86 S,0,245781,,0.7 C,0,245781,,158,232,23 F,1,245781,245931,0,1 P,0,245781,246381,A F,0,245931,246381,1,0
Sprite,Foreground,Centre,"SB\highlight.png",320,240 M,0,269862,,361,216 S,0,269862,,0.7 C,0,269862,,158,232,23 F,1,269862,270012,0,1 P,0,269862,270462,A F,0,270012,270462,1,0
Sprite,Foreground,Centre,"SB\highlight.png",320,240 M,0,270024,,193,123 S,0,270024,,0.7 C,0,270024,,158,232,23 F,1,270024,270174,0,1 P,0,270024,270624,A F,0,270174,270624,1,0
Sprite,Foreground,Centre,"SB\highlight.png",320,240 M,0,270186,,359,120 S,0,270186,,0.7 C,0,270186,,158,232,23 F,1,270186,270336,0,1 P,0,270186,270786,A F,0,270336,270786,1,0
Sprite,Foreground,Centre,"SB\highlight.png",320,240 M,0,270349,,277,312 S,0,270349,,0.7 C,0,270349,,158,232,23 F,1,270349,270499,0,1 P,0,270349,270949,A F,0,270499,270949,1,0
Sprite,Foreground,Centre,"SB\highlight.png",320,240 M,0,305538,,493,381 S,0,305538,,0.7 C,0,305538,,158,232,23 F,1,305538,305688,0,1 P,0,305538,306138,A F,0,305688,306138,1,0
Sprite,Foreground,Centre,"SB\highlight.png",320,240 M,0,305619,,532,375 S,0,305619,,0.7 C,0,305619,,158,232,23 F,1,305619,305769,0,1 P,0,305619,306219,A F,0,305769,306219,1,0
Sprite,Foreground,Centre,"SB\highlight.png",320,240 M,0,305700,,334,326 S,0,305700,,0.7 C,0,305700,,158,232,23 F,1,305700,305850,0,1 P,0,305700,306300,A F,0,305850,306300,1,0
Sprite,Foreground,Centre,"SB\highlight.png",320,240 M,0,305781,,294,330 S,0,305781,,0.7 C,0,305781,,158,232,23 F,1,305781,305931,0,1 P,0,305781,306381,A F,0,305931,306381,1,0
Sprite,Foreground,Centre,"SB\highlight.png",320,240 M,0,323700,,131,247 S,0,323700,,0.7 C,0,323700,,158,232,23 F,1,323700,323850,0,1 P,0,323700,324300,A F,0,323850,324300,1,0
Sprite,Foreground,Centre,"SB\highlight.png",320,240 M,0,323781,,125,214 S,0,323781,,0.7 C,0,323781,,158,232,23 F,1,323781,323931,0,1 P,0,323781,324381,A F,0,323931,324381,1,0
Sprite,Foreground,Centre,"SB\highlight.png",320,240 M,0,323862,,125,182 S,0,323862,,0.7 C,0,323862,,158,232,23 F,1,323862,324012,0,1 P,0,323862,324462,A F,0,324012,324462,1,0
Sprite,Foreground,Centre,"SB\highlight.png",320,240 M,0,323943,,132,150 S,0,323943,,0.7 C,0,323943,,158,232,23 F,1,323943,324093,0,1 P,0,323943,324543,A F,0,324093,324543,1,0
Sprite,Foreground,Centre,"SB\highlight.png",320,240 M,0,146619,,165,232 S,0,146619,,0.7 C,0,146619,,113,162,227 F,1,146619,146769,0,1 P,0,146619,147219,A F,0,146769,147219,1,0
Sprite,Foreground,Centre,"SB\highlight.png",320,240 M,0,146700,,196,235 S,0,146700,,0.7 C,0,146700,,113,162,227 F,1,146700,146850,0,1 P,0,146700,147300,A F,0,146850,147300,1,0
Sprite,Foreground,Centre,"SB\highlight.png",320,240 M,0,146781,,228,239 S,0,146781,,0.7 C,0,146781,,113,162,227 F,1,146781,146931,0,1 P,0,146781,147381,A F,0,146931,147381,1,0
Sprite,Foreground,Centre,"SB\highlight.png",320,240 M,0,146862,,228,239 S,0,146862,,0.7 C,0,146862,,113,162,227 F,1,146862,147012,0,1 P,0,146862,147462,A F,0,147012,147462,1,0
Sprite,Foreground,Centre,"SB\highlight.png",320,240 M,0,146943,,228,239 S,0,146943,,0.7 C,0,146943,,113,162,227 F,1,146943,147093,0,1 P,0,146943,147543,A F,0,147093,147543,1,0
Sprite,Foreground,Centre,"SB\highlight.png",320,240 M,0,147105,,303,330 S,0,147105,,0.7 C,0,147105,,113,162,227 F,1,147105,147255,0,1 P,0,147105,147705,A F,0,147255,147705,1,0
Sprite,Foreground,Centre,"SB\highlight.png",320,240 M,0,147267,,434,271 S,0,147267,,0.7 C,0,147267,,113,162,227 F,1,147267,147417,0,1 P,0,147267,147867,A F,0,147417,147867,1,0
Sprite,Foreground,Centre,"SB\highlight.png",320,240 M,0,147348,,436,239 S,0,147348,,0.7 C,0,147348,,113,162,227 F,1,147348,147498,0,1 P,0,147348,147948,A F,0,147498,147948,1,0
Sprite,Foreground,Centre,"SB\highlight.png",320,240 M,0,147429,,440,207 S,0,147429,,0.7 C,0,147429,,113,162,227 F,1,147429,147579,0,1 P,0,147429,148029,A F,0,147579,148029,1,0
Sprite,Foreground,Centre,"SB\highlight.png",320,240 M,0,147592,,459,399 S,0,147592,,0.7 C,0,147592,,113,162,227 F,1,147592,147742,0,1 P,0,147592,148192,A F,0,147742,148192,1,0
Sprite,Foreground,Centre,"SB\highlight.png",320,240 M,0,147754,,547,258 S,0,147754,,0.7 C,0,147754,,113,162,227 F,1,147754,147904,0,1 P,0,147754,148354,A F,0,147904,148354,1,0
Sprite,Foreground,Centre,"SB\highlight.png",320,240 M,0,151808,,100,151 S,0,151808,,0.7 C,0,151808,,113,162,227 F,1,151808,151958,0,1 P,0,151808,152408,A F,0,151958,152408,1,0
Sprite,Foreground,Centre,"SB\highlight.png",320,240 M,0,151889,,102,182 S,0,151889,,0.7 C,0,151889,,113,162,227 F,1,151889,152039,0,1 P,0,151889,152489,A F,0,152039,152489,1,0
Sprite,Foreground,Centre,"SB\highlight.png",320,240 M,0,151970,,105,214 S,0,151970,,0.7 C,0,151970,,113,162,227 F,1,151970,152120,0,1 P,0,151970,152570,A F,0,152120,152570,1,0
Sprite,Foreground,Centre,"SB\highlight.png",320,240 M,0,152051,,107,246 S,0,152051,,0.7 C,0,152051,,113,162,227 F,1,152051,152201,0,1 P,0,152051,152651,A F,0,152201,152651,1,0
Sprite,Foreground,Centre,"SB\highlight.png",320,240 M,0,152132,,123,277 S,0,152132,,0.7 C,0,152132,,113,162,227 F,1,152132,152282,0,1 P,0,152132,152732,A F,0,152282,152732,1,0
Sprite,Foreground,Centre,"SB\highlight.png",320,240 M,0,152213,,118,308 S,0,152213,,0.7 C,0,152213,,113,162,227 F,1,152213,152363,0,1 P,0,152213,152813,A F,0,152363,152813,1,0
Sprite,Foreground,Centre,"SB\highlight.png",320,240 M,0,152294,,114,340 S,0,152294,,0.7 C,0,152294,,113,162,227 F,1,152294,152444,0,1 P,0,152294,152894,A F,0,152444,152894,1,0
Sprite,Foreground,Centre,"SB\highlight.png",320,240 M,0,152457,,187,171 S,0,152457,,0.7 C,0,152457,,113,162,227 F,1,152457,152607,0,1 P,0,152457,153057,A F,0,152607,153057,1,0
Sprite,Foreground,Centre,"SB\highlight.png",320,240 M,0,152538,,182,139 S,0,152538,,0.7 C,0,152538,,113,162,227 F,1,152538,152688,0,1 P,0,152538,153138,A F,0,152688,153138,1,0
Sprite,Foreground,Centre,"SB\highlight.png",320,240 M,0,152619,,177,107 S,0,152619,,0.7 C,0,152619,,113,162,227 F,1,152619,152769,0,1 P,0,152619,153219,A F,0,152769,153219,1,0
Sprite,Foreground,Centre,"SB\highlight.png",320,240 M,0,152781,,254,248 S,0,152781,,0.7 C,0,152781,,113,162,227 F,1,152781,152931,0,1 P,0,152781,153381,A F,0,152931,153381,1,0
Sprite,Foreground,Centre,"SB\highlight.png",320,240 M,0,152943,,414,116 S,0,152943,,0.7 C,0,152943,,113,162,227 F,1,152943,153093,0,1 P,0,152943,153543,A F,0,153093,153543,1,0
Sprite,Foreground,Centre,"SB\highlight.png",320,240 M,0,153024,,414,116 S,0,153024,,0.7 C,0,153024,,113,162,227 F,1,153024,153174,0,1 P,0,153024,153624,A F,0,153174,153624,1,0
Sprite,Foreground,Centre,"SB\highlight.png",320,240 M,0,155700,,225,316 S,0,155700,,0.7 C,0,155700,,113,162,227 F,1,155700,155850,0,1 P,0,155700,156300,A F,0,155850,156300,1,0
Sprite,Foreground,Centre,"SB\highlight.png",320,240 M,0,155781,,248,294 S,0,155781,,0.7 C,0,155781,,113,162,227 F,1,155781,155931,0,1 P,0,155781,156381,A F,0,155931,156381,1,0
Sprite,Foreground,Centre,"SB\highlight.png",320,240 M,0,155862,,278,284 S,0,155862,,0.7 C,0,155862,,113,162,227 F,1,155862,156012,0,1 P,0,155862,156462,A F,0,156012,156462,1,0
Sprite,Foreground,Centre,"SB\highlight.png",320,240 M,0,155943,,310,286 S,0,155943,,0.7 C,0,155943,,113,162,227 F,1,155943,156093,0,1 P,0,155943,156543,A F,0,156093,156543,1,0
Sprite,Foreground,Centre,"SB\highlight.png",320,240 M,0,156024,,338,300 S,0,156024,,0.7 C,0,156024,,113,162,227 F,1,156024,156174,0,1 P,0,156024,156624,A F,0,156174,156624,1,0
Sprite,Foreground,Centre,"SB\highlight.png",320,240 M,0,156186,,449,369 S,0,156186,,0.7 C,0,156186,,113,162,227 F,1,156186,156336,0,1 P,0,156186,156786,A F,0,156336,156786,1,0
Sprite,Foreground,Centre,"SB\highlight.png",320,240 M,0,156349,,290,366 S,0,156349,,0.7 C,0,156349,,113,162,227 F,1,156349,156499,0,1 P,0,156349,156949,A F,0,156499,156949,1,0
Sprite,Foreground,Centre,"SB\highlight.png",320,240 M,0,156430,,293,397 S,0,156430,,0.7 C,0,156430,,113,162,227 F,1,156430,156580,0,1 P,0,156430,157030,A F,0,156580,157030,1,0
Sprite,Foreground,Centre,"SB\highlight.png",320,240 M,0,156511,,296,429 S,0,156511,,0.7 C,0,156511,,113,162,227 F,1,156511,156661,0,1 P,0,156511,157111,A F,0,156661,157111,1,0
Sprite,Foreground,Centre,"SB\highlight.png",320,240 M,0,156565,,304,436 S,0,156565,,0.7 C,0,156565,,113,162,227 F,1,156565,156715,0,1 P,0,156565,157165,A F,0,156715,157165,1,0
Sprite,Foreground,Centre,"SB\highlight.png",320,240 M,0,156619,,324,432 S,0,156619,,0.7 C,0,156619,,113,162,227 F,1,156619,156769,0,1 P,0,156619,157219,A F,0,156769,157219,1,0
Sprite,Foreground,Centre,"SB\highlight.png",320,240 M,0,156673,,304,436 S,0,156673,,0.7 C,0,156673,,113,162,227 F,1,156673,156823,0,1 P,0,156673,157273,A F,0,156823,157273,1,0
Sprite,Foreground,Centre,"SB\highlight.png",320,240 M,0,156835,,194,291 S,0,156835,,0.7 C,0,156835,,113,162,227 F,1,156835,156985,0,1 P,0,156835,157435,A F,0,156985,157435,1,0
Sprite,Foreground,Centre,"SB\highlight.png",320,240 M,0,160889,,359,299 S,0,160889,,0.7 C,0,160889,,113,162,227 F,1,160889,161039,0,1 P,0,160889,161489,A F,0,161039,161489,1,0
Sprite,Foreground,Centre,"SB\highlight.png",320,240 M,0,160970,,354,330 S,0,160970,,0.7 C,0,160970,,113,162,227 F,1,160970,161120,0,1 P,0,160970,161570,A F,0,161120,161570,1,0
Sprite,Foreground,Centre,"SB\highlight.png",320,240 M,0,161051,,352,362 S,0,161051,,0.7 C,0,161051,,113,162,227 F,1,161051,161201,0,1 P,0,161051,161651,A F,0,161201,161651,1,0
Sprite,Foreground,Centre,"SB\highlight.png",320,240 M,0,161213,,213,231 S,0,161213,,0.7 C,0,161213,,113,162,227 F,1,161213,161363,0,1 P,0,161213,161813,A F,0,161363,161813,1,0
Sprite,Foreground,Centre,"SB\highlight.png",320,240 M,0,161376,,391,211 S,0,161376,,0.7 C,0,161376,,113,162,227 F,1,161376,161526,0,1 P,0,161376,161976,A F,0,161526,161976,1,0
Sprite,Foreground,Centre,"SB\highlight.png",320,240 M,0,161538,,266,307 S,0,161538,,0.7 C,0,161538,,113,162,227 F,1,161538,161688,0,1 P,0,161538,162138,A F,0,161688,162138,1,0
Sprite,Foreground,Centre,"SB\highlight.png",320,240 M,0,161700,,245,150 S,0,161700,,0.7 C,0,161700,,113,162,227 F,1,161700,161850,0,1 P,0,161700,162300,A F,0,161850,162300,1,0
Sprite,Foreground,Centre,"SB\highlight.png",320,240 M,0,161862,,447,281 S,0,161862,,0.7 C,0,161862,,113,162,227 F,1,161862,162012,0,1 P,0,161862,162462,A F,0,162012,162462,1,0
Sprite,Foreground,Centre,"SB\highlight.png",320,240 M,0,161943,,467,257 S,0,161943,,0.7 C,0,161943,,113,162,227 F,1,161943,162093,0,1 P,0,161943,162543,A F,0,162093,162543,1,0
Sprite,Foreground,Centre,"SB\highlight.png",320,240 M,0,162024,,476,226 S,0,162024,,0.7 C,0,162024,,113,162,227 F,1,162024,162174,0,1 P,0,162024,162624,A F,0,162174,162624,1,0
Sprite,Foreground,Centre,"SB\highlight.png",320,240 M,0,166078,,328,345 S,0,166078,,0.7 C,0,166078,,113,162,227 F,1,166078,166228,0,1 P,0,166078,166678,A F,0,166228,166678,1,0
Sprite,Foreground,Centre,"SB\highlight.png",320,240 M,0,166240,,383,181 S,0,166240,,0.7 C,0,166240,,113,162,227 F,1,166240,166390,0,1 P,0,166240,166840,A F,0,166390,166840,1,0
Sprite,Foreground,Centre,"SB\highlight.png",320,240 M,0,166294,,398,178 S,0,166294,,0.7 C,0,166294,,113,162,227 F,1,166294,166444,0,1 P,0,166294,166894,A F,0,166444,166894,1,0
Sprite,Foreground,Centre,"SB\highlight.png",320,240 M,0,166349,,383,181 S,0,166349,,0.7 C,0,166349,,113,162,227 F,1,166349,166499,0,1 P,0,166349,166949,A F,0,166499,166949,1,0
Sprite,Foreground,Centre,"SB\highlight.png",320,240 M,0,166403,,398,178 S,0,166403,,0.7 C,0,166403,,113,162,227 F,1,166403,166553,0,1 P,0,166403,167003,A F,0,166553,167003,1,0
Sprite,Foreground,Centre,"SB\highlight.png",320,240 M,0,166565,,229,132 S,0,166565,,0.7 C,0,166565,,113,162,227 F,1,166565,166715,0,1 P,0,166565,167165,A F,0,166715,167165,1,0
Sprite,Foreground,Centre,"SB\highlight.png",320,240 M,0,166727,,372,270 S,0,166727,,0.7 C,0,166727,,113,162,227 F,1,166727,166877,0,1 P,0,166727,167327,A F,0,166877,167327,1,0
Sprite,Foreground,Centre,"SB\highlight.png",320,240 M,0,166808,,403,265 S,0,166808,,0.7 C,0,166808,,113,162,227 F,1,166808,166958,0,1 P,0,166808,167408,A F,0,166958,167408,1,0
Sprite,Foreground,Centre,"SB\highlight.png",320,240 M,0,166889,,435,262 S,0,166889,,0.7 C,0,166889,,113,162,227 F,1,166889,167039,0,1 P,0,166889,167489,A F,0,167039,167489,1,0
Sprite,Foreground,Centre,"SB\highlight.png",320,240 M,0,167051,,489,189 S,0,167051,,0.7 C,0,167051,,113,162,227 F,1,167051,167201,0,1 P,0,167051,167651,A F,0,167201,167651,1,0
Sprite,Foreground,Centre,"SB\highlight.png",320,240 M,0,167132,,491,157 S,0,167132,,0.7 C,0,167132,,113,162,227 F,1,167132,167282,0,1 P,0,167132,167732,A F,0,167282,167732,1,0
Sprite,Foreground,Centre,"SB\highlight.png",320,240 M,0,167213,,494,125 S,0,167213,,0.7 C,0,167213,,113,162,227 F,1,167213,167363,0,1 P,0,167213,167813,A F,0,167363,167813,1,0
Sprite,Foreground,Centre,"SB\highlight.png",320,240 M,0,171267,,516,226 S,0,171267,,0.7 C,0,171267,,113,162,227 F,1,171267,171417,0,1 P,0,171267,171867,A F,0,171417,171867,1,0
Sprite,Foreground,Centre,"SB\highlight.png",320,240 M,0,171430,,411,177 S,0,171430,,0.7 C,0,171430,,113,162,227 F,1,171430,171580,0,1 P,0,171430,172030,A F,0,171580,172030,1,0
Sprite,Foreground,Centre,"SB\highlight.png",320,240 M,0,171511,,407,145 S,0,171511,,0.7 C,0,171511,,113,162,227 F,1,171511,171661,0,1 P,0,171511,172111,A F,0,171661,172111,1,0
Sprite,Foreground,Centre,"SB\highlight.png",320,240 M,0,171592,,405,113 S,0,171592,,0.7 C,0,171592,,113,162,227 F,1,171592,171742,0,1 P,0,171592,172192,A F,0,171742,172192,1,0
Sprite,Foreground,Centre,"SB\highlight.png",320,240 M,0,171673,,407,145 S,0,171673,,0.7 C,0,171673,,113,162,227 F,1,171673,171823,0,1 P,0,171673,172273,A F,0,171823,172273,1,0
Sprite,Foreground,Centre,"SB\highlight.png",320,240 M,0,171754,,411,177 S,0,171754,,0.7 C,0,171754,,113,162,227 F,1,171754,171904,0,1 P,0,171754,172354,A F,0,171904,172354,1,0
Sprite,Foreground,Centre,"SB\highlight.png",320,240 M,0,171916,,461,326 S,0,171916,,0.7 C,0,171916,,113,162,227 F,1,171916,172066,0,1 P,0,171916,172516,A F,0,172066,172516,1,0
Sprite,Foreground,Centre,"SB\highlight.png",320,240 M,0,172078,,498,192 S,0,172078,,0.7 C,0,172078,,113,162,227 F,1,172078,172228,0,1 P,0,172078,172678,A F,0,172228,172678,1,0
Sprite,Foreground,Centre,"SB\highlight.png",320,240 M,0,172240,,576,274 S,0,172240,,0.7 C,0,172240,,113,162,227 F,1,172240,172390,0,1 P,0,172240,172840,A F,0,172390,172840,1,0
Sprite,Foreground,Centre,"SB\highlight.png",320,240 M,0,172321,,544,269 S,0,172321,,0.7 C,0,172321,,113,162,227 F,1,172321,172471,0,1 P,0,172321,172921,A F,0,172471,172921,1,0
Sprite,Foreground,Centre,"SB\highlight.png",320,240 M,0,172402,,512,266 S,0,172402,,0.7 C,0,172402,,113,162,227 F,1,172402,172552,0,1 P,0,172402,173002,A F,0,172552,173002,1,0
Sprite,Foreground,Centre,"SB\highlight.png",320,240 M,0,245862,,540,132 S,0,245862,,0.7 C,0,245862,,113,162,227 F,1,245862,246012,0,1 P,0,245862,246462,A F,0,246012,246462,1,0
Sprite,Foreground,Centre,"SB\highlight.png",320,240 M,0,245943,,552,169 S,0,245943,,0.7 C,0,245943,,113,162,227 F,1,245943,246093,0,1 P,0,245943,246543,A F,0,246093,246543,1,0
Sprite,Foreground,Centre,"SB\highlight.png",320,240 M,0,246024,,544,208 S,0,246024,,0.7 C,0,246024,,113,162,227 F,1,246024,246174,0,1 P,0,246024,246624,A F,0,246174,246624,1,0
Sprite,Foreground,Centre,"SB\highlight.png",320,240 M,0,246105,,519,239 S,0,246105,,0.7 C,0,246105,,113,162,227 F,1,246105,246255,0,1 P,0,246105,246705,A F,0,246255,246705,1,0
Sprite,Foreground,Centre,"SB\highlight.png",320,240 M,0,246186,,482,253 S,0,246186,,0.7 C,0,246186,,113,162,227 F,1,246186,246336,0,1 P,0,246186,246786,A F,0,246336,246786,1,0
Sprite,Foreground,Centre,"SB\highlight.png",320,240 M,0,246267,,442,258 S,0,246267,,0.7 C,0,246267,,113,162,227 F,1,246267,246417,0,1 P,0,246267,246867,A F,0,246417,246867,1,0
Sprite,Foreground,Centre,"SB\highlight.png",320,240 M,0,246349,,314,259 S,0,246349,,0.7 C,0,246349,,113,162,227 F,1,246349,246499,0,1 P,0,246349,246949,A F,0,246499,246949,1,0
Sprite,Foreground,Centre,"SB\highlight.png",320,240 M,0,246430,,314,259 S,0,246430,,0.7 C,0,246430,,113,162,227 F,1,246430,246580,0,1 P,0,246430,247030,A F,0,246580,247030,1,0
Sprite,Foreground,Centre,"SB\highlight.png",320,240 M,0,270511,,276,172 S,0,270511,,0.7 C,0,270511,,113,162,227 F,1,270511,270661,0,1 P,0,270511,271111,A F,0,270661,271111,1,0
Sprite,Foreground,Centre,"SB\highlight.png",320,240 M,0,270673,,368,376 S,0,270673,,0.7 C,0,270673,,113,162,227 F,1,270673,270823,0,1 P,0,270673,271273,A F,0,270823,271273,1,0
Sprite,Foreground,Centre,"SB\highlight.png",320,240 M,0,270835,,361,216 S,0,270835,,0.7 C,0,270835,,113,162,227 F,1,270835,270985,0,1 P,0,270835,271435,A F,0,270985,271435,1,0
Sprite,Foreground,Centre,"SB\highlight.png",320,240 M,0,270997,,268,424 S,0,270997,,0.7 C,0,270997,,113,162,227 F,1,270997,271147,0,1 P,0,270997,271597,A F,0,271147,271597,1,0
Sprite,Foreground,Centre,"SB\highlight.png",320,240 M,0,305862,,488,396 S,0,305862,,0.7 C,0,305862,,113,162,227 F,1,305862,306012,0,1 P,0,305862,306462,A F,0,306012,306462,1,0
Sprite,Foreground,Centre,"SB\highlight.png",320,240 M,0,305943,,527,398 S,0,305943,,0.7 C,0,305943,,113,162,227 F,1,305943,306093,0,1 P,0,305943,306543,A F,0,306093,306543,1,0
Sprite,Foreground,Centre,"SB\highlight.png",320,240 M,0,306024,,338,312 S,0,306024,,0.7 C,0,306024,,113,162,227 F,1,306024,306174,0,1 P,0,306024,306624,A F,0,306174,306624,1,0
Sprite,Foreground,Centre,"SB\highlight.png",320,240 M,0,306105,,298,309 S,0,306105,,0.7 C,0,306105,,113,162,227 F,1,306105,306255,0,1 P,0,306105,306705,A F,0,306255,306705,1,0
Sprite,Foreground,Centre,"SB\highlight.png",320,240 M,0,324024,,146,116 S,0,324024,,0.7 C,0,324024,,113,162,227 F,1,324024,324174,0,1 P,0,324024,324624,A F,0,324174,324624,1,0
Sprite,Foreground,Centre,"SB\highlight.png",320,240 M,0,324105,,182,131 S,0,324105,,0.7 C,0,324105,,113,162,227 F,1,324105,324255,0,1 P,0,324105,324705,A F,0,324255,324705,1,0
Sprite,Foreground,Centre,"SB\highlight.png",320,240 M,0,324186,,222,132 S,0,324186,,0.7 C,0,324186,,113,162,227 F,1,324186,324336,0,1 P,0,324186,324786,A F,0,324336,324786,1,0
Sprite,Foreground,Centre,"SB\highlight.png",320,240 M,0,324267,,253,118 S,0,324267,,0.7 C,0,324267,,113,162,227 F,1,324267,324417,0,1 P,0,324267,324867,A F,0,324417,324867,1,0
Sprite,Foreground,Centre,"SB\highlight.png",320,240 M,0,147916,,340,302 S,0,147916,,0.7 C,0,147916,,44,245,231 F,1,147916,148066,0,1 P,0,147916,148516,A F,0,148066,148516,1,0
Sprite,Foreground,Centre,"SB\highlight.png",320,240 M,0,147997,,344,333 S,0,147997,,0.7 C,0,147997,,44,245,231 F,1,147997,148147,0,1 P,0,147997,148597,A F,0,148147,148597,1,0
Sprite,Foreground,Centre,"SB\highlight.png",320,240 M,0,148078,,347,365 S,0,148078,,0.7 C,0,148078,,44,245,231 F,1,148078,148228,0,1 P,0,148078,148678,A F,0,148228,148678,1,0
Sprite,Foreground,Centre,"SB\highlight.png",320,240 M,0,148240,,440,207 S,0,148240,,0.7 C,0,148240,,44,245,231 F,1,148240,148390,0,1 P,0,148240,148840,A F,0,148390,148840,1,0
Sprite,Foreground,Centre,"SB\highlight.png",320,240 M,0,148403,,520,336 S,0,148403,,0.7 C,0,148403,,44,245,231 F,1,148403,148553,0,1 P,0,148403,149003,A F,0,148553,149003,1,0
Sprite,Foreground,Centre,"SB\highlight.png",320,240 M,0,148484,,520,336 S,0,148484,,0.7 C,0,148484,,44,245,231 F,1,148484,148634,0,1 P,0,148484,149084,A F,0,148634,149084,1,0
Sprite,Foreground,Centre,"SB\highlight.png",320,240 M,0,148565,,520,336 S,0,148565,,0.7 C,0,148565,,44,245,231 F,1,148565,148715,0,1 P,0,148565,149165,A F,0,148715,149165,1,0
Sprite,Foreground,Centre,"SB\highlight.png",320,240 M,0,148727,,519,131 S,0,148727,,0.7 C,0,148727,,44,245,231 F,1,148727,148877,0,1 P,0,148727,149327,A F,0,148877,149327,1,0
Sprite,Foreground,Centre,"SB\highlight.png",320,240 M,0,148889,,547,258 S,0,148889,,0.7 C,0,148889,,44,245,231 F,1,148889,149039,0,1 P,0,148889,149489,A F,0,149039,149489,1,0
Sprite,Foreground,Centre,"SB\highlight.png",320,240 M,0,149051,,340,302 S,0,149051,,0.7 C,0,149051,,44,245,231 F,1,149051,149201,0,1 P,0,149051,149651,A F,0,149201,149651,1,0
Sprite,Foreground,Centre,"SB\highlight.png",320,240 M,0,149132,,340,302 S,0,149132,,0.7 C,0,149132,,44,245,231 F,1,149132,149282,0,1 P,0,149132,149732,A F,0,149282,149732,1,0
Sprite,Foreground,Centre,"SB\highlight.png",320,240 M,0,153105,,414,116 S,0,153105,,0.7 C,0,153105,,44,245,231 F,1,153105,153255,0,1 P,0,153105,153705,A F,0,153255,153705,1,0
Sprite,Foreground,Centre,"SB\highlight.png",320,240 M,0,153267,,340,302 S,0,153267,,0.7 C,0,153267,,44,245,231 F,1,153267,153417,0,1 P,0,153267,153867,A F,0,153417,153867,1,0
Sprite,Foreground,Centre,"SB\highlight.png",320,240 M,0,153430,,335,151 S,0,153430,,0.7 C,0,153430,,44,245,231 F,1,153430,153580,0,1 P,0,153430,154030,A F,0,153580,154030,1,0
Sprite,Foreground,Centre,"SB\highlight.png",320,240 M,0,153511,,337,182 S,0,153511,,0.7 C,0,153511,,44,245,231 F,1,153511,153661,0,1 P,0,153511,154111,A F,0,153661,154111,1,0
Sprite,Foreground,Centre,"SB\highlight.png",320,240 M,0,153592,,339,214 S,0,153592,,0.7 C,0,153592,,44,245,231 F,1,153592,153742,0,1 P,0,153592,154192,A F,0,153742,154192,1,0
Sprite,Foreground,Centre,"SB\highlight.png",320,240 M,0,156997,,88,418 S,0,156997,,0.7 C,0,156997,,44,245,231 F,1,156997,157147,0,1 P,0,156997,157597,A F,0,157147,157597,1,0
Sprite,Foreground,Centre,"SB\highlight.png",320,240 M,0,157078,,119,414 S,0,157078,,0.7 C,0,157078,,44,245,231 F,1,157078,157228,0,1 P,0,157078,157678,A F,0,157228,157678,1,0
Sprite,Foreground,Centre,"SB\highlight.png",320,240 M,0,157159,,151,411 S,0,157159,,0.7 C,0,157159,,44,245,231 F,1,157159,157309,0,1 P,0,157159,157759,A F,0,157309,157759,1,0
Sprite,Foreground,Centre,"SB\highlight.png",320,240 M,0,157240,,183,408 S,0,157240,,0.7 C,0,157240,,44,245,231 F,1,157240,157390,0,1 P,0,157240,157840,A F,0,157390,157840,1,0
Sprite,Foreground,Centre,"SB\highlight.png",320,240 M,0,157321,,215,405 S,0,157321,,0.7 C,0,157321,,44,245,231 F,1,157321,157471,0,1 P,0,157321,157921,A F,0,157471,157921,1,0
Sprite,Foreground,Centre,"SB\highlight.png",320,240 M,0,157484,,340,302 S,0,157484,,0.7 C,0,157484,,44,245,231 F,1,157484,157634,0,1 P,0,157484,158084,A F,0,157634,158084,1,0
Sprite,Foreground,Centre,"SB\highlight.png",320,240 M,0,157646,,194,291 S,0,157646,,0.7 C,0,157646,,44,245,231 F,1,157646,157796,0,1 P,0,157646,158246,A F,0,157796,158246,1,0
Sprite,Foreground,Centre,"SB\highlight.png",320,240 M,0,157727,,225,293 S,0,157727,,0.7 C,0,157727,,44,245,231 F,1,157727,157877,0,1 P,0,157727,158327,A F,0,157877,158327,1,0
Sprite,Foreground,Centre,"SB\highlight.png",320,240 M,0,157808,,257,294 S,0,157808,,0.7 C,0,157808,,44,245,231 F,1,157808,157958,0,1 P,0,157808,158408,A F,0,157958,158408,1,0
Sprite,Foreground,Centre,"SB\highlight.png",320,240 M,0,157970,,402,370 S,0,157970,,0.7 C,0,157970,,44,245,231 F,1,157970,158120,0,1 P,0,157970,158570,A F,0,158120,158570,1,0
Sprite,Foreground,Centre,"SB\highlight.png",320,240 M,0,158051,,402,370 S,0,158051,,0.7 C,0,158051,,44,245,231 F,1,158051,158201,0,1 P,0,158051,158651,A F,0,158201,158651,1,0
Sprite,Foreground,Centre,"SB\highlight.png",320,240 M,0,158132,,402,370 S,0,158132,,0.7 C,0,158132,,44,245,231 F,1,158132,158282,0,1 P,0,158132,158732,A F,0,158282,158732,1,0
Sprite,Foreground,Centre,"SB\highlight.png",320,240 M,0,162186,,383,83 S,0,162186,,0.7 C,0,162186,,44,245,231 F,1,162186,162336,0,1 P,0,162186,162786,A F,0,162336,162786,1,0
Sprite,Foreground,Centre,"SB\highlight.png",320,240 M,0,162267,,385,114 S,0,162267,,0.7 C,0,162267,,44,245,231 F,1,162267,162417,0,1 P,0,162267,162867,A F,0,162417,162867,1,0
Sprite,Foreground,Centre,"SB\highlight.png",320,240 M,0,162348,,387,146 S,0,162348,,0.7 C,0,162348,,44,245,231 F,1,162348,162498,0,1 P,0,162348,162948,A F,0,162498,162948,1,0
Sprite,Foreground,Centre,"SB\highlight.png",320,240 M,0,162429,,389,178 S,0,162429,,0.7 C,0,162429,,44,245,231 F,1,162429,162579,0,1 P,0,162429,163029,A F,0,162579,163029,1,0
Sprite,Foreground,Centre,"SB\highlight.png",320,240 M,0,162510,,390,210 S,0,162510,,0.7 C,0,162510,,44,245,231 F,1,162510,162660,0,1 P,0,162510,163110,A F,0,162660,163110,1,0
Sprite,Foreground,Centre,"SB\highlight.png",320,240 M,0,162673,,559,205 S,0,162673,,0.7 C,0,162673,,44,245,231 F,1,162673,162823,0,1 P,0,162673,163273,A F,0,162823,163273,1,0
Sprite,Foreground,Centre,"SB\highlight.png",320,240 M,0,162754,,528,211 S,0,162754,,0.7 C,0,162754,,44,245,231 F,1,162754,162904,0,1 P,0,162754,163354,A F,0,162904,163354,1,0
Sprite,Foreground,Centre,"SB\highlight.png",320,240 M,0,162835,,499,199 S,0,162835,,0.7 C,0,162835,,44,245,231 F,1,162835,162985,0,1 P,0,162835,163435,A F,0,162985,163435,1,0
Sprite,Foreground,Centre,"SB\highlight.png",320,240 M,0,162916,,482,172 S,0,162916,,0.7 C,0,162916,,44,245,231 F,1,162916,163066,0,1 P,0,162916,163516,A F,0,163066,163516,1,0
Sprite,Foreground,Centre,"SB\highlight.png",320,240 M,0,162997,,483,140 S,0,162997,,0.7 C,0,162997,,44,245,231 F,1,162997,163147,0,1 P,0,162997,163597,A F,0,163147,163597,1,0
Sprite,Foreground,Centre,"SB\highlight.png",320,240 M,0,163159,,328,210 S,0,163159,,0.7 C,0,163159,,44,245,231 F,1,163159,163309,0,1 P,0,163159,163759,A F,0,163309,163759,1,0
Sprite,Foreground,Centre,"SB\highlight.png",320,240 M,0,163240,,359,204 S,0,163240,,0.7 C,0,163240,,44,245,231 F,1,163240,163390,0,1 P,0,163240,163840,A F,0,163390,163840,1,0
Sprite,Foreground,Centre,"SB\highlight.png",320,240 M,0,163321,,390,210 S,0,163321,,0.7 C,0,163321,,44,245,231 F,1,163321,163471,0,1 P,0,163321,163921,A F,0,163471,163921,1,0
Sprite,Foreground,Centre,"SB\highlight.png",320,240 M,0,163376,,417,238 S,0,163376,,0.7 C,0,163376,,44,245,231 F,1,163376,163526,0,1 P,0,163376,163976,A F,0,163526,163976,1,0
Sprite,Foreground,Centre,"SB\highlight.png",320,240 M,0,163430,,419,259 S,0,163430,,0.7 C,0,163430,,44,245,231 F,1,163430,163580,0,1 P,0,163430,164030,A F,0,163580,164030,1,0
Sprite,Foreground,Centre,"SB\highlight.png",320,240 M,0,163484,,417,238 S,0,163484,,0.7 C,0,163484,,44,245,231 F,1,163484,163634,0,1 P,0,163484,164084,A F,0,163634,164084,1,0
Sprite,Foreground,Centre,"SB\highlight.png",320,240 M,0,167376,,509,286 S,0,167376,,0.7 C,0,167376,,44,245,231 F,1,167376,167526,0,1 P,0,167376,167976,A F,0,167526,167976,1,0
Sprite,Foreground,Centre,"SB\highlight.png",320,240 M,0,167538,,476,362 S,0,167538,,0.7 C,0,167538,,44,245,231 F,1,167538,167688,0,1 P,0,167538,168138,A F,0,167688,168138,1,0
Sprite,Foreground,Centre,"SB\highlight.png",320,240 M,0,167619,,445,352 S,0,167619,,0.7 C,0,167619,,44,245,231 F,1,167619,167769,0,1 P,0,167619,168219,A F,0,167769,168219,1,0
Sprite,Foreground,Centre,"SB\highlight.png",320,240 M,0,167700,,413,348 S,0,167700,,0.7 C,0,167700,,44,245,231 F,1,167700,167850,0,1 P,0,167700,168300,A F,0,167850,168300,1,0
Sprite,Foreground,Centre,"SB\highlight.png",320,240 M,0,167781,,445,352 S,0,167781,,0.7 C,0,167781,,44,245,231 F,1,167781,167931,0,1 P,0,167781,168381,A F,0,167931,168381,1,0
Sprite,Foreground,Centre,"SB\highlight.png",320,240 M,0,167862,,476,362 S,0,167862,,0.7 C,0,167862,,44,245,231 F,1,167862,168012,0,1 P,0,167862,168462,A F,0,168012,168462,1,0
Sprite,Foreground,Centre,"SB\highlight.png",320,240 M,0,168024,,367,422 S,0,168024,,0.7 C,0,168024,,44,245,231 F,1,168024,168174,0,1 P,0,168024,168624,A F,0,168174,168624,1,0
Sprite,Foreground,Centre,"SB\highlight.png",320,240 M,0,168186,,414,349 S,0,168186,,0.7 C,0,168186,,44,245,231 F,1,168186,168336,0,1 P,0,168186,168786,A F,0,168336,168786,1,0
Sprite,Foreground,Centre,"SB\highlight.png",320,240 M,0,168349,,365,232 S,0,168349,,0.7 C,0,168349,,44,245,231 F,1,168349,168499,0,1 P,0,168349,168949,A F,0,168499,168949,1,0
Sprite,Foreground,Centre,"SB\highlight.png",320,240 M,0,168511,,383,318 S,0,168511,,0.7 C,0,168511,,44,245,231 F,1,168511,168661,0,1 P,0,168511,169111,A F,0,168661,169111,1,0
Sprite,Foreground,Centre,"SB\highlight.png",320,240 M,0,172565,,423,354 S,0,172565,,0.7 C,0,172565,,44,245,231 F,1,172565,172715,0,1 P,0,172565,173165,A F,0,172715,173165,1,0
Sprite,Foreground,Centre,"SB\highlight.png",320,240 M,0,172646,,423,322 S,0,172646,,0.7 C,0,172646,,44,245,231 F,1,172646,172796,0,1 P,0,172646,173246,A F,0,172796,173246,1,0
Sprite,Foreground,Centre,"SB\highlight.png",320,240 M,0,172727,,413,291 S,0,172727,,0.7 C,0,172727,,44,245,231 F,1,172727,172877,0,1 P,0,172727,173327,A F,0,172877,173327,1,0
Sprite,Foreground,Centre,"SB\highlight.png",320,240 M,0,172808,,393,266 S,0,172808,,0.7 C,0,172808,,44,245,231 F,1,172808,172958,0,1 P,0,172808,173408,A F,0,172958,173408,1,0
Sprite,Foreground,Centre,"SB\highlight.png",320,240 M,0,172889,,367,249 S,0,172889,,0.7 C,0,172889,,44,245,231 F,1,172889,173039,0,1 P,0,172889,173489,A F,0,173039,173489,1,0
Sprite,Foreground,Centre,"SB\highlight.png",320,240 M,0,173051,,301,199 S,0,173051,,0.7 C,0,173051,,44,245,231 F,1,173051,173201,0,1 P,0,173051,173651,A F,0,173201,173651,1,0
Sprite,Foreground,Centre,"SB\highlight.png",320,240 M,0,173213,,215,286 S,0,173213,,0.7 C,0,173213,,44,245,231 F,1,173213,173363,0,1 P,0,173213,173813,A F,0,173363,173813,1,0
Sprite,Foreground,Centre,"SB\highlight.png",320,240 M,0,173294,,219,254 S,0,173294,,0.7 C,0,173294,,44,245,231 F,1,173294,173444,0,1 P,0,173294,173894,A F,0,173444,173894,1,0
Sprite,Foreground,Centre,"SB\highlight.png",320,240 M,0,173375,,223,222 S,0,173375,,0.7 C,0,173375,,44,245,231 F,1,173375,173525,0,1 P,0,173375,173975,A F,0,173525,173975,1,0
Sprite,Foreground,Centre,"SB\highlight.png",320,240 M,0,173538,,151,119 S,0,173538,,0.7 C,0,173538,,44,245,231 F,1,173538,173688,0,1 P,0,173538,174138,A F,0,173688,174138,1,0
Sprite,Foreground,Centre,"SB\highlight.png",320,240 M,0,173592,,129,120 S,0,173592,,0.7 C,0,173592,,44,245,231 F,1,173592,173742,0,1 P,0,173592,174192,A F,0,173742,174192,1,0
Sprite,Foreground,Centre,"SB\highlight.png",320,240 M,0,173646,,151,119 S,0,173646,,0.7 C,0,173646,,44,245,231 F,1,173646,173796,0,1 P,0,173646,174246,A F,0,173796,174246,1,0
Sprite,Foreground,Centre,"SB\highlight.png",320,240 M,0,173700,,129,120 S,0,173700,,0.7 C,0,173700,,44,245,231 F,1,173700,173850,0,1 P,0,173700,174300,A F,0,173850,174300,1,0
Sprite,Foreground,Centre,"SB\highlight.png",320,240 M,0,267267,,461,114 S,0,267267,,0.7 C,0,267267,,44,245,231 F,1,267267,267417,0,1 P,0,267267,267867,A F,0,267417,267867,1,0
Sprite,Foreground,Centre,"SB\highlight.png",320,240 M,0,267348,,463,153 S,0,267348,,0.7 C,0,267348,,44,245,231 F,1,267348,267498,0,1 P,0,267348,267948,A F,0,267498,267948,1,0
Sprite,Foreground,Centre,"SB\highlight.png",320,240 M,0,267429,,465,193 S,0,267429,,0.7 C,0,267429,,44,245,231 F,1,267429,267579,0,1 P,0,267429,268029,A F,0,267579,268029,1,0
Sprite,Foreground,Centre,"SB\highlight.png",320,240 M,0,267592,,568,276 S,0,267592,,0.7 C,0,267592,,44,245,231 F,1,267592,267742,0,1 P,0,267592,268192,A F,0,267742,268192,1,0
Sprite,Foreground,Centre,"SB\highlight.png",320,240 M,0,267754,,362,252 S,0,267754,,0.7 C,0,267754,,44,245,231 F,1,267754,267904,0,1 P,0,267754,268354,A F,0,267904,268354,1,0
Sprite,Foreground,Centre,"SB\highlight.png",320,240 M,0,267835,,322,251 S,0,267835,,0.7 C,0,267835,,44,245,231 F,1,267835,267985,0,1 P,0,267835,268435,A F,0,267985,268435,1,0
Sprite,Foreground,Centre,"SB\highlight.png",320,240 M,0,267916,,282,254 S,0,267916,,0.7 C,0,267916,,44,245,231 F,1,267916,268066,0,1 P,0,267916,268516,A F,0,268066,268516,1,0
Sprite,Foreground,Centre,"SB\highlight.png",320,240 M,0,268078,,176,192 S,0,268078,,0.7 C,0,268078,,44,245,231 F,1,268078,268228,0,1 P,0,268078,268678,A F,0,268228,268678,1,0
Sprite,Foreground,Centre,"SB\highlight.png",320,240 M,0,268240,,96,292 S,0,268240,,0.7 C,0,268240,,44,245,231 F,1,268240,268390,0,1 P,0,268240,268840,A F,0,268390,268840,1,0
Sprite,Foreground,Centre,"SB\highlight.png",320,240 M,0,268321,,100,331 S,0,268321,,0.7 C,0,268321,,44,245,231 F,1,268321,268471,0,1 P,0,268321,268921,A F,0,268471,268921,1,0
Sprite,Foreground,Centre,"SB\highlight.png",320,240 M,0,268402,,103,371 S,0,268402,,0.7 C,0,268402,,44,245,231 F,1,268402,268552,0,1 P,0,268402,269002,A F,0,268552,269002,1,0
Sprite,Foreground,Centre,"SB\highlight.png",320,240 M,0,271159,,128,338 S,0,271159,,0.7 C,0,271159,,44,245,231 F,1,271159,271309,0,1 P,0,271159,271759,A F,0,271309,271759,1,0
Sprite,Foreground,Centre,"SB\highlight.png",320,240 M,0,271240,,143,301 S,0,271240,,0.7 C,0,271240,,44,245,231 F,1,271240,271390,0,1 P,0,271240,271840,A F,0,271390,271840,1,0
Sprite,Foreground,Centre,"SB\highlight.png",320,240 M,0,271321,,173,276 S,0,271321,,0.7 C,0,271321,,44,245,231 F,1,271321,271471,0,1 P,0,271321,271921,A F,0,271471,271921,1,0
Sprite,Foreground,Centre,"SB\highlight.png",320,240 M,0,271402,,212,269 S,0,271402,,0.7 C,0,271402,,44,245,231 F,1,271402,271552,0,1 P,0,271402,272002,A F,0,271552,272002,1,0
Sprite,Foreground,Centre,"SB\highlight.png",320,240 M,0,271483,,250,282 S,0,271483,,0.7 C,0,271483,,44,245,231 F,1,271483,271633,0,1 P,0,271483,272083,A F,0,271633,272083,1,0
Sprite,Foreground,Centre,"SB\highlight.png",320,240 M,0,271564,,276,311 S,0,271564,,0.7 C,0,271564,,44,245,231 F,1,271564,271714,0,1 P,0,271564,272164,A F,0,271714,272164,1,0
Sprite,Foreground,Centre,"SB\highlight.png",320,240 M,0,271646,,308,345 S,0,271646,,0.7 C,0,271646,,44,245,231 F,1,271646,271796,0,1 P,0,271646,272246,A F,0,271796,272246,1,0
Sprite,Foreground,Centre,"SB\highlight.png",320,240 M,0,271727,,353,351 S,0,271727,,0.7 C,0,271727,,44,245,231 F,1,271727,271877,0,1 P,0,271727,272327,A F,0,271877,272327,1,0
Sprite,Foreground,Centre,"SB\highlight.png",320,240 M,0,271808,,393,328 S,0,271808,,0.7 C,0,271808,,44,245,231 F,1,271808,271958,0,1 P,0,271808,272408,A F,0,271958,272408,1,0
Sprite,Foreground,Centre,"SB\highlight.png",320,240 M,0,271889,,410,286 S,0,271889,,0.7 C,0,271889,,44,245,231 F,1,271889,272039,0,1 P,0,271889,272489,A F,0,272039,272489,1,0
Sprite,Foreground,Centre,"SB\highlight.png",320,240 M,0,271970,,397,242 S,0,271970,,0.7 C,0,271970,,44,245,231 F,1,271970,272120,0,1 P,0,271970,272570,A F,0,272120,272570,1,0
Sprite,Foreground,Centre,"SB\highlight.png",320,240 M,0,272051,,360,216 S,0,272051,,0.7 C,0,272051,,44,245,231 F,1,272051,272201,0,1 P,0,272051,272651,A F,0,272201,272651,1,0
//Storyboard Sound Samples

[TimingPoints]
1322,324.324324324324,4,2,2,40,1,0
21754,-125,4,2,2,40,0,0
40240,-125,4,2,2,60,0,0
41700,-125,4,2,2,20,0,0
42511,-125,4,2,2,60,0,0
42835,-111.111111111111,4,2,2,60,0,0
52889,-166.666666666667,4,2,1,60,0,0
53213,-100,4,2,1,80,0,0
61646,-100,4,2,1,90,0,0
61970,-100,4,2,1,100,0,0
62619,-125,4,2,1,80,0,0
63105,-83.3333333333333,4,2,1,80,0,0
63592,-125,4,2,1,60,0,0
84349,-100,4,2,1,80,0,0
86943,-100,4,2,1,90,0,0
88240,-100,4,2,1,100,0,0
89213,-166.666666666667,4,2,1,100,0,0
89538,-125,4,2,1,60,0,0
103808,-100,4,2,1,60,0,0
104132,-125,4,2,1,60,0,0
104457,-125,4,3,2,60,0,0
104619,-125,4,2,1,60,0,0
105105,-100,4,2,1,80,0,1
144024,-125,4,2,1,60,0,0
164781,-125,4,2,1,40,0,0
167376,-125,4,2,1,45,0,0
169970,-125,4,2,1,50,0,0
172565,-125,4,2,1,55,0,0
175159,-125,4,2,1,60,0,0
186835,-125,4,2,1,60,0,0
207267,-166.666666666667,4,2,1,60,0,0
207592,-100,4,2,1,80,0,0
210186,-100,4,2,1,90,0,0
211483,-100,4,2,1,100,0,0
212457,-166.666666666667,4,2,1,100,0,0
212781,-125,4,2,1,60,0,0
227051,-100,4,2,1,60,0,0
227375,-166.666666666667,4,2,1,60,0,0
227700,-166.666666666667,4,3,2,60,0,0
227862,-166.666666666667,4,2,1,60,0,0
228349,-100,4,2,1,80,0,1
267267,-100,4,2,1,80,0,0
269862,-100,4,2,1,90,0,0
271159,-100,4,2,1,100,0,0
272132,-166.666666666667,4,2,1,100,0,0
272457,-125,4,2,1,60,0,0
287051,-166.666666666667,4,2,1,60,0,0
287376,-166.666666666667,4,3,2,60,0,0
287538,-166.666666666667,4,2,1,60,0,0
288024,-100,4,2,1,80,0,1
306186,-100,4,2,1,80,0,0
324349,-100,4,2,1,80,0,1
345105,-295,4,2,2,60,0,0
347700,-295,4,2,2,50,0,0
350294,-295,4,2,2,40,0,0
352889,-295,4,2,2,20,0,0

[Colours]
Combo1 : 44,245,231
Combo2 : 174,174,255
Combo3 : 158,232,23
Combo4 : 113,162,227

[HitObjects]
140,156,21754,6,0,L|136:188,3,32
168,128,22078,6,0,P|220:108|300:128,1,128,8|0,3:1|3:0,0:0:0:0:
368,184,22565,1,0,0:0:0:0:
408,56,22727,1,0,3:0:0:0:
408,56,23051,1,0,3:0:0:0:
460,144,23213,6,0,P|452:208|452:272,1,128,0|0,0:0|0:0,0:0:0:0:
368,332,23700,1,0,3:0:0:0:
368,332,24024,1,0,3:0:0:0:
368,332,24349,1,0,3:0:0:0:
408,204,24511,1,0,0:0:0:0:
312,244,24673,6,0,P|248:256|184:224,2,128,0|0|0,3:0|3:0|3:0,0:0:0:0:
312,244,25646,1,0,3:0:0:0:
260,156,25808,1,0,0:0:0:0:
92,252,25970,5,0,3:0:0:0:
92,252,26294,1,0,3:0:0:0:
92,252,26619,1,0,3:0:0:0:
92,252,26943,1,0,3:0:0:0:
92,252,27267,6,0,P|88:184|76:116,1,128,8|0,3:1|3:0,0:0:0:0:
124,32,27754,1,0,0:0:0:0:
200,100,27916,2,0,P|236:108|280:104,1,64,0|0,3:0|0:0,0:0:0:0:
296,88,28159,1,0,0:0:0:0:
296,88,28240,2,0,L|300:164,1,64,0|0,3:0|0:0,0:0:0:0:
396,116,28565,6,0,P|388:188|384:264,1,128,0|0,3:0|3:0,0:0:0:0:
204,340,29213,2,0,P|132:332|56:328,1,128,0|0,3:0|3:0,0:0:0:0:
32,236,29700,1,0,0:0:0:0:
168,128,29862,5,0,3:0:0:0:
168,128,30186,1,0,3:0:0:0:
168,128,30511,1,0,3:0:0:0:
168,128,30835,1,0,3:0:0:0:
168,128,31159,6,0,L|164:212,2,64,0|0|0,3:0|0:0|3:0,0:0:0:0:
244,60,31646,1,0,0:0:0:0:
244,60,31727,1,0,0:0:0:0:
244,60,31808,2,0,L|252:123,1,64,0|0,3:0|0:0,0:0:0:0:
336,16,32132,2,0,L|360:96,1,64,0|0,3:0|0:0,0:0:0:0:
439,132,32457,6,0,P|429:178|424:226,2,96,0|8|0,3:0|0:1|0:0,0:0:0:0:
492,304,33105,1,0,3:0:0:0:
456,322,33186,1,0,0:0:0:0:
417,327,33267,1,0,0:0:0:0:
378,317,33348,1,0,0:0:0:0:
346,294,33430,2,0,P|328:260|320:224,1,64,0|0,3:0|0:0,0:0:0:0:
320,136,33754,5,2,3:2:0:0:
232,188,33916,2,0,P|204:192|140:184,1,64,0|2,0:0|3:2,0:0:0:0:
84,132,34240,1,0,0:0:0:0:
20,212,34403,2,0,L|28:276,1,64,2|0,3:2|0:0,0:0:0:0:
128,284,34727,2,0,P|140:320|144:348,1,64,2|0,3:2|0:0,0:0:0:0:
313,299,35051,6,0,L|320:236,1,64,2|0,3:2|0:0,0:0:0:0:
439,132,35376,2,0,L|431:195,1,64,2|0,3:2|0:0,0:0:0:0:
292,293,35700,6,0,L|320:235,1,64,2|0,3:2|0:0,0:0:0:0:
459,138,36024,2,0,L|430:195,1,64,2|0,3:2|0:0,0:0:0:0:
273,279,36349,6,0,L|319:235,1,64,2|0,3:2|0:0,0:0:0:0:
476,152,36674,2,0,L|429:195,1,64,2|0,3:2|0:0,0:0:0:0:
262,260,36997,6,0,L|320:234,1,64,2|0,3:2|0:0,0:0:0:0:
488,170,37322,2,0,L|429:195,1,64,2|0,3:2|0:0,0:0:0:0:
344,140,37646,6,0,P|280:128|208:136,1,128,0|0,3:0|3:0,0:0:0:0:
41,230,38132,2,0,P|105:235|168:224,1,128,0|0,0:0|0:0,0:0:0:0:
344,140,38619,6,0,P|281:122|208:123,1,128,0|0,3:0|3:0,0:0:0:0:
41,230,39105,2,0,P|104:229|166:211,1,128,0|0,0:0|0:0,0:0:0:0:
218,122,39592,6,0,L|222:50,1,64,2|0,3:2|0:0,0:0:0:0:
166,211,39916,2,0,L|169:274,1,64,2|0,3:2|0:0,0:0:0:0:
346,294,40240,5,2,3:2:0:0:
218,122,40403,1,0,0:0:0:0:
248,364,40565,1,2,3:2:0:0:
304,188,40727,1,0,0:0:0:0:
169,274,40889,1,2,3:2:0:0:
303,99,41051,1,0,0:0:0:0:
346,294,41213,1,2,3:2:0:0:
140,156,41376,1,0,0:0:0:0:
408,56,41538,5,2,3:2:0:0:
169,274,41700,2,0,L|178:244,3,21.3333333333333,2|0|0|2,0:3|0:0|0:0|3:2,0:0:0:0:
280,172,42024,2,0,L|273:192,3,21.3333333333333,2|0|0|2,0:3|0:0|0:0|3:2,0:0:0:0:
346,294,42349,2,0,L|352:273,2,21.3333333333333,2|0|0,0:3|0:0|0:0,0:0:0:0:
407,273,42511,6,0,L|415:241,3,32,2|2|2|2,3:2|0:0|0:0|0:0,0:0:0:0:
424,200,42835,6,0,P|412:120|440:64,1,143.999995605469,2|0,3:2|3:0,0:0:0:0:
300,8,43321,1,2,0:0:0:0:
300,8,43484,2,0,P|312:40|316:88,1,71.9999978027344,0|0,3:0|0:0,0:0:0:0:
236,136,43808,2,0,P|196:140|156:124,1,71.9999978027344,0|0,3:0|0:0,0:0:0:0:
48,43,44132,6,0,P|72:116|80:184,1,143.999995605469,2|0,3:2|3:0,0:0:0:0:
8,252,44619,1,2,0:0:0:0:
8,252,44781,2,0,P|72:284|156:248,1,143.999995605469,0|0,3:0|3:0,0:0:0:0:
216,332,45267,1,0,0:0:0:0:
296,268,45430,6,0,P|284:200|280:116,1,143.999995605469,2|0,3:2|3:0,0:0:0:0:
360,60,45916,1,2,0:0:0:0:
448,108,46078,2,0,P|444:148|444:192,1,71.9999978027344,0|0,3:0|0:0,0:0:0:0:
400,336,46403,1,0,3:0:0:0:
372,244,46565,1,2,0:0:0:0:
372,244,46646,1,2,0:0:0:0:
372,244,46727,6,0,L|212:248,1,143.999995605469,2|0,3:2|3:0,0:0:0:0:
48,272,47213,1,2,0:0:0:0:
128,336,47376,2,0,P|163:343|199:344,1,71.9999978027344,0|0,3:0|0:0,0:0:0:0:
304,188,47700,1,2,3:2:0:0:
268,160,47781,1,2,0:0:0:0:
225,152,47862,1,2,0:0:0:0:
182,164,47943,1,2,0:0:0:0:
149,194,48024,6,0,B|128:156|148:112|148:112|136:84|136:56,1,143.999995605469,2|0,3:2|3:0,0:0:0:0:
300,8,48511,1,2,0:0:0:0:
300,8,48674,2,0,P|308:40|296:96,1,71.9999978027344,0|0,3:0|0:0,0:0:0:0:
304,188,48998,2,0,L|316:268,1,71.9999978027344,0|0,3:0|0:0,0:0:0:0:
203,382,49322,6,0,P|204:310|216:240,1,143.999995605469,2|0,3:2|3:0,0:0:0:0:
388,320,49809,1,2,0:0:0:0:
387,320,49970,2,0,P|324:351|256:332,1,143.999995605469,0|0,3:0|3:0,0:0:0:0:
60,292,50619,6,0,P|48:224|44:140,1,143.999995605469,2|0,3:2|3:0,0:0:0:0:
140,120,51105,1,2,0:0:0:0:
184,28,51268,2,0,P|148:20|100:28,1,71.9999978027344,0|0,3:0|0:0,0:0:0:0:
116,220,51593,1,0,3:0:0:0:
216,352,51754,1,2,0:0:0:0:
216,352,51835,1,2,0:0:0:0:
216,352,51917,6,0,P|220:300|220:224,1,107.999996704102,2|0,3:2|0:0,0:0:0:0:
196,208,52240,1,0,3:0:0:0:
128,304,52403,1,0,0:0:0:0:
308,220,52565,2,0,L|300:144,1,71.9999978027344,0|2,3:0|0:0,0:0:0:0:
296,140,52781,1,0,0:0:0:0:
292,132,52835,1,0,0:0:0:0:
288,124,52889,6,0,P|284:80|296:36,1,71.9999978027344,2|0,0:3|0:0,0:0:0:0:
451,8,53213,6,0,P|410:73|432:147,1,160,2|0,3:2|0:3,0:0:0:0:
504,88,53700,1,2,0:0:0:0:
376,224,53862,2,0,P|384:264|388:312,1,80,0|0,3:0|0:0,0:0:0:0:
300,148,54187,2,0,P|222:152|132:140,1,160,0|2,0:0|3:2,0:0:0:0:
14,172,54673,6,0,L|10:151,3,20
23,115,54835,2,0,L|16:78,3,20
30,57,54998,1,2,0:0:0:0:
112,236,55160,2,0,P|192:228|236:164,1,160,0|0,3:0|0:0,0:0:0:0:
216,328,55646,1,0,0:0:0:0:
328,280,55808,6,0,P|316:212|312:116,1,160,2|0,3:2|0:0,0:0:0:0:
324,8,56295,1,2,0:0:0:0:
160,120,56457,2,0,P|148:160|153:199,1,80,0|0,3:0|0:0,0:0:0:0:
216,328,56782,1,0,0:0:0:0:
216,328,56862,1,0,0:0:0:0:
216,328,56944,1,2,0:0:0:0:
216,328,57025,1,2,0:0:0:0:
216,327,57105,6,0,P|281:287|355:310,1,160,2|0,3:2|0:0,0:0:0:0:
120,384,57592,2,0,P|108:344|108:304,1,80,2|0,0:0|3:0,0:0:0:0:
279,158,57916,1,2,0:0:0:0:
244,177,57997,1,2,0:0:0:0:
205,181,58078,1,2,0:0:0:0:
167,168,58159,1,2,0:0:0:0:
139,140,58241,1,2,0:0:0:0:
101,127,58322,1,2,0:0:0:0:
62,131,58403,6,0,L|72:224,1,80,2|0,3:2|0:0,0:0:0:0:
116,20,58727,1,0,3:0:0:0:
216,88,58889,2,0,L|224:8,1,80,2|0,0:0|3:0,0:0:0:0:
167,168,59213,1,0,0:0:0:0:
279,158,59376,2,0,L|289:251,1,80,2|0,3:2|0:0,0:0:0:0:
333,47,59700,6,0,L|424:52,1,80,2|0,3:2|0:0,0:0:0:0:
216,88,60024,1,0,3:0:0:0:
287,237,60186,2,0,L|378:242,1,80,2|0,0:0|3:0,0:0:0:0:
167,168,60510,1,0,0:0:0:0:
184,280,60673,2,0,L|176:368,1,80,2|0,3:2|0:0,0:0:0:0:
279,158,60997,5,2,3:2:0:0:
176,359,61159,1,0,3:0:0:0:
366,241,61321,1,0,3:0:0:0:
62,131,61484,1,2,3:2:0:0:
184,280,61646,5,2,3:2:0:0:
226,264,61727,1,0,0:0:0:0:
271,261,61808,1,0,3:0:0:0:
314,272,61889,1,0,0:0:0:0:
353,295,61970,1,0,3:0:0:0:
385,317,62051,1,0,0:0:0:0:
421,304,62132,1,0,3:0:0:0:
430,266,62213,1,0,0:0:0:0:
406,237,62294,5,0,3:0:0:0:
406,237,62619,2,0,P|396:176|396:96,1,128,2|2,0:0|0:0,0:0:0:0:
388,106,62997,1,2,0:0:0:0:
382,103,63051,1,2,0:0:0:0:
376,100,63105,6,0,L|276:104,1,95.9999970703126,0|8,3:0|1:2,0:0:0:0:
91,169,63592,6,0,P|152:158|207:189,1,128,4|8,3:2|0:0,0:0:0:0:
256,292,64078,1,0,0:0:0:0:
406,237,64240,2,0,P|366:234|324:231,1,64,0|0,0:0|3:0,0:0:0:0:
280,311,64565,2,0,P|285:364|287:386,1,64,8|0,0:0|0:0,0:0:0:0:
323,207,64889,6,0,L|311:58,1,128,0|8,3:0|0:0,0:0:0:0:
437,46,65376,1,0,0:0:0:0:
437,46,65457,1,4,0:3:0:0:
437,46,65538,2,0,P|439:80|426:111,1,64,2|0,0:0|3:0,0:0:0:0:
328,42,65862,1,8,0:0:0:0:
438,207,66024,1,0,0:0:0:0:
274,145,66186,6,0,P|213:140|143:135,1,128,2|8,3:2|0:0,0:0:0:0:
46,243,66673,2,0,P|106:238|176:233,1,128,0|0,0:0|3:0,0:0:0:0:
229,362,67159,2,0,P|231:331|235:299,1,64,8|0,0:0|0:0,0:0:0:0:
304,166,67484,5,0,3:0:0:0:
337,271,67646,1,0,0:0:0:0:
392,84,67808,1,8,0:0:0:0:
494,191,67970,1,0,0:0:0:0:
494,191,68051,1,4,0:3:0:0:
494,191,68132,1,0,0:0:0:0:
304,166,68294,1,0,3:0:0:0:
383,365,68457,1,8,0:0:0:0:
347,377,68538,1,0,0:0:0:0:
309,375,68619,1,0,0:0:0:0:
275,357,68700,1,0,0:0:0:0:
252,325,68781,6,0,P|258:261|265:197,1,128,0|8,3:0|0:0,0:0:0:0:
273,32,69267,1,0,0:0:0:0:
376,194,69430,2,0,P|421:187|452:184,1,64,0|0,0:0|3:0,0:0:0:0:
298,123,69754,2,0,L|305:30,1,64,8|0,0:0|0:0,0:0:0:0:
227,180,70078,6,0,L|230:243,1,64,0|0,3:0|0:0,0:0:0:0:
273,32,70403,1,8,0:0:0:0:
438,93,70565,1,0,0:0:0:0:
438,93,70646,1,4,0:3:0:0:
438,93,70727,1,0,0:0:0:0:
337,159,70889,1,0,3:0:0:0:
144,155,71051,2,0,P|175:149|207:146,1,64,8|0,0:0|0:0,0:0:0:0:
376,194,71376,6,0,P|373:233|370:279,1,64,0|0,3:0|0:0,0:0:0:0:
360,43,71700,1,8,0:0:0:0:
144,155,71862,2,0,P|201:172|260:145,1,128,0|0,0:0|3:0,0:0:0:0:
360,43,72349,1,8,0:0:0:0:
449,97,72511,1,0,0:0:0:0:
337,271,72673,5,0,3:0:0:0:
360,43,72835,1,8,0:0:0:0:
434,248,72997,1,0,3:0:0:0:
360,43,73159,1,8,0:0:0:0:
506,182,73321,1,0,0:0:0:0:
506,182,73403,1,4,0:3:0:0:
506,182,73484,1,0,3:0:0:0:
360,43,73646,2,0,P|361:74|362:106,1,64,8|0,0:0|0:0,0:0:0:0:
501,212,73970,6,0,L|374:195,1,128,6|8,3:1|0:0,0:0:0:0:
260,144,74457,1,0,0:0:0:0:
330,334,74619,2,0,P|332:302|337:271,1,64,0|0,0:0|3:0,0:0:0:0:
446,122,74943,1,8,0:0:0:0:
354,192,75105,1,0,0:0:0:0:
419,323,75267,6,0,P|464:320|506:316,1,64,0|0,3:0|0:0,0:0:0:0:
374,195,75592,1,8,0:0:0:0:
244,318,75754,1,0,0:0:0:0:
244,318,75835,1,4,0:3:0:0:
244,318,75916,1,2,0:0:0:0:
410,366,76078,1,0,3:0:0:0:
289,243,76240,2,0,P|257:238|225:233,1,64,8|0,0:0|0:0,0:0:0:0:
166,362,76565,5,2,3:2:0:0:
81,267,76727,1,0,0:0:0:0:
81,267,76808,1,0,0:0:0:0:
81,267,76889,2,0,P|120:259|156:256,1,64,8|0,0:0|0:0,0:0:0:0:
232,108,77213,1,0,0:0:0:0:
103,135,77376,2,0,P|96:168|94:187,2,32,0|0|8,3:0|0:0|0:0,0:0:0:0:
164,24,77700,1,0,0:0:0:0:
176,234,77862,5,0,3:0:0:0:
81,47,78024,1,0,0:0:0:0:
248,139,78186,1,8,0:0:0:0:
284,149,78267,1,0,0:0:0:0:
322,149,78348,1,0,0:0:0:0:
359,137,78429,1,0,0:0:0:0:
390,115,78510,1,0,0:0:0:0:
299,21,78673,1,0,3:0:0:0:
406,205,78835,2,0,P|401:254|397:287,1,64,8|0,0:0|0:0,0:0:0:0:
408,301,79078,1,0,0:0:0:0:
408,301,79159,6,0,L|266:286,1,128,0|8,3:0|0:0,0:0:0:0:
91,331,79646,2,0,P|148:347|203:307,1,128,0|0,0:0|3:0,0:0:0:0:
225,121,80132,2,0,L|219:48,1,64,8|0,0:0|0:0,0:0:0:0:
176,234,80457,5,0,3:0:0:0:
313,96,80619,2,0,P|310:138|307:167,1,64,0|8,0:0|0:0,0:0:0:0:
280,287,80943,1,0,0:0:0:0:
111,135,81105,1,2,0:0:0:0:
176,234,81267,1,0,3:0:0:0:
219,57,81430,2,0,L|225:121,1,64,10|0,0:0|0:0,0:0:0:0:
359,246,81754,5,2,3:2:0:0:
406,90,81916,1,0,0:0:0:0:
462,179,82078,1,8,0:0:0:0:
356,28,82240,2,0,P|416:11|469:43,1,128,2|0,0:0|3:0,0:0:0:0:
326,170,82727,2,0,P|323:138|322:106,1,64,8|0,0:0|0:0,0:0:0:0:
391,254,83051,5,0,3:0:0:0:
208,225,83213,1,8,0:0:0:0:
391,254,83376,1,0,3:0:0:0:
244,367,83538,1,8,0:0:0:0:
326,170,83700,1,0,0:0:0:0:
326,170,83781,1,4,0:3:0:0:
326,170,83862,1,0,3:0:0:0:
466,295,84024,2,0,L|470:358,1,64,8|0,0:0|0:0,0:0:0:0:
391,254,84267,1,0,0:0:0:0:
391,254,84349,6,0,P|400:204|404:174,1,80,4|0,3:1|0:0,0:0:0:0:
316,297,84673,2,0,P|325:347|329:377,1,80,0|0,3:0|0:0,0:0:0:0:
238,254,84997,1,0,3:0:0:0:
238,254,85159,1,0,0:0:0:0:
293,66,85321,1,0,3:0:0:0:
326,170,85484,1,0,0:0:0:0:
96,128,85646,5,0,3:0:0:0:
308,36,85808,1,0,0:0:0:0:
161,63,85970,1,0,3:0:0:0:
375,98,86132,1,0,0:0:0:0:
193,35,86294,5,0,3:0:0:0:
211,248,86457,1,0,0:0:0:0:
161,63,86619,5,0,3:0:0:0:
124,282,86782,1,0,0:0:0:0:
256,100,86943,5,0,3:0:0:0:
281,113,87024,1,0,0:0:0:0:
312,119,87105,1,0,3:0:0:0:
343,116,87186,1,0,0:0:0:0:
375,98,87267,1,0,3:0:0:0:
400,85,87348,1,0,0:0:0:0:
431,79,87429,1,0,3:0:0:0:
462,82,87510,1,0,0:0:0:0:
488,105,87592,6,0,L|494:155,3,40,0|0|0|0,3:0|0:0|3:0|0:0,0:0:0:0:
480,173,87916,2,0,L|486:223,3,40,0|0|0|0,3:0|0:0|3:0|0:0,0:0:0:0:
478,249,88240,5,0,3:0:0:0:
443,229,88321,1,0,0:0:0:0:
404,230,88402,1,0,3:0:0:0:
370,251,88483,1,0,0:0:0:0:
353,287,88564,1,0,3:0:0:0:
356,326,88645,1,0,0:0:0:0:
379,358,88726,1,0,3:0:0:0:
416,373,88807,1,0,0:0:0:0:
455,368,88889,6,0,P|450:348|443:330,1,40,0|0,3:0|0:0,0:0:0:0:
293,231,89051,1,0,3:0:0:0:
293,231,89132,1,0,0:0:0:0:
293,231,89213,6,0,P|276:268|273:298,1,71.9999978027344,4|0,0:3|0:0,0:0:0:0:
286,378,89538,6,0,P|247:371|217:366,1,64,6|0,3:1|0:0,0:0:0:0:
108,270,89862,2,0,P|147:263|177:258,1,64,0|0,3:0|0:0,0:0:0:0:
40,326,90186,1,8,0:0:0:0:
171,258,90349,1,0,0:0:0:0:
118,364,90511,1,0,3:0:0:0:
53,187,90673,1,8,0:0:0:0:
196,230,90835,6,0,P|193:183|191:154,1,64,0|0,3:0|0:0,0:0:0:0:
250,49,91159,1,0,3:0:0:0:
373,71,91321,1,0,0:0:0:0:
320,250,91484,1,8,0:0:0:0:
311,150,91646,1,0,0:0:0:0:
387,312,91808,2,0,P|424:322|461:318,1,64,0|8,3:0|0:0,0:0:0:0:
466,171,92132,6,0,P|429:161|392:165,1,64,0|0,3:0|0:0,0:0:0:0:
350,230,92457,1,0,3:0:0:0:
279,60,92619,1,0,0:0:0:0:
172,222,92781,2,0,L|179:354,1,128,8|0,0:0|3:0,0:0:0:0:
288,377,93267,1,8,0:0:0:0:
387,312,93430,6,0,P|336:268|272:260,1,128,0|0,3:0|3:0,0:0:0:0:
170,184,93916,1,0,0:0:0:0:
254,42,94078,1,8,0:0:0:0:
297,233,94240,1,0,0:0:0:0:
376,138,94403,1,0,3:0:0:0:
162,86,94565,1,8,0:0:0:0:
378,233,94727,6,0,L|381:166,1,64,4|0,3:2|0:0,0:0:0:0:
346,45,95051,1,0,3:0:0:0:
346,45,95213,1,0,0:0:0:0:
200,186,95376,2,0,L|67:177,1,128,8|0,0:0|3:0,0:0:0:0:
10,270,95862,1,8,0:0:0:0:
113,304,96024,6,0,P|116:335|118:368,1,64,0|0,3:0|0:0,0:0:0:0:
209,267,96349,2,0,L|214:202,1,64,0|0,3:0|0:0,0:0:0:0:
309,372,96673,2,0,L|304:307,1,64,8|0,0:0|0:0,0:0:0:0:
296,203,96997,1,0,3:0:0:0:
412,256,97159,1,8,0:0:0:0:
135,221,97321,6,0,P|134:189|142:157,1,64,4|0,3:1|0:0,0:0:0:0:
219,31,97646,1,0,3:0:0:0:
287,165,97808,1,0,0:0:0:0:
439,62,97970,2,0,L|311:55,1,128,8|0,0:0|3:0,0:0:0:0:
215,116,98457,1,8,0:0:0:0:
111,30,98619,6,0,P|156:26|181:24,1,64,0|0,3:0|0:0,0:0:0:0:
55,110,98943,2,0,P|51:141|58:172,1,64,0|0,3:0|0:0,0:0:0:0:
248,258,99267,1,8,0:0:0:0:
179,136,99430,1,0,0:0:0:0:
101,249,99592,2,0,P|97:294|94:321,1,64,0|8,3:0|0:0,0:0:0:0:
226,362,99916,6,0,P|257:364|296:357,1,64,0|0,3:0|0:0,0:0:0:0:
341,224,100240,2,0,P|337:255|335:287,1,64,0|0,3:0|0:0,0:0:0:0:
417,170,100565,1,8,0:0:0:0:
376,368,100727,1,0,0:0:0:0:
486,266,100889,2,0,P|454:263|422:259,1,64,0|8,3:0|0:0,0:0:0:0:
197,179,101213,6,0,P|228:175|260:174,1,64,0|0,3:0|0:0,0:0:0:0:
332,66,101538,2,0,P|335:97|338:129,1,64,0|0,3:0|0:0,0:0:0:0:
251,284,101862,1,8,0:0:0:0:
167,183,102024,1,0,0:0:0:0:
176,327,102186,1,0,3:0:0:0:
228,99,102349,1,8,0:0:0:0:
277,311,102511,5,0,3:0:0:0:
228,99,102673,1,0,0:0:0:0:
199,351,102835,1,0,3:0:0:0:
298,149,102997,1,0,0:0:0:0:
70,243,103159,5,0,3:0:0:0:
41,217,103240,1,0,0:0:0:0:
23,183,103321,1,0,0:0:0:0:
17,146,103402,1,0,0:0:0:0:
24,108,103483,1,0,3:0:0:0:
43,75,103564,1,0,0:0:0:0:
72,50,103645,1,0,0:0:0:0:
108,37,103726,1,0,0:0:0:0:
146,36,103808,6,0,L|153:81,1,40,4|0,3:2|0:0,0:0:0:0:
228,99,103970,1,0,0:0:0:0:
215,226,104132,6,0,L|228:99,1,128,0|0,0:0|0:0,0:0:0:0:
128,155,104619,1,0,3:0:0:0:
176,327,104781,1,12,0:0:0:0:
322,140,104943,1,0,0:0:0:0:
322,140,105024,1,4,0:3:0:0:
322,140,105105,6,0,P|384:136|496:144,1,160,2|8,3:0|0:0,0:0:0:0:
448,248,105592,1,0,0:0:0:0:
272,304,105754,2,0,P|266:265|263:225,1,80,0|0,0:0|3:0,0:0:0:0:
228,99,106078,1,8,0:0:0:0:
96,256,106240,1,0,0:0:0:0:
65,122,106403,6,0,L|16:112,2,40,0|0|0,3:0|0:0|0:0,0:0:0:0:
236,289,106727,1,8,0:0:0:0:
272,304,106808,1,0,0:0:0:0:
312,306,106889,1,0,0:0:0:0:
350,294,106970,1,0,0:0:0:0:
381,269,107051,2,0,P|390:233|390:189,1,80,0|0,0:0|3:0,0:0:0:0:
464,152,107294,1,0,0:0:0:0:
464,152,107376,2,0,P|428:200|456:264,1,120,8|0,0:0|0:0,0:0:0:0:
424,76,107700,6,0,P|420:40|416:-4,1,80,0|0,3:0|0:0,0:0:0:0:
197,179,108024,1,8,0:0:0:0:
254,42,108186,1,0,0:0:0:0:
352,120,108349,2,0,L|348:200,1,80,0|0,0:0|3:0,0:0:0:0:
256,288,108673,1,8,0:0:0:0:
104,156,108835,1,0,0:0:0:0:
117,367,108997,5,0,3:0:0:0:
197,179,109159,1,0,0:0:0:0:
226,304,109321,1,8,0:0:0:0:
80,64,109484,1,0,0:0:0:0:
80,64,109565,1,0,0:0:0:0:
80,64,109646,1,0,0:0:0:0:
43,224,109808,1,0,3:0:0:0:
197,179,109970,1,8,0:0:0:0:
235,168,110051,1,0,0:0:0:0:
275,163,110132,1,0,0:0:0:0:
315,165,110213,1,0,0:0:0:0:
354,173,110294,6,0,P|398:168|446:148,1,80,0|0,3:0|0:0,0:0:0:0:
284,344,110619,2,0,L|280:252,1,80,8|0,0:0|0:0,0:0:0:0:
272,60,110943,1,0,0:0:0:0:
197,179,111105,1,0,3:0:0:0:
434,234,111267,2,0,L|431:155,1,80,12|0,0:0|0:0,0:0:0:0:
280,264,111592,5,0,3:0:0:0:
354,173,111754,1,0,0:0:0:0:
164,296,111916,2,0,P|124:295|84:291,1,80,8|0,0:0|0:0,0:0:0:0:
48,260,112159,1,0,0:0:0:0:
48,260,112240,1,0,0:0:0:0:
136,124,112403,1,0,3:0:0:0:
236,177,112565,2,0,P|244:229|249:299,1,120,8|0,0:0|0:0,0:0:0:0:
344,182,112889,6,0,P|348:142|355:103,1,80,0|0,3:0|0:0,0:0:0:0:
256,68,113213,1,8,0:0:0:0:
236,177,113375,1,0,0:0:0:0:
408,276,113538,2,0,L|499:270,1,80,0|0,0:0|3:0,0:0:0:0:
300,236,113862,1,8,0:0:0:0:
320,345,114024,1,0,0:0:0:0:
320,345,114105,1,4,0:3:0:0:
320,345,114186,5,0,3:0:0:0:
236,177,114349,1,8,0:0:0:0:
220,308,114511,1,0,3:0:0:0:
272,96,114673,1,8,0:0:0:0:
96,120,114835,2,0,L|136:124,1,40,0|0,3:0|0:0,0:0:0:0:
25,190,114997,1,0,3:0:0:0:
220,308,115159,1,8,0:0:0:0:
420,80,115321,1,4,0:3:0:0:
420,80,115403,1,4,0:3:0:0:
420,80,115484,6,0,P|376:136|400:224,1,160,2|8,3:0|0:0,0:0:0:0:
472,300,115970,1,0,0:0:0:0:
384,372,116132,2,0,P|344:369|304:362,1,80,0|0,0:0|3:0,0:0:0:0:
275,163,116456,1,8,0:0:0:0:
220,308,116618,1,0,0:0:0:0:
352,276,116781,6,0,L|360:220,2,40,0|0|0,3:0|0:0|0:0,0:0:0:0:
220,308,117105,2,0,P|180:314|140:317,1,80,8|0,0:0|0:0,0:0:0:0:
96,300,117348,1,0,0:0:0:0:
96,300,117430,1,0,0:0:0:0:
188,384,117592,1,0,3:0:0:0:
204,151,117754,2,0,P|208:91|216:31,1,120,8|0,0:0|0:0,0:0:0:0:
340,196,118078,6,0,P|348:236|352:276,1,80,0|0,3:0|0:0,0:0:0:0:
204,151,118402,1,8,0:0:0:0:
300,88,118564,1,0,0:0:0:0:
447,172,118727,2,0,P|444:211|436:251,1,80,0|0,0:0|3:0,0:0:0:0:
256,288,119051,1,8,0:0:0:0:
340,196,119213,1,0,0:0:0:0:
384,372,119376,5,0,3:0:0:0:
204,151,119538,1,0,0:0:0:0:
152,248,119700,2,0,P|144:292|144:344,1,80,8|0,0:0|0:0,0:0:0:0:
160,372,119943,1,0,0:0:0:0:
160,372,120024,1,0,0:0:0:0:
340,196,120186,1,0,3:0:0:0:
228,99,120349,1,8,0:0:0:0:
262,118,120430,1,0,0:0:0:0:
302,121,120511,1,0,0:0:0:0:
339,108,120592,1,0,0:0:0:0:
367,80,120673,6,0,P|360:124|360:164,1,80,0|0,3:0|0:0,0:0:0:0:
471,286,120997,2,0,P|468:247|460:208,1,80,8|0,0:0|0:0,0:0:0:0:
340,196,121321,1,0,0:0:0:0:
488,105,121483,1,0,3:0:0:0:
359,159,121646,1,8,0:0:0:0:
452,8,121808,1,0,0:0:0:0:
324,228,121970,6,0,L|328:272,3,40,0|0|0|0,3:0|0:0|0:0|0:0,0:0:0:0:
256,320,122294,2,0,L|260:368,3,40,8|0|0|0,0:0|0:0|0:0|0:0,0:0:0:0:
176,336,122619,5,0,0:0:0:0:
137,342,122700,1,0,0:0:0:0:
102,323,122781,1,0,3:0:0:0:
87,287,122862,1,0,0:0:0:0:
98,249,122943,2,0,P|112:232|128:216,1,40,4|0,0:3|0:0,0:0:0:0:
222,129,123105,1,8,0:0:0:0:
222,129,123186,1,4,0:3:0:0:
222,129,123267,6,0,P|283:176|359:159,1,160,2|8,3:0|0:0,0:0:0:0:
440,104,123754,1,0,0:0:0:0:
304,80,123916,2,0,P|298:41|295:1,1,80,0|0,0:0|3:0,0:0:0:0:
256,288,124240,1,8,0:0:0:0:
256,288,124402,1,0,0:0:0:0:
392,251,124565,6,0,P|431:245|471:247,1,80,0|0,3:0|0:0,0:0:0:0:
308,204,124889,2,0,P|296:164|296:120,1,80,8|0,0:0|0:0,0:0:0:0:
304,80,125132,1,0,0:0:0:0:
304,80,125213,1,0,0:0:0:0:
340,336,125376,1,0,3:0:0:0:
240,284,125538,2,0,P|188:292|120:296,1,120,8|0,0:0|0:0,0:0:0:0:
72,143,125862,6,0,L|80:55,1,80,0|0,3:0|0:0,0:0:0:0:
204,151,126186,1,8,0:0:0:0:
256,52,126348,1,0,0:0:0:0:
163,195,126511,2,0,L|171:116,1,80,0|0,0:0|3:0,0:0:0:0:
332,204,126835,1,8,0:0:0:0:
171,116,126997,1,0,0:0:0:0:
240,284,127159,5,0,3:0:0:0:
295,126,127321,1,0,0:0:0:0:
184,360,127484,1,8,0:0:0:0:
332,204,127646,1,0,0:0:0:0:
332,204,127727,1,0,0:0:0:0:
332,204,127808,2,0,L|424:208,1,80,0|0,0:0|3:0,0:0:0:0:
240,284,128132,1,8,0:0:0:0:
204,267,128213,1,0,0:0:0:0:
164,266,128294,1,0,0:0:0:0:
128,283,128375,1,0,0:0:0:0:
102,313,128457,5,0,3:0:0:0:
204,151,128619,1,0,3:0:0:0:
320,284,128781,2,0,P|324:324|324:364,1,80,8|8,0:0|0:0,0:0:0:0:
436,328,129105,1,0,0:0:0:0:
411,207,129267,1,0,3:0:0:0:
324,120,129430,2,0,P|284:120|244:124,1,80,12|0,0:0|0:0,0:0:0:0:
204,151,129673,1,0,0:0:0:0:
204,151,129754,5,0,3:0:0:0:
280,12,129916,1,0,0:0:0:0:
452,32,130078,1,8,0:0:0:0:
358,78,130240,1,0,0:0:0:0:
358,78,130321,1,0,0:0:0:0:
358,78,130403,2,0,P|364:120|364:176,1,80,0|0,0:0|3:0,0:0:0:0:
428,316,130727,2,0,P|435:256|447:197,1,120,8|0,0:0|0:0,0:0:0:0:
320,348,131051,6,0,P|284:324|232:332,1,80,0|0,3:0|0:0,0:0:0:0:
428,316,131375,1,8,0:0:0:0:
343,238,131537,1,0,0:0:0:0:
180,280,131700,2,0,P|168:320|192:380,1,80,0|0,0:0|3:0,0:0:0:0:
308,204,132024,1,8,0:0:0:0:
320,348,132187,1,0,0:0:0:0:
320,348,132349,5,0,3:0:0:0:
204,151,132511,1,8,0:0:0:0:
180,280,132673,1,0,3:0:0:0:
72,144,132835,1,8,0:0:0:0:
308,204,132997,2,0,L|304:160,1,40,0|4,0:0|0:3,0:0:0:0:
392,251,133159,1,0,3:0:0:0:
175,356,133321,1,8,0:0:0:0:
146,70,133483,1,8,0:0:0:0:
146,70,133565,1,4,0:3:0:0:
146,70,133646,6,0,P|221:50|284:96,1,160,2|8,3:0|0:0,0:0:0:0:
343,238,134132,1,0,0:0:0:0:
428,164,134294,2,0,P|427:123|432:80,1,80,0|0,0:0|3:0,0:0:0:0:
471,247,134618,1,8,0:0:0:0:
236,308,134780,1,0,0:0:0:0:
281,135,134943,6,0,L|284:77,2,40,0|0|0,3:0|0:0|0:0,0:0:0:0:
176,244,135267,2,0,P|140:248|96:244,1,80,8|0,0:0|0:0,0:0:0:0:
25,114,135592,1,0,0:0:0:0:
68,340,135754,1,0,3:0:0:0:
236,308,135916,2,0,L|240:188,1,120,8|0,0:0|0:0,0:0:0:0:
283,95,136240,6,0,L|287:183,1,80,0|0,3:0|0:0,0:0:0:0:
136,140,136564,1,8,0:0:0:0:
228,8,136726,1,0,0:0:0:0:
386,35,136889,2,0,L|389:114,1,80,0|0,0:0|3:0,0:0:0:0:
456,228,137213,1,8,0:0:0:0:
344,236,137375,1,0,0:0:0:0:
404,352,137538,5,0,3:0:0:0:
389,114,137700,1,0,0:0:0:0:
176,244,137862,2,0,P|177:283|185:323,1,80,8|0,0:0|0:0,0:0:0:0:
200,368,138105,1,0,0:0:0:0:
200,368,138186,1,0,0:0:0:0:
344,236,138348,1,0,3:0:0:0:
256,152,138511,1,8,0:0:0:0:
216,152,138592,1,0,0:0:0:0:
176,152,138673,1,0,0:0:0:0:
136,152,138754,1,0,0:0:0:0:
96,152,138835,5,2,3:2:0:0:
216,72,138997,1,2,0:0:0:0:
136,152,139159,1,2,3:2:0:0:
176,0,139322,1,2,0:0:0:0:
96,152,139484,5,10,0:0:0:0:
216,72,139646,1,2,3:2:0:0:
136,152,139808,1,2,0:0:0:0:
176,0,139971,1,2,0:0:0:0:
416,152,140132,5,2,3:2:0:0:
296,72,140294,1,2,0:0:0:0:
376,152,140457,1,2,3:2:0:0:
336,0,140619,1,2,0:0:0:0:
416,152,140781,5,10,0:0:0:0:
296,72,140943,1,2,3:2:0:0:
376,152,141105,1,2,0:0:0:0:
336,0,141268,1,2,0:0:0:0:
256,152,141430,5,2,3:2:0:0:
316,256,141592,1,2,0:0:0:0:
136,152,141754,2,0,L|56:142,1,80,2|2,3:2|0:0,0:0:0:0:
256,152,142078,1,10,0:0:0:0:
196,256,142240,1,2,3:2:0:0:
376,152,142403,1,2,0:0:0:0:
196,36,142565,1,2,0:0:0:0:
324,363,142727,5,4,0:0:0:0:
292,197,144024,6,0,L|164:184,1,128,6|8,3:2|0:0,0:0:0:0:
45,259,144511,2,0,P|107:261|151:305,1,128,0|0,0:0|3:0,0:0:0:0:
224,237,144997,1,10,0:0:0:0:
320,348,145159,1,2,0:0:0:0:
376,152,145321,5,0,3:0:0:0:
239,274,145484,2,0,L|234:337,1,64,0|8,0:0|0:0,0:0:0:0:
287,165,145808,1,0,0:0:0:0:
287,165,145889,1,0,0:0:0:0:
287,165,145970,2,0,L|291:212,1,32
226,98,146132,1,0,3:0:0:0:
366,258,146294,1,10,0:0:0:0:
315,82,146457,1,2,0:0:0:0:
101,176,146619,6,0,L|164:183,1,64,0|0,3:0|0:0,0:0:0:0:
164,183,146862,1,0,0:0:0:0:
164,183,146943,1,8,0:0:0:0:
239,274,147105,1,0,0:0:0:0:
370,215,147267,2,0,P|373:183|376:152,1,64,0|0,0:0|3:0,0:0:0:0:
395,343,147592,1,10,0:0:0:0:
483,202,147754,1,2,0:0:0:0:
276,246,147916,6,0,P|282:288|284:316,1,64,0|0,3:0|0:0,0:0:0:0:
376,151,148240,1,8,0:0:0:0:
456,280,148403,1,8,0:0:0:0:
456,280,148484,1,0,0:0:0:0:
456,280,148565,1,0,0:0:0:0:
455,75,148727,1,0,3:0:0:0:
483,202,148889,1,10,0:0:0:0:
276,246,149051,1,0,0:0:0:0:
276,246,149132,1,4,0:3:0:0:
276,246,149213,6,0,P|244:191|250:128,1,128,2|8,3:2|0:0,0:0:0:0:
354,285,149700,2,0,B|403:293|403:293|325:310,1,128,0|0,0:0|3:0,0:0:0:0:
328,173,150186,2,0,L|398:184,1,64,10|0,0:0|0:0,0:0:0:0:
166,246,150511,5,2,3:2:0:0:
271,95,150673,1,0,0:0:0:0:
100,142,150835,2,0,P|131:139|163:137,1,64,10|0,0:0|0:0,0:0:0:0:
163,136,151078,1,4,0:3:0:0:
163,136,151159,1,2,0:0:0:0:
276,246,151321,1,2,3:2:0:0:
130,327,151484,2,0,P|134:295|139:263,1,64,10|0,0:0|0:0,0:0:0:0:
36,95,151808,6,0,L|45:205,1,96,0|0,3:0|0:0,0:0:0:0:
59,221,152132,2,0,P|54:253|50:285,1,64,8|0,0:0|0:0,0:0:0:0:
123,115,152457,2,0,P|118:83|113:51,1,64,0|0,0:0|3:0,0:0:0:0:
190,192,152781,1,8,0:0:0:0:
350,60,152943,1,0,0:0:0:0:
350,60,153024,1,4,0:3:0:0:
350,60,153105,5,0,3:0:0:0:
276,246,153267,1,4,0:3:0:0:
271,95,153430,2,0,P|273:126|276:159,1,64,0|8,3:0|0:0,0:0:0:0:
238,319,153754,6,0,P|268:329|299:327,1,64,0|0,0:0|3:0,0:0:0:0:
308,326,153970,1,0,0:0:0:0:
315,323,154024,1,0,0:0:0:0:
322,319,154078,2,0,P|363:315|402:312,1,64,8|0,0:0|0:0,0:0:0:0:
374,98,154403,6,0,L|364:230,1,128,6|8,3:2|0:0,0:0:0:0:
410,352,154889,1,0,0:0:0:0:
276,246,155051,1,0,0:0:0:0:
452,204,155213,1,0,3:0:0:0:
292,67,155376,2,0,L|285:133,1,64,10|2,0:0|0:0,0:0:0:0:
161,260,155700,6,0,P|215:228|275:245,1,128,0|8,3:0|0:0,0:0:0:0:
385,313,156186,1,0,0:0:0:0:
226,310,156349,2,0,L|233:381,1,64,0|0,0:0|3:0,0:0:0:0:
238,378,156565,2,0,L|276:373,2,21.3333333333333,0|0|10,0:0|0:0|0:0,0:0:0:0:
130,235,156835,1,2,0:0:0:0:
24,362,156997,6,0,L|151:350,1,128,0|8,3:0|0:0,0:0:0:0:
276,246,157484,1,0,0:0:0:0:
130,235,157646,2,0,P|161:237|194:239,1,64,0|0,0:0|3:0,0:0:0:0:
338,314,157970,1,10,0:0:0:0:
338,314,158051,1,0,0:0:0:0:
338,314,158132,1,2,0:0:0:0:
239,167,158294,5,0,3:0:0:0:
420,249,158457,1,0,0:0:0:0:
255,326,158619,2,0,P|254:310|256:294,1,32,8|0,0:0|0:0,0:0:0:0:
341,184,158781,1,0,0:0:0:0:
483,256,158943,2,0,P|451:252|420:249,1,64,0|0,0:0|3:0,0:0:0:0:
362,149,159267,2,0,P|393:145|425:141,1,64,10|0,0:0|0:0,0:0:0:0:
459,111,159511,1,4,0:3:0:0:
459,111,159592,6,0,P|419:64|357:65,1,128,2|8,3:2|0:0,0:0:0:0:
239,167,160078,1,0,0:0:0:0:
176,31,160240,2,0,P|179:62|181:94,1,64,2|0,0:0|3:0,0:0:0:0:
202,251,160565,1,8,0:0:0:0:
270,82,160727,1,0,0:0:0:0:
295,243,160889,6,0,P|291:274|289:306,1,64,2|0,3:2|0:0,0:0:0:0:
149,175,161213,1,8,0:0:0:0:
327,155,161376,1,0,0:0:0:0:
202,251,161538,1,2,0:0:0:0:
181,94,161700,1,0,3:0:0:0:
383,225,161862,2,0,P|404:201|413:170,1,64,10|0,0:0|0:0,0:0:0:0:
319,27,162186,6,0,P|324:91|327:155,1,128,0|8,3:0|0:0,0:0:0:0:
495,149,162673,2,0,P|435:143|419:85,1,128,0|0,0:0|3:0,0:0:0:0:
264,154,163159,2,0,P|295:148|326:154,1,64,8|0,0:0|0:0,0:0:0:0:
353,182,163376,2,0,L|357:223,2,21.3333333333333,2|0|0,0:0|0:0|3:0,0:0:0:0:
290,56,163646,6,0,L|274:33,2,21.3333333333333,4|2|0,0:3|0:0|3:0,0:0:0:0:
296,64,163808,1,8,0:0:0:0:
246,145,163969,2,0,L|233:127,2,21.3333333333333,8|2|0,0:0|0:0|0:0,0:0:0:0:
251,152,164132,2,0,L|254:191,1,32,0|0,3:0|0:0,0:0:0:0:
193,246,164294,2,0,L|180:228,2,21.3333333333333,8|2|0,0:0|0:0|0:0,0:0:0:0:
198,253,164456,2,0,L|201:292,1,32,8|0,0:0|0:0,0:0:0:0:
111,144,164619,1,0,0:0:0:0:
111,144,164700,1,0,0:0:0:0:
111,144,164781,6,0,P|48:136|0:200,1,128,6|2,3:2|0:0,0:0:0:0:
83,242,165267,1,0,0:0:0:0:
83,242,165430,2,0,P|146:250|194:186,1,128,10|2,0:0|0:0,0:0:0:0:
205,101,165916,1,0,0:0:0:0:
264,289,166078,5,2,3:2:0:0:
319,125,166240,2,0,L|342:121,4,16,0|0|0|0|2,0:0|0:0|0:0|0:0|0:0,0:0:0:0:
165,76,166565,1,0,0:0:0:0:
308,214,166727,2,0,P|341:209|372:206,1,64,10|0,0:0|0:0,0:0:0:0:
425,133,167051,2,0,P|427:109|431:68,1,64,2|0,0:0|0:0,0:0:0:0:
445,230,167376,5,2,3:2:0:0:
412,306,167538,2,0,P|381:296|349:292,2,64,0|2|0,0:0|0:0|0:0,0:0:0:0:
303,366,168024,1,10,0:0:0:0:
350,293,168186,1,0,0:0:0:0:
301,176,168349,1,2,0:0:0:0:
319,262,168511,1,0,0:0:0:0:
172,281,168673,6,0,P|203:283|235:286,1,64,2|0,3:2|0:0,0:0:0:0:
97,316,168997,2,0,P|95:339|90:384,1,64,2|0,0:0|0:0,0:0:0:0:
58,229,169321,1,10,0:0:0:0:
157,176,169484,2,0,P|160:206|162:244,1,64,0|2,0:0|0:0,0:0:0:0:
82,125,169808,1,8,0:0:0:0:
191,27,169970,6,0,L|196:66,1,32,2|0,3:2|0:0,0:0:0:0:
196,91,170132,2,0,L|189:166,2,64,0|2|0,0:0|0:0|0:0,0:0:0:0:
324,42,170619,1,10,0:0:0:0:
271,216,170781,1,0,0:0:0:0:
271,216,170862,1,0,0:0:0:0:
271,216,170943,2,0,P|303:211|340:210,1,64,2|0,0:0|0:0,0:0:0:0:
452,170,171267,5,2,3:2:0:0:
347,121,171430,2,0,P|344:97|341:56,2,64,0|2|0,0:0|0:0|0:0,0:0:0:0:
397,270,171916,1,10,0:0:0:0:
434,136,172078,1,0,0:0:0:0:
512,218,172240,2,0,P|476:213|443:210,1,64,2|0,0:0|0:0,0:0:0:0:
359,298,172565,6,0,P|349:235|302:193,1,128,2|2,3:2|0:0,0:0:0:0:
237,143,173051,1,0,0:0:0:0:
151,230,173213,2,0,L|161:156,1,64,10|0,0:0|0:0,0:0:0:0:
87,63,173538,2,0,P|76:63|59:66,3,21.3333333333333,2|0|0|8,0:0|0:0|0:0|0:0,0:0:0:0:
247,104,173862,5,2,3:2:0:0:
81,145,174024,1,8,0:0:0:0:
220,25,174186,2,0,P|196:21|157:16,1,64,2|0,3:2|0:0,0:0:0:0:
352,136,174511,1,10,0:0:0:0:
239,202,174673,2,0,L|245:131,1,64,0|2,3:0|0:0,0:0:0:0:
369,37,174997,1,8,0:0:0:0:
397,270,175159,5,8,3:0:0:0:
397,270,186835,5,4,3:2:0:0:
397,270,187159,2,0,L|256:260,1,128,8|0,0:0|0:0,0:0:0:0:
180,208,187646,1,0,3:0:0:0:
124,296,187808,2,0,L|132:360,1,64,8|0,0:0|0:0,0:0:0:0:
272,156,188132,5,0,3:0:0:0:
397,270,188294,1,0,0:0:0:0:
180,208,188457,1,8,0:0:0:0:
181,169,188538,1,0,0:0:0:0:
183,131,188619,1,0,0:0:0:0:
185,92,188700,1,4,0:3:0:0:
187,54,188781,2,0,P|164:24|152:-4,1,64,2|0,0:0|3:0,0:0:0:0:
272,156,189105,2,0,P|308:160|340:152,1,64,8|0,0:0|0:0,0:0:0:0:
435,207,189430,6,0,P|411:149|428:89,1,128,2|8,3:2|0:0,0:0:0:0:
496,288,189916,2,0,L|368:280,1,128,0|0,0:0|3:0,0:0:0:0:
272,156,190403,1,8,0:0:0:0:
212,300,190565,1,0,0:0:0:0:
212,300,190646,1,0,0:0:0:0:
212,300,190727,5,0,3:0:0:0:
320,220,190889,1,0,0:0:0:0:
92,264,191051,1,8,0:0:0:0:
141,383,191213,2,0,L|148:352,1,32,0|4,0:0|0:3,0:0:0:0:
212,300,191376,1,0,0:0:0:0:
332,352,191538,1,0,3:0:0:0:
181,169,191700,1,8,0:0:0:0:
324,40,191862,1,0,0:0:0:0:
324,40,191943,1,0,0:0:0:0:
324,40,192024,5,0,3:0:0:0:
420,220,192349,2,0,L|416:144,1,64,8|0,0:0|0:0,0:0:0:0:
324,40,192673,2,0,P|316:76|312:124,1,64,0|0,0:0|3:0,0:0:0:0:
364,280,192997,2,0,L|491:269,1,128,8|0,0:0|3:0,0:0:0:0:
296,204,193484,5,0,0:0:0:0:
208,268,193646,2,0,L|216:368,1,96,8|4,0:0|0:3,0:0:0:0:
196,160,193970,2,0,P|164:156|124:148,1,64,0|0,0:0|3:0,0:0:0:0:
312,102,194294,1,8,0:0:0:0:
364,280,194457,1,0,0:0:0:0:
505,201,194619,6,0,P|448:174|388:191,1,128,0|8,3:0|0:0,0:0:0:0:
184,107,195105,2,0,L|312:102,1,128,0|0,0:0|3:0,0:0:0:0:
456,100,195592,1,8,0:0:0:0:
296,204,195754,1,0,0:0:0:0:
447,331,195916,6,0,L|444:268,1,64,0|8,3:0|0:0,0:0:0:0:
384,52,196240,1,0,3:0:0:0:
356,272,196403,1,8,0:0:0:0:
352,296,196484,1,0,0:0:0:0:
348,320,196565,2,0,L|348:352,3,21.3333333333333,0|0|0|0,0:0|0:0|0:0|3:0,0:0:0:0:
296,204,196889,1,8,0:0:0:0:
443,267,197051,1,0,0:0:0:0:
384,52,197213,5,6,3:1:0:0:
384,52,197538,2,0,P|320:64|240:44,1,128,8|0,0:0|0:0,0:0:0:0:
168,8,198025,1,0,3:0:0:0:
92,88,198187,2,0,L|100:160,1,64,8|0,0:0|0:0,0:0:0:0:
196,196,198511,5,0,3:0:0:0:
120,116,198673,1,0,0:0:0:0:
80,256,198835,1,8,0:0:0:0:
200,384,198997,2,0,L|195:352,1,32,0|4,0:0|0:3,0:0:0:0:
264,312,199160,2,0,L|272:236,1,64,2|0,0:0|3:0,0:0:0:0:
332,160,199484,2,0,P|324:125|320:76,1,64,8|0,0:0|0:0,0:0:0:0:
390,250,199809,6,0,P|329:268|270:248,1,128,2|8,3:2|0:0,0:0:0:0:
492,208,200294,2,0,P|484:288|480:360,1,128,0|0,0:0|3:0,0:0:0:0:
332,160,200781,2,0,P|324:125|320:76,1,64,8|0,0:0|0:0,0:0:0:0:
390,250,201106,5,0,3:0:0:0:
204,212,201268,1,0,0:0:0:0:
258,52,201430,1,8,0:0:0:0:
120,116,201592,1,0,0:0:0:0:
120,116,201673,1,0,0:0:0:0:
120,116,201754,2,0,L|124:160,1,32,0|0,0:0|0:0,0:0:0:0:
204,212,201917,1,0,3:0:0:0:
352,288,202078,2,0,P|304:292|256:276,1,96,8|0,0:0|0:0,0:0:0:0:
204,212,202403,6,0,L|196:132,1,64,0|0,3:0|0:0,0:0:0:0:
321,97,202727,1,8,0:0:0:0:
132,108,202889,2,0,P|183:73|244:86,1,128,0|0,0:0|3:0,0:0:0:0:
388,136,203376,2,0,P|337:171|276:158,1,128,8|0,0:0|3:0,0:0:0:0:
288,24,203863,5,0,0:0:0:0:
270,248,204024,1,8,0:0:0:0:
388,136,204186,1,0,0:0:0:0:
388,136,204267,1,0,0:0:0:0:
387,135,204349,2,0,L|464:132,1,64,2|0,0:0|3:0,0:0:0:0:
275,157,204673,2,0,L|203:153,1,64,10|0,0:0|0:0,0:0:0:0:
56,238,204998,6,0,L|184:244,1,128,2|8,3:2|0:0,0:0:0:0:
261,365,205484,2,0,P|244:305|270:248,1,128,2|0,0:0|3:0,0:0:0:0:
387,135,205971,1,8,0:0:0:0:
368,236,206133,1,0,0:0:0:0:
276,158,206295,6,0,L|268:82,1,64,0|8,3:0|0:0,0:0:0:0:
270,248,206619,1,0,3:0:0:0:
387,135,206782,1,8,0:0:0:0:
196,196,206944,2,0,L|164:192,3,21.3333333333333,0|0|0|0,0:0|0:0|0:0|3:0,0:0:0:0:
371,307,207267,2,0,L|367:235,1,71.9999978027344,8|0,0:0|0:0,0:0:0:0:
387,135,207592,5,4,3:1:0:0:
270,248,207754,1,0,0:0:0:0:
352,36,207916,1,0,3:0:0:0:
367,235,208078,1,0,0:0:0:0:
269,94,208240,5,0,3:0:0:0:
270,248,208403,1,0,0:0:0:0:
196,196,208565,1,0,3:0:0:0:
176,344,208727,1,0,0:0:0:0:
132,111,208889,5,0,3:0:0:0:
176,344,209051,1,0,0:0:0:0:
270,248,209213,1,0,3:0:0:0:
56,238,209376,1,0,0:0:0:0:
56,238,209538,5,0,3:0:0:0:
276,158,209700,1,0,0:0:0:0:
116,288,209862,1,0,3:0:0:0:
187,54,210024,1,0,0:0:0:0:
188,208,210186,5,0,3:0:0:0:
209,233,210267,1,0,0:0:0:0:
236,250,210348,1,0,3:0:0:0:
268,257,210429,1,0,0:0:0:0:
301,254,210510,1,0,3:0:0:0:
331,241,210591,1,0,0:0:0:0:
355,218,210672,1,0,3:0:0:0:
371,189,210753,1,0,0:0:0:0:
376,157,210835,6,0,L|380:116,3,40,0|0|0|0,3:0|0:0|3:0|0:0,0:0:0:0:
404,96,211159,2,0,L|407:54,3,40,0|0|0|0,3:0|0:0|3:0|0:0,0:0:0:0:
370,51,211484,5,0,3:0:0:0:
336,66,211565,1,0,0:0:0:0:
315,97,211646,1,0,3:0:0:0:
314,134,211727,1,0,0:0:0:0:
332,167,211808,1,0,3:0:0:0:
365,184,211889,1,0,0:0:0:0:
402,182,211970,1,0,3:0:0:0:
432,161,212051,1,0,0:0:0:0:
447,126,212132,6,0,L|456:188,1,40,0|0,3:0|0:0,0:0:0:0:
397,270,212294,2,0,P|391:297|389:322,1,40,0|0,3:0|0:0,0:0:0:0:
311,255,212457,6,0,P|276:254|242:266,1,71.9999978027344,4|0,0:3|0:0,0:0:0:0:
176,334,212781,6,0,P|231:363|292:348,1,128,6|0,3:1|3:0,0:0:0:0:
144,236,213267,1,0,0:0:0:0:
80,316,213430,2,0,L|16:320,1,64,8|0,0:0|0:0,0:0:0:0:
120,116,213754,1,0,3:0:0:0:
44,216,213916,1,8,0:0:0:0:
144,236,214078,6,0,P|192:232|288:232,1,128,0|0,3:0|3:0,0:0:0:0:
318,322,214565,1,0,0:0:0:0:
435,203,214727,1,8,0:0:0:0:
420,304,214889,1,0,0:0:0:0:
342,158,215051,2,0,L|336:84,1,64,0|8,3:0|0:0,0:0:0:0:
425,75,215376,6,0,L|435:203,2,128,0|0|8,3:0|3:0|0:0,0:0:0:0:
342,158,216186,1,0,0:0:0:0:
244,96,216349,1,0,3:0:0:0:
183,243,216511,1,8,0:0:0:0:
127,36,216673,6,0,P|119:100|116:164,1,128,0|0,3:0|3:0,0:0:0:0:
120,328,217159,1,0,0:0:0:0:
183,243,217321,2,0,P|217:236|264:236,1,64,8|0,0:0|0:0,0:0:0:0:
399,295,217646,2,0,P|367:289|336:288,1,64,0|8,3:0|0:0,0:0:0:0:
120,328,217970,6,0,L|247:335,2,128,4|0|8,3:2|3:0|0:0,0:0:0:0:
212,159,218781,1,0,0:0:0:0:
311,255,218943,1,0,3:0:0:0:
311,255,219105,1,8,0:0:0:0:
336,94,219267,5,0,3:0:0:0:
336,94,219592,2,0,P|333:129|336:172,1,64,0|0,3:0|0:0,0:0:0:0:
474,99,219916,2,0,P|476:65|474:35,1,64,8|0,0:0|0:0,0:0:0:0:
432,192,220240,2,0,P|429:227|432:270,1,64,0|8,3:0|0:0,0:0:0:0:
395,35,220565,6,0,P|338:11|280:34,2,128,4|0|8,3:1|3:0|0:0,0:0:0:0:
334,157,221376,1,0,0:0:0:0:
241,219,221538,2,0,L|232:156,1,64,0|8,3:0|0:0,0:0:0:0:
380,248,221862,6,0,P|376:288|376:316,1,64,0|0,3:0|0:0,0:0:0:0:
241,219,222186,2,0,P|205:219|169:223,1,64,0|0,3:0|0:0,0:0:0:0:
104,296,222511,1,8,0:0:0:0:
104,296,222673,1,0,0:0:0:0:
276,316,222835,1,0,3:0:0:0:
232,156,222997,1,8,0:0:0:0:
136,192,223159,6,0,P|136:228|140:260,1,64,0|0,3:0|0:0,0:0:0:0:
276,316,223484,2,0,P|307:318|339:313,1,64,0|0,3:0|0:0,0:0:0:0:
491,268,223808,1,8,0:0:0:0:
376,157,223970,1,0,0:0:0:0:
432,344,224132,1,0,3:0:0:0:
432,344,224294,1,8,0:0:0:0:
300,224,224457,6,0,L|216:224,1,64,0|0,3:0|0:0,0:0:0:0:
116,140,224781,2,0,L|180:140,1,64,0|0,3:0|0:0,0:0:0:0:
376,157,225105,1,8,0:0:0:0:
300,224,225267,1,0,0:0:0:0:
275,60,225430,2,0,P|276:92|280:124,1,64,0|8,3:0|0:0,0:0:0:0:
387,319,225754,5,0,3:0:0:0:
376,157,225916,1,0,0:0:0:0:
376,157,225997,1,0,0:0:0:0:
376,157,226078,2,0,L|456:156,1,64,0|0,3:0|0:0,0:0:0:0:
264,344,226403,5,0,3:0:0:0:
231,362,226484,1,0,0:0:0:0:
193,361,226565,1,0,0:0:0:0:
161,342,226646,1,0,0:0:0:0:
143,309,226727,1,0,3:0:0:0:
144,272,226808,1,0,0:0:0:0:
164,240,226889,1,0,0:0:0:0:
197,222,226970,1,0,0:0:0:0:
234,223,227051,5,4,3:2:0:0:
234,222,227376,2,0,L|236:144,1,71.9999978027344
321,97,227700,1,0,0:0:0:0:
213,292,227862,1,0,3:0:0:0:
378,318,228024,2,0,L|449:316,1,71.9999978027344,12|4,0:0|0:3,0:0:0:0:
512,274,228349,6,0,P|431:261|408:172,1,160,2|8,3:0|0:0,0:0:0:0:
461,43,228835,1,0,0:0:0:0:
326,176,228997,2,0,P|323:136|321:97,1,80,0|0,0:0|3:0,0:0:0:0:
484,200,229321,1,8,0:0:0:0:
336,63,229484,1,0,0:0:0:0:
259,264,229646,6,0,P|262:318|264:359,1,80,0|0,3:0|0:0,0:0:0:0:
201,132,229970,1,8,0:0:0:0:
52,272,230132,1,0,0:0:0:0:
52,272,230213,1,0,0:0:0:0:
52,272,230294,2,0,P|89:286|137:280,1,80,0|0,0:0|3:0,0:0:0:0:
205,105,230619,1,8,0:0:0:0:
265,233,230781,1,0,0:0:0:0:
47,129,230943,6,0,P|125:115|205:104,1,160,0|8,3:0|0:0,0:0:0:0:
326,176,231430,1,0,0:0:0:0:
170,300,231592,2,0,P|175:243|177:204,1,80,0|0,0:0|3:0,0:0:0:0:
241,366,231916,1,8,0:0:0:0:
201,132,232078,1,0,0:0:0:0:
349,261,232240,6,0,P|395:257|448:253,1,80,0|0,3:0|0:0,0:0:0:0:
282,108,232565,1,8,0:0:0:0:
417,165,232727,1,0,0:0:0:0:
417,165,232808,1,0,0:0:0:0:
417,165,232889,1,0,0:0:0:0:
301,335,233051,1,0,3:0:0:0:
325,176,233213,1,8,0:0:0:0:
291,196,233294,1,0,0:0:0:0:
269,229,233375,1,0,0:0:0:0:
263,268,233456,1,0,0:0:0:0:
275,306,233538,5,0,3:0:0:0:
370,91,233700,1,0,0:0:0:0:
386,363,233862,1,12,0:0:0:0:
291,196,234024,1,0,3:0:0:0:
491,340,234186,1,12,0:0:0:0:
349,261,234349,1,0,3:0:0:0:
454,122,234511,2,0,P|459:184|463:220,1,80,12|0,0:0|0:0,0:0:0:0:
415,21,234835,6,0,P|338:15|291:76,1,160,0|8,3:0|0:0,0:0:0:0:
117,52,235321,1,0,0:0:0:0:
117,52,235403,1,0,0:0:0:0:
117,52,235484,2,0,P|165:49|215:46,1,80,0|0,0:0|3:0,0:0:0:0:
370,92,235808,1,8,0:0:0:0:
349,261,235970,1,0,0:0:0:0:
199,140,236132,6,0,B|213:177|255:188|255:188|357:177,1,160,0|8,3:0|0:0,0:0:0:0:
454,122,236619,1,0,0:0:0:0:
349,261,236781,2,0,P|307:266|259:271,1,80,0|0,0:0|3:0,0:0:0:0:
370,92,237105,1,8,0:0:0:0:
431,281,237267,1,0,0:0:0:0:
431,281,237349,1,4,0:3:0:0:
431,281,237430,5,0,3:0:0:0:
257,188,237592,1,8,0:0:0:0:
369,341,237754,1,0,3:0:0:0:
370,92,237916,1,8,0:0:0:0:
434,241,238078,2,0,P|432:267|429:298,1,40,0|0,3:0|0:0,0:0:0:0:
337,179,238240,1,0,3:0:0:0:
254,366,238403,1,8,0:0:0:0:
104,243,238565,1,4,0:3:0:0:
104,243,238646,1,4,0:3:0:0:
104,243,238727,6,0,P|160:296|239:278,1,160,2|8,3:0|0:0,0:0:0:0:
286,102,239213,1,0,0:0:0:0:
182,215,239376,2,0,P|179:175|177:136,1,80,0|0,0:0|3:0,0:0:0:0:
206,25,239700,1,8,0:0:0:0:
54,121,239862,1,0,0:0:0:0:
257,188,240024,6,0,P|296:183|336:178,1,80,0|0,3:0|0:0,0:0:0:0:
443,37,240349,1,8,0:0:0:0:
429,212,240511,2,0,P|456:216|481:219,2,40,0|0|0,0:0|0:0|0:0,0:0:0:0:
321,87,240835,1,0,3:0:0:0:
321,87,240916,1,0,0:0:0:0:
321,87,240997,1,8,0:0:0:0:
360,262,241159,1,0,0:0:0:0:
443,37,241321,6,0,P|397:97|310:76,1,160,0|8,3:0|0:0,0:0:0:0:
213,9,241808,1,0,0:0:0:0:
250,203,241970,1,0,0:0:0:0:
320,86,242132,1,0,3:0:0:0:
134,115,242294,2,0,P|94:118|50:122,1,80,8|0,0:0|0:0,0:0:0:0:
8,282,242619,6,0,P|11:242|15:198,1,80,0|0,3:0|0:0,0:0:0:0:
76,343,242943,1,8,0:0:0:0:
162,205,243105,1,0,0:0:0:0:
170,243,243186,1,0,0:0:0:0:
196,274,243267,1,0,0:0:0:0:
232,289,243348,1,0,0:0:0:0:
272,287,243430,1,0,3:0:0:0:
275,86,243592,2,0,P|271:125|267:190,1,80,8|0,0:0|0:0,0:0:0:0:
250,203,243835,1,0,0:0:0:0:
250,203,243916,6,0,P|332:224|356:304,1,160,0|8,3:0|0:0,0:0:0:0:
266,375,244403,1,0,0:0:0:0:
433,341,244565,2,0,P|443:303|449:263,1,80,0|0,0:0|3:0,0:0:0:0:
361,118,244889,1,8,0:0:0:0:
357,288,245051,1,0,0:0:0:0:
275,86,245213,6,0,L|233:81,3,40,0|0|0|0,3:0|0:0|0:0|0:0,0:0:0:0:
346,34,245538,2,0,P|383:31|408:26,3,40,8|0|0|0,0:0|0:0|0:0|0:0,0:0:0:0:
476,76,245862,5,0,0:0:0:0:
488,113,245943,1,0,0:0:0:0:
480,152,246024,1,0,3:0:0:0:
455,183,246105,1,0,0:0:0:0:
418,197,246186,2,0,P|391:201|367:204,1,40,4|0,0:3|0:0,0:0:0:0:
250,203,246349,1,8,0:0:0:0:
250,203,246430,1,4,0:3:0:0:
250,203,246511,6,0,P|214:256|242:341,1,160,2|8,3:0|0:0,0:0:0:0:
369,280,246997,1,0,0:0:0:0:
311,134,247159,1,0,0:0:0:0:
269,362,247321,1,0,3:0:0:0:
149,210,247484,2,0,P|190:206|240:202,1,80,8|0,0:0|0:0,0:0:0:0:
101,287,247808,6,0,P|55:280|16:275,1,80,0|0,3:0|0:0,0:0:0:0:
180,118,248132,1,8,0:0:0:0:
242,342,248294,1,0,0:0:0:0:
242,342,248376,1,0,0:0:0:0:
242,342,248457,1,0,0:0:0:0:
119,195,248619,1,0,3:0:0:0:
311,134,248781,2,0,P|314:173|317:213,1,80,8|0,0:0|0:0,0:0:0:0:
454,250,249105,6,0,P|424:309|331:313,1,160,0|8,3:0|0:0,0:0:0:0:
228,202,249592,1,0,0:0:0:0:
393,95,249754,2,0,P|396:134|399:174,1,80,0|0,0:0|3:0,0:0:0:0:
316,37,250078,1,8,0:0:0:0:
317,213,250240,1,0,0:0:0:0:
158,82,250403,6,0,P|197:85|237:89,1,80,0|0,3:0|0:0,0:0:0:0:
399,174,250727,1,8,0:0:0:0:
316,37,250889,1,0,0:0:0:0:
316,37,250970,1,0,0:0:0:0:
316,37,251051,1,0,0:0:0:0:
150,162,251213,1,0,3:0:0:0:
140,200,251294,1,0,0:0:0:0:
150,239,251375,1,8,0:0:0:0:
175,269,251456,1,0,0:0:0:0:
211,285,251537,1,0,0:0:0:0:
313,126,251700,5,0,3:0:0:0:
256,286,251862,1,0,3:0:0:0:
234,49,252024,1,8,0:0:0:0:
223,204,252186,1,8,0:0:0:0:
326,18,252349,1,0,3:0:0:0:
388,260,252511,1,0,3:0:0:0:
173,123,252673,2,0,P|133:120|93:118,1,80,12|0,0:0|0:0,0:0:0:0:
32,172,252916,1,0,0:0:0:0:
32,172,252997,6,0,P|15:247|68:305,1,160,0|8,3:0|0:0,0:0:0:0:
256,286,253484,1,0,0:0:0:0:
256,286,253565,1,0,0:0:0:0:
256,286,253646,2,0,P|299:290|345:297,1,80,0|0,0:0|3:0,0:0:0:0:
223,204,253970,1,8,0:0:0:0:
97,227,254132,1,0,0:0:0:0:
169,373,254294,6,0,L|183:203,1,160,0|8,3:0|0:0,0:0:0:0:
141,49,254781,1,0,0:0:0:0:
267,192,254943,2,0,P|261:152|256:112,1,80,0|0,0:0|3:0,0:0:0:0:
256,286,255267,1,8,0:0:0:0:
121,137,255430,1,0,0:0:0:0:
121,137,255511,1,0,0:0:0:0:
121,137,255592,5,0,3:0:0:0:
322,54,255754,1,8,0:0:0:0:
182,213,255916,1,0,3:0:0:0:
218,18,256078,1,8,0:0:0:0:
339,239,256240,2,0,P|342:265|344:280,1,40,0|4,0:0|0:3,0:0:0:0:
436,191,256403,1,0,3:0:0:0:
256,112,256565,1,8,0:0:0:0:
256,286,256727,1,8,0:0:0:0:
256,286,256808,1,4,0:3:0:0:
256,286,256889,6,0,P|296:352|376:360,1,160,2|8,3:0|0:0,0:0:0:0:
462,215,257376,1,0,0:0:0:0:
299,130,257538,2,0,P|302:178|305:228,1,80,0|0,0:0|3:0,0:0:0:0:
364,51,257862,2,0,P|410:47|460:40,1,80,8|0,0:0|0:0,0:0:0:0:
267,27,258186,5,0,3:0:0:0:
303,209,258349,1,0,0:0:0:0:
456,74,258511,1,8,0:0:0:0:
258,119,258673,2,0,P|238:117|218:115,2,40,0|0|0,0:0|0:0|0:0,0:0:0:0:
388,260,258997,1,0,3:0:0:0:
223,213,259159,2,0,P|264:211|308:208,1,80,8|0,0:0|0:0,0:0:0:0:
510,179,259484,6,0,P|483:139|354:151,1,160,0|8,3:0|0:0,0:0:0:0:
304,297,259970,1,0,0:0:0:0:
467,351,260132,2,0,P|470:294|471:261,1,80,0|0,0:0|3:0,0:0:0:0:
379,129,260457,1,8,0:0:0:0:
380,342,260619,1,0,0:0:0:0:
143,216,260781,6,0,P|221:212|313:207,1,160,0|8,3:0|0:0,0:0:0:0:
443,248,261267,1,0,0:0:0:0:
427,59,261430,1,0,0:0:0:0:
329,205,261592,1,0,3:0:0:0:
507,178,261754,2,0,P|502:133|497:89,1,80,8|0,0:0|0:0,0:0:0:0:
470,271,262078,5,2,3:2:0:0:
287,102,262240,1,2,0:0:0:0:
427,59,262403,1,10,0:0:0:0:
385,315,262565,1,2,0:0:0:0:
318,120,262727,1,2,0:0:0:0:
507,178,262889,1,2,3:2:0:0:
302,288,263051,2,0,P|297:237|294:185,1,80,8|2,0:0|0:0,0:0:0:0:
385,315,263376,5,2,3:2:0:0:
216,165,263538,1,2,0:0:0:0:
216,165,263619,1,0,0:0:0:0:
216,165,263700,1,10,0:0:0:0:
402,138,263862,1,2,0:0:0:0:
213,256,264024,2,0,P|168:247|135:242,1,80,2|2,0:0|3:2,0:0:0:0:
283,93,264349,1,10,0:0:0:0:
383,279,264511,1,0,0:0:0:0:
216,165,264673,5,2,3:2:0:0:
236,345,264835,1,2,0:0:0:0:
295,208,264997,1,8,0:0:0:0:
97,256,265159,1,2,0:0:0:0:
97,256,265240,1,4,0:3:0:0:
97,256,265321,1,2,0:0:0:0:
336,305,265484,1,2,3:2:0:0:
129,105,265646,2,0,P|132:159|136:204,1,80,10|2,0:0|0:0,0:0:0:0:
194,37,265970,5,4,3:2:0:0:
97,256,266132,1,8,0:0:0:0:
215,119,266294,1,0,3:0:0:0:
236,345,266457,1,8,0:0:0:0:
292,157,266619,1,0,3:0:0:0:
298,196,266700,1,0,0:0:0:0:
304,235,266781,1,0,3:0:0:0:
351,373,266943,2,0,P|353:333|355:294,1,80,8|0,0:0|3:0,0:0:0:0:
397,58,267267,6,0,P|400:98|402:138,1,80,4|0,3:1|0:0,0:0:0:0:
504,220,267592,1,8,0:0:0:0:
298,196,267754,2,0,P|254:196|199:200,1,80,0|0,0:0|0:0,0:0:0:0:
112,136,268078,1,0,3:0:0:0:
32,236,268240,2,0,P|37:276|40:320,1,80,8|0,0:0|0:0,0:0:0:0:
212,116,268565,5,0,3:0:0:0:
132,284,268727,2,0,P|126:324|124:368,1,80,0|8,0:0|0:0,0:0:0:0:
215,211,269051,1,0,0:0:0:0:
211,19,269213,1,0,0:0:0:0:
130,164,269376,1,0,3:0:0:0:
295,64,269538,2,0,L|380:60,1,80,8|0,0:0|0:0,0:0:0:0:
297,160,269862,5,0,3:0:0:0:
129,67,270024,1,0,0:0:0:0:
295,64,270186,1,0,3:0:0:0:
213,256,270349,1,0,0:0:0:0:
212,116,270511,5,0,3:0:0:0:
304,320,270673,1,0,0:0:0:0:
297,160,270835,1,0,3:0:0:0:
204,368,270997,1,0,0:0:0:0:
64,282,271159,5,0,3:0:0:0:
79,245,271240,1,0,0:0:0:0:
109,220,271321,1,0,3:0:0:0:
148,213,271402,1,0,0:0:0:0:
186,226,271483,1,0,3:0:0:0:
212,255,271564,1,0,0:0:0:0:
244,289,271646,1,0,3:0:0:0:
289,295,271727,1,0,0:0:0:0:
329,272,271808,1,0,3:0:0:0:
346,230,271889,1,0,0:0:0:0:
333,186,271970,1,0,3:0:0:0:
296,160,272051,1,0,0:0:0:0:
252,168,272132,6,0,L|260:80,1,71.9999978027344,4|0,0:3|0:0,0:0:0:0:
504,220,272457,6,0,P|468:228|436:240,1,64,6|0,3:1|0:0,0:0:0:0:
289,295,272781,2,0,P|320:301|350:312,1,64,8|0,0:0|0:0,0:0:0:0:
364,148,273105,1,0,0:0:0:0:
449,315,273268,1,0,0:0:0:0:
276,196,273430,1,8,0:0:0:0:
200,340,273592,1,0,0:0:0:0:
64,282,273754,6,0,P|60:318|60:348,2,64,0|0|8,3:0|0:0|0:0,0:0:0:0:
276,196,274240,1,0,0:0:0:0:
112,136,274403,1,0,0:0:0:0:
212,255,274565,1,0,3:0:0:0:
212,116,274727,2,0,P|216:80|224:40,1,64,8|0,0:0|0:0,0:0:0:0:
340,116,275051,5,0,3:0:0:0:
289,295,275213,1,0,0:0:0:0:
442,237,275375,1,8,0:0:0:0:
276,196,275538,2,0,L|118:202,1,128,0|0,0:0|3:0,0:0:0:0:
56,156,276024,1,8,0:0:0:0:
144,296,276186,1,0,0:0:0:0:
276,196,276349,6,0,P|280:132|276:64,1,128,0|8,3:0|0:0,0:0:0:0:
180,104,276835,1,0,0:0:0:0:
144,296,276997,1,0,0:0:0:0:
360,252,277159,1,0,3:0:0:0:
276,196,277321,1,8,0:0:0:0:
397,58,277484,1,0,0:0:0:0:
360,252,277646,6,0,P|423:248|488:248,1,128,4|8,3:2|0:0,0:0:0:0:
272,296,278132,1,0,0:0:0:0:
144,296,278294,2,0,P|108:292|64:276,1,64,0|0,0:0|3:0,0:0:0:0:
208,180,278619,1,8,0:0:0:0:
208,180,278781,1,0,0:0:0:0:
356,348,278943,5,0,3:0:0:0:
356,348,279268,2,0,P|353:313|348:264,1,64,8|0,0:0|0:0,0:0:0:0:
276,68,279592,1,0,0:0:0:0:
276,68,279754,1,0,3:0:0:0:
429,148,279916,2,0,P|426:180|424:211,1,64,8|0,0:0|0:0,0:0:0:0:
248,288,280240,6,0,L|181:291,1,64,4|0,3:1|0:0,0:0:0:0:
36,280,280565,1,8,0:0:0:0:
116,216,280727,1,0,0:0:0:0:
248,288,280889,2,0,P|244:324|240:364,1,64,0|0,0:0|3:0,0:0:0:0:
208,180,281213,1,8,0:0:0:0:
208,180,281376,1,0,0:0:0:0:
64,64,281538,6,0,L|68:128,1,64,0|0,3:0|0:0,0:0:0:0:
152,312,281862,2,0,L|156:244,1,64,8|0,0:0|0:0,0:0:0:0:
116,216,282105,1,4,0:3:0:0:
116,216,282187,1,0,0:0:0:0:
248,276,282349,1,0,3:0:0:0:
152,312,282511,1,8,0:0:0:0:
212,180,282673,1,0,0:0:0:0:
16,188,282835,6,0,P|16:224|20:256,1,64,0|0,3:0|0:0,0:0:0:0:
248,276,283160,2,0,P|279:278|311:273,1,64,8|0,0:0|0:0,0:0:0:0:
344,240,283403,1,4,0:3:0:0:
344,240,283484,1,0,0:0:0:0:
152,312,283646,1,0,3:0:0:0:
212,180,283808,1,8,0:0:0:0:
284,372,283970,1,0,0:0:0:0:
344,240,284132,5,0,3:0:0:0:
364,148,284294,1,0,0:0:0:0:
248,276,284457,1,8,3:2:0:0:
212,180,284619,1,0,0:0:0:0:
152,312,284781,5,8,3:2:0:0:
308,144,284943,1,0,0:0:0:0:
248,276,285105,1,0,3:0:0:0:
221,52,285267,1,8,0:2:0:0:
79,245,285430,5,0,3:0:0:0:
344,240,285592,1,0,0:0:0:0:
344,240,285673,1,0,0:0:0:0:
344,240,285754,1,0,3:0:0:0:
232,380,285916,1,0,0:0:0:0:
336,48,286078,1,0,3:0:0:0:
113,115,286240,5,0,0:0:0:0:
137,144,286321,1,0,0:0:0:0:
168,164,286402,1,0,3:0:0:0:
204,175,286484,1,0,0:0:0:0:
241,175,286564,1,0,0:0:0:0:
277,164,286645,1,0,0:0:0:0:
307,144,286726,5,4,3:2:0:0:
307,144,287052,2,0,P|301:188|300:224,1,71.9999978027344
336,344,287376,1,0,0:0:0:0:
386,149,287538,1,0,3:0:0:0:
424,252,287700,2,0,L|478:250,1,47.9999985351563,12|0,0:0|0:0,0:0:0:0:
507,178,287943,1,4,0:3:0:0:
507,178,288024,6,0,P|480:133|386:150,1,160,2|8,3:0|0:0,0:0:0:0:
321,294,288511,1,0,0:0:0:0:
177,205,288673,2,0,P|217:207|257:209,1,80,0|0,0:0|3:0,0:0:0:0:
439,246,288997,1,8,0:0:0:0:
307,144,289159,1,0,0:0:0:0:
234,298,289321,6,0,P|231:337|227:377,1,80,0|0,3:0|0:0,0:0:0:0:
158,187,289646,1,8,0:0:0:0:
320,269,289808,1,0,0:0:0:0:
320,269,289889,1,0,0:0:0:0:
320,269,289970,1,0,0:0:0:0:
143,320,290132,1,0,3:0:0:0:
328,374,290294,2,0,P|324:328|321:293,1,80,8|0,0:0|0:0,0:0:0:0:
158,187,290619,6,0,P|194:191|243:201,1,80,0|0,3:0|0:0,0:0:0:0:
404,236,290943,1,8,0:0:0:0:
367,73,291105,1,0,0:0:0:0:
267,211,291267,2,0,P|271:170|275:122,1,80,0|0,0:0|3:0,0:0:0:0:
321,294,291592,1,8,0:0:0:0:
427,143,291754,1,0,0:0:0:0:
249,41,291916,5,0,3:0:0:0:
267,211,292078,1,0,0:0:0:0:
367,73,292240,1,8,0:0:0:0:
321,294,292403,1,0,0:0:0:0:
321,294,292484,1,0,0:0:0:0:
321,294,292565,1,0,0:0:0:0:
427,143,292727,1,0,3:0:0:0:
510,196,292889,1,8,0:0:0:0:
481,223,292970,1,0,0:0:0:0:
444,237,293051,1,0,0:0:0:0:
404,236,293132,1,0,0:0:0:0:
368,220,293213,5,0,3:0:0:0:
274,131,293376,1,0,0:0:0:0:
427,143,293538,1,8,0:0:0:0:
217,62,293700,1,0,0:0:0:0:
368,220,293862,1,0,0:0:0:0:
301,46,294024,1,0,3:0:0:0:
192,246,294186,2,0,P|147:241|111:238,1,80,12|0,0:0|0:0,0:0:0:0:
253,310,294511,6,0,P|292:305|332:302,1,80,0|0,3:0|0:0,0:0:0:0:
198,165,294835,1,8,0:0:0:0:
368,220,294997,1,0,0:0:0:0:
368,220,295078,1,0,0:0:0:0:
368,220,295159,2,0,P|407:224|447:227,1,80,0|0,0:0|3:0,0:0:0:0:
404,346,295484,1,8,0:0:0:0:
286,224,295646,1,0,0:0:0:0:
490,162,295808,6,0,P|524:230|484:295,1,160,0|8,3:0|0:0,0:0:0:0:
368,220,296294,1,0,0:0:0:0:
414,54,296457,2,0,P|409:100|405:144,1,80,0|0,0:0|3:0,0:0:0:0:
286,224,296781,1,8,0:0:0:0:
256,32,296943,1,0,0:0:0:0:
256,32,297024,1,4,0:3:0:0:
256,32,297105,5,0,3:0:0:0:
265,250,297267,1,8,0:0:0:0:
315,116,297430,1,0,3:0:0:0:
180,265,297592,1,8,0:0:0:0:
115,81,297754,2,0,P|119:57|121:38,2,40,0|0|0,3:0|0:0|3:0,0:0:0:0:
286,224,298078,1,8,0:0:0:0:
59,148,298240,1,4,0:3:0:0:
59,148,298321,1,4,0:3:0:0:
59,148,298403,6,0,P|128:167|200:105,1,160,2|8,3:0|0:0,0:0:0:0:
256,208,298889,1,0,0:0:0:0:
394,125,299051,2,0,P|353:120|308:115,1,80,0|0,0:0|3:0,0:0:0:0:
191,268,299376,2,0,P|244:296|304:284,1,120,8|0,0:0|0:0,0:0:0:0:
374,308,299700,6,0,P|335:308|297:319,1,80,0|0,3:0|0:0,0:0:0:0:
257,182,300024,1,8,0:0:0:0:
160,289,300186,1,0,0:0:0:0:
160,289,300267,1,0,0:0:0:0:
160,289,300349,2,0,P|154:328|148:368,1,80,0|0,0:0|3:0,0:0:0:0:
163,194,300673,2,0,P|120:184|51:215,1,120,8|0,0:0|0:0,0:0:0:0:
40,252,300997,5,0,3:0:0:0:
160,289,301159,1,0,0:0:0:0:
257,182,301321,2,0,P|254:142|252:93,1,80,8|0,0:0|0:0,0:0:0:0:
355,247,301646,1,0,0:0:0:0:
436,174,301808,1,0,3:0:0:0:
250,61,301970,1,8,0:0:0:0:
352,211,302132,1,0,0:0:0:0:
449,58,302294,6,0,P|406:51|356:43,1,80,0|0,3:0|0:0,0:0:0:0:
257,182,302619,1,8,0:0:0:0:
334,57,302781,1,0,0:0:0:0:
355,247,302943,2,0,P|352:291|350:334,1,80,0|0,0:0|3:0,0:0:0:0:
436,174,303267,1,8,0:0:0:0:
270,270,303430,1,0,0:0:0:0:
270,270,303511,1,0,0:0:0:0:
270,270,303592,6,0,P|228:265|183:262,1,80,0|0,3:0|0:0,0:0:0:0:
62,207,303916,2,0,P|101:207|143:186,1,80,8|0,0:0|0:0,0:0:0:0:
181,49,304240,1,0,0:0:0:0:
86,123,304403,1,0,3:0:0:0:
238,185,304565,2,0,P|269:182|293:179,1,40,8|0,0:0|0:0,0:0:0:0:
472,234,304727,2,0,P|452:236|432:238,1,40,0|0,0:0|0:0,0:0:0:0:
286,96,304889,5,0,3:0:0:0:
324,104,304970,1,0,0:0:0:0:
353,131,305051,1,0,0:0:0:0:
365,169,305132,1,0,0:0:0:0:
357,208,305213,1,8,0:0:0:0:
349,247,305294,1,0,0:0:0:0:
361,285,305375,1,0,0:0:0:0:
390,312,305456,1,0,0:0:0:0:
429,325,305538,6,0,P|449:322|471:319,1,40,0|0,0:0|0:0,0:0:0:0:
270,270,305700,2,0,P|250:272|230:275,1,40,0|0,3:0|0:0,0:0:0:0:
424,340,305862,6,0,P|444:340|465:343,1,40,4|0,0:3|0:0,0:0:0:0:
274,256,306024,2,0,P|254:255|233:253,1,40,8|4,0:0|0:3,0:0:0:0:
33,331,306186,6,0,P|109:339|146:273,1,160,2|8,3:0|0:0,0:0:0:0:
97,187,306673,1,0,0:0:0:0:
183,99,306835,2,0,P|187:138|191:178,1,80,0|0,0:0|3:0,0:0:0:0:
228,302,307159,2,0,P|223:341|219:381,1,80,8|0,0:0|0:0,0:0:0:0:
268,221,307484,6,0,P|347:214|438:207,1,160,0|8,3:0|0:0,0:0:0:0:
396,87,307970,1,0,0:0:0:0:
396,87,308051,1,0,0:0:0:0:
396,87,308132,2,0,P|441:91|481:95,1,80,0|0,0:0|3:0,0:0:0:0:
317,130,308457,1,8,0:0:0:0:
350,247,308619,1,0,0:0:0:0:
395,86,308781,6,0,P|335:39|260:58,1,160,0|8,3:0|0:0,0:0:0:0:
208,138,309267,1,0,0:0:0:0:
147,56,309430,2,0,P|197:52|235:49,1,80,0|0,0:0|3:0,0:0:0:0:
113,148,309754,2,0,P|71:139|33:138,1,80,8|0,0:0|0:0,0:0:0:0:
168,213,310078,5,0,3:0:0:0:
198,222,310159,1,0,0:0:0:0:
230,219,310240,1,0,0:0:0:0:
258,205,310321,1,0,0:0:0:0:
279,181,310402,1,8,0:0:0:0:
208,138,310565,1,0,0:0:0:0:
302,278,310727,1,0,0:0:0:0:
302,278,310808,1,0,0:0:0:0:
302,278,310889,2,0,P|336:273|362:270,1,40,0|0,3:0|0:0,0:0:0:0:
208,313,311051,2,0,P|188:310|168:307,3,40,8|0|0|0,0:0|0:0|0:0|0:0,0:0:0:0:
138,334,311376,6,0,P|97:319|49:318,1,80,0|0,3:0|0:0,0:0:0:0:
168,213,311700,1,8,0:0:0:0:
235,350,311862,1,0,0:0:0:0:
66,234,312024,2,0,P|71:188|76:150,1,80,0|0,0:0|3:0,0:0:0:0:
144,39,312349,1,12,0:0:0:0:
168,213,312511,1,0,0:0:0:0:
58,57,312673,6,0,P|81:101|197:108,1,160,0|8,3:0|0:0,0:0:0:0:
311,55,313159,1,0,0:0:0:0:
311,55,313240,1,4,0:3:0:0:
311,55,313321,2,0,P|270:48|231:43,1,80,0|0,0:0|3:0,0:0:0:0:
254,188,313646,1,8,0:0:0:0:
338,83,313808,1,0,0:0:0:0:
503,158,313970,6,0,P|463:161|423:164,1,80,0|0,3:0|0:0,0:0:0:0:
392,190,314213,1,0,0:0:0:0:
392,190,314294,2,0,P|395:229|383:278,1,80,8|0,0:0|0:0,0:0:0:0:
259,333,314619,1,0,0:0:0:0:
254,188,314781,1,0,3:0:0:0:
135,315,314943,2,0,P|183:313|219:311,1,80,8|0,0:0|0:0,0:0:0:0:
259,333,315186,1,4,0:3:0:0:
259,333,315267,5,0,3:0:0:0:
283,157,315430,1,8,0:0:0:0:
349,352,315592,1,0,3:0:0:0:
283,157,315754,1,8,0:0:0:0:
142,213,315916,2,0,P|107:206|91:202,3,40,0|0|0|0,0:0|0:0|3:0|0:0,0:0:0:0:
66,220,316240,1,8,0:0:0:0:
206,99,316403,1,0,0:0:0:0:
206,99,316484,1,4,0:3:0:0:
206,99,316565,6,0,P|241:137|216:234,1,160,4|8,3:2|0:0,0:0:0:0:
122,120,317051,1,0,0:0:0:0:
283,157,317213,2,0,P|323:153|367:151,1,80,0|0,0:0|3:0,0:0:0:0:
273,40,317538,1,8,0:0:0:0:
388,169,317700,1,0,0:0:0:0:
457,57,317862,6,0,P|413:52|365:45,1,80,0|0,3:0|0:0,0:0:0:0:
328,231,318186,1,8,0:0:0:0:
473,147,318349,2,0,P|503:150|519:151,2,40,0|0|0,0:0|0:0|0:0,0:0:0:0:
362,151,318673,1,0,3:0:0:0:
414,291,318835,2,0,P|417:337|420:384,1,80,8|0,0:0|0:0,0:0:0:0:
328,231,319159,5,0,3:0:0:0:
442,276,319321,1,0,0:0:0:0:
331,351,319484,2,0,P|294:348|248:343,1,80,8|0,0:0|0:0,0:0:0:0:
170,266,319808,2,0,P|207:263|253:258,1,80,0|0,0:0|3:0,0:0:0:0:
205,137,320132,1,8,0:0:0:0:
147,270,320294,1,0,0:0:0:0:
146,76,320457,6,0,P|216:52|284:104,1,160,0|8,3:0|0:0,0:0:0:0:
249,258,320943,1,0,0:0:0:0:
362,151,321105,2,0,P|366:198|369:241,1,80,0|0,0:0|3:0,0:0:0:0:
354,55,321430,1,8,0:0:0:0:
205,137,321592,1,0,0:0:0:0:
382,143,321754,6,0,L|396:321,1,160,0|0,3:0|3:0,0:0:0:0:
275,182,322240,1,0,0:0:0:0:
310,329,322403,2,0,P|270:325|231:323,1,80,0|0,3:0|0:0,0:0:0:0:
394,302,322727,1,0,3:0:0:0:
198,246,322889,1,0,0:0:0:0:
198,246,322970,1,0,0:0:0:0:
198,246,323051,6,0,P|161:249|140:254,3,40,0|0|0|0,3:0|0:0|0:0|0:0,0:0:0:0:
124,227,323376,2,0,P|101:225|69:221,3,40,0|0|0|0,3:0|0:0|0:0|0:0,0:0:0:0:
67,191,323700,5,0,3:0:0:0:
61,158,323781,1,0,0:0:0:0:
61,126,323862,1,0,0:0:0:0:
68,94,323943,1,0,0:0:0:0:
82,60,324024,5,0,3:0:0:0:
118,75,324105,1,0,0:0:0:0:
158,76,324186,1,0,0:0:0:0:
189,62,324267,1,0,0:0:0:0:
217,34,324349,6,0,B|296:28|296:28|336:48|384:40,1,160,2|8,3:0|0:0,0:0:0:0:
440,132,324836,1,0,0:0:0:0:
387,232,324998,2,0,P|380:271|378:311,1,80,0|0,0:0|3:0,0:0:0:0:
500,228,325322,1,8,0:0:0:0:
362,151,325484,1,0,0:0:0:0:
209,240,325647,6,0,L|288:236,1,80,0|0,3:0|0:0,0:0:0:0:
160,340,325970,2,0,L|81:336,1,80,8|0,0:0|0:0,0:0:0:0:
36,316,326214,1,0,0:0:0:0:
36,316,326295,1,0,0:0:0:0:
122,120,326458,1,0,3:0:0:0:
209,240,326620,2,0,P|260:240|340:228,1,120,8|0,0:0|0:0,0:0:0:0:
447,310,326944,6,0,L|368:300,1,80,0|0,3:0|0:0,0:0:0:0:
209,240,327268,1,8,0:0:0:0:
256,104,327430,1,0,0:0:0:0:
468,168,327592,6,0,L|388:178,1,80,0|0,0:0|3:0,0:0:0:0:
311,55,327917,1,8,0:0:0:0:
328,230,328079,1,0,0:0:0:0:
212,164,328241,5,0,3:0:0:0:
259,333,328403,1,0,0:0:0:0:
404,256,328566,1,8,0:0:0:0:
154,274,328728,1,0,0:0:0:0:
154,274,328809,1,0,0:0:0:0:
154,274,328890,2,0,P|144:328|140:368,1,80,0|0,0:0|3:0,0:0:0:0:
212,164,329213,1,8,0:0:0:0:
251,161,329294,1,0,0:0:0:0:
291,158,329375,1,0,0:0:0:0:
331,155,329456,1,0,0:0:0:0:
371,152,329538,5,0,3:0:0:0:
344,308,329701,1,0,3:0:0:0:
291,158,329863,2,0,L|288:64,1,80,8|8,0:0|0:0,0:0:0:0:
371,152,330186,1,0,3:0:0:0:
494,255,330349,1,0,3:0:0:0:
344,308,330511,2,0,L|256:312,1,80,12|0,0:0|0:0,0:0:0:0:
154,274,330755,1,0,0:0:0:0:
154,274,330835,6,0,L|233:277,1,80,0|0,3:0|0:0,0:0:0:0:
291,158,331160,1,8,0:0:0:0:
264,311,331322,1,0,0:0:0:0:
264,311,331403,1,0,0:0:0:0:
264,311,331485,2,0,L|344:308,1,80,0|0,0:0|3:0,0:0:0:0:
472,234,331809,2,0,P|432:194|380:218,1,120,8|0,0:0|0:0,0:0:0:0:
472,234,332133,6,0,L|468:142,1,80,0|0,3:0|0:0,0:0:0:0:
291,158,332457,1,8,0:0:0:0:
376,44,332619,1,0,0:0:0:0:
380,217,332781,6,0,L|384:305,1,80,0|0,0:0|3:0,0:0:0:0:
291,158,333105,1,8,0:0:0:0:
264,311,333267,1,0,0:0:0:0:
264,311,333431,5,0,3:0:0:0:
217,62,333593,1,8,0:0:0:0:
154,274,333755,1,0,3:0:0:0:
91,155,333917,1,8,0:0:0:0:
80,335,334079,2,0,L|76:384,1,40,0|4,0:0|0:3,0:0:0:0:
232,224,334241,1,0,3:0:0:0:
378,311,334403,1,8,0:0:0:0:
256,104,334565,1,8,0:0:0:0:
256,104,334647,1,4,0:3:0:0:
256,104,334728,6,0,B|177:107|177:107|140:128|99:112,1,160,2|8,3:0|0:0,0:0:0:0:
328,44,335214,1,0,0:0:0:0:
380,217,335376,2,0,L|384:297,1,80,0|0,0:0|3:0,0:0:0:0:
256,104,335700,1,8,0:0:0:0:
198,222,335862,1,0,0:0:0:0:
132,28,336025,6,0,P|144:12|160:0,2,40,0|0|0,3:0|0:0|0:0,0:0:0:0:
68,196,336349,2,0,L|76:276,1,80,8|0,0:0|0:0,0:0:0:0:
99,112,336674,1,0,0:0:0:0:
32,352,336836,1,0,3:0:0:0:
213,313,336997,2,0,P|237:262|198:222,1,120,8|0,0:0|0:0,0:0:0:0:
272,256,337322,6,0,P|311:256|351:252,1,80,0|0,3:0|0:0,0:0:0:0:
436,174,337646,1,8,0:0:0:0:
396,340,337808,1,0,0:0:0:0:
256,104,337970,2,0,P|216:107|176:107,1,80,0|0,0:0|3:0,0:0:0:0:
75,275,338294,1,8,0:0:0:0:
40,144,338457,1,0,0:0:0:0:
336,144,338619,6,0,P|344:108|332:52,1,80,0|0,3:0|0:0,0:0:0:0:
272,256,338943,1,8,0:0:0:0:
368,348,339105,1,0,0:0:0:0:
368,348,339187,1,0,0:0:0:0:
368,348,339267,2,0,L|447:344,1,80,0|0,0:0|3:0,0:0:0:0:
200,184,339592,1,8,0:0:0:0:
176,221,339673,1,0,0:0:0:0:
171,266,339754,1,0,0:0:0:0:
185,308,339835,1,0,0:0:0:0:
216,341,339916,5,2,3:2:0:0:
336,172,340079,1,2,0:0:0:0:
272,256,340241,1,2,3:2:0:0:
176,107,340404,1,2,0:0:0:0:
376,272,340565,2,0,L|456:268,1,80,10|2,0:0|3:2,0:0:0:0:
276,88,340890,1,2,0:0:0:0:
216,341,341051,1,2,0:0:0:0:
412,200,341213,5,2,3:2:0:0:
276,88,341376,1,2,0:0:0:0:
376,188,341538,1,2,3:2:0:0:
156,160,341700,1,2,0:0:0:0:
412,200,341862,2,0,L|312:204,1,80,10|2,0:0|3:2,0:0:0:0:
185,308,342186,1,2,0:0:0:0:
259,58,342349,1,2,0:0:0:0:
376,272,342511,5,6,3:2:0:0:
251,161,342673,1,2,0:0:0:0:
316,352,342835,1,2,3:2:0:0:
102,204,342997,1,2,0:0:0:0:
376,160,343159,5,10,0:0:0:0:
185,308,343321,1,2,3:2:0:0:
153,71,343484,1,2,0:0:0:0:
456,268,343646,1,2,0:0:0:0:
456,268,343727,1,0,0:0:0:0:
456,268,343808,5,4,0:0:0:0:
44,231,345105,6,0,B|87:156|183:162|222:199|222:199|224:169|237:108|261:123|327:145|365:-48|148:-120|79:67|137:180|228:151|282:135|292:151|317:148|317:148|298:174|281:232|313:253|313:253|343:277|311:351|311:351|349:320|395:315|447:336|447:336|484:289|482:223|410:193|362:242|362:242|335:228|288:230|255:271|255:271|254:312|241:354|196:393|131:395|76:351|61:296|93:224|148:223|192:249|174:286,1,1708.47457627119,8|0,3:1|0:0,0:0:0:0:
