osu file format v14

[General]
AudioFilename: audio.mp3
AudioLeadIn: 0
PreviewTime: 286960
Countdown: 0
SampleSet: Soft
StackLeniency: 0.7
Mode: 0
LetterboxInBreaks: 0
EpilepsyWarning: 1
WidescreenStoryboard: 1

[Editor]
Bookmarks: 22053,42810,63567,84324,105080,123242,143999,164756,186810,207567,228324,246486,267242,287999,324324
DistanceSpacing: 1.3
BeatDivisor: 4
GridSize: 32
TimelineZoom: 1

[Metadata]
Title:chrono diver -fragment-
TitleUnicode:chrono diver -fragment-
Artist:Nekomata Master feat. Misawa Aki
ArtistUnicode:猫叉Master feat. 三澤秋
Creator:Sarawatlism
Version:Chronological
Source:beatmania IIDX 22 PENDUAL
Tags:follow slowly 佐藤直之 Naoyuki Sato DnB Drum and Bass BEMANI KONAMI ohm002 [_lost_] conner c_o_n_n_e_r BaAR_Vendel imaginative video game japanese electronic pop jpop j-pop jp female vocals vocalist Drum'n'Bass
BeatmapID:3381810
BeatmapSetID:1656851

[Difficulty]
HPDrainRate:6
CircleSize:4
OverallDifficulty:9
ApproachRate:9.3
SliderMultiplier:1.93
SliderTickRate:1

[Events]
//Background and Video events
0,0,"BG.jpg",0,0
//Break Periods
2,34109,37085
//Storyboard Layer 0 (Background)
//Storyboard Layer 1 (Fail)
//Storyboard Layer 2 (Pass)
//Storyboard Layer 3 (Foreground)
//Storyboard Layer 4 (Overlay)
//Storyboard Sound Samples

[TimingPoints]
1315,324.324324324324,4,2,1,35,1,0
6423,-100,4,2,1,5,0,0
6504,-100,4,2,1,35,0,0
11206,-100,4,2,1,5,0,0
11369,-100,4,2,1,35,0,0
11693,-200,4,2,1,35,0,0
19152,-333.333333333333,4,2,1,35,0,0
22071,-200,4,2,1,35,0,0
41531,-133.333333333333,4,2,1,35,0,0
42179,-100,4,2,1,35,0,0
42828,-125,4,2,1,45,0,0
46963,-125,4,2,1,5,0,0
47044,-125,4,2,1,45,0,0
52152,-125,4,2,1,5,0,0
52233,-125,4,2,1,45,0,0
52882,-100,4,2,1,45,0,0
53125,-100,4,2,1,5,0,0
53206,-111.111111111111,4,2,1,55,0,0
57341,-111.111111111111,4,2,1,5,0,0
57423,-111.111111111111,4,2,1,55,0,0
59693,-111.111111111111,4,2,1,70,0,0
60017,-100,4,2,1,70,0,0
62612,-200,4,2,1,70,0,0
63260,-83.3333333333333,4,2,1,70,0,0
63503,-83.3333333333333,4,2,1,5,0,0
63585,-76.9230769230769,4,2,1,65,0,0
63828,-76.9230769230769,4,2,1,5,0,0
63909,-100,4,2,1,65,0,0
66422,-100,4,2,1,5,0,0
66504,-100,4,2,1,65,0,0
67720,-100,4,2,1,5,0,0
67801,-100,4,2,1,65,0,0
68125,-76.9230769230769,4,2,1,65,0,0
68450,-66.6666666666667,4,2,1,65,0,0
68774,-100,4,2,1,65,0,0
69017,-100,4,2,1,5,0,0
69098,-100,4,2,1,65,0,0
71612,-100,4,2,1,5,0,0
71693,-100,4,2,1,65,0,0
71855,-133.333333333333,4,2,1,65,0,0
72828,-76.9230769230769,4,2,1,65,0,0
73639,-133.333333333333,4,2,1,65,0,0
73882,-133.333333333333,4,2,1,5,0,0
73963,-76.9230769230769,4,2,1,65,0,0
74206,-76.9230769230769,4,2,1,5,0,0
74287,-100,4,2,1,65,0,0
76800,-100,4,2,1,5,0,0
76882,-100,4,2,1,65,0,0
78504,-76.9230769230769,4,2,1,65,0,0
78828,-66.6666666666667,4,2,1,65,0,0
79152,-100,4,2,1,65,0,0
79395,-100,4,2,1,5,0,0
79477,-100,4,2,1,65,0,0
81990,-100,4,2,1,5,0,0
82071,-100,4,2,1,65,0,0
83206,-76.9230769230769,4,2,1,65,0,0
84017,-133.333333333333,4,2,1,65,0,0
84260,-133.333333333333,4,2,1,5,0,0
84342,-83.3333333333333,4,2,1,70,0,0
84585,-83.3333333333333,4,2,1,5,0,0
84666,-83.3333333333333,4,2,1,70,0,0
85639,-76.9230769230769,4,2,1,70,0,0
89206,-71.4285714285714,4,2,1,70,0,0
89449,-71.4285714285714,4,2,1,5,0,0
89531,-125,4,2,1,60,0,0
92044,-125,4,2,1,5,0,0
92125,-125,4,2,1,60,0,0
93666,-125,4,2,1,5,0,0
93747,-125,4,2,1,60,0,0
96260,-125,4,2,1,5,0,0
96342,-125,4,2,1,60,0,0
98855,-125,4,2,1,5,0,0
98936,-125,4,2,1,60,0,0
99909,-125,4,2,1,70,0,0
101449,-125,4,2,1,5,0,0
101531,-125,4,2,1,70,0,0
103152,-71.4285714285714,4,2,1,70,0,0
104125,-166.666666666667,4,2,1,70,0,0
104368,-166.666666666667,4,2,1,5,0,0
104450,-166.666666666667,4,2,1,70,0,0
104774,-66.6666666666667,4,2,1,70,0,0
105098,-66.6666666666667,4,2,1,85,0,1
105341,-66.6666666666667,4,2,1,5,0,1
105423,-76.9230769230769,4,2,1,85,0,1
106639,-76.9230769230769,4,2,1,5,0,1
106720,-76.9230769230769,4,2,1,85,0,1
109963,-100,4,2,1,85,0,1
110206,-100,4,2,1,5,0,1
110287,-133.333333333333,4,2,1,85,0,1
111260,-55.5555555555556,4,2,1,85,0,1
112233,-76.9230769230769,4,2,1,85,0,1
113125,-76.9230769230769,4,2,1,5,0,1
113206,-76.9230769230769,4,2,1,85,0,1
115152,-100,4,2,1,85,0,1
115396,-100,4,2,1,85,0,0
115477,-66.6666666666667,4,2,1,85,0,1
115720,-66.6666666666667,4,2,1,5,0,1
115801,-76.9230769230769,4,2,1,85,0,1
117017,-76.9230769230769,4,2,1,5,0,1
117099,-76.9230769230769,4,2,1,85,0,1
120909,-76.9230769230769,4,2,1,5,0,1
120990,-76.9230769230769,4,2,1,85,0,1
123179,-76.9230769230769,4,2,1,85,0,0
123260,-76.9230769230769,4,2,1,85,0,1
123503,-76.9230769230769,4,2,1,5,0,1
123585,-76.9230769230769,4,2,1,85,0,1
124801,-76.9230769230769,4,2,1,5,0,1
124882,-76.9230769230769,4,2,1,85,0,1
126098,-76.9230769230769,4,2,1,5,0,1
126179,-76.9230769230769,4,2,1,85,0,1
128125,-100,4,2,1,85,0,1
128368,-100,4,2,1,5,0,1
128450,-100,4,2,1,85,0,1
128774,-133.333333333333,4,2,1,85,0,1
129423,-55.5555555555556,4,2,1,85,0,1
129747,-76.9230769230769,4,2,1,85,0,1
129990,-76.9230769230769,4,2,1,5,0,1
130071,-76.9230769230769,4,2,1,85,0,1
130963,-76.9230769230769,4,2,1,5,0,1
131044,-76.9230769230769,4,2,1,85,0,1
133558,-76.9230769230769,4,2,1,85,0,0
133639,-76.9230769230769,4,2,1,85,0,1
133882,-76.9230769230769,4,2,1,5,0,1
133963,-76.9230769230769,4,2,1,85,0,1
135179,-76.9230769230769,4,2,1,5,0,1
135261,-76.9230769230769,4,2,1,85,0,1
136476,-76.9230769230769,4,2,1,5,0,1
136558,-76.9230769230769,4,2,1,85,0,1
138828,-100,4,2,1,80,0,0
139477,-125,4,2,1,80,0,0
141423,-100,4,2,1,80,0,0
141747,-83.3333333333333,4,2,1,80,0,0
142071,-71.4285714285714,4,2,1,80,0,0
142396,-62.5,4,2,1,80,0,0
142720,-62.5,4,2,1,75,0,0
144017,-111.111111111111,4,2,1,60,0,1
144098,-111.111111111111,4,2,1,60,0,0
150422,-111.111111111111,4,2,1,5,0,0
150504,-111.111111111111,4,2,1,60,0,0
153260,-83.3333333333333,4,2,1,60,0,0
154071,-133.333333333333,4,2,1,60,0,0
154314,-133.333333333333,4,2,1,5,0,0
154396,-111.111111111111,4,2,1,60,0,0
161855,-83.3333333333333,4,2,1,60,0,0
164774,-166.666666666667,4,2,1,55,0,0
167369,-142.857142857143,4,2,1,55,0,0
168666,-125,4,2,1,55,0,0
169963,-166.666666666667,4,2,1,55,0,0
171260,-142.857142857143,4,2,1,55,0,0
172558,-125,4,2,1,55,0,0
174179,-100,4,2,1,55,0,0
174504,-83.3333333333333,4,2,1,55,0,0
174828,-71.4285714285714,4,2,1,55,0,0
186666,-71.4285714285714,4,2,1,5,0,0
186828,-76.9230769230769,4,2,1,65,0,0
187071,-76.9230769230769,4,2,1,5,0,0
187152,-100,4,2,1,65,0,0
189665,-100,4,2,1,5,0,0
189747,-100,4,2,1,65,0,0
190963,-100,4,2,1,5,0,0
191044,-100,4,2,1,65,0,0
191369,-76.9230769230769,4,2,1,65,0,0
191693,-66.6666666666667,4,2,1,65,0,0
192017,-100,4,2,1,65,0,0
192260,-100,4,2,1,5,0,0
192342,-100,4,2,1,65,0,0
194855,-100,4,2,1,5,0,0
194936,-100,4,2,1,65,0,0
196071,-76.9230769230769,4,2,1,65,0,0
196882,-133.333333333333,4,2,1,65,0,0
197125,-133.333333333333,4,2,1,5,0,0
197206,-76.9230769230769,4,2,1,65,0,0
197449,-76.9230769230769,4,2,1,5,0,0
197531,-100,4,2,1,65,0,0
200043,-100,4,2,1,5,0,0
200125,-100,4,2,1,65,0,0
201747,-76.9230769230769,4,2,1,65,0,0
202071,-66.6666666666667,4,2,1,65,0,0
202396,-100,4,2,1,65,0,0
202639,-100,4,2,1,5,0,0
202720,-100,4,2,1,65,0,0
205233,-100,4,2,1,5,0,0
205314,-100,4,2,1,65,0,0
206449,-76.9230769230769,4,2,1,65,0,0
207260,-133.333333333333,4,2,1,65,0,0
207503,-133.333333333333,4,2,1,5,0,0
207585,-83.3333333333333,4,2,1,70,0,0
207828,-83.3333333333333,4,2,1,5,0,0
207909,-83.3333333333333,4,2,1,70,0,0
208882,-76.9230769230769,4,2,1,70,0,0
212450,-71.4285714285714,4,2,1,70,0,0
212693,-71.4285714285714,4,2,1,5,0,0
212774,-125,4,2,1,60,0,0
215287,-125,4,2,1,5,0,0
215368,-125,4,2,1,60,0,0
216909,-125,4,2,1,5,0,0
216990,-125,4,2,1,60,0,0
219503,-125,4,2,1,5,0,0
219585,-125,4,2,1,60,0,0
222098,-125,4,2,1,5,0,0
222179,-125,4,2,1,60,0,0
223152,-125,4,2,1,70,0,0
224692,-125,4,2,1,5,0,0
224774,-125,4,2,1,70,0,0
226395,-71.4285714285714,4,2,1,70,0,0
227369,-166.666666666667,4,2,1,70,0,0
227612,-166.666666666667,4,2,1,5,0,0
227693,-166.666666666667,4,2,1,70,0,0
228017,-66.6666666666667,4,2,1,70,0,0
228342,-66.6666666666667,4,2,1,85,0,1
228585,-66.6666666666667,4,2,1,5,0,1
228667,-76.9230769230769,4,2,1,85,0,1
229882,-76.9230769230769,4,2,1,5,0,1
229964,-76.9230769230769,4,2,1,85,0,1
233207,-100,4,2,1,85,0,1
233450,-100,4,2,1,5,0,1
233531,-133.333333333333,4,2,1,85,0,1
234504,-55.5555555555556,4,2,1,85,0,1
235477,-76.9230769230769,4,2,1,85,0,1
236369,-76.9230769230769,4,2,1,5,0,1
236450,-76.9230769230769,4,2,1,85,0,1
238396,-100,4,2,1,85,0,1
238639,-100,4,2,1,85,0,0
238720,-66.6666666666667,4,2,1,85,0,1
238963,-66.6666666666667,4,2,1,5,0,1
239044,-76.9230769230769,4,2,1,85,0,1
240260,-76.9230769230769,4,2,1,5,0,1
240343,-76.9230769230769,4,2,1,85,0,1
244152,-76.9230769230769,4,2,1,5,0,1
244233,-76.9230769230769,4,2,1,85,0,1
246423,-76.9230769230769,4,2,1,85,0,0
246504,-76.9230769230769,4,2,1,85,0,1
246747,-76.9230769230769,4,2,1,5,0,1
246829,-76.9230769230769,4,2,1,85,0,1
248045,-76.9230769230769,4,2,1,5,0,1
248126,-76.9230769230769,4,2,1,85,0,1
249342,-76.9230769230769,4,2,1,5,0,1
249423,-76.9230769230769,4,2,1,85,0,1
251369,-100,4,2,1,85,0,1
251612,-100,4,2,1,5,0,1
251694,-100,4,2,1,85,0,1
252018,-133.333333333333,4,2,1,85,0,1
252667,-55.5555555555556,4,2,1,85,0,1
252991,-76.9230769230769,4,2,1,85,0,1
253234,-76.9230769230769,4,2,1,5,0,1
253315,-76.9230769230769,4,2,1,85,0,1
254207,-76.9230769230769,4,2,1,5,0,1
254288,-76.9230769230769,4,2,1,85,0,1
256801,-76.9230769230769,4,2,1,85,0,0
256882,-76.9230769230769,4,2,1,85,0,1
257126,-76.9230769230769,4,2,1,5,0,1
257207,-76.9230769230769,4,2,1,85,0,1
258422,-76.9230769230769,4,2,1,5,0,1
258505,-76.9230769230769,4,2,1,85,0,1
259720,-76.9230769230769,4,2,1,5,0,1
259802,-76.9230769230769,4,2,1,85,0,1
263612,-76.9230769230769,4,2,1,5,0,1
263693,-76.9230769230769,4,2,1,85,0,1
264666,-71.4285714285714,4,2,1,85,0,1
265314,-66.6666666666667,4,2,1,85,0,1
265639,-62.5,4,2,1,85,0,1
267179,-58.8235294117647,4,2,1,85,0,0
267260,-76.9230769230769,4,2,1,90,0,1
267503,-76.9230769230769,4,2,1,5,0,1
267585,-76.9230769230769,4,2,1,90,0,1
272287,-76.9230769230769,4,2,1,75,0,0
272450,-125,4,2,1,75,0,0
273098,-100,4,2,1,75,0,0
273260,-125,4,2,1,75,0,0
273990,-125,4,2,1,5,0,0
274071,-125,4,2,1,75,0,0
274396,-100,4,2,1,75,0,0
274558,-125,4,2,1,75,0,0
274963,-125,4,2,1,5,0,0
275044,-125,4,2,1,75,0,0
275693,-100,4,2,1,75,0,0
275855,-125,4,2,1,75,0,0
276585,-125,4,2,1,5,0,0
276666,-125,4,2,1,75,0,0
276990,-100,4,2,1,75,0,0
277152,-125,4,2,1,75,0,0
279179,-125,4,2,1,5,0,0
279260,-125,4,2,1,75,0,0
281774,-125,4,2,1,5,0,0
281855,-125,4,2,1,75,0,0
282828,-125,4,2,1,80,0,0
283071,-125,4,2,1,5,0,0
283152,-125,4,2,1,80,0,0
286071,-71.4285714285714,4,2,1,80,0,0
287044,-166.666666666667,4,2,1,80,0,0
287287,-166.666666666667,4,2,1,5,0,0
287369,-166.666666666667,4,2,1,80,0,0
287693,-66.6666666666667,4,2,1,80,0,0
288017,-66.6666666666667,4,2,1,90,0,1
288260,-66.6666666666667,4,2,1,5,0,1
288342,-74.0740740740741,4,2,1,90,0,1
289557,-74.0740740740741,4,2,1,5,0,1
289639,-74.0740740740741,4,2,1,90,0,1
290855,-74.0740740740741,4,2,1,5,0,1
290936,-74.0740740740741,4,2,1,90,0,1
292882,-100,4,2,1,90,0,1
293125,-100,4,2,1,5,0,1
293207,-100,4,2,1,90,0,1
293531,-133.333333333333,4,2,1,90,0,1
294180,-55.5555555555556,4,2,1,90,0,1
294504,-74.074074074074,4,2,1,90,0,1
294747,-74.074074074074,4,2,1,5,0,1
294828,-74.074074074074,4,2,1,90,0,1
295720,-74.074074074074,4,2,1,5,0,1
295801,-74.074074074074,4,2,1,90,0,1
298639,-74.074074074074,4,2,1,5,0,1
298720,-74.074074074074,4,2,1,90,0,1
299936,-74.074074074074,4,2,1,5,0,1
300018,-74.074074074074,4,2,1,90,0,1
301233,-74.074074074074,4,2,1,5,0,1
301315,-74.074074074074,4,2,1,90,0,1
303828,-74.074074074074,4,2,1,5,0,1
303909,-74.074074074074,4,2,1,90,0,1
305531,-57.1428571428571,4,2,1,90,0,1
306098,-57.1428571428571,4,2,1,90,0,0
306179,-71.4285714285714,4,2,1,80,0,1
306422,-71.4285714285714,4,2,1,5,0,1
306504,-71.4285714285714,4,2,1,80,0,1
307720,-71.4285714285714,4,2,1,5,0,1
307801,-71.4285714285714,4,2,1,80,0,1
308693,-71.4285714285714,4,2,1,5,0,1
308774,-71.4285714285714,4,2,1,80,0,1
310314,-71.4285714285714,4,2,1,5,0,1
310396,-71.4285714285714,4,2,1,80,0,1
311612,-71.4285714285714,4,2,1,5,0,1
311693,-71.4285714285714,4,2,1,80,0,1
312909,-71.4285714285714,4,2,1,5,0,1
312990,-71.4285714285714,4,2,1,80,0,1
314206,-71.4285714285714,4,2,1,5,0,1
314287,-71.4285714285714,4,2,1,80,0,1
316801,-71.4285714285714,4,2,1,5,0,1
316882,-71.4285714285714,4,2,1,80,0,1
318098,-71.4285714285714,4,2,1,5,0,1
318179,-71.4285714285714,4,2,1,80,0,1
319395,-71.4285714285714,4,2,1,5,0,1
319477,-71.4285714285714,4,2,1,80,0,1
320693,-71.4285714285714,4,2,1,5,0,1
320774,-71.4285714285714,4,2,1,80,0,1
321747,-66.6666666666667,4,2,1,80,0,1
321990,-66.6666666666667,4,2,1,5,0,1
322071,-66.6666666666667,4,2,1,80,0,1
323693,-55.5555555555556,4,2,1,80,0,1
324260,-55.5555555555556,4,2,1,80,0,0
324342,-64.5161290322581,4,2,1,90,0,1
324585,-64.5161290322581,4,2,1,5,0,1
324666,-74.0740740740741,4,2,1,90,0,1
325882,-74.0740740740741,4,2,1,5,0,1
325963,-74.0740740740741,4,2,1,90,0,1
327179,-74.0740740740741,4,2,1,5,0,1
327260,-74.0740740740741,4,2,1,90,0,1
329206,-100,4,2,1,90,0,1
329449,-100,4,2,1,5,0,1
329531,-133.333333333333,4,2,1,90,0,1
330504,-55.5555555555556,4,2,1,90,0,1
330828,-74.0740740740741,4,2,1,90,0,1
331071,-74.0740740740741,4,2,1,5,0,1
331152,-74.0740740740741,4,2,1,90,0,1
332044,-74.0740740740741,4,2,1,5,0,1
332125,-74.0740740740741,4,2,1,90,0,1
334396,-100,4,2,1,90,0,1
334720,-64.5161290322581,4,2,1,90,0,1
334963,-64.5161290322581,4,2,1,5,0,1
335044,-74.0740740740741,4,2,1,90,0,1
336260,-74.0740740740741,4,2,1,5,0,1
336342,-74.0740740740741,4,2,1,90,0,1
337557,-74.0740740740741,4,2,1,5,0,1
337639,-74.0740740740741,4,2,1,90,0,1
339909,-100,4,2,1,90,0,0
341206,-125,4,2,1,90,0,0
342504,-100,4,2,1,90,0,0
342828,-83.3333333333333,4,2,1,90,0,0
343152,-71.4285714285714,4,2,1,90,0,0
343477,-62.5,4,2,1,90,0,0
343801,-125,4,2,1,65,0,0
345098,-125,4,2,1,45,0,1
345179,-125,4,2,1,45,0,0
350206,-125,4,2,1,5,0,0
350287,-125,4,2,1,45,0,0
355314,-125,4,2,1,25,0,0

[Colours]
Combo1 : 45,45,125
Combo2 : 255,128,128
Combo3 : 255,162,117
Combo4 : 85,85,85
Combo5 : 183,183,183
Combo6 : 130,117,189
Combo7 : 175,94,171
Combo8 : 171,65,77

[HitObjects]
255,193,1315,37,2,0:0:0:0:
256,192,1396,12,0,6423,2:0:0:0:
256,192,6504,5,2,0:0:0:0:
256,192,6585,12,0,11206,2:0:0:0:
32,113,11369,101,2,2:0:0:0:
36,109,11450,1,2,2:0:0:0:
41,106,11531,1,2,2:0:0:0:
46,103,11612,1,2,2:0:0:0:
51,100,11693,6,0,B|92:97|133:80|133:80|166:88|194:115|194:115|154:155|165:193|168:188|183:218|160:250,1,289.5,2|2,2:0|2:0,2:0:0:0:
112,325,12828,102,0,B|59:295|71:232|143:182|219:227|198:299|195:301|242:346|314:331,1,337.75,2|2,2:0|2:0,2:0:0:0:
433,255,14125,6,0,B|463:235|463:235|340:248|340:248|316:307|343:364|406:380|441:362,1,337.75,2|2,2:0|2:0,2:0:0:0:
512,298,15423,102,0,B|434:327|379:266|382:262|329:208|234:253,1,289.5,2|0,2:0|2:0,2:0:0:0:
183,298,16558,1,2,2:0:0:0:
22,252,16720,1,2,2:0:0:0:
22,252,16801,1,2,2:0:0:0:
22,252,16882,6,0,B|8:220|35:185|35:185|75:159|125:163|125:163|165:181|173:216,1,241.25,2|0,2:0|2:0,2:0:0:0:
257,141,17855,2,0,P|261:107|263:77,1,48.25,2|2,2:0|2:0,2:0:0:0:
268,74,18098,1,2,2:0:0:0:
268,74,18179,102,0,P|218:82|150:90,1,96.5,2|2,2:0|2:0,2:0:0:0:
343,121,18666,1,2,2:0:0:0:
343,121,18747,1,2,2:0:0:0:
343,121,18828,2,0,P|391:115|403:114,1,48.25,2|2,2:0|2:0,2:0:0:0:
498,19,19152,6,0,B|468:-29|408:-17|361:50|403:122|472:102|473:99|516:144|551:210|476:271|405:260|396:191,1,434.249986747742,2|0,2:0|2:0,2:0:0:0:
256,115,21747,1,0,2:0:0:0:
249,111,21828,1,0,2:0:0:0:
242,107,21909,1,0,2:0:0:0:
235,103,21990,1,0,2:0:0:0:
228,99,22071,102,0,B|165:89|140:125|143:128|98:174|19:129|19:69|65:34|100:31|127:62,1,289.5,2|2,2:0|2:0,2:0:0:0:
235,103,23206,6,0,B|290:96|328:54|328:54|253:130|243:278,1,337.75,2|2,2:0|2:0,2:0:0:0:
387,320,24504,102,0,B|297:375|238:281|241:275|184:193|87:257,1,337.75,2|2,2:0|2:0,2:0:0:0:
89,374,25801,6,0,P|102:263|23:341,1,289.5,2|0,2:0|2:0,2:0:0:0:
102,382,26936,2,0,P|149:380|197:355,1,96.5,2|2,2:0|2:0,2:0:0:0:
363,172,27909,102,0,P|276:169|261:232,1,144.75,2|0,2:0|2:0,2:0:0:0:
130,279,28558,2,0,B|171:251|195:287|194:289|220:330|258:306,1,144.75,2|2,2:0|2:0,2:0:0:0:
354,270,29206,2,0,P|343:316|338:364,1,96.5,2|2,2:0|2:0,2:0:0:0:
13,82,31152,6,0,P|65:93|107:118,1,96.5,2|0,2:0|2:0,2:0:0:0:
225,0,31639,1,2,2:0:0:0:
225,0,31720,1,2,2:0:0:0:
225,0,31801,1,2,2:0:0:0:
135,36,31963,1,2,2:0:0:0:
114,120,32125,1,2,2:0:0:0:
164,178,32287,1,2,2:0:0:0:
366,168,32450,102,0,P|331:231|317:302,2,144.75,2|2|2,2:0|2:0|2:0,2:0:0:0:
373,167,33909,1,2,2:0:0:0:
402,235,37639,6,0,P|338:200|267:186,2,144.75,2|2|2,2:0|2:0|2:0,2:0:0:0:
503,312,38936,101,0,2:0:0:0:
503,312,39260,1,0,2:0:0:0:
503,312,39585,1,0,2:0:0:0:
503,312,39909,1,0,2:0:0:0:
319,336,40233,6,0,P|255:370|184:384,2,144.75,2|2|2,2:0|2:0|2:0,2:0:0:0:
340,215,41531,102,0,P|375:223|410:230,1,72.3750027608873,0|2,2:0|2:0,2:0:0:0:
225,256,41855,2,0,P|189:247|154:240,1,72.3750027608873,0|0,2:0|2:0,2:0:0:0:
319,336,42179,6,0,P|366:347|413:356,1,96.5,0|2,2:0|2:0,2:0:0:0:
246,135,42503,2,0,P|198:123|151:114,1,96.5,0|2,2:0|2:0,2:0:0:0:
45,17,42828,70,0,P|49:113|50:193,1,154.4,6|0,2:0|2:0,2:0:0:0:
13,239,43314,1,2,2:0:0:0:
52,305,43477,2,0,B|111:293|111:293|146:310|146:310|227:297,1,154.4,0|0,2:0|2:0,2:0:0:0:
258,249,43963,1,0,2:0:0:0:
258,249,44044,1,0,2:0:0:0:
258,249,44125,5,2,2:0:0:0:
212,186,44287,1,0,2:0:0:0:
274,140,44450,2,0,B|313:145|313:145|317:147|317:147|351:152,1,77.2,0|2,2:0|2:0,2:0:0:0:
207,98,44774,2,0,B|174:106|174:106|174:104|174:104|133:113,1,77.2,0|0,2:0|2:0,2:0:0:0:
275,56,45098,2,0,B|308:64|308:64|308:62|308:62|349:71,1,77.2,0|0,2:0|2:0,2:0:0:0:
206,9,45423,102,0,P|142:-8|84:67,1,154.4,2|0,2:0|2:0,2:0:0:0:
79,126,45909,1,2,2:0:0:0:
108,197,46071,2,0,B|154:178|186:208|178:215|216:244|254:229,1,154.4,0|0,2:0|2:0,2:0:0:0:
322,199,46558,1,2,2:0:0:0:
322,199,46639,1,2,2:0:0:0:
322,199,46720,6,0,B|367:194|396:163|396:163|412:192|427:205,1,115.8,2|0,2:0|2:0,2:0:0:0:
430,201,47044,1,0,2:0:0:0:
494,255,47206,1,2,2:0:0:0:
430,201,47369,2,0,P|439:155|448:119,1,77.2,0|0,2:0|2:0,2:0:0:0:
420,277,47693,1,2,2:0:0:0:
426,286,47774,1,2,2:0:0:0:
431,296,47855,1,2,2:0:0:0:
437,305,47936,1,2,2:0:0:0:
443,314,48017,102,0,P|369:313|279:315,1,154.4,2|0,2:0|2:0,2:0:0:0:
229,263,48504,1,2,2:0:0:0:
178,321,48666,2,0,P|130:286|157:192,1,154.4,0|0,2:0|2:0,2:0:0:0:
197,144,49152,1,0,2:0:0:0:
197,144,49233,1,0,2:0:0:0:
197,144,49314,5,2,2:0:0:0:
138,93,49477,1,0,2:0:0:0:
186,32,49639,2,0,P|227:41|269:47,1,77.2,0|2,2:0|2:0,2:0:0:0:
286,140,49963,2,0,P|247:134|209:129,1,77.2,0|0,2:0|2:0,2:0:0:0:
336,73,50287,2,0,P|377:54|414:54,1,77.2,0|0,2:0|2:0,2:0:0:0:
469,101,50612,102,0,P|462:166|462:266,1,154.4,2|0,2:0|2:0,2:0:0:0:
463,332,51098,1,2,2:0:0:0:
388,323,51260,2,0,B|333:315|333:315|298:332|298:332|239:320,1,154.4,0|0,2:0|2:0,2:0:0:0:
163,351,51747,1,2,2:0:0:0:
163,351,51828,1,2,2:0:0:0:
163,351,51909,2,0,P|234:315|227:277,1,115.8,2|0,2:0|2:0,2:0:0:0:
228,270,52233,5,2,2:0:0:0:
137,212,52396,1,2,2:0:0:0:
286,140,52558,1,2,2:0:0:0:
153,31,52720,101,2,2:0:0:0:
148,35,52774,5,0,2:0:0:0:
142,39,52828,101,0,2:0:0:0:
138,45,52882,6,0,L|138:197,1,144.75,2|0,2:0|2:0,2:0:0:0:
137,212,53206,102,0,B|186:189|225:222|215:229|257:265|306:242,1,173.699994699097,6|0,3:2|2:0,2:0:0:0:
363,174,53693,1,2,2:0:0:0:
423,247,53855,2,0,P|489:199|467:120,1,173.699994699097,0|2,3:2|2:0,2:0:0:0:
392,60,54342,1,0,2:0:0:0:
386,45,54423,1,0,2:0:0:0:
379,30,54504,6,0,P|323:48|283:52,1,86.8499973495484,0|2,3:2|2:0,2:0:0:0:
226,117,54828,2,0,P|269:124|310:139,1,86.8499973495484,0|0,2:0|2:0,2:0:0:0:
215,19,55152,2,0,B|85:40|85:40|80:77|106:95,1,173.699994699097,0|0,3:2|2:0,2:0:0:0:
31,262,55801,102,0,B|160:242|160:242|165:205|153:201,1,173.699994699097,0|0,3:2|2:0,2:0:0:0:
63,169,56287,1,0,2:0:0:0:
27,273,56450,2,0,B|97:265|97:265|134:282|134:282|211:273,1,173.699994699097,0|0,3:2|2:0,2:0:0:0:
268,337,56936,1,0,2:0:0:0:
268,337,57017,1,0,2:0:0:0:
268,337,57098,6,0,P|214:294|252:231,1,130.274996024323,0|0,3:2|2:0,2:0:0:0:
247,227,57423,1,0,2:0:0:0:
152,145,57585,1,0,2:0:0:0:
247,227,57747,2,0,P|295:220|339:195,1,86.8499973495484,0|0,3:2|2:0,2:0:0:0:
152,145,58071,1,2,2:0:0:0:
156,166,58152,1,2,2:0:0:0:
161,187,58233,1,2,2:0:0:0:
166,208,58314,1,2,2:0:0:0:
170,229,58396,102,0,P|102:217|71:220,1,86.8499973495484,2|0,3:2|2:0,2:0:0:0:
239,145,58720,2,0,P|288:136|321:119,1,86.8499973495484,0|2,3:2|2:0,2:0:0:0:
143,68,59044,2,0,P|96:46|48:54,1,86.8499973495484,0|0,3:2|2:0,2:0:0:0:
242,160,59369,2,0,P|290:150|336:124,1,86.8499973495484,2|0,3:2|2:0,2:0:0:0:
246,34,59693,5,0,3:2:0:0:
96,136,59855,1,10,2:0:0:0:
246,34,60017,2,0,P|236:81|230:129,1,96.5,0|8,3:2|2:0,2:0:0:0:
32,245,60342,2,0,P|26:197|17:149,1,96.5,0|8,3:2|2:0,2:0:0:0:
291,228,60666,2,0,P|277:274|268:321,1,96.5,0|8,3:2|2:0,2:0:0:0:
238,147,60990,101,0,3:2:0:0:
387,244,61152,1,0,3:2:0:0:
195,242,61314,5,0,3:2:0:0:
402,137,61477,1,0,3:2:0:0:
195,242,61639,101,0,3:2:0:0:
474,242,61801,1,0,3:2:0:0:
216,68,61963,5,0,3:2:0:0:
345,371,62125,1,0,3:2:0:0:
402,137,62287,101,8,3:2:0:0:
402,137,62612,6,0,P|348:122|314:153,1,96.5,2|2,2:0|2:0,2:0:0:0:
305,162,63017,1,2,2:0:0:0:
298,172,63098,1,2,3:2:0:0:
292,182,63179,1,2,2:0:0:0:
279,201,63260,102,0,P|194:214|154:143,1,173.699994699097,14|0,2:0|2:0,2:0:0:0:
129,13,63585,86,0,L|129:209,1,188.174991386033,4|0,3:2|2:0,2:0:0:0:
128,215,63909,2,0,P|79:201|30:192,1,96.5,10|0,2:0|2:0,2:0:0:0:
233,346,64233,2,0,P|280:335|326:322,1,96.5,2|0,2:0|3:2,2:0:0:0:
120,384,64558,2,0,P|101:340|130:293,1,96.5,10|0,2:0|2:0,2:0:0:0:
250,237,64882,101,2,3:2:0:0:
92,193,65044,1,0,2:0:0:0:
250,237,65206,2,0,P|297:227|343:214,1,96.5,10|0,2:0|2:0,2:0:0:0:
357,209,65450,1,8,2:0:0:0:
370,204,65531,1,2,2:0:0:0:
184,171,65693,1,0,3:2:0:0:
159,265,65855,2,0,P|168:312|181:358,1,96.5,10|0,2:0|2:0,2:0:0:0:
323,324,66179,6,0,P|393:300|445:371,1,144.75,2|0,3:2|2:0,2:0:0:0:
442,357,66504,1,8,2:0:0:0:
315,334,66666,2,0,P|233:362|182:260,1,193,2|0,2:0|3:2,2:0:0:0:
276,181,67152,2,0,P|322:194|369:203,1,96.5,10|0,2:0|2:0,2:0:0:0:
187,283,67477,102,0,P|106:264|37:258,1,144.75,2|0,3:2|2:0,2:0:0:0:
30,262,67801,1,10,2:0:0:0:
183,123,67963,1,2,2:0:0:0:
183,123,68044,1,8,2:0:0:0:
183,123,68125,6,0,P|187:160|167:195,1,62.7249971286775,2|0,2:0|2:0,2:0:0:0:
71,166,68287,2,0,P|67:129|87:94,1,62.7249971286775,2|0,3:2|2:0,2:0:0:0:
231,16,68450,2,0,P|325:65|383:25,1,144.750005521775,10|0,2:0|2:0,2:0:0:0:
438,10,68693,1,0,2:0:0:0:
450,2,68774,102,0,P|436:80|430:159,1,144.75,0|0,3:2|2:0,2:0:0:0:
423,157,69098,2,0,P|436:203|445:250,1,96.5,10|0,2:0|2:0,2:0:0:0:
303,337,69423,2,0,P|312:289|325:243,1,96.5,2|0,2:0|3:2,2:0:0:0:
247,170,69747,2,0,P|201:195|152:173,1,96.5,10|0,2:0|2:0,2:0:0:0:
28,115,70071,5,2,3:2:0:0:
147,183,70233,1,0,2:0:0:0:
11,340,70396,2,0,P|20:292|33:246,1,96.5,10|0,2:0|2:0,2:0:0:0:
42,235,70639,1,8,2:0:0:0:
51,224,70720,1,2,2:0:0:0:
136,362,70882,1,0,3:2:0:0:
275,337,71044,2,0,P|233:298|177:304,1,96.5,10|0,2:0|2:0,2:0:0:0:
51,224,71369,102,0,P|130:233|170:164,1,144.75,2|0,3:2|2:0,2:0:0:0:
172,174,71693,1,8,2:0:0:0:
113,82,71855,2,0,P|101:122|93:164,1,72.3750027608873,2|0,2:0|2:0,2:0:0:0:
267,222,72179,1,0,3:2:0:0:
267,222,72342,2,0,P|259:186|249:151,1,72.3750027608873,10|0,2:0|2:0,2:0:0:0:
94,151,72666,5,2,3:2:0:0:
296,75,72828,2,0,P|258:63|204:78,1,62.7249971286775,8|0,2:0|2:0,2:0:0:0:
94,151,72990,1,2,3:2:0:0:
163,0,73152,2,0,P|133:26|119:81,1,62.7249971286775,10|8,2:0|2:0,2:0:0:0:
165,224,73314,1,10,2:0:0:0:
165,224,73396,1,8,2:0:0:0:
165,224,73477,1,2,3:2:0:0:
255,168,73639,102,0,P|316:179|351:215,1,108.562504141331,10|0,2:0|2:0,2:0:0:0:
374,311,73963,6,0,P|381:217|398:124,1,188.174991386033,4|0,3:2|2:0,2:0:0:0:
408,114,74287,2,0,P|454:105|491:133,1,96.5,10|0,2:0|2:0,2:0:0:0:
384,10,74612,2,0,P|338:23|291:34,1,96.5,2|0,2:0|3:2,2:0:0:0:
170,112,74936,2,0,P|217:121|263:134,1,96.5,10|0,2:0|2:0,2:0:0:0:
162,2,75260,101,2,3:2:0:0:
71,131,75422,1,0,2:0:0:0:
162,2,75585,2,0,P|189:39|181:85,1,96.5,10|0,2:0|2:0,2:0:0:0:
176,99,75828,1,8,2:0:0:0:
170,112,75909,1,2,2:0:0:0:
44,226,76071,1,0,3:2:0:0:
236,227,76233,2,0,P|189:213|142:204,1,96.5,10|0,2:0|2:0,2:0:0:0:
52,350,76557,6,0,P|113:298|182:322,1,144.75,2|0,3:2|2:0,2:0:0:0:
181,321,76882,1,8,2:0:0:0:
316,382,77044,2,0,B|375:402|407:360|396:351|433:309|489:335,1,193,2|0,2:0|3:2,2:0:0:0:
336,287,77531,2,0,P|345:239|358:193,1,96.5,10|0,2:0|2:0,2:0:0:0:
213,133,77855,102,0,P|226:179|235:226,1,96.5,2|0,3:2|2:0,2:0:0:0:
181,321,78179,1,10,2:0:0:0:
316,382,78341,1,2,2:0:0:0:
316,382,78422,1,8,2:0:0:0:
316,382,78504,6,0,P|351:375|387:364,1,62.7249971286775,2|0,2:0|2:0,2:0:0:0:
499,305,78666,2,0,P|468:296|437:290,1,62.7249971286775,2|0,3:2|2:0,2:0:0:0:
333,172,78828,2,0,P|400:189|448:140,1,144.750005521775,10|0,2:0|2:0,2:0:0:0:
490,55,79071,1,0,2:0:0:0:
499,44,79152,102,0,P|485:122|479:201,1,144.75,2|0,3:2|2:0,2:0:0:0:
483,201,79477,1,10,2:0:0:0:
357,262,79639,2,0,B|297:282|265:240|276:231|239:189|183:215,1,193,2|0,2:0|3:2,2:0:0:0:
310,91,80125,2,0,P|340:124|327:180,1,96.5,8|0,2:0|2:0,2:0:0:0:
211,296,80449,5,0,3:2:0:0:
170,224,80611,1,0,2:0:0:0:
170,224,80774,2,0,P|123:210|76:201,1,96.5,8|0,2:0|2:0,2:0:0:0:
12,142,81017,1,8,2:0:0:0:
1,132,81098,2,0,P|-6:85|24:50,1,96.5,0|0,2:0|3:2,2:0:0:0:
193,142,81423,2,0,P|200:188|169:223,1,96.5,8|0,2:0|2:0,2:0:0:0:
35,50,81747,102,0,P|106:88|174:46,1,144.75,0|0,3:2|2:0,2:0:0:0:
171,55,82071,1,8,2:0:0:0:
329,96,82233,2,0,P|322:24|260:81,1,193,0|0,2:0|3:2,2:0:0:0:
340,103,82720,2,0,P|378:98|405:84,1,48.25,10|0,2:0|2:0,2:0:0:0:
511,150,82882,2,0,P|473:155|446:169,1,48.25,2|0,2:0|2:0,2:0:0:0:
480,31,83044,5,2,3:2:0:0:
375,188,83206,2,0,P|378:219|385:249,1,62.7249971286775,8|0,2:0|2:0,2:0:0:0:
259,78,83368,1,2,3:2:0:0:
389,198,83531,2,0,P|395:228|399:259,1,62.7249971286775,10|8,2:0|2:0,2:0:0:0:
331,367,83692,1,10,2:0:0:0:
331,367,83774,1,8,2:0:0:0:
331,367,83855,1,2,3:2:0:0:
231,304,84017,102,0,P|175:293|118:289,1,108.562504141331,10|0,2:0|2:0,2:0:0:0:
26,256,84342,38,0,B|82:269|112:228|104:228|134:188|185:208,1,173.699994699097,6|0,3:2|2:0,2:0:0:0:
201,213,84666,1,2,3:2:0:0:
84,117,84828,1,0,2:0:0:0:
211,20,84990,2,0,P|176:83|179:129,1,115.799996466065,0|8,3:2|2:0,2:0:0:0:
361,153,85314,2,0,P|315:112|247:128,1,115.799996466065,0|8,3:2|2:0,2:0:0:0:
412,260,85639,5,8,3:2:0:0:
511,146,85801,1,8,2:0:0:0:
412,260,85963,2,0,P|393:333|426:378,1,125.449994257355,8|8,3:2|2:0,2:0:0:0:
226,168,86287,2,0,P|303:164|357:138,1,125.449994257355,8|8,3:2|2:0,2:0:0:0:
246,355,86612,2,0,P|180:332|123:330,1,125.449994257355,8|8,3:2|2:0,2:0:0:0:
168,113,86936,101,0,3:2:0:0:
277,246,87098,1,0,3:2:0:0:
84,189,87260,5,0,3:2:0:0:
301,95,87423,1,0,3:2:0:0:
84,189,87585,101,0,3:2:0:0:
379,140,87747,1,0,3:2:0:0:
105,49,87909,5,0,3:2:0:0:
246,355,88071,1,0,3:2:0:0:
379,140,88233,101,0,3:2:0:0:
355,114,88314,1,0,1:2:0:0:
321,102,88396,1,0,3:2:0:0:
286,102,88477,1,0,1:2:0:0:
253,113,88558,1,0,3:2:0:0:
229,138,88639,1,0,1:2:0:0:
215,170,88720,1,0,3:2:0:0:
191,195,88801,1,0,1:2:0:0:
157,203,88882,5,0,3:2:0:0:
301,244,89044,1,0,3:2:0:0:
150,0,89206,102,0,L|150:209,1,202.649993815613,10|0,3:2|2:0,2:0:0:0:
79,257,89531,6,0,B|136:249|136:249|172:270|172:270|241:260,1,154.4,6|0,3:2|3:2,2:0:0:0:
319,205,90017,1,0,2:0:0:0:
319,305,90179,2,0,P|278:283|226:286,1,77.2,8|0,2:0|2:0,2:0:0:0:
398,256,90504,2,0,P|436:251|468:231,1,77.2,2|10,3:2|2:0,2:0:0:0:
497,135,90828,102,0,B|470:128|445:98|445:98|420:151|359:155,1,154.4,0|0,3:2|3:2,2:0:0:0:
287,108,91314,1,2,2:0:0:0:
302,8,91477,2,0,B|343:21|343:21|344:19|344:19|381:31,1,77.2,10|2,2:0|2:0,2:0:0:0:
214,60,91801,2,0,P|176:31|101:64,1,115.8,2|0,3:2|2:0,2:0:0:0:
94,52,92125,6,0,P|95:135|92:226,1,154.4,2|0,3:2|3:2,2:0:0:0:
30,285,92612,1,0,2:0:0:0:
114,338,92774,2,0,B|163:320|194:348|187:348|212:374|264:357,1,154.4,8|2,2:0|3:2,2:0:0:0:
337,293,93260,1,10,2:0:0:0:
305,197,93423,102,0,P|246:181|204:233,1,115.8,0|0,3:2|2:0,2:0:0:0:
202,231,93747,1,0,3:2:0:0:
124,167,93909,1,2,2:0:0:0:
202,231,94071,2,0,P|206:179|215:142,1,77.2,10|2,2:0|2:0,2:0:0:0:
260,19,94396,2,0,P|264:71|273:108,1,77.2,2|10,3:2|2:0,2:0:0:0:
311,186,94720,6,0,B|368:178|368:178|404:199|404:199|473:189,2,154.4,6|0|8,3:2|3:2|2:0,2:0:0:0:
218,146,95531,1,0,2:0:0:0:
130,194,95693,2,0,P|83:191|56:157,1,77.2,2|10,3:2|2:0,2:0:0:0:
16,82,96017,102,0,P|64:65|114:113,1,115.8,0|0,3:2|2:0,2:0:0:0:
116,111,96342,2,0,P|132:56|126:29,1,77.2,2|0,3:2|2:0,2:0:0:0:
43,172,96666,1,10,2:0:0:0:
130,194,96828,1,0,2:0:0:0:
130,194,96909,1,0,2:0:0:0:
130,194,96990,2,0,P|116:239|119:277,1,77.2,2|8,3:2|2:0,2:0:0:0:
49,342,97314,6,0,P|145:341|219:342,1,154.4,6|0,3:2|3:2,2:0:0:0:
289,288,97801,1,0,2:0:0:0:
368,348,97963,2,0,P|425:308|388:228,1,154.4,8|2,2:0|3:2,2:0:0:0:
341,156,98450,1,8,2:0:0:0:
253,204,98612,102,0,B|215:221|191:194|198:193|174:168|139:185,1,115.8,2|0,3:2|2:0,2:0:0:0:
121,208,98936,2,0,P|96:181|109:122,1,77.2,2|0,3:2|2:0,2:0:0:0:
123,46,99260,1,10,2:0:0:0:
203,106,99423,1,2,2:0:0:0:
280,42,99585,2,0,P|252:16|214:17,1,77.2,2|8,3:2|2:0,2:0:0:0:
37,0,99909,6,0,L|37:176,1,154.4,0|0,3:2|3:2,2:0:0:0:
110,223,100396,1,0,2:0:0:0:
12,308,100558,2,0,P|26:258|27:226,1,77.2,8|0,2:0|2:0,2:0:0:0:
172,360,100882,2,0,P|130:350|87:347,1,77.2,2|8,3:2|2:0,2:0:0:0:
191,258,101206,102,0,B|235:273|256:250|250:248|269:224|311:240,1,115.8,2|0,3:2|2:0,2:0:0:0:
318,235,101531,2,0,P|332:197|317:158,1,77.2,2|0,3:2|2:0,2:0:0:0:
297,328,101855,1,10,2:0:0:0:
409,219,102017,1,2,2:0:0:0:
297,328,102179,2,0,P|335:323|373:321,1,77.2,2|8,3:2|2:0,2:0:0:0:
257,122,102504,5,0,3:2:0:0:
233,108,102585,1,0,3:2:0:0:
206,107,102666,1,0,3:2:0:0:
181,118,102747,1,0,3:2:0:0:
163,138,102828,101,8,3:2:0:0:
136,168,102909,1,0,3:2:0:0:
97,181,102990,1,0,3:2:0:0:
56,174,103071,1,0,3:2:0:0:
28,144,103152,6,0,P|37:106|41:72,1,67.5499979385377,0|0,3:2|3:2,2:0:0:0:
138,260,103314,2,0,P|129:298|125:332,1,67.5499979385377,0|0,3:2|3:2,2:0:0:0:
172,102,103477,102,0,P|181:64|185:30,1,67.5499979385377,8|0,3:2|3:2,2:0:0:0:
280,213,103639,2,0,P|271:251|267:285,1,67.5499979385377,0|0,3:2|3:2,2:0:0:0:
356,100,103801,5,8,3:2:0:0:
356,100,104125,102,0,P|411:82|446:116,1,86.8499973495484,2|0,2:0|2:0,2:0:0:0:
449,112,104450,2,0,P|442:166|440:191,1,57.8999982330323,2|2,2:0|3:2,2:0:0:0:
461,356,104774,6,0,P|410:315|333:330,1,144.750005521775,10|2,2:0|2:0,2:0:0:0:
266,358,105017,1,8,2:0:0:0:
248,372,105098,70,0,P|306:330|283:195,1,217.125008282662,6|0,3:2|2:0,2:0:0:0:
269,193,105423,2,0,P|208:209|147:223,1,125.449994257355,8|0,2:0|2:0,2:0:0:0:
35,191,105747,1,0,2:0:0:0:
116,327,105909,1,0,3:2:0:0:
269,193,106071,2,0,P|274:132|232:88,1,125.449994257355,10|0,2:0|2:0,2:0:0:0:
162,0,106396,102,0,P|131:84|42:97,1,188.174991386033,2|0,3:2|2:0,2:0:0:0:
24,92,106720,1,10,2:0:0:0:
194,167,106882,1,2,2:0:0:0:
194,167,106963,1,10,2:0:0:0:
194,167,107044,1,2,2:0:0:0:
81,22,107206,2,0,P|89:52|96:82,1,62.7249971286775,0|0,3:2|2:0,2:0:0:0:
72,197,107369,2,0,P|132:180|193:166,1,125.449994257355,10|0,2:0|2:0,2:0:0:0:
342,0,107693,6,0,P|408:-1|437:53,1,125.449994257355,2|0,3:2|2:0,2:0:0:0:
332,181,108017,1,8,2:0:0:0:
174,50,108179,1,2,2:0:0:0:
174,50,108342,2,0,P|234:66|295:80,1,125.449994257355,2|0,2:0|3:2,2:0:0:0:
430,196,108666,1,8,2:0:0:0:
295,90,108828,1,2,2:0:0:0:
369,275,108990,101,2,3:2:0:0:
393,104,109152,1,2,2:0:0:0:
233,168,109314,2,0,P|246:229|263:289,1,125.449994257355,10|0,2:0|2:0,2:0:0:0:
332,181,109639,1,0,2:0:0:0:
200,71,109801,5,2,3:2:0:0:
191,69,109855,101,2,2:0:0:0:
182,67,109909,5,2,2:0:0:0:
172,65,109963,102,0,P|101:71|74:144,1,144.75,10|0,2:0|2:0,2:0:0:0:
70,147,110287,6,0,P|34:139|-1:129,1,72.3750027608873,2|0,3:2|2:0,2:0:0:0:
176,241,110612,2,0,P|211:248|246:258,1,72.3750027608873,10|0,2:0|2:0,2:0:0:0:
70,333,110936,2,0,P|34:325|0:315,1,72.3750027608873,2|0,2:0|3:2,2:0:0:0:
338,312,111260,102,0,B|388:297|463:240|474:150|419:95|314:116|332:205,1,347.399989398194,14|0,2:0|3:2,2:0:0:0:
423,360,111747,1,0,2:0:0:0:
338,213,111909,1,10,2:0:0:0:
263,369,112071,1,2,2:0:0:0:
263,369,112152,1,8,2:0:0:0:
263,369,112233,2,0,P|241:304|265:254,1,125.449994257355,2|0,2:0|3:2,2:0:0:0:
330,129,112558,2,0,P|390:146|452:160,1,125.449994257355,10|0,2:0|2:0,2:0:0:0:
220,120,112882,6,0,P|313:100|408:68,1,188.174991386033,2|0,3:2|2:0,2:0:0:0:
418,64,113206,1,8,2:0:0:0:
338,213,113369,1,2,2:0:0:0:
141,85,113531,2,0,P|173:40|251:38,1,125.449994257355,2|0,2:0|3:2,2:0:0:0:
338,213,113855,1,10,2:0:0:0:
231,130,114017,1,10,2:0:0:0:
231,130,114098,1,8,2:0:0:0:
231,130,114179,101,2,3:2:0:0:
65,254,114342,2,0,P|99:267|156:237,1,62.7249971286775,10|8,2:0|2:0,2:0:0:0:
231,130,114504,1,2,3:2:0:0:
187,333,114666,2,0,P|215:310|217:245,1,62.7249971286775,10|8,2:0|2:0,2:0:0:0:
94,165,114828,1,10,2:0:0:0:
66,354,114990,1,2,3:2:0:0:
235,274,115152,6,0,P|188:260|141:249,1,96.5,10|2,2:0|2:0,2:0:0:0:
21,190,115396,1,2,2:0:0:0:
4,193,115477,102,0,B|-19:124|29:87|40:99|88:56|58:-8,1,217.125008282662,6|0,3:2|2:0,2:0:0:0:
80,0,115801,2,0,P|140:17|202:31,1,125.449994257355,8|0,2:0|2:0,2:0:0:0:
263,205,116126,1,0,2:0:0:0:
94,165,116288,1,0,3:2:0:0:
213,38,116450,2,0,P|260:83|230:145,1,125.449994257355,10|0,2:0|2:0,2:0:0:0:
141,249,116774,6,0,P|232:219|301:289,1,188.174991386033,2|0,3:2|2:0,2:0:0:0:
302,291,117099,1,10,2:0:0:0:
132,372,117261,1,2,2:0:0:0:
132,372,117342,1,10,2:0:0:0:
132,372,117423,1,2,2:0:0:0:
209,308,117585,2,0,P|215:338|224:368,1,62.7249971286775,0|0,3:2|2:0,2:0:0:0:
141,249,117747,2,0,P|158:188|171:127,1,125.449994257355,10|0,2:0|2:0,2:0:0:0:
333,24,118071,102,0,P|262:16|216:82,1,125.449994257355,2|0,3:2|2:0,2:0:0:0:
301,212,118396,1,8,2:0:0:0:
420,136,118558,1,2,2:0:0:0:
420,136,118720,2,0,P|359:118|298:105,1,125.449994257355,2|0,2:0|3:2,2:0:0:0:
156,122,119045,1,10,2:0:0:0:
301,212,119207,1,2,2:0:0:0:
112,216,119369,6,0,P|97:158|143:119,1,125.449994257355,2|0,3:2|2:0,2:0:0:0:
301,212,119693,1,10,2:0:0:0:
132,345,119855,1,2,2:0:0:0:
132,345,119936,1,8,2:0:0:0:
132,345,120017,2,0,P|71:327|10:314,1,125.449994257355,2|0,2:0|3:2,2:0:0:0:
251,348,120342,2,0,P|248:316|243:285,1,62.7249971286775,10|2,2:0|2:0,2:0:0:0:
106,154,120504,2,0,P|107:184|112:215,1,62.7249971286775,2|2,2:0|2:0,2:0:0:0:
266,359,120666,102,0,P|369:348|384:264,1,188.174991386033,2|0,3:2|2:0,2:0:0:0:
389,259,120990,2,0,P|449:276|510:289,1,125.449994257355,8|0,2:0|2:0,2:0:0:0:
228,125,121314,2,0,P|167:142|106:155,1,125.449994257355,0|0,2:0|3:2,2:0:0:0:
415,43,121639,1,10,2:0:0:0:
238,131,121801,1,2,2:0:0:0:
452,188,121963,6,0,P|452:154|430:131,1,62.7249971286775,2|0,3:2|1:2,2:0:0:0:
415,43,122125,2,0,P|384:25|353:33,1,62.7249971286775,2|0,1:2|1:2,2:0:0:0:
238,131,122287,102,0,P|223:103|195:92,1,62.7249971286775,2|0,3:2|1:2,2:0:0:0:
132,22,122449,2,0,P|101:20|76:39,1,62.7249971286775,2|0,1:2|1:2,2:0:0:0:
42,157,122612,5,2,1:2:0:0:
61,183,122693,1,0,1:2:0:0:
89,192,122774,1,2,3:2:0:0:
121,185,122855,1,0,1:2:0:0:
149,165,122936,101,10,2:0:0:0:
191,135,123017,1,0,1:2:0:0:
238,131,123098,1,0,1:2:0:0:
280,152,123179,1,0,1:2:0:0:
304,197,123260,38,0,P|210:204|186:119,1,188.174991386033,6|0,3:2|2:0,2:0:0:0:
172,119,123585,2,0,L|172:252,1,125.449994257355,8|0,2:0|2:0,2:0:0:0:
261,108,123909,1,0,2:0:0:0:
126,15,124071,1,0,3:2:0:0:
261,108,124233,2,0,P|339:106|372:53,1,125.449994257355,10|0,2:0|2:0,2:0:0:0:
51,7,124558,6,0,L|51:202,1,188.174991386033,2|0,3:2|2:0,2:0:0:0:
52,229,124882,1,10,2:0:0:0:
170,116,125044,1,2,2:0:0:0:
170,116,125125,1,8,2:0:0:0:
170,116,125206,1,2,2:0:0:0:
52,229,125369,1,0,3:2:0:0:
197,305,125531,2,0,B|231:245|231:245|193:185,1,125.449994257355,10|0,2:0|2:0,2:0:0:0:
80,349,125855,102,0,B|150:341|150:341|194:365|194:365|291:353,1,188.174991386033,2|0,3:2|2:0,2:0:0:0:
293,343,126179,1,8,2:0:0:0:
200,197,126342,1,2,2:0:0:0:
293,343,126504,2,0,P|369:326|426:321,1,125.449994257355,2|0,2:0|3:2,2:0:0:0:
507,191,126828,2,0,P|444:183|383:169,1,125.449994257355,8|2,2:0|2:0,2:0:0:0:
217,88,127152,5,2,3:2:0:0:
306,224,127314,1,2,2:0:0:0:
303,22,127477,1,10,2:0:0:0:
179,175,127639,1,0,2:0:0:0:
381,89,127801,1,0,2:0:0:0:
128,23,127963,101,2,3:2:0:0:
119,21,128017,5,2,2:0:0:0:
110,19,128071,101,2,2:0:0:0:
100,17,128125,6,0,L|100:169,1,144.75,10|0,2:0|2:0,2:0:0:0:
100,191,128450,101,2,3:2:0:0:
18,104,128612,1,0,3:2:0:0:
100,191,128774,2,0,P|150:175|174:172,1,72.3750027608873,10|8,2:0|2:0,2:0:0:0:
254,212,129098,5,2,3:2:0:0:
301,130,129260,1,0,3:2:0:0:
316,302,129423,102,0,P|272:262|145:278,1,173.699994699097,14|0,2:0|2:0,2:0:0:0:
301,130,129747,6,0,P|409:130|436:60,1,188.174991386033,0|0,3:2|2:0,2:0:0:0:
426,38,130071,1,10,2:0:0:0:
294,143,130233,1,2,2:0:0:0:
294,143,130314,1,8,2:0:0:0:
294,143,130396,2,0,P|220:118|162:120,1,125.449994257355,2|0,2:0|3:2,2:0:0:0:
23,181,130720,2,0,P|85:178|72:65,1,188.174991386033,10|0,2:0|2:0,2:0:0:0:
21,16,131044,102,0,L|21:286,1,250.89998851471,2|8,3:2|2:0,2:0:0:0:
153,363,131531,1,2,2:0:0:0:
237,223,131693,2,0,B|188:181|188:181|122:199,1,125.449994257355,2|0,2:0|3:2,2:0:0:0:
336,297,132017,5,10,2:0:0:0:
409,151,132179,1,10,2:0:0:0:
237,223,132342,101,2,3:2:0:0:
486,214,132504,1,10,2:0:0:0:
291,116,132666,5,2,3:2:0:0:
486,214,132828,1,10,2:0:0:0:
244,336,132990,102,0,P|209:262|237:217,1,125.449994257355,10|2,2:0|3:2,2:0:0:0:
446,291,133314,1,10,2:0:0:0:
335,23,133477,1,2,2:0:0:0:
335,23,133558,1,2,2:0:0:0:
335,23,133639,6,0,B|310:76|338:127|341:121|368:163|341:214,1,188.174991386033,6|0,3:2|2:0,2:0:0:0:
339,229,133963,2,0,P|390:179|452:194,1,125.449994257355,8|0,2:0|2:0,2:0:0:0:
341,328,134288,1,0,2:0:0:0:
228,210,134450,1,0,3:2:0:0:
118,343,134612,2,0,P|178:319|248:317,1,125.449994257355,10|0,2:0|2:0,2:0:0:0:
229,136,134936,102,0,B|165:151|134:116|144:114|101:74|41:101,1,188.174991386033,2|0,3:2|2:0,2:0:0:0:
32,121,135261,1,10,2:0:0:0:
208,42,135423,1,2,2:0:0:0:
208,42,135504,1,10,2:0:0:0:
208,42,135585,1,2,2:0:0:0:
111,239,135747,2,0,P|104:208|95:178,1,62.7249971286775,0|0,3:2|2:0,2:0:0:0:
3,0,135909,2,0,P|20:61|33:122,1,125.449994257355,10|0,2:0|2:0,2:0:0:0:
0,257,136233,6,0,B|72:246|72:246|120:263|120:263|201:246,1,188.174991386033,2|0,3:2|2:0,2:0:0:0:
219,233,136558,1,8,2:0:0:0:
121,102,136720,1,2,2:0:0:0:
219,233,136882,2,0,P|297:229|331:179,1,125.449994257355,2|0,2:0|3:2,2:0:0:0:
350,34,137207,1,10,2:0:0:0:
471,142,137369,1,2,2:0:0:0:
248,153,137531,102,0,B|215:101|215:101|252:30,1,125.449994257355,2|0,3:2|2:0,2:0:0:0:
412,202,137855,1,10,2:0:0:0:
248,331,138017,1,2,2:0:0:0:
248,331,138098,1,8,2:0:0:0:
248,331,138179,2,0,P|307:305|368:290,1,125.449994257355,2|0,2:0|3:2,2:0:0:0:
136,222,138504,2,0,P|105:213|75:206,1,62.7249971286775,10|2,2:0|2:0,2:0:0:0:
13,310,138666,2,0,P|43:300|73:294,1,62.7249971286775,2|2,2:0|2:0,2:0:0:0:
147,378,138828,6,0,P|192:338|128:223,1,193,0|0,3:2|3:2,2:0:0:0:
87,143,139314,1,0,2:0:0:0:
151,229,139477,102,0,P|206:232|240:203,1,77.2,8|0,2:0|2:0,2:0:0:0:
269,132,139801,2,0,P|214:129|180:158,1,77.2,0|0,2:0|2:0,2:0:0:0:
315,208,140125,6,0,B|378:201|378:201|410:214|410:214|487:204,1,154.4,0|0,3:2|2:0,2:0:0:0:
496,110,140612,1,0,2:0:0:0:
421,42,140774,2,0,P|375:42|348:78,1,77.2,8|0,2:0|2:0,2:0:0:0:
275,124,141098,2,0,P|229:124|202:88,1,77.2,0|0,2:0|2:0,2:0:0:0:
30,28,141423,102,0,P|41:81|48:131,1,96.5,0|0,3:2|2:0,2:0:0:0:
111,235,141747,6,0,P|118:187|133:112,1,115.799996466065,0|0,3:2|2:0,2:0:0:0:
2,200,142071,102,0,B|-27:264|-27:264|16:335,1,135.099995877075,8|0,2:0|2:0,2:0:0:0:
249,346,142396,6,0,B|282:273|282:273|239:202,1,154.4,2|2,2:0|2:0,2:0:0:0:
30,28,142720,101,2,3:2:0:0:
347,53,144017,86,0,P|410:131|355:202,1,173.699994699097,4|8,3:2|2:0,2:0:0:0:
228,186,144504,2,0,P|181:172|134:163,1,86.8499973495484,0|0,2:0|2:0,2:0:0:0:
144,165,144828,1,0,3:2:0:0:
322,131,144990,1,8,2:0:0:0:
262,296,145152,1,0,2:0:0:0:
262,296,145314,102,0,P|212:291|171:316,1,86.8499973495484,0|0,3:2|2:0,2:0:0:0:
83,384,145639,1,8,2:0:0:0:
33,178,145801,1,0,2:0:0:0:
33,178,145882,1,8,2:0:0:0:
33,178,145963,2,0,P|46:224|55:271,1,86.8499973495484,0|0,2:0|3:2,2:0:0:0:
144,165,146287,1,8,2:0:0:0:
6,65,146450,1,0,2:0:0:0:
6,65,146612,6,0,P|85:80|147:13,1,173.699994699097,0|8,3:2|2:0,2:0:0:0:
144,165,147098,2,0,P|110:131|105:91,1,86.8499973495484,0|0,2:0|2:0,2:0:0:0:
104,93,147423,1,0,3:2:0:0:
265,175,147585,1,8,2:0:0:0:
116,268,147747,1,0,2:0:0:0:
116,268,147909,102,0,P|69:254|22:245,1,86.8499973495484,0|0,3:2|2:0,2:0:0:0:
267,317,148233,1,8,2:0:0:0:
151,172,148396,1,0,2:0:0:0:
151,172,148477,1,8,2:0:0:0:
151,172,148558,1,0,2:0:0:0:
86,357,148720,1,0,3:2:0:0:
278,316,148882,2,0,P|239:298|220:260,1,86.8499973495484,8|0,2:0|2:0,2:0:0:0:
253,180,149125,1,0,2:0:0:0:
265,175,149206,6,0,P|352:186|436:205,1,173.699994699097,0|8,3:2|2:0,2:0:0:0:
399,373,149693,2,0,P|390:330|377:288,1,86.8499973495484,0|0,2:0|2:0,2:0:0:0:
378,289,150017,1,0,3:2:0:0:
223,248,150179,2,0,P|282:259|335:211,1,130.274996024323,8|0,2:0|2:0,2:0:0:0:
332,204,150504,102,0,P|340:161|353:119,1,86.8499973495484,0|0,3:2|2:0,2:0:0:0:
444,0,150828,2,0,P|452:42|465:84,1,86.8499973495484,8|0,2:0|2:0,2:0:0:0:
471,95,151071,1,8,2:0:0:0:
477,106,151152,1,0,2:0:0:0:
333,3,151314,1,0,3:2:0:0:
333,3,151477,2,0,P|283:1|248:39,1,86.8499973495484,8|0,2:0|2:0,2:0:0:0:
164,148,151801,6,0,P|81:161|24:101,1,173.699994699097,0|8,3:2|2:0,2:0:0:0:
91,0,152287,2,0,P|115:34|110:77,1,86.8499973495484,0|0,2:0|2:0,2:0:0:0:
110,77,152612,1,0,3:2:0:0:
175,162,152774,2,0,P|216:149|259:140,1,86.8499973495484,8|0,2:0|2:0,2:0:0:0:
272,139,153017,1,0,2:0:0:0:
289,138,153098,101,0,3:2:0:0:
161,266,153260,2,0,P|126:257|100:242,1,57.8999982330323,8|0,2:0|2:0,2:0:0:0:
179,264,153423,1,0,3:2:0:0:
14,285,153585,2,0,P|4:250|4:220,1,57.8999982330323,8|8,2:0|2:0,2:0:0:0:
24,299,153748,1,8,2:0:0:0:
127,384,153909,1,2,3:2:0:0:
127,384,153990,1,2,2:0:0:0:
127,384,154071,6,0,P|175:355|232:370,1,108.562504141331,10|0,2:0|2:0,2:0:0:0:
306,384,154396,102,0,B|322:330|283:304|280:312|242:279|266:221,1,173.699994699097,4|8,3:2|2:0,2:0:0:0:
329,107,154882,2,0,P|371:103|408:124,1,86.8499973495484,0|0,2:0|2:0,2:0:0:0:
408,124,155207,1,0,3:2:0:0:
271,216,155369,1,8,2:0:0:0:
427,299,155531,1,0,2:0:0:0:
427,299,155693,6,0,P|468:286|511:277,1,86.8499973495484,0|0,3:2|2:0,2:0:0:0:
412,128,156017,1,8,2:0:0:0:
324,298,156179,1,0,2:0:0:0:
404,139,156342,1,0,2:0:0:0:
232,141,156504,1,2,3:2:0:0:
232,141,156585,1,2,2:0:0:0:
232,141,156666,1,10,2:0:0:0:
374,215,156828,1,0,2:0:0:0:
374,215,156990,102,0,P|287:226|203:245,1,173.699994699097,0|8,3:2|2:0,2:0:0:0:
33,178,157477,2,0,P|75:186|116:199,1,86.8499973495484,0|0,2:0|2:0,2:0:0:0:
116,199,157802,1,0,3:2:0:0:
0,274,157964,1,8,2:0:0:0:
113,353,158126,1,0,2:0:0:0:
113,353,158287,6,0,P|158:343|182:294,1,86.8499973495484,0|0,3:2|2:0,2:0:0:0:
120,203,158612,1,8,2:0:0:0:
228,142,158775,1,0,2:0:0:0:
228,142,158856,1,8,2:0:0:0:
228,142,158936,2,0,P|213:186|244:232,1,86.8499973495484,0|0,2:0|3:2,2:0:0:0:
374,331,159260,2,0,P|332:317|290:309,1,86.8499973495484,8|2,2:0|2:0,2:0:0:0:
181,313,159504,1,2,2:0:0:0:
168,309,159585,102,0,B|114:325|88:286|96:283|63:245|10:267,1,173.699994699097,2|8,3:2|2:0,2:0:0:0:
154,227,160071,1,0,2:0:0:0:
33,350,160233,2,0,P|43:264|63:180,1,173.699994699097,0|8,2:0|2:0,2:0:0:0:
83,77,160720,1,0,2:0:0:0:
83,77,160882,6,0,P|41:90|0:98,1,86.8499973495484,0|0,3:2|2:0,2:0:0:0:
138,0,161206,1,8,2:0:0:0:
156,176,161369,1,0,2:0:0:0:
156,176,161450,1,8,2:0:0:0:
156,176,161531,1,0,2:0:0:0:
0,98,161693,1,0,3:2:0:0:
230,115,161855,2,0,P|258:163|247:219,1,115.799996466065,8|0,2:0|2:0,2:0:0:0:
131,280,162179,102,0,B|202:301|237:249|226:245|270:194|341:224,1,231.599992932129,0|8,3:2|2:0,2:0:0:0:
424,349,162666,2,0,P|367:330|309:319,1,115.799996466065,0|0,2:0|2:0,2:0:0:0:
312,320,162990,1,0,3:2:0:0:
156,176,163152,1,8,2:0:0:0:
369,124,163314,5,10,2:0:0:0:
369,124,163396,1,10,2:0:0:0:
369,124,163477,1,2,3:2:0:0:
253,226,163639,2,0,P|262:197|267:168,1,57.8999982330323,8|8,2:0|2:0,2:0:0:0:
278,66,163801,1,0,3:2:0:0:
156,176,163963,2,0,P|165:147|170:118,1,57.8999982330323,8|8,2:0|2:0,2:0:0:0:
181,29,164125,101,8,2:0:0:0:
181,29,164206,1,0,3:0:0:0:
181,29,164287,1,0,3:2:0:0:
0,147,164450,2,0,P|32:107|97:115,1,115.799996466065,8|2,2:0|2:0,2:0:0:0:
149,165,164693,1,2,2:0:0:0:
156,176,164774,38,0,P|155:232|155:310,1,115.799996466065,4|0,3:2|2:0,2:0:0:0:
199,352,165260,1,0,2:0:0:0:
265,315,165423,2,0,B|305:304|323:327|320:327|339:349|376:344,1,115.799996466065,8|0,2:0|2:0,2:0:0:0:
430,296,165909,1,0,2:0:0:0:
383,236,166071,6,0,P|347:246|319:246,1,57.8999982330323,0|0,3:2|2:0,2:0:0:0:
439,184,166396,2,0,P|476:182|498:196,1,57.8999982330323,0|0,2:0|2:0,2:0:0:0:
363,159,166720,2,0,P|364:122|372:100,1,57.8999982330323,8|0,2:0|2:0,2:0:0:0:
289,26,167044,2,0,P|297:53|296:82,1,57.8999982330323,0|0,2:0|2:0,2:0:0:0:
244,136,167369,101,0,3:2:0:0:
180,75,167531,1,0,2:0:0:0:
244,136,167693,2,0,P|276:120|312:115,1,67.5499979385377,0|0,2:0|2:0,2:0:0:0:
221,221,168017,2,0,P|180:202|151:197,1,67.5499979385377,8|0,2:0|2:0,2:0:0:0:
116,96,168342,2,0,P|155:88|180:74,1,67.5499979385377,0|0,2:0|2:0,2:0:0:0:
73,163,168666,5,0,3:2:0:0:
6,87,168828,1,0,2:0:0:0:
73,163,168990,2,0,P|68:204|63:245,1,77.2,0|0,2:0|2:0,2:0:0:0:
148,293,169314,2,0,P|153:252|158:214,1,77.2,8|0,2:0|2:0,2:0:0:0:
0,290,169639,2,0,P|8:337|11:366,1,77.2,0|8,2:0|2:0,2:0:0:0:
11,366,169882,1,2,2:0:0:0:
11,366,169963,102,0,P|76:362|145:364,1,115.799996466065,0|0,3:2|2:0,2:0:0:0:
188,316,170450,1,0,2:0:0:0:
250,364,170612,2,0,P|286:350|286:266,1,115.799996466065,8|0,2:0|2:0,2:0:0:0:
245,225,171098,1,0,2:0:0:0:
300,151,171260,6,0,P|339:157|376:162,1,67.5499979385377,0|0,3:2|2:0,2:0:0:0:
207,103,171585,2,0,P|168:112|130:116,1,67.5499979385377,0|0,2:0|2:0,2:0:0:0:
296,53,171909,1,8,2:0:0:0:
199,3,172071,1,0,2:0:0:0:
296,53,172233,2,0,P|331:46|364:35,1,67.5499979385377,0|0,2:0|2:0,2:0:0:0:
447,128,172558,102,0,P|450:93|457:48,1,77.2,0|0,3:2|2:0,2:0:0:0:
356,202,172882,2,0,P|353:167|344:116,1,77.2,0|0,2:0|2:0,2:0:0:0:
467,279,173206,2,0,P|470:244|481:197,1,77.2,8|0,2:0|2:0,2:0:0:0:
341,282,173531,1,0,2:0:0:0:
422,362,173693,1,8,2:0:0:0:
341,282,173855,6,0,P|288:295|242:298,1,77.2,0|8,3:2|2:0,2:0:0:0:
124,349,174179,102,0,P|162:354|232:370,1,96.5,0|0,3:2|2:0,2:0:0:0:
199,195,174504,6,0,P|153:209|80:220,1,115.799996466065,8|0,2:0|3:2,2:0:0:0:
355,190,174828,102,0,P|394:127|365:71,1,135.099995877075,0|8,2:0|2:0,2:0:0:0:
210,5,175152,21,4,3:2:0:0:
256,192,175233,12,0,179693,2:0:0:0:
210,5,180017,5,2,2:0:0:0:
212,11,180098,1,2,2:0:0:0:
214,17,180179,1,2,2:0:0:0:
216,23,180260,1,2,2:0:0:0:
218,29,180342,1,2,0:0:0:0:
256,192,180423,12,0,186666,2:0:0:0:
161,197,186828,38,0,B|214:162|251:207|241:211|278:256|331:221,1,188.174991386033,4|0,3:2|2:0,2:0:0:0:
342,214,187152,2,0,P|285:209|271:245,1,96.5,10|0,2:0|2:0,2:0:0:0:
345,377,187477,2,0,P|391:381|421:345,1,96.5,2|0,2:0|3:2,2:0:0:0:
174,307,187801,2,0,B|215:330|267:331,1,96.5,10|0,2:0|2:0,2:0:0:0:
73,364,188125,101,2,3:2:0:0:
122,185,188287,1,0,2:0:0:0:
73,364,188450,2,0,P|47:318|82:272,1,96.5,10|0,2:0|2:0,2:0:0:0:
78,277,188693,1,8,2:0:0:0:
92,276,188774,1,2,2:0:0:0:
267,331,188936,1,0,3:2:0:0:
280,235,189098,2,0,P|233:244|187:257,1,96.5,10|0,2:0|2:0,2:0:0:0:
51,170,189422,6,0,P|109:186|173:120,1,144.75,2|0,3:2|2:0,2:0:0:0:
172,121,189747,1,8,2:0:0:0:
299,55,189909,2,0,P|202:46|109:23,1,193,2|0,2:0|3:2,2:0:0:0:
0,85,190395,2,0,P|47:94|93:107,1,96.5,10|0,2:0|2:0,2:0:0:0:
264,173,190720,102,0,P|248:115|314:51,1,144.75,2|0,3:2|2:0,2:0:0:0:
312,56,191044,1,10,2:0:0:0:
458,18,191206,1,2,2:0:0:0:
458,18,191287,1,8,2:0:0:0:
458,18,191369,6,0,P|468:47|463:77,1,62.7249971286775,2|0,2:0|2:0,2:0:0:0:
381,101,191531,2,0,P|360:124|331:135,1,62.7249971286775,2|0,3:2|2:0,2:0:0:0:
169,32,191693,2,0,P|239:49|311:55,1,144.750005521775,10|0,2:0|2:0,2:0:0:0:
390,88,191936,1,0,2:0:0:0:
381,101,192017,102,0,P|367:179|361:258,1,144.75,0|0,3:2|2:0,2:0:0:0:
364,258,192342,2,0,P|422:257|445:227,1,96.5,10|0,2:0|2:0,2:0:0:0:
290,144,192666,2,0,P|243:139|210:172,1,96.5,2|0,2:0|3:2,2:0:0:0:
355,269,192990,2,0,P|413:268|436:238,1,96.5,10|0,2:0|2:0,2:0:0:0:
290,144,193314,5,2,3:2:0:0:
231,267,193476,1,0,2:0:0:0:
324,374,193639,2,0,P|333:326|346:280,1,96.5,10|0,2:0|2:0,2:0:0:0:
355,269,193882,1,8,2:0:0:0:
364,258,193963,1,2,2:0:0:0:
431,372,194125,1,0,3:2:0:0:
245,273,194287,2,0,P|187:274|164:304,1,96.5,10|0,2:0|2:0,2:0:0:0:
4,246,194612,102,0,P|84:251|128:178,1,144.75,2|0,3:2|2:0,2:0:0:0:
128,193,194936,1,8,2:0:0:0:
71,79,195098,2,0,P|59:119|49:181,1,96.5,2|0,2:0|2:0,2:0:0:0:
92,276,195423,1,0,3:2:0:0:
196,103,195585,1,10,2:0:0:0:
92,276,195747,1,0,3:2:0:0:
348,208,195909,5,8,2:0:0:0:
178,213,196071,2,0,L|240:224,1,62.7249971286775,0|0,3:2|2:0,2:0:0:0:
368,314,196233,2,0,L|303:304,1,62.7249971286775,0|0,3:2|2:0,2:0:0:0:
202,313,196396,101,8,2:0:0:0:
251,163,196558,2,0,L|240:227,1,62.7249971286775,2|0,3:2|2:0,2:0:0:0:
296,367,196720,2,0,L|307:303,1,62.7249971286775,2|0,3:2|2:0,2:0:0:0:
495,167,196882,6,0,P|440:162|388:149,1,108.562504141331,10|0,2:0|2:0,2:0:0:0:
264,152,197206,102,0,P|359:149|400:224,1,188.174991386033,4|0,3:2|2:0,2:0:0:0:
405,236,197531,2,0,P|462:225|480:192,1,96.5,10|0,2:0|2:0,2:0:0:0:
448,0,197855,2,0,P|466:42|446:84,1,96.5,2|0,2:0|3:2,2:0:0:0:
281,134,198179,2,0,P|241:122|179:112,1,96.5,10|0,2:0|2:0,2:0:0:0:
352,49,198503,5,2,3:2:0:0:
314,226,198665,1,0,2:0:0:0:
352,49,198828,2,0,P|304:41|258:27,1,96.5,10|0,2:0|2:0,2:0:0:0:
243,25,199071,1,8,2:0:0:0:
228,23,199152,1,2,2:0:0:0:
83,148,199314,1,0,3:2:0:0:
166,194,199477,2,0,P|197:136|180:105,1,96.5,10|0,2:0|2:0,2:0:0:0:
1,5,199800,102,0,P|62:57|131:33,1,144.75,2|0,3:2|2:0,2:0:0:0:
131,35,200125,1,8,2:0:0:0:
0,123,200287,2,0,P|23:216|31:312,1,193,2|0,2:0|3:2,2:0:0:0:
147,227,200774,2,0,P|100:213|53:205,1,96.5,10|0,2:0|2:0,2:0:0:0:
211,384,201098,6,0,P|219:336|232:290,1,96.5,2|0,3:2|2:0,2:0:0:0:
304,192,201422,1,10,2:0:0:0:
135,211,201584,1,2,2:0:0:0:
135,211,201665,1,8,2:0:0:0:
135,211,201747,102,0,P|170:204|206:193,1,62.7249971286775,2|0,2:0|2:0,2:0:0:0:
92,327,201909,2,0,P|61:318|30:312,1,62.7249971286775,2|0,3:2|2:0,2:0:0:0:
232,290,202071,2,0,P|296:289|283:358,1,144.750005521775,10|0,2:0|2:0,2:0:0:0:
188,349,202314,1,0,2:0:0:0:
176,339,202396,6,0,P|190:261|196:182,1,144.75,2|0,3:2|2:0,2:0:0:0:
69,78,202720,1,10,2:0:0:0:
49,163,202882,2,0,B|109:183|141:141|130:132|167:90|223:116,1,193,2|0,2:0|3:2,2:0:0:0:
407,210,203369,2,0,P|351:192|339:147,1,96.5,8|0,2:0|2:0,2:0:0:0:
376,28,203692,101,0,3:2:0:0:
479,42,203854,1,0,2:0:0:0:
479,42,204017,2,0,P|465:89|456:136,1,96.5,8|0,2:0|2:0,2:0:0:0:
412,219,204260,1,8,2:0:0:0:
407,210,204342,2,0,P|339:198|305:200,1,96.5,0|0,2:0|3:2,2:0:0:0:
159,138,204666,2,0,P|208:129|253:106,1,96.5,8|0,2:0|2:0,2:0:0:0:
339,42,204990,6,0,P|325:120|319:199,1,144.75,0|0,3:2|2:0,2:0:0:0:
321,199,205314,1,8,2:0:0:0:
207,330,205477,2,0,P|198:233|175:140,1,193,0|0,2:0|3:2,2:0:0:0:
321,199,205963,2,0,P|326:237|340:264,1,48.25,10|0,2:0|2:0,2:0:0:0:
302,380,206125,2,0,P|297:342|283:315,1,48.25,2|0,2:0|2:0,2:0:0:0:
411,330,206287,101,2,3:2:0:0:
238,257,206449,2,0,P|207:260|177:267,1,62.7249971286775,8|0,2:0|2:0,2:0:0:0:
363,119,206611,1,2,3:2:0:0:
228,271,206774,2,0,P|198:277|167:281,1,62.7249971286775,10|8,2:0|2:0,2:0:0:0:
56,226,206935,1,10,2:0:0:0:
56,226,207017,1,8,2:0:0:0:
56,226,207098,1,2,3:2:0:0:
122,123,207260,6,0,P|193:140|240:136,1,108.562504141331,10|0,2:0|2:0,2:0:0:0:
271,6,207585,22,0,L|271:182,1,173.699994699097,6|0,3:2|2:0,2:0:0:0:
272,211,207909,1,0,3:2:0:0:
122,123,208071,1,0,2:0:0:0:
272,211,208233,2,0,P|335:176|381:179,1,115.799996466065,0|8,3:2|2:0,2:0:0:0:
196,326,208557,2,0,P|139:325|95:288,1,115.799996466065,0|8,3:2|2:0,2:0:0:0:
199,178,208882,5,8,3:2:0:0:
305,310,209044,1,8,2:0:0:0:
199,178,209206,2,0,P|140:203|75:209,1,125.449994257355,8|8,3:2|2:0,2:0:0:0:
367,86,209531,2,0,B|390:142|390:142|359:201,1,125.449994257355,8|8,3:2|2:0,2:0:0:0:
101,114,209855,2,0,B|72:64|72:64|103:-11,1,125.449994257355,8|8,3:2|2:0,2:0:0:0:
272,211,210179,101,0,3:2:0:0:
101,114,210341,1,0,3:2:0:0:
360,200,210503,5,0,3:2:0:0:
79,203,210666,1,0,3:2:0:0:
353,103,210828,101,0,3:2:0:0:
205,317,210990,1,0,3:2:0:0:
174,10,211152,5,0,3:2:0:0:
437,143,211314,1,0,3:2:0:0:
79,203,211476,101,0,3:2:0:0:
103,177,211557,1,0,1:2:0:0:
137,165,211639,1,0,3:2:0:0:
172,165,211720,1,0,1:2:0:0:
205,176,211801,1,0,3:2:0:0:
229,201,211882,1,0,1:2:0:0:
243,233,211963,1,0,3:2:0:0:
267,258,212044,1,0,1:2:0:0:
301,266,212125,5,0,3:2:0:0:
422,176,212287,1,0,3:2:0:0:
229,0,212450,102,0,L|229:209,1,202.649993815613,10|0,2:0|2:0,2:0:0:0:
263,267,212774,6,0,P|228:215|136:246,1,154.4,6|0,3:2|3:2,2:0:0:0:
68,293,213260,1,0,2:0:0:0:
37,197,213422,2,0,P|56:239|61:293,1,77.2,8|0,2:0|2:0,2:0:0:0:
136,90,213747,2,0,P|117:132|112:186,1,77.2,2|10,3:2|2:0,2:0:0:0:
11,64,214071,102,0,B|38:57|63:27|63:27|88:80|149:84,1,154.4,0|0,3:2|3:2,2:0:0:0:
221,40,214557,1,2,2:0:0:0:
303,98,214720,2,0,B|344:85|344:85|345:87|345:87|382:75,1,77.2,10|2,2:0|2:0,2:0:0:0:
453,13,215044,2,0,L|453:141,1,115.8,2|0,3:2|2:0,2:0:0:0:
460,158,215368,6,0,B|414:142|386:177|399:177|362:209|297:188,1,154.4,2|0,3:2|3:2,2:0:0:0:
219,165,215855,1,0,2:0:0:0:
133,217,216017,2,0,P|87:162|126:86,1,154.4,8|2,2:0|3:2,2:0:0:0:
203,43,216503,1,10,2:0:0:0:
294,84,216666,102,0,L|294:215,1,115.8,0|0,3:2|2:0,2:0:0:0:
293,224,216990,1,0,3:2:0:0:
214,286,217152,1,2,2:0:0:0:
370,325,217314,2,0,P|331:311|271:310,1,77.2,10|2,2:0|2:0,2:0:0:0:
398,239,217639,2,0,P|436:234|472:221,1,77.2,2|10,3:2|2:0,2:0:0:0:
371,338,217963,6,0,B|314:330|314:330|278:351|278:351|209:341,2,154.4,6|0|8,3:2|3:2|2:0,2:0:0:0:
469,361,218774,1,0,2:0:0:0:
498,265,218936,2,0,P|508:218|492:188,1,77.2,2|10,3:2|2:0,2:0:0:0:
401,159,219260,102,0,P|353:142|303:190,1,115.8,0|0,3:2|2:0,2:0:0:0:
284,188,219585,2,0,P|268:133|274:106,1,77.2,2|0,3:2|2:0,2:0:0:0:
322,28,219909,1,10,2:0:0:0:
208,60,220071,1,0,2:0:0:0:
208,60,220152,1,0,2:0:0:0:
208,60,220233,2,0,P|185:105|191:151,1,77.2,2|8,3:2|2:0,2:0:0:0:
106,4,220557,6,0,P|107:100|106:174,1,154.4,6|0,3:2|3:2,2:0:0:0:
35,229,221044,1,0,2:0:0:0:
97,307,221206,2,0,P|137:250|217:287,1,154.4,8|2,2:0|3:2,2:0:0:0:
286,335,221693,1,8,2:0:0:0:
382,307,221855,102,0,P|399:257|381:185,1,115.8,2|0,3:2|2:0,2:0:0:0:
361,188,222179,2,0,P|315:195|275:200,1,77.2,2|0,3:2|2:0,2:0:0:0:
448,151,222503,1,10,2:0:0:0:
364,95,222666,1,2,2:0:0:0:
448,151,222828,2,0,P|479:109|469:79,1,77.2,2|8,3:2|2:0,2:0:0:0:
281,8,223152,6,0,L|281:184,1,154.4,0|0,3:2|3:2,2:0:0:0:
200,223,223639,1,0,2:0:0:0:
282,315,223801,2,0,P|286:278|301:238,1,77.2,8|0,2:0|2:0,2:0:0:0:
176,132,224125,2,0,P|187:174|189:212,1,77.2,2|8,3:2|2:0,2:0:0:0:
57,312,224449,102,0,B|103:305|103:305|135:314|135:314|190:305,1,115.8,2|0,3:2|2:0,2:0:0:0:
201,295,224774,2,0,B|214:258|214:258|196:214,1,77.2,2|0,3:2|2:0,2:0:0:0:
101,156,225098,1,10,2:0:0:0:
185,52,225260,1,2,2:0:0:0:
101,156,225422,2,0,P|62:154|24:148,1,77.2,2|8,3:2|2:0,2:0:0:0:
422,20,225747,5,0,3:2:0:0:
436,44,225828,1,0,3:2:0:0:
437,71,225909,1,0,3:2:0:0:
426,96,225990,1,0,3:2:0:0:
406,114,226071,101,8,3:2:0:0:
376,141,226152,1,0,3:2:0:0:
363,180,226233,1,0,3:2:0:0:
370,221,226314,1,0,3:2:0:0:
400,249,226395,6,0,P|438:240|472:236,1,67.5499979385377,0|0,3:2|3:2,2:0:0:0:
358,358,226557,2,0,P|320:349|286:345,1,67.5499979385377,0|0,3:2|3:2,2:0:0:0:
221,180,226720,102,0,P|254:175|287:167,1,67.5499979385377,8|0,3:2|3:2,2:0:0:0:
145,340,226882,2,0,P|107:331|73:327,1,67.5499979385377,0|0,3:2|3:2,2:0:0:0:
37,181,227044,5,8,3:2:0:0:
37,181,227369,102,0,P|92:163|127:197,1,86.8499973495484,2|0,2:0|2:0,2:0:0:0:
129,183,227693,2,0,P|122:129|120:104,1,57.8999982330323,2|2,2:0|3:2,2:0:0:0:
384,25,228017,6,0,B|317:-10|317:-10|242:39,1,144.750005521775,10|2,2:0|2:0,2:0:0:0:
209,92,228260,1,8,2:0:0:0:
211,113,228342,70,0,P|221:220|236:334,1,217.125008282662,6|0,3:2|2:0,2:0:0:0:
247,343,228667,2,0,P|308:327|306:273,1,125.449994257355,8|0,2:0|2:0,2:0:0:0:
129,183,228991,1,0,2:0:0:0:
235,328,229153,1,0,3:2:0:0:
338,196,229315,2,0,P|277:191|233:233,1,125.449994257355,10|0,2:0|2:0,2:0:0:0:
0,282,229639,102,0,P|89:281|132:202,1,188.174991386033,2|0,3:2|2:0,2:0:0:0:
129,183,229964,1,10,2:0:0:0:
80,318,230125,1,2,2:0:0:0:
80,318,230207,1,10,2:0:0:0:
80,318,230288,1,2,2:0:0:0:
33,150,230449,2,0,P|40:180|48:210,1,62.7249971286775,0|0,3:2|2:0,2:0:0:0:
160,304,230613,2,0,P|145:242|128:182,1,125.449994257355,10|0,2:0|2:0,2:0:0:0:
69,45,230936,6,0,P|120:92|182:76,1,125.449994257355,2|0,3:2|2:0,2:0:0:0:
356,0,231261,1,8,2:0:0:0:
397,98,231423,1,2,2:0:0:0:
397,98,231586,2,0,P|337:82|276:68,1,125.449994257355,2|0,2:0|3:2,2:0:0:0:
109,162,231910,1,8,2:0:0:0:
244,268,232072,1,2,2:0:0:0:
170,83,232234,101,2,3:2:0:0:
146,254,232396,1,2,2:0:0:0:
306,190,232558,2,0,P|293:129|276:69,1,125.449994257355,10|0,2:0|2:0,2:0:0:0:
207,177,232883,1,0,2:0:0:0:
339,287,233045,5,2,3:2:0:0:
348,289,233099,101,2,2:0:0:0:
357,291,233153,5,2,2:0:0:0:
367,293,233207,102,0,P|438:287|465:214,1,144.75,10|0,2:0|2:0,2:0:0:0:
466,215,233531,6,0,P|431:205|395:197,1,72.3750027608873,2|0,3:2|2:0,2:0:0:0:
358,61,233855,2,0,P|323:70|287:78,1,72.3750027608873,10|0,2:0|2:0,2:0:0:0:
207,177,234179,2,0,P|172:167|136:159,1,72.3750027608873,2|0,2:0|3:2,2:0:0:0:
58,58,234504,102,0,B|-27:40|-48:145|6:200|96:189|153:114|168:64,1,347.399989398194,14|0,2:0|3:2,2:0:0:0:
61,68,234991,1,0,2:0:0:0:
207,177,235153,1,10,2:0:0:0:
48,257,235315,1,2,2:0:0:0:
48,257,235396,1,8,2:0:0:0:
48,257,235477,2,0,P|26:322|50:372,1,125.449994257355,2|0,2:0|3:2,2:0:0:0:
220,287,235801,2,0,P|243:230|220:173,1,125.449994257355,10|0,2:0|2:0,2:0:0:0:
241,383,236126,6,0,P|208:301|120:301,1,188.174991386033,2|0,3:2|2:0,2:0:0:0:
107,312,236450,1,8,2:0:0:0:
241,383,236613,1,2,2:0:0:0:
220,173,236774,2,0,P|160:189|99:203,1,125.449994257355,2|0,2:0|3:2,2:0:0:0:
316,289,237099,1,10,2:0:0:0:
392,110,237261,1,10,2:0:0:0:
392,110,237342,1,8,2:0:0:0:
392,110,237423,101,2,3:2:0:0:
229,113,237586,2,0,P|216:147|246:204,1,62.7249971286775,10|8,2:0|2:0,2:0:0:0:
354,199,237748,1,2,3:2:0:0:
150,235,237909,2,0,P|173:263|238:265,1,62.7249971286775,10|8,2:0|2:0,2:0:0:0:
344,193,238072,1,10,2:0:0:0:
229,113,238234,1,2,3:2:0:0:
316,289,238396,6,0,P|363:291|409:266,1,96.5,10|2,2:0|2:0,2:0:0:0:
502,199,238640,1,2,2:0:0:0:
495,178,238720,102,0,P|437:257|412:372,1,217.125008282662,6|0,3:2|2:0,2:0:0:0:
427,382,239044,2,0,P|448:341|521:360,1,125.449994257355,8|0,2:0|2:0,2:0:0:0:
316,289,239370,1,0,2:0:0:0:
495,178,239532,1,0,3:2:0:0:
357,168,239693,2,0,P|391:214|405:282,1,125.449994257355,10|0,2:0|2:0,2:0:0:0:
254,356,240017,6,0,B|201:380|164:340|174:331|143:290|85:309,1,188.174991386033,2|0,3:2|2:0,2:0:0:0:
68,319,240343,1,10,2:0:0:0:
240,273,240505,1,2,2:0:0:0:
240,273,240586,1,8,2:0:0:0:
240,273,240667,1,2,2:0:0:0:
143,159,240829,2,0,P|152:189|158:219,1,62.7249971286775,0|0,3:2|2:0,2:0:0:0:
68,319,240990,2,0,P|13:281|52:226,1,125.449994257355,10|0,2:0|2:0,2:0:0:0:
146,73,241314,102,0,P|86:89|25:103,1,125.449994257355,2|0,3:2|2:0,2:0:0:0:
158,219,241640,1,8,2:0:0:0:
278,137,241802,1,2,2:0:0:0:
278,137,241964,2,0,P|339:155|400:168,1,125.449994257355,2|0,2:0|3:2,2:0:0:0:
231,58,242287,1,10,2:0:0:0:
158,219,242451,1,2,2:0:0:0:
315,275,242612,6,0,P|301:213|284:153,1,125.449994257355,2|0,3:2|2:0,2:0:0:0:
144,221,242937,1,10,2:0:0:0:
281,357,243099,1,2,2:0:0:0:
281,357,243180,1,8,2:0:0:0:
281,357,243261,2,0,P|338:364|387:318,1,125.449994257355,2|0,2:0|3:2,2:0:0:0:
387,164,243585,2,0,P|392:193|401:223,1,62.7249971286775,10|2,2:0|2:0,2:0:0:0:
315,275,243748,2,0,P|309:245|300:215,1,62.7249971286775,2|2,2:0|2:0,2:0:0:0:
232,122,243909,102,0,B|284:146|321:106|311:97|342:56|400:75,1,188.174991386033,2|0,3:2|2:0,2:0:0:0:
416,85,244233,2,0,P|426:27|368:0,1,125.449994257355,8|0,2:0|2:0,2:0:0:0:
188,64,244558,2,0,P|238:33|283:71,1,125.449994257355,0|0,2:0|3:2,2:0:0:0:
209,270,244883,1,10,2:0:0:0:
387,164,245045,1,2,2:0:0:0:
186,48,245207,6,0,P|156:65|147:95,1,62.7249971286775,2|0,3:2|1:2,2:0:0:0:
65,131,245369,2,0,P|64:166|87:189,1,62.7249971286775,2|0,1:2|1:2,2:0:0:0:
217,260,245531,102,0,P|251:260|274:282,1,62.7249971286775,2|0,3:2|1:2,2:0:0:0:
363,272,245693,2,0,P|380:302|373:333,1,62.7249971286775,2|0,1:2|1:2,2:0:0:0:
225,367,245856,5,2,1:2:0:0:
199,348,245937,1,0,1:2:0:0:
190,320,246018,1,2,3:2:0:0:
197,288,246099,1,0,1:2:0:0:
217,260,246180,101,10,2:0:0:0:
247,218,246261,1,0,1:2:0:0:
251,171,246342,1,0,1:2:0:0:
230,129,246423,1,0,1:2:0:0:
195,104,246504,38,0,B|146:94|111:140|129:138|90:183|22:162,1,188.174991386033,6|0,3:2|2:0,2:0:0:0:
1,144,246829,2,0,P|-24:87|4:28,1,125.449994257355,8|0,2:0|2:0,2:0:0:0:
119,248,247153,1,0,2:0:0:0:
11,353,247315,1,0,3:2:0:0:
205,379,247477,2,0,P|160:337|99:344,1,125.449994257355,10|0,2:0|2:0,2:0:0:0:
287,264,247802,6,0,P|377:276|434:202,1,188.174991386033,2|0,3:2|2:0,2:0:0:0:
435,177,248126,1,10,2:0:0:0:
306,98,248288,1,2,2:0:0:0:
306,98,248369,1,8,2:0:0:0:
306,98,248450,1,2,2:0:0:0:
435,177,248613,1,0,3:2:0:0:
237,160,248775,2,0,B|203:100|203:100|241:40,1,125.449994257355,10|0,2:0|2:0,2:0:0:0:
434,0,249099,102,0,B|434:214,1,188.174991386033,2|0,3:2|2:0,2:0:0:0:
434,217,249423,1,8,2:0:0:0:
316,121,249586,1,2,2:0:0:0:
494,286,249748,2,0,P|523:227|500:158,1,125.449994257355,2|0,2:0|3:2,2:0:0:0:
277,255,250071,2,0,P|264:315|292:369,1,125.449994257355,8|2,2:0|2:0,2:0:0:0:
355,193,250396,5,2,3:2:0:0:
180,285,250558,1,2,2:0:0:0:
420,296,250721,1,10,2:0:0:0:
184,160,250883,1,0,2:0:0:0:
340,301,251045,1,0,2:0:0:0:
382,29,251207,101,2,3:2:0:0:
373,27,251261,5,2,2:0:0:0:
364,25,251315,101,2,2:0:0:0:
354,23,251369,6,0,L|354:175,1,144.75,10|0,2:0|2:0,2:0:0:0:
354,193,251694,101,2,3:2:0:0:
268,122,251856,1,0,3:2:0:0:
354,193,252018,2,0,P|404:177|428:174,1,72.3750027608873,10|8,2:0|2:0,2:0:0:0:
209,191,252342,5,2,3:2:0:0:
285,41,252504,1,0,3:2:0:0:
209,191,252667,102,0,P|165:151|38:167,1,173.699994699097,14|0,2:0|2:0,2:0:0:0:
81,349,252991,6,0,P|157:330|114:235,1,188.174991386033,0|0,3:2|2:0,2:0:0:0:
104,229,253315,1,10,2:0:0:0:
254,338,253477,1,2,2:0:0:0:
254,338,253558,1,8,2:0:0:0:
254,338,253640,2,0,P|324:331|377:301,1,125.449994257355,2|0,2:0|3:2,2:0:0:0:
288,8,253964,2,0,L|288:198,1,188.174991386033,10|0,2:0|2:0,2:0:0:0:
232,264,254288,102,0,B|215:225|260:177|335:191|342:260|324:264|373:313|435:282,1,250.89998851471,2|8,3:2|2:0,2:0:0:0:
512,196,254775,1,2,2:0:0:0:
395,43,254937,2,0,B|336:26|336:26|287:68,1,125.449994257355,2|0,2:0|3:2,2:0:0:0:
229,207,255261,5,10,2:0:0:0:
136,88,255423,1,10,2:0:0:0:
249,221,255586,101,2,3:2:0:0:
53,173,255748,1,10,2:0:0:0:
287,68,255910,5,2,3:2:0:0:
45,184,256072,1,10,2:0:0:0:
301,286,256234,102,0,P|336:236|319:177,1,125.449994257355,10|2,2:0|3:2,2:0:0:0:
172,13,256558,1,10,2:0:0:0:
45,184,256721,1,2,2:0:0:0:
45,184,256802,1,2,2:0:0:0:
45,184,256883,6,0,B|105:156|147:197|142:200|175:233|231:209,1,188.174991386033,6|0,3:2|2:0,2:0:0:0:
245,188,257207,2,0,P|298:146|356:158,1,125.449994257355,8|0,2:0|2:0,2:0:0:0:
444,274,257532,1,0,2:0:0:0:
493,132,257693,1,0,3:2:0:0:
444,274,257856,2,0,P|388:237|314:248,1,125.449994257355,10|0,2:0|2:0,2:0:0:0:
182,354,258179,102,0,P|116:293|157:202,1,188.174991386033,2|0,3:2|2:0,2:0:0:0:
164,194,258505,1,10,2:0:0:0:
290,111,258667,1,2,2:0:0:0:
290,111,258748,1,10,2:0:0:0:
290,111,258829,1,2,2:0:0:0:
109,45,258991,2,0,P|118:76|125:106,1,62.7249971286775,0|0,3:2|2:0,2:0:0:0:
310,0,259153,2,0,P|293:61|280:122,1,125.449994257355,10|0,2:0|2:0,2:0:0:0:
29,0,259477,6,0,B|29:206,1,188.174991386033,2|0,3:2|2:0,2:0:0:0:
30,215,259802,1,8,2:0:0:0:
138,110,259964,1,2,2:0:0:0:
235,239,260126,2,0,P|189:198|128:202,1,125.449994257355,2|0,2:0|3:2,2:0:0:0:
202,327,260451,1,10,2:0:0:0:
321,216,260613,1,2,2:0:0:0:
414,348,260775,102,0,B|345:358|345:358|300:305,1,125.449994257355,2|0,3:2|2:0,2:0:0:0:
477,238,261099,1,10,2:0:0:0:
286,92,261261,1,2,2:0:0:0:
286,92,261342,1,8,2:0:0:0:
286,92,261423,2,0,P|312:151|327:212,1,125.449994257355,2|2,2:0|3:2,2:0:0:0:
495,130,261748,2,0,P|502:99|510:69,1,62.7249971286775,10|2,2:0|2:0,2:0:0:0:
392,129,261910,2,0,P|402:159|408:189,1,62.7249971286775,2|2,2:0|2:0,2:0:0:0:
397,25,262071,6,0,B|325:11|283:68|316:66|275:126|166:100,1,250.89998851471,2|8,3:2|2:0,2:0:0:0:
30,24,262558,1,0,2:0:0:0:
155,224,262720,2,0,P|161:143|176:96,1,125.449994257355,0|0,2:0|3:2,2:0:0:0:
20,155,263044,2,0,P|34:215|43:304,1,125.449994257355,8|0,2:0|2:0,2:0:0:0:
188,351,263369,102,0,B|260:340|260:340|299:358|299:358|375:346,1,188.174991386033,0|0,3:2|2:0,2:0:0:0:
396,355,263693,1,8,2:0:0:0:
273,248,263855,1,0,2:0:0:0:
396,355,264017,2,0,P|443:313|422:250,1,125.449994257355,0|0,2:0|3:2,2:0:0:0:
273,122,264342,2,0,L|273:258,1,125.449994257355,8|0,2:0|2:0,2:0:0:0:
397,10,264666,6,0,L|397:217,1,202.649993815613,0|0,3:2|2:0,2:0:0:0:
397,248,264990,1,8,0:0:0:0:
273,122,265152,1,0,0:0:0:0:
481,200,265314,102,0,B|518:133|518:133|479:57,1,144.750005521775,0|0,2:0|3:2,2:0:0:0:
206,173,265639,6,0,B|169:246|169:246|211:317,1,154.4,10|2,2:0|2:0,2:0:0:0:
320,44,265963,101,2,3:2:0:0:
206,173,266125,1,8,2:0:0:0:
392,122,266287,5,2,3:2:0:0:
136,24,266450,1,8,2:0:0:0:
392,122,266612,101,2,3:2:0:0:
55,127,266774,1,2,3:2:0:0:
319,26,266936,5,10,2:0:0:0:
181,292,267098,1,2,3:2:0:0:
170,269,267179,1,2,2:0:0:0:
159,246,267260,70,0,B|236:253|236:253|258:273|258:273|348:278,1,188.174991386033,4|0,3:2|2:0,2:0:0:0:
361,281,267585,1,8,2:0:0:0:
213,166,267747,1,0,2:0:0:0:
361,281,267909,2,0,P|424:246|482:248,1,125.449994257355,0|0,2:0|3:2,2:0:0:0:
207,374,268233,2,0,P|150:373|103:320,1,125.449994257355,8|0,2:0|2:0,2:0:0:0:
104,123,268558,101,0,3:2:0:0:
181,292,268720,1,0,2:0:0:0:
104,123,268882,2,0,P|117:61|134:1,1,125.449994257355,8|0,2:0|2:0,2:0:0:0:
325,174,269206,2,0,B|266:197|266:197|205:161,1,125.449994257355,0|0,2:0|3:2,2:0:0:0:
377,14,269531,2,0,B|440:-7|440:-7|494:24,1,125.449994257355,8|0,2:0|2:0,2:0:0:0:
207,74,269855,5,0,3:2:0:0:
377,14,270017,1,0,2:0:0:0:
196,67,270179,101,0,3:2:0:0:
416,143,270342,1,8,2:0:0:0:
185,60,270504,5,0,3:2:0:0:
353,282,270666,1,8,2:0:0:0:
79,345,270828,101,8,2:0:0:0:
315,171,270990,1,8,2:0:0:0:
57,55,271152,5,0,3:2:0:0:
59,70,271233,1,0,1:2:0:0:
62,85,271314,1,0,3:2:0:0:
64,101,271395,1,0,1:2:0:0:
67,116,271476,1,0,3:2:0:0:
70,132,271557,1,0,1:2:0:0:
72,147,271638,1,0,3:2:0:0:
75,163,271719,1,0,1:2:0:0:
78,178,271801,102,0,P|114:170|156:158,1,62.7249971286775,0|0,3:2|1:2,2:0:0:0:
245,74,271963,2,0,P|214:65|184:59,1,62.7249971286775,0|0,3:2|1:2,2:0:0:0:
315,171,272125,1,10,3:2:0:0:
433,44,272287,1,2,0:0:0:0:
433,44,272369,1,2,2:0:0:0:
433,44,272450,6,0,P|434:127|431:218,1,154.4,6|8,3:2|2:0,2:0:0:0:
397,292,272936,1,0,2:0:0:0:
494,326,273098,2,0,P|498:302|500:278,1,48.25,0|0,2:0|2:0,2:0:0:0:
432,198,273260,1,0,3:2:0:0:
290,259,273423,1,10,2:0:0:0:
432,198,273585,1,2,2:0:0:0:
306,104,273747,102,0,P|263:140|208:131,1,115.8,0|0,3:2|2:0,2:0:0:0:
199,122,274071,2,0,P|208:74|211:26,1,77.2,10|2,2:0|2:0,2:0:0:0:
108,157,274396,2,0,P|110:181|115:205,1,48.25,2|2,2:0|2:0,2:0:0:0:
178,283,274558,1,2,2:0:0:0:
96,148,274720,2,0,P|99:186|108:224,1,77.2,10|0,2:0|2:0,2:0:0:0:
234,349,275044,6,0,B|207:342|182:312|182:312|157:365|96:369,1,154.4,2|8,3:2|2:0,2:0:0:0:
28,330,275531,1,0,2:0:0:0:
108,224,275693,2,0,P|106:248|101:271,1,48.25,2|2,2:0|2:0,2:0:0:0:
28,330,275855,1,2,3:2:0:0:
198,233,276017,1,10,0:0:0:0:
12,163,276179,1,2,2:0:0:0:
158,46,276342,102,0,P|192:89|175:142,1,115.8,0|0,3:2|2:0,2:0:0:0:
164,151,276666,1,8,2:0:0:0:
19,28,276828,1,2,2:0:0:0:
158,46,276990,2,0,P|134:50|110:52,1,48.25,2|2,2:0|2:0,2:0:0:0:
19,28,277152,1,2,3:2:0:0:
0,159,277315,2,0,P|37:151|76:149,1,77.2,10|2,2:0|2:0,2:0:0:0:
281,235,277639,6,0,B|299:186|271:155|271:162|245:137|262:85,2,154.4,6|8|0,3:2|2:0|2:0,2:0:0:0:
185,204,278450,1,0,3:2:0:0:
350,113,278612,1,10,2:0:0:0:
189,208,278774,1,2,2:0:0:0:
376,266,278936,102,0,P|426:273|466:216,1,115.8,0|0,3:2|2:0,2:0:0:0:
462,216,279260,2,0,P|454:178|452:139,1,77.2,10|0,2:0|2:0,2:0:0:0:
279,75,279585,1,2,2:0:0:0:
372,42,279747,1,2,3:2:0:0:
372,42,279828,1,2,2:0:0:0:
372,42,279909,2,0,P|364:79|362:118,1,77.2,10|0,2:0|2:0,2:0:0:0:
370,254,280233,6,0,P|329:203|242:238,1,154.4,6|8,3:2|2:0,2:0:0:0:
181,291,280720,1,0,2:0:0:0:
158,202,280882,1,2,0:0:0:0:
158,202,280963,1,2,0:0:0:0:
158,202,281044,1,2,3:2:0:0:
17,254,281206,2,0,P|53:269|91:264,1,77.2,10|0,0:0|0:0,0:0:0:0:
64,54,281531,102,0,P|64:109|62:170,1,115.8,2|0,3:2|2:0,2:0:0:0:
68,180,281855,1,10,2:0:0:0:
171,119,282017,1,2,2:0:0:0:
171,119,282098,1,10,2:0:0:0:
171,119,282179,1,2,2:0:0:0:
71,44,282342,1,2,3:2:0:0:
175,0,282504,2,0,P|212:0|238:26,1,77.2,10|0,2:0|2:0,2:0:0:0:
393,166,282828,6,0,P|322:157|265:128,1,115.8,0|0,3:2|2:0,2:0:0:0:
277,128,283152,1,8,2:0:0:0:
466,70,283314,1,2,2:0:0:0:
466,70,283396,1,2,2:0:0:0:
466,70,283477,1,2,2:0:0:0:
397,180,283639,1,0,3:2:0:0:
277,128,283801,2,0,P|281:77|286:44,1,77.2,10|0,2:0|2:0,2:0:0:0:
209,234,284125,102,0,P|256:232|288:248,1,77.2,2|8,3:2|2:0,2:0:0:0:
432,370,284450,2,0,P|396:383|358:380,1,77.2,2|0,3:2|2:0,2:0:0:0:
217,326,284774,1,10,3:2:0:0:
440,254,284936,1,2,2:0:0:0:
217,326,285098,2,0,P|213:275|208:242,1,77.2,10|0,3:2|2:0,2:0:0:0:
172,90,285423,5,8,3:2:0:0:
196,76,285504,1,0,3:2:0:0:
223,75,285585,1,0,3:2:0:0:
248,86,285666,1,0,3:2:0:0:
266,106,285747,101,8,3:2:0:0:
293,136,285828,1,0,3:2:0:0:
332,149,285909,1,0,3:2:0:0:
373,142,285990,1,0,3:2:0:0:
401,112,286071,6,0,P|410:74|414:40,1,67.5499979385377,8|0,3:2|3:2,2:0:0:0:
289,220,286233,2,0,P|280:258|276:292,1,67.5499979385377,0|0,3:2|3:2,2:0:0:0:
270,66,286396,102,0,P|279:28|283:-6,1,67.5499979385377,8|0,3:2|3:2,2:0:0:0:
158,174,286558,2,0,P|149:212|145:246,1,67.5499979385377,0|0,3:2|3:2,2:0:0:0:
108,19,286720,5,8,3:2:0:0:
108,19,287044,102,0,P|90:74|124:109,1,86.8499973495484,2|0,2:0|2:0,2:0:0:0:
116,104,287369,2,0,P|153:92|192:90,1,57.8999982330323,2|2,2:0|3:2,2:0:0:0:
291,206,287693,6,0,B|250:224|222:193|230:186|206:155|161:169,1,144.750005521775,10|2,2:0|2:0,2:0:0:0:
25,215,287936,1,8,2:0:0:0:
15,237,288017,22,0,P|114:258|161:169,1,217.125008282662,6|0,3:2|2:0,2:0:0:0:
161,169,288342,2,0,L|161:304,1,130.27500049696,8|0,2:0|2:0,2:0:0:0:
258,123,288666,1,0,2:0:0:0:
123,20,288828,1,0,3:2:0:0:
258,123,288990,2,0,P|336:121|370:64,1,130.27500049696,10|0,2:0|2:0,2:0:0:0:
503,0,289314,6,0,L|503:201,1,195.41250074544,2|0,3:2|2:0,2:0:0:0:
503,222,289639,1,10,2:0:0:0:
365,83,289801,1,2,2:0:0:0:
365,83,289882,1,10,2:0:0:0:
365,83,289963,1,2,2:0:0:0:
503,222,290126,1,0,3:2:0:0:
295,247,290288,2,0,B|353:203|353:203|423:224,1,130.27500049696,10|0,2:0|2:0,2:0:0:0:
470,351,290612,102,0,B|395:344|395:344|351:368|351:368|254:356,1,195.41250074544,2|0,3:2|2:0,2:0:0:0:
264,350,290936,1,8,2:0:0:0:
169,224,291099,1,2,2:0:0:0:
264,350,291261,2,0,P|311:297|286:222,1,130.27500049696,2|0,2:0|3:2,2:0:0:0:
89,175,291585,2,0,L|89:326,1,130.27500049696,8|2,2:0|2:0,2:0:0:0:
196,105,291909,5,2,3:2:0:0:
64,21,292071,1,2,2:0:0:0:
196,105,292234,1,10,2:0:0:0:
0,140,292396,1,0,2:0:0:0:
176,0,292558,1,0,2:0:0:0:
307,195,292720,101,2,3:2:0:0:
309,204,292774,5,2,2:0:0:0:
311,213,292828,101,2,2:0:0:0:
313,223,292882,6,0,P|235:222|159:224,1,144.75,10|0,2:0|2:0,2:0:0:0:
149,227,293207,101,2,3:2:0:0:
198,121,293369,1,0,2:0:0:0:
149,227,293531,2,0,P|99:211|75:208,1,72.3750027608873,10|0,2:0|2:0,2:0:0:0:
282,129,293855,5,2,2:0:0:0:
142,30,294017,1,0,3:2:0:0:
282,129,294180,102,0,P|365:141|414:75,1,173.699994699097,14|0,2:0|2:0,2:0:0:0:
62,0,294504,6,0,L|62:210,1,195.41250074544,0|0,3:2|2:0,2:0:0:0:
62,231,294828,1,10,2:0:0:0:
280,243,294990,1,2,2:0:0:0:
280,243,295071,1,8,2:0:0:0:
280,243,295153,2,0,P|211:204|148:220,1,130.27500049696,2|0,2:0|3:2,2:0:0:0:
60,329,295477,2,0,B|125:303|158:343|149:348|191:390|264:354,1,195.41250074544,10|0,2:0|2:0,2:0:0:0:
320,363,295801,102,0,P|393:310|331:173,1,260.550000993919,2|8,3:2|2:0,2:0:0:0:
230,58,296288,1,2,2:0:0:0:
335,174,296450,2,0,B|408:182|408:182|452:136,1,130.27500049696,2|0,2:0|3:2,2:0:0:0:
296,0,296774,5,10,2:0:0:0:
170,143,296936,1,10,2:0:0:0:
376,98,297098,101,2,3:2:0:0:
153,7,297261,1,10,2:0:0:0:
376,98,297423,5,2,3:2:0:0:
81,110,297585,1,10,2:0:0:0:
296,0,297747,102,0,P|365:-10|419:43,1,130.27500049696,10|2,2:0|3:2,2:0:0:0:
237,203,298071,1,10,2:0:0:0:
63,0,298234,1,2,2:0:0:0:
63,0,298315,1,2,2:0:0:0:
63,0,298396,6,0,B|63:200,1,195.41250074544,6|0,3:2|2:0,2:0:0:0:
51,225,298720,2,0,P|104:179|165:190,1,130.27500049696,8|0,2:0|2:0,2:0:0:0:
262,305,299045,1,0,2:0:0:0:
342,171,299207,1,0,3:2:0:0:
262,305,299369,2,0,P|194:309|152:255,1,130.27500049696,10|0,2:0|2:0,2:0:0:0:
221,97,299693,102,0,B|282:73|319:112|316:114|361:160|417:131,1,195.41250074544,2|0,3:2|2:0,2:0:0:0:
422,120,300018,1,10,2:0:0:0:
305,15,300180,1,2,2:0:0:0:
305,15,300260,1,10,2:0:0:0:
305,15,300342,1,2,2:0:0:0:
492,167,300504,2,0,P|499:136|509:101,1,65.1375002484799,0|0,3:2|2:0,2:0:0:0:
312,196,300666,2,0,P|330:262|343:323,1,130.27500049696,10|0,2:0|2:0,2:0:0:0:
497,362,300990,6,0,B|297:362,1,195.41250074544,2|0,3:2|2:0,2:0:0:0:
265,361,301315,1,8,2:0:0:0:
423,260,301477,1,2,2:0:0:0:
265,361,301639,2,0,P|224:315|230:250,1,130.27500049696,2|0,2:0|3:2,2:0:0:0:
327,127,301964,1,10,2:0:0:0:
202,33,302126,1,2,2:0:0:0:
327,127,302288,102,0,P|405:123|434:82,1,130.27500049696,2|0,3:2|2:0,2:0:0:0:
281,0,302612,1,10,2:0:0:0:
122,88,302774,1,2,2:0:0:0:
122,88,302855,1,8,2:0:0:0:
122,88,302936,2,0,L|122:220,1,130.27500049696,2|0,2:0|3:2,2:0:0:0:
202,33,303260,1,10,2:0:0:0:
15,6,303423,1,2,2:0:0:0:
15,6,303504,1,2,2:0:0:0:
15,6,303585,6,0,L|15:220,1,195.41250074544,0|0,3:2|2:0,2:0:0:0:
15,235,303909,1,8,2:0:0:0:
206,121,304071,1,0,2:0:0:0:
15,235,304233,1,0,2:0:0:0:
292,227,304396,1,0,3:2:0:0:
122,88,304558,1,10,2:0:0:0:
229,330,304720,1,2,2:0:0:0:
388,189,304882,101,2,3:2:0:0:
354,168,304963,1,0,1:2:0:0:
314,168,305044,1,2,1:2:0:0:
281,189,305125,1,0,1:2:0:0:
248,229,305206,5,2,3:2:0:0:
203,256,305287,1,0,1:2:0:0:
150,258,305369,1,2,1:2:0:0:
103,235,305450,1,0,1:2:0:0:
57,185,305531,102,0,P|64:134|68:94,1,84.4375008052588,2|0,1:2|1:2,2:0:0:0:
195,25,305693,2,0,P|199:67|205:108,1,84.4375008052588,2|0,3:2|1:2,2:0:0:0:
305,228,305855,2,0,P|357:213|395:209,1,84.4375008052588,10|0,2:0|1:2,2:0:0:0:
511,136,306017,2,0,P|469:129|429:117,1,84.4375008052588,0|0,1:2|1:2,2:0:0:0:
80,2,306179,102,0,L|81:224,1,202.649993815613,6|0,3:2|2:0,2:0:0:0:
80,237,306504,2,0,P|139:177|197:188,1,135.099995877075,8|0,2:0|2:0,2:0:0:0:
304,289,306828,1,0,2:0:0:0:
394,154,306990,1,0,3:2:0:0:
511,288,307152,2,0,P|453:246|382:249,1,135.099995877075,8|0,2:0|2:0,2:0:0:0:
224,364,307477,70,0,P|304:305|273:203,1,202.649993815613,2|0,3:2|2:0,2:0:0:0:
262,192,307801,1,10,2:0:0:0:
134,291,307963,1,0,2:0:0:0:
368,154,308125,1,2,2:0:0:0:
86,10,308287,37,2,3:2:0:0:
77,10,308342,69,2,2:0:0:0:
69,10,308396,37,2,2:0:0:0:
61,10,308450,70,0,B|64:93|64:93|76:132|76:132|80:225,1,202.649993815613,10|0,2:0|2:0,2:0:0:0:
80,237,308774,1,2,3:2:0:0:
192,120,308936,1,0,2:0:0:0:
138,329,309098,2,0,P|58:310|-3:306,1,135.099995877075,8|0,2:0|2:0,2:0:0:0:
290,211,309423,2,0,P|300:297|310:357,1,135.099995877075,0|0,2:0|3:2,2:0:0:0:
156,202,309747,2,0,P|166:135|173:68,1,135.099995877075,8|0,2:0|2:0,2:0:0:0:
444,11,310071,38,0,B|441:94|441:94|429:133|429:133|425:226,1,202.649993815613,2|0,3:2|2:0,2:0:0:0:
424,240,310396,1,8,2:0:0:0:
324,111,310558,1,0,2:0:0:0:
506,237,310720,1,2,2:0:0:0:
305,377,310882,69,2,3:2:0:0:
296,374,310936,37,2,2:0:0:0:
287,371,310990,69,2,2:0:0:0:
278,369,311044,38,0,P|245:305|270:248,1,135.099995877075,8|0,2:0|2:0,2:0:0:0:
505,315,311369,2,0,B|436:302|353:288|353:288|407:262,1,202.649993815613,2|0,3:2|2:0,2:0:0:0:
424,240,311693,70,0,P|457:304|432:361,1,135.099995877075,10|0,2:0|2:0,2:0:0:0:
175,189,312017,1,2,2:0:0:0:
198,155,312098,1,2,2:0:0:0:
234,137,312179,1,2,3:2:0:0:
274,135,312260,1,2,2:0:0:0:
313,145,312342,2,0,P|323:182|330:238,1,67.5499979385377,14|2,2:0|2:0,2:0:0:0:
433,109,312504,2,0,P|438:75|447:43,1,67.5499979385377,2|2,2:0|2:0,2:0:0:0:
165,0,312666,38,0,L|166:209,1,202.649993815613,2|0,3:2|2:0,2:0:0:0:
167,235,312990,1,10,2:0:0:0:
75,101,313152,1,0,2:0:0:0:
75,101,313233,1,8,2:0:0:0:
75,101,313314,1,2,2:0:0:0:
254,212,313477,1,0,3:2:0:0:
25,355,313639,2,0,B|-10:294|-10:294|26:220,1,135.099995877075,10|0,2:0|2:0,2:0:0:0:
320,298,313963,70,0,B|236:295|236:295|210:312|210:312|123:309,1,202.649993815613,2|0,3:2|2:0,2:0:0:0:
96,308,314287,1,8,2:0:0:0:
243,128,314450,1,0,2:0:0:0:
425,368,314612,2,0,P|432:302|445:234,1,135.099995877075,0|0,2:0|3:2,2:0:0:0:
149,104,314936,2,0,P|161:170|169:237,1,135.099995877075,8|0,2:0|2:0,2:0:0:0:
337,18,315260,37,2,3:2:0:0:
79,165,315423,1,8,2:0:0:0:
417,161,315585,69,0,3:2:0:0:
159,18,315747,1,8,2:0:0:0:
417,161,315909,37,10,2:0:0:0:
417,161,315990,1,8,2:0:0:0:
417,161,316071,1,0,3:2:0:0:
79,165,316233,1,8,2:0:0:0:
337,18,316396,2,0,P|327:67|323:97,1,67.5499979385377,2|2,2:0|2:0,2:0:0:0:
442,272,316558,70,0,B|384:249|342:290|358:294|315:334|237:308,1,202.649993815613,6|0,3:2|2:0,2:0:0:0:
215,301,316882,2,0,P|153:280|80:277,1,135.099995877075,8|0,2:0|2:0,2:0:0:0:
292,194,317206,1,0,2:0:0:0:
151,111,317369,1,0,3:2:0:0:
292,194,317531,2,0,P|340:130|306:68,1,135.099995877075,8|0,2:0|2:0,2:0:0:0:
58,0,317855,38,0,L|58:222,1,202.649993815613,2|0,3:2|2:0,2:0:0:0:
57,221,318179,1,10,2:0:0:0:
229,89,318342,1,0,2:0:0:0:
57,221,318504,1,2,2:0:0:0:
269,329,318666,69,2,3:2:0:0:
277,325,318720,37,2,2:0:0:0:
284,320,318774,69,2,2:0:0:0:
291,315,318828,38,0,B|320:245|320:245|289:189,1,135.099995877075,10|0,2:0|2:0,2:0:0:0:
33,297,319152,70,0,B|8:338|8:338|170:311,1,202.649993815613,2|0,3:2|2:0,2:0:0:0:
185,328,319477,2,0,L|42:353,1,135.099995877075,8|0,2:0|2:0,2:0:0:0:
289,182,319801,2,0,P|388:187|417:231,1,135.099995877075,0|0,2:0|3:2,2:0:0:0:
151,204,320125,2,0,P|116:138|151:83,1,135.099995877075,8|0,2:0|2:0,2:0:0:0:
475,329,320450,38,0,B|387:317|387:317|368:293|368:293|255:280,1,202.649993815613,2|0,3:2|2:0,2:0:0:0:
252,280,320774,1,8,2:0:0:0:
378,129,320936,1,0,2:0:0:0:
151,204,321098,1,0,2:0:0:0:
442,205,321260,1,2,3:2:0:0:
160,76,321423,1,10,0:0:0:0:
289,182,321585,1,0,0:0:0:0:
110,350,321747,70,0,P|33:294|81:179,1,217.125008282662,2|0,3:2|2:0,2:0:0:0:
129,156,322071,2,0,P|203:172|275:180,1,144.750005521775,8|0,3:2|2:0,2:0:0:0:
397,328,322396,2,0,P|326:311|248:303,1,144.750005521775,0|0,3:2|2:0,2:0:0:0:
253,86,322720,2,0,P|329:80|395:64,1,144.750005521775,8|0,3:2|2:0,2:0:0:0:
116,360,323044,37,2,3:2:0:0:
150,333,323125,1,0,1:2:0:0:
168,293,323206,1,0,1:2:0:0:
163,249,323287,1,0,1:2:0:0:
123,201,323369,69,0,3:2:0:0:
80,157,323450,1,0,1:2:0:0:
77,96,323531,1,0,1:2:0:0:
106,42,323612,1,0,1:2:0:0:
163,23,323693,38,0,P|213:36|271:48,1,86.8499973495484,2|0,3:2|1:2,2:0:0:0:
297,194,323855,2,0,P|246:180|189:169,1,86.8499973495484,2|0,1:2|1:2,2:0:0:0:
350,49,324017,2,0,P|358:111|364:145,1,86.8499973495484,2|0,3:2|1:2,2:0:0:0:
224,258,324179,2,0,P|216:196|210:162,1,86.8499973495484,0|0,1:2|1:2,2:0:0:0:
473,11,324342,102,0,L|473:273,1,224.36250171175,6|0,3:2|2:0,2:0:0:0:
480,253,324666,2,0,P|427:207|366:218,1,130.27500049696,8|0,2:0|2:0,2:0:0:0:
259,342,324990,1,0,2:0:0:0:
425,383,325152,1,0,3:2:0:0:
259,342,325314,2,0,P|241:279|227:215,1,130.27500049696,10|0,2:0|2:0,2:0:0:0:
234,38,325639,102,0,P|288:126|381:119,1,195.41250074544,2|0,3:2|2:0,2:0:0:0:
388,115,325963,1,10,2:0:0:0:
227,215,326125,1,2,2:0:0:0:
227,215,326206,1,10,2:0:0:0:
227,215,326287,1,2,2:0:0:0:
388,115,326450,2,0,P|356:106|324:99,1,65.1375002484799,0|0,3:2|2:0,2:0:0:0:
141,84,326612,2,0,P|165:27|227:30,1,130.27500049696,10|0,2:0|2:0,2:0:0:0:
227,215,326936,6,0,B|172:239|133:198|144:189|112:146|52:166,1,195.41250074544,2|0,3:2|2:0,2:0:0:0:
34,175,327260,1,8,2:0:0:0:
186,335,327423,1,2,2:0:0:0:
186,335,327585,2,0,P|248:317|312:303,1,130.27500049696,2|0,2:0|3:2,2:0:0:0:
13,384,327909,1,8,2:0:0:0:
73,258,328071,1,2,2:0:0:0:
0,83,328233,101,2,3:2:0:0:
82,265,328395,1,2,2:0:0:0:
256,201,328558,2,0,P|193:183|129:169,1,130.27500049696,10|0,2:0|2:0,2:0:0:0:
0,83,328882,1,0,2:0:0:0:
164,18,329044,5,2,3:2:0:0:
173,16,329098,101,2,2:0:0:0:
182,14,329152,5,2,2:0:0:0:
192,12,329206,102,0,P|230:58|163:85,1,144.75,10|0,2:0|2:0,2:0:0:0:
160,86,329531,6,0,P|123:87|88:96,1,72.3750027608873,2|0,3:2|3:2,2:0:0:0:
255,201,329855,2,0,P|219:199|184:190,1,72.3750027608873,10|8,2:0|2:0,2:0:0:0:
373,112,330179,2,0,P|336:113|301:122,1,72.3750027608873,2|0,3:2|3:2,2:0:0:0:
353,316,330504,102,0,P|430:339|485:262,1,173.699994699097,14|2,2:0|2:0,2:0:0:0:
505,183,330747,1,2,2:0:0:0:
510,168,330828,6,0,L|510:376,1,195.41250074544,2|0,3:2|2:0,2:0:0:0:
512,382,331152,1,10,2:0:0:0:
404,255,331314,1,2,2:0:0:0:
404,255,331396,1,8,2:0:0:0:
404,255,331477,2,0,B|370:195|370:195|408:135,1,130.27500049696,2|0,2:0|3:2,2:0:0:0:
489,31,331801,2,0,P|451:103|340:81,1,195.41250074544,10|0,2:0|2:0,2:0:0:0:
334,79,332125,102,0,B|261:42|209:104|224:118|182:182|103:152,1,260.550000993919,2|8,3:2|2:0,2:0:0:0:
0,36,332612,1,2,2:0:0:0:
113,163,332774,2,0,B|145:214|145:214|111:274,1,130.27500049696,2|0,2:0|3:2,2:0:0:0:
13,41,333098,1,10,2:0:0:0:
206,93,333260,1,10,2:0:0:0:
206,93,333342,1,8,2:0:0:0:
206,93,333423,5,2,3:2:0:0:
113,163,333585,2,0,P|106:131|96:99,1,65.1375002484799,10|8,2:0|2:0,2:0:0:0:
221,209,333747,1,2,3:2:0:0:
20,235,333909,2,0,P|13:203|3:171,1,65.1375002484799,10|8,2:0|2:0,2:0:0:0:
221,209,334071,1,10,2:0:0:0:
128,280,334233,1,2,3:2:0:0:
236,326,334396,102,0,P|282:312|329:302,1,96.5,10|2,2:0|2:0,2:0:0:0:
425,329,334639,1,2,2:0:0:0:
446,333,334720,6,0,P|516:276|463:160,1,224.36250171175,6|0,3:2|2:0,2:0:0:0:
454,164,335044,2,0,P|393:148|370:75,1,130.27500049696,8|0,2:0|2:0,2:0:0:0:
301,277,335369,1,0,2:0:0:0:
159,166,335531,1,0,3:2:0:0:
305,281,335693,2,0,P|367:263|431:249,1,130.27500049696,10|0,2:0|2:0,2:0:0:0:
268,95,336017,102,0,P|237:187|216:283,1,195.41250074544,2|0,3:2|2:0,2:0:0:0:
218,302,336342,1,10,2:0:0:0:
62,215,336504,1,2,2:0:0:0:
62,215,336585,1,10,2:0:0:0:
62,215,336666,1,2,2:0:0:0:
223,183,336828,2,0,P|191:176|159:166,1,65.1375002484799,0|0,3:2|2:0,2:0:0:0:
113,67,336990,2,0,P|175:65|205:11,1,130.27500049696,10|0,2:0|2:0,2:0:0:0:
7,8,337314,6,0,P|37:100|58:196,1,195.41250074544,2|0,3:2|2:0,2:0:0:0:
62,215,337639,1,8,2:0:0:0:
205,11,337801,1,2,2:0:0:0:
205,11,337963,2,0,P|175:65|113:67,1,130.27500049696,2|0,2:0|3:2,2:0:0:0:
7,8,338288,1,10,2:0:0:0:
58,196,338450,1,2,2:0:0:0:
257,114,338612,102,0,P|319:132|383:146,1,130.27500049696,2|0,3:2|2:0,2:0:0:0:
166,177,338936,1,10,2:0:0:0:
239,323,339098,1,2,2:0:0:0:
239,323,339179,1,8,2:0:0:0:
239,323,339260,2,0,P|285:272|256:210,1,130.27500049696,2|2,2:0|3:2,2:0:0:0:
64,206,339585,2,0,P|35:221|24:250,1,65.1375002484799,10|2,2:0|2:0,2:0:0:0:
143,365,339747,2,0,P|123:339|124:307,1,65.1375002484799,2|2,2:0|2:0,2:0:0:0:
166,177,339909,6,0,P|242:199|357:221,1,193,2|0,3:2|3:2,2:0:0:0:
474,186,340395,1,0,2:0:0:0:
353,220,340558,2,0,P|338:255|345:320,1,96.5,8|0,2:0|2:0,2:0:0:0:
440,380,340882,2,0,P|454:344|444:284,1,96.5,0|0,2:0|2:0,2:0:0:0:
353,220,341206,102,0,P|297:193|315:108,1,154.4,0|0,3:2|2:0,2:0:0:0:
402,69,341693,1,0,2:0:0:0:
327,1,341855,2,0,P|281:1|254:37,1,77.2,8|0,2:0|2:0,2:0:0:0:
181,83,342179,2,0,P|135:83|108:47,1,77.2,0|0,2:0|2:0,2:0:0:0:
29,50,342504,6,0,P|40:103|47:153,1,96.5,4|0,3:2|2:0,2:0:0:0:
150,210,342828,102,0,P|157:162|172:87,1,115.799996466065,0|0,3:2|2:0,2:0:0:0:
30,253,343152,6,0,B|1:317|1:317|44:388,1,135.099995877075,8|0,2:0|2:0,2:0:0:0:
289,384,343477,102,0,B|322:311|322:311|279:240,1,154.4,2|2,2:0|2:0,2:0:0:0:
169,95,343801,6,0,P|244:105|286:32,2,154.4,2|2|2,3:2|2:0|2:0,2:0:0:0:
34,14,344612,1,2,2:0:0:0:
61,158,344774,2,0,P|71:120|79:83,1,77.2,2|2,2:0|2:0,2:0:0:0:
80,84,345017,1,2,2:0:0:0:
80,84,345098,1,2,0:0:0:0:
256,192,345179,12,0,350206,2:0:0:0:
256,192,350287,53,2,2:0:0:0:
256,192,350369,12,2,355314,2:0:0:0:
