osu file format v14

[General]
AudioFilename: audio.mp3
AudioLeadIn: 0
PreviewTime: 67263
Countdown: 0
SampleSet: Soft
StackLeniency: 0.7
Mode: 0
LetterboxInBreaks: 0
WidescreenStoryboard: 1

[Editor]
Bookmarks: 777,5966,16344,21533,26722,52668,60452,68236,86398,107155,112344,117371
DistanceSpacing: 3.3
BeatDivisor: 4
GridSize: 4
TimelineZoom: 1.1

[Metadata]
Title:chrono diver -fragment-
TitleUnicode:chrono diver -fragment-
Artist:Nekomata Master feat. Misawa Aki
ArtistUnicode:猫叉Master feat.三澤 秋
Creator:Azzedd
Version:Insane
Source:
Tags:
BeatmapID:1522284
BeatmapSetID:719917

[Difficulty]
HPDrainRate:5
CircleSize:4
OverallDifficulty:7
ApproachRate:9
SliderMultiplier:1.4
SliderTickRate:1

[Events]
//Background and Video events
0,0,"fonds-ecran-hd_paysages_01.jpg",0,0
//Break Periods
//Storyboard Layer 0 (Background)
//Storyboard Layer 1 (Fail)
//Storyboard Layer 2 (Pass)
//Storyboard Layer 3 (Foreground)
//Storyboard Sound Samples

[TimingPoints]
777,324.324324324324,4,2,0,65,1,0
777,-200,4,2,0,10,0,0
3371,-200,4,2,0,25,0,0
5317,-133.333333333333,4,2,0,15,0,0
5641,-133.333333333333,4,2,0,15,0,0
5966,-117.647058823529,4,2,0,40,0,0
16020,-200,4,2,0,50,0,0
21533,-100,4,2,0,70,0,0
24128,-76.9230769230769,4,2,0,85,0,0
25425,-100,4,2,0,60,0,0
26398,-66.6666666666667,4,2,0,85,0,0
26722,-90.9090909090909,4,2,0,55,0,0
50074,-76.9230769230769,4,2,0,65,0,0
51371,-71.4285714285714,4,2,0,65,0,0
52668,-117.647058823529,4,2,0,55,0,0
57858,-117.647058823529,4,2,0,55,0,0
65641,-117.647058823529,4,2,0,60,0,0
67263,-117.647058823529,4,2,0,20,0,0
67749,-117.647058823529,4,2,0,70,0,0
68236,-80,4,2,0,80,0,1
85101,-66.6666666666667,4,2,0,70,0,0
86398,-80,4,2,0,80,0,1
101966,-117.647058823529,4,2,0,80,0,0
107155,-200,4,2,0,20,0,0
112344,-200,4,2,0,25,0,0

[Colours]
Combo1 : 255,13,122
Combo2 : 255,70,237
Combo3 : 47,234,255
Combo4 : 157,0,255
Combo5 : 44,129,233

[HitObjects]
152,192,777,6,0,L|196:192,1,35
256,104,1101,2,0,L|256:148,1,35
356,192,1425,2,0,L|312:192,1,35
256,284,1749,2,0,L|256:240,1,35
117,192,2074,6,0,L|166:192,1,35
256,69,2398,2,0,L|256:117,1,35
391,192,2722,2,0,L|342:192,1,35
256,319,3046,2,0,L|256:270,1,35
184,92,3371,6,0,L|149:92,1,35
328,92,3695,2,0,L|363:92,1,35
160,168,4020,6,0,L|125:168,1,35
356,172,4344,2,0,L|391:172,1,35
132,244,4668,6,0,L|97:244,1,35
384,248,4993,2,0,L|419:248,1,35
256,172,5317,6,0,L|256:228,1,52.5000020027161
256,328,5641,2,0,L|256:296,3,26.2500010013581,2|0|2|0,0:0|0:0|0:0|0:0,0:0:0:0:
292,232,5966,6,0,P|256:224|216:236,1,59.5000011348725,2|0,0:0|0:0,0:0:0:0:
132,320,6290,1,0,0:0:0:0:
132,320,6452,2,0,P|80:284|32:308,1,119.000002269745,2|0,0:0|0:0,0:0:0:0:
36,156,6939,6,0,P|32:188|36:216,1,59.5000011348725
120,80,7263,2,0,P|124:112|120:140,1,59.5000011348725,2|0,0:0|0:0,0:0:0:0:
232,80,7587,5,0,0:0:0:0:
232,80,7749,2,0,P|294:68|311:17,1,119.000002269745,2|0,0:0|0:0,0:0:0:0:
384,148,8236,6,0,P|380:115|384:88,1,59.5000011348725
468,252,8560,2,0,P|472:219|468:192,1,59.5000011348725,2|0,0:0|0:0,0:0:0:0:
308,300,8885,5,0,0:0:0:0:
308,300,9047,2,0,P|370:311|387:362,1,119.000002269745
387,358,9533,5,0,0:0:0:0:
212,328,9695,1,2,0:0:0:0:
212,328,9776,1,2,0:0:0:0:
212,328,9858,2,0,P|176:336|148:328,1,59.5000011348725,2|0,0:0|0:0,0:0:0:0:
80,244,10182,5,2,3:0:0:0:
70,134,10344,2,0,P|94:206|74:250,1,119.000002269745,2|0,0:0|0:0,0:0:0:0:
40,48,10831,5,0,0:0:0:0:
40,48,10912,1,0,0:0:0:0:
40,48,10993,1,0,0:0:0:0:
40,48,11074,1,0,0:0:0:0:
40,48,11155,2,0,P|72:52|104:48,1,59.5000011348725
216,76,11479,5,2,3:0:0:0:
328,81,11641,2,0,P|261:61|201:89,1,119.000002269745,2|0,0:0|0:0,0:0:0:0:
269,201,12128,1,0,0:0:0:0:
269,201,12290,1,0,0:0:0:0:
409,45,12452,2,0,L|409:104,1,59.5000011348725,2|0,0:0|0:0,0:0:0:0:
334,148,12776,5,2,3:0:0:0:
329,260,12938,2,0,P|349:193|321:133,1,119.000002269745,2|0,0:0|0:0,0:0:0:0:
209,201,13425,6,0,L|268:201,1,59.5000011348725
365,341,13749,2,0,L|305:341,1,59.5000011348725,2|0,0:0|0:0,0:0:0:0:
148,296,14074,5,2,3:0:0:0:
84,244,14236,2,0,P|64:292|92:360,1,119.000002269745,2|0,0:0|0:0,0:0:0:0:
148,296,14722,5,0,0:0:0:0:
52,168,14885,1,2,0:0:0:0:
52,168,14966,1,2,0:0:0:0:
52,168,15047,2,0,P|88:164|116:172,1,59.5000011348725,2|0,0:0|0:0,0:0:0:0:
232,256,15371,5,2,3:0:0:0:
334,153,15533,1,2,3:0:0:0:
205,103,15695,5,2,3:0:0:0:
355,258,15858,1,2,3:0:0:0:
355,258,15939,1,2,3:0:0:0:
355,258,16020,2,0,L|407:258,1,52.5,2|0,3:0|0:0,0:0:0:0:
439,258,16344,5,0,1:0:0:0:
334,359,16993,1,0,1:0:0:0:
232,256,17641,1,0,1:0:0:0:
334,153,18290,1,0,1:0:0:0:
25,258,18939,5,0,1:0:0:0:
130,359,19588,1,0,1:0:0:0:
232,256,20236,1,0,1:0:0:0:
130,153,20885,1,0,1:0:0:0:
328,312,21533,6,0,P|364:314|404:312,1,70,0|0,1:0|0:0,0:0:0:0:
192,312,21858,2,0,P|156:314|116:312,1,70,0|0,1:0|0:0,0:0:0:0:
328,196,22182,6,0,P|374:198|426:196,1,70,0|0,1:0|0:0,0:0:0:0:
192,196,22507,2,0,P|145:198|93:196,1,70,0|0,1:0|0:0,0:0:0:0:
192,108,22831,6,0,P|194:61|192:9,1,70,0|0,1:0|0:0,0:0:0:0:
192,285,23156,2,0,P|194:331|192:383,1,70,0|0,1:0|0:0,0:0:0:0:
328,108,23479,6,0,P|330:61|328:9,1,70,0|0,1:0|0:0,0:0:0:0:
328,285,23804,2,0,P|330:331|328:383,1,70,0|0,1:0|0:0,0:0:0:0:
460,172,24128,6,0,P|434:169|412:172,3,45.4999979171754,0|0|0|0,1:0|0:0|0:0|0:0,0:0:0:0:
332,212,24452,2,0,P|306:214|284:212,3,45.4999979171754,0|0|0|0,1:0|0:0|0:0|0:0,0:0:0:0:
200,160,24776,6,0,P|177:156|154:159,3,45.4999979171754,0|0|0|0,1:0|0:0|0:0|0:0,0:0:0:0:
80,232,25101,2,0,P|57:234|34:232,3,45.4999979171754,0|0|0|0,1:0|0:0|0:0|0:0,0:0:0:0:
56,140,25425,6,0,L|56:68,1,70,8|0,0:0|0:0,0:0:0:0:
176,140,25749,2,0,L|176:224,1,70,2|0,3:0|0:0,0:0:0:0:
112,312,26074,2,2,L|92:312,4,17.5,2|2|2|2|2,3:0|3:0|3:0|3:0|3:0,3:0:0:0:
200,348,26398,2,0,B|252:356|312:348|312:348|272:340|240:304,1,157.500006008148,2|0,3:0|0:0,0:0:0:0:
208,264,26722,6,0,P|248:244|292:244,1,77.0000023498536,4|0,0:0|0:0,0:0:0:0:
432,296,27047,2,0,P|412:256|412:212,1,77.0000023498536,8|0,0:0|0:0,0:0:0:0:
432,140,27371,1,2,0:0:0:0:
432,140,27533,1,0,0:0:0:0:
288,32,27695,6,0,B|232:60|232:60|296:88,1,115.50000352478,8|0,0:0|0:0,0:0:0:0:
352,72,28020,2,0,B|360:112|360:112|344:152,1,77.0000023498536,2|0,0:0|0:0,0:0:0:0:
264,236,28344,5,8,0:0:0:0:
384,220,28506,1,0,0:0:0:0:
384,220,28587,1,0,0:0:0:0:
384,220,28668,1,2,0:0:0:0:
224,160,28831,1,0,0:0:0:0:
308,292,28993,2,0,P|264:308|224:296,1,77.0000023498536,8|0,0:0|0:0,0:0:0:0:
40,216,29317,6,0,P|108:196|144:276,1,154.000004699707
40,216,29804,2,0,P|20:148|100:112,1,154.000004699707
248,32,30290,6,0,P|203:23|168:32,1,77.0000023498536,8|0,0:0|0:0,0:0:0:0:
320,100,30614,2,0,P|364:108|400:100,1,77.0000023498536,2|0,0:0|0:0,0:0:0:0:
228,180,30939,5,8,0:0:0:0:
332,308,31101,1,0,3:0:0:0:
332,308,31182,1,0,3:0:0:0:
332,308,31263,1,0,3:0:0:0:
172,276,31425,1,0,1:0:0:0:
172,276,31587,2,0,P|164:320|172:364,1,77.0000023498536,8|0,0:0|0:0,0:0:0:0:
44,220,31912,6,0,P|52:176|44:132,1,77.0000023498536,2|0,3:0|0:0,0:0:0:0:
160,40,32236,1,8,0:0:0:0:
47,144,32398,1,0,0:0:0:0:
184,24,32560,1,2,0:0:0:0:
140,132,32722,1,0,0:0:0:0:
328,84,32885,6,0,P|284:76|240:84,1,77.0000023498536,8|0,0:0|0:0,0:0:0:0:
396,128,33209,2,0,P|404:84|396:40,1,77.0000023498536,2|0,0:0|0:0,0:0:0:0:
472,192,33533,5,8,0:0:0:0:
348,272,33695,1,0,0:0:0:0:
348,272,33776,1,0,0:0:0:0:
348,272,33858,2,0,P|340:316|348:360,1,77.0000023498536,2|0,0:0|0:0,0:0:0:0:
384,204,34182,2,0,P|340:196|296:204,1,77.0000023498536,8|0,0:0|0:0,0:0:0:0:
164,272,34506,6,0,L|120:204,2,77.0000023498536,2|0|8,3:0|0:0|0:0,0:0:0:0:
204,172,34993,1,0,1:0:0:0:
204,172,35074,1,0,1:0:0:0:
204,172,35155,2,0,L|160:104,1,77.0000023498536,0|0,1:0|0:0,0:0:0:0:
388,152,35479,2,0,L|432:220,1,77.0000023498536,8|0,0:0|0:0,0:0:0:0:
240,344,35804,5,0,1:0:0:0:
335,233,35966,1,0,1:0:0:0:
220,172,36128,5,2,3:0:0:0:
334,305,36290,1,2,3:0:0:0:
388,113,36452,2,0,L|388:157,2,38.5000011749268,0|0|0,1:0|1:0|1:0,1:0:0:0:
308,32,36776,2,0,P|348:27|392:32,1,77.0000023498536,8|0,0:0|0:0,0:0:0:0:
176,96,37101,6,0,P|135:100|92:96,1,77.0000023498536,4|0,0:0|0:0,0:0:0:0:
36,208,37425,1,8,0:0:0:0:
128,136,37587,1,0,0:0:0:0:
220,208,37749,1,2,0:0:0:0:
128,276,37912,1,0,0:0:0:0:
276,164,38074,6,0,P|292:216|276:252,1,77.0000023498536,8|0,0:0|0:0,0:0:0:0:
220,336,38398,1,2,0:0:0:0:
220,336,38560,1,0,0:0:0:0:
372,284,38722,6,0,P|404:260|444:244,1,77.0000023498536,8|0,0:0|0:0,0:0:0:0:
436,128,39047,2,0,P|399:112|365:85,1,77.0000023498536,2|0,0:0|0:0,0:0:0:0:
276,164,39371,2,0,P|280:203|274:246,1,77.0000023498536,8|0,0:0|0:0,0:0:0:0:
96,92,39695,6,0,P|157:127|228:92,1,154.000004699707,2|8,3:0|0:0,0:0:0:0:
227,93,40182,1,0,1:0:0:0:
296,188,40344,1,0,1:0:0:0:
227,93,40506,1,0,1:0:0:0:
384,184,40668,2,0,P|372:232|348:256,1,77.0000023498536,8|0,0:0|0:0,0:0:0:0:
252,308,40993,5,0,1:0:0:0:
252,308,41155,1,0,1:0:0:0:
328,360,41317,2,2,L|372:360,2,38.5000011749268,2|2|2,3:0|3:0|3:0,3:0:0:0:
176,360,41641,5,0,0:0:0:0:
176,360,41804,1,0,1:0:0:0:
153,197,41966,1,8,0:0:0:0:
32,288,42128,2,0,L|76:288,1,38.5000011749268
148,271,42290,6,0,P|160:224|152:195,1,77.0000023498536,2|0,0:0|0:0,0:0:0:0:
60,72,42614,2,0,P|48:119|56:148,1,77.0000023498536,8|0,0:0|0:0,0:0:0:0:
200,112,42939,6,0,P|153:113|120:112,1,77.0000023498536
312,44,43263,1,8,0:0:0:0:
312,44,43587,6,0,P|358:42|392:44,1,77.0000023498536,2|0,0:0|0:0,0:0:0:0:
464,200,43912,2,0,P|462:153|464:120,1,77.0000023498536,8|0,0:0|0:0,0:0:0:0:
463,123,44155,1,0,0:0:0:0:
463,123,44236,1,2,0:0:0:0:
340,200,44398,1,0,0:0:0:0:
464,288,44560,1,8,0:0:0:0:
464,288,44885,6,0,P|417:286|384:288,2,77.0000023498536,2|0|8,0:0|0:0|0:0,0:0:0:0:
436,364,45371,2,0,P|389:362|356:364,1,77.0000023498536,0|2,0:0|0:0,0:0:0:0:
260,316,45695,1,0,0:0:0:0:
103,364,45858,1,8,0:0:0:0:
387,287,46182,5,0,1:0:0:0:
260,316,46344,1,0,1:0:0:0:
133,287,46506,5,2,3:0:0:0:
260,316,46668,1,2,3:0:0:0:
260,160,46831,2,2,L|260:208,2,38.5000011749268,2|2|2,3:0|3:0|3:0,3:0:0:0:
200,48,47155,2,0,P|240:28|308:44,1,115.50000352478,8|0,0:0|0:0,0:0:0:0:
332,64,47479,6,0,P|368:62|408:64,1,70,0|0,1:0|0:0,0:0:0:0:
196,64,47804,2,0,P|160:62|120:64,1,70,0|0,1:0|0:0,0:0:0:0:
332,180,48128,6,0,P|378:178|430:180,1,70,0|0,1:0|0:0,0:0:0:0:
196,180,48453,2,0,P|149:178|97:180,1,70,0|0,1:0|0:0,0:0:0:0:
196,268,48777,6,0,P|198:315|196:367,1,70,0|0,1:0|0:0,0:0:0:0:
196,91,49102,2,0,P|198:45|196:-7,1,70,0|0,1:0|0:0,0:0:0:0:
332,268,49425,6,0,P|334:315|332:367,1,70,0|0,1:0|0:0,0:0:0:0:
332,91,49750,2,0,P|334:45|332:-7,1,70,0|0,1:0|0:0,0:0:0:0:
224,312,50074,6,0,P|218:267|224:230,3,45.4999979171754,0|0|0|0,1:0|0:0|0:0|0:0,0:0:0:0:
284,216,50398,2,0,P|289:171|284:134,3,45.4999979171754,0|0|0|0,1:0|0:0|0:0|0:0,0:0:0:0:
216,136,50722,6,0,P|210:91|216:54,3,45.4999979171754,0|0|0|0,1:0|0:0|0:0|0:0,0:0:0:0:
292,68,51047,2,0,P|297:23|292:-13,3,45.4999979171754,0|0|0|0,1:0|0:0|0:0|0:0,0:0:0:0:
196,24,51371,6,0,P|144:16|76:24,1,97.9999970092774,0|2,0:0|3:0,0:0:0:0:
176,208,51695,2,0,P|224:210|273:203,1,97.9999970092774
392,72,52020,5,2,3:0:0:0:
273,203,52182,1,0,1:0:0:0:
457,186,52344,2,0,P|447:112|385:70,1,146.999995513916,8|0,0:0|0:0,0:0:0:0:
376,148,52668,5,0,1:0:0:0:
376,148,52831,1,0,1:0:0:0:
392,276,52993,2,0,B|436:288|484:276|484:276|448:252,1,119.000002269745,0|0,1:0|0:0,0:0:0:0:
308,332,53641,5,0,1:0:0:0:
308,332,53804,1,0,1:0:0:0:
164,280,53966,6,0,P|168:320|176:344,1,59.5000011348725,2|0,0:0|0:0,0:0:0:0:
244,228,54290,2,0,P|240:188|232:164,1,59.5000011348725,2|0,0:0|0:0,0:0:0:0:
132,100,54614,2,0,P|96:168|108:220,1,119.000002269745,8|0,0:0|1:0,0:0:0:0:
280,100,55263,6,0,B|324:88|372:100|372:100|336:124,2,119.000002269745,0|0|0,1:0|1:0|1:0,0:0:0:0:
208,176,56236,5,0,1:0:0:0:
208,176,56398,1,0,1:0:0:0:
308,260,56560,6,0,P|320:228|320:200,1,59.5000011348725,2|0,0:0|0:0,0:0:0:0:
228,296,56885,2,0,P|216:328|216:356,1,59.5000011348725,2|0,0:0|0:0,0:0:0:0:
320,202,57209,6,0,P|319:232|308:259,1,59.5000011348725,2|0,3:0|0:0,0:0:0:0:
215,353,57534,2,0,P|216:323|227:296,1,59.5000011348725,2|0,3:0|0:0,0:0:0:0:
360,336,57858,6,0,B|404:348|452:336|452:336|416:312,2,119.000002269745,0|0|0,1:0|1:0|1:0,1:0:0:0:
432,244,58831,5,0,1:0:0:0:
432,244,58993,1,0,1:0:0:0:
272,164,59155,6,0,P|286:191|316:224,1,59.5000011348725,2|0,0:0|0:0,0:0:0:0:
336,88,59479,2,0,P|321:60|292:28,1,59.5000011348725,2|0,0:0|0:0,0:0:0:0:
192,112,59804,6,0,P|180:184|208:236,1,119.000002269745,8|0,0:0|1:0,0:0:0:0:
197,224,60290,1,0,0:0:0:0:
32,296,60452,6,0,P|27:262|32:232,1,59.5000011348725,4|0,0:0|0:0,0:0:0:0:
92,364,60776,2,0,P|125:368|156:364,1,59.5000011348725,2|0,0:0|0:0,0:0:0:0:
172,240,61101,5,8,0:0:0:0:
332,192,61425,6,0,P|300:204|260:200,1,59.5000011348725,0|0,1:0|0:0,0:0:0:0:
292,60,61749,2,0,P|318:81|334:118,1,59.5000011348725,0|0,1:0|0:0,0:0:0:0:
192,140,62074,2,0,P|197:106|221:73,1,59.5000011348725,0|0,1:0|0:0,0:0:0:0:
320,44,62398,5,0,1:0:0:0:
320,44,62722,5,0,1:0:0:0:
356,184,62885,1,0,0:0:0:0:
477,76,63047,6,0,P|440:84|416:100,1,59.5000011348725,0|0,1:0|0:0,0:0:0:0:
352,260,63371,2,0,P|389:252|413:236,1,59.5000011348725,0|0,1:0|0:0,0:0:0:0:
472,164,63695,1,8,0:0:0:0:
420,320,64020,6,0,P|388:332|348:328,1,59.5000011348725,0|0,1:0|0:0,0:0:0:0:
380,188,64344,2,0,P|406:209|422:246,1,59.5000011348725,0|0,1:0|0:0,0:0:0:0:
280,268,64669,2,0,P|285:234|309:201,1,59.5000011348725,0|0,1:0|0:0,0:0:0:0:
316,124,64993,1,0,1:0:0:0:
256,24,65317,5,0,1:0:0:0:
256,24,65479,1,0,0:0:0:0:
396,120,65641,6,0,P|384:84|368:60,1,59.5000011348725,2|0,1:0|0:0,0:0:0:0:
312,224,65966,2,0,P|324:260|340:284,1,59.5000011348725,2|0,1:0|0:0,0:0:0:0:
168,348,66290,5,0,1:0:0:0:
149,324,66371,1,0,1:0:0:0:
140,296,66452,1,0,1:0:0:0:
139,266,66533,1,0,1:0:0:0:
148,238,66614,1,0,1:0:0:0:
232,128,66776,5,0,1:0:0:0:
232,128,66858,1,0,1:0:0:0:
232,128,66939,2,0,P|196:121|156:128,1,59.5000011348725,0|0,1:0|0:0,0:0:0:0:
40,239,67263,6,0,B|24:295|56:299|40:359,1,119.000002269745
41,357,67749,1,0,1:0:0:0:
100,152,67912,2,0,P|96:119|100:92,1,59.5000011348725,6|0,0:0|0:0,0:0:0:0:
232,44,68236,6,0,P|278:55|324:44,1,87.5,2|0,0:0|0:0,0:0:0:0:
396,216,68560,2,0,P|407:169|396:124,1,87.5,2|0,0:0|0:0,0:0:0:0:
316,172,68885,5,0,0:0:0:0:
316,172,69047,1,0,1:0:0:0:
392,324,69209,2,0,P|403:277|392:232,1,87.5,8|0,0:0|0:0,0:0:0:0:
292,152,69533,5,2,1:0:0:0:
192,248,69695,1,0,0:0:0:0:
92,152,69858,5,8,0:0:0:0:
192,248,70020,1,0,0:0:0:0:
188,108,70182,5,0,1:0:0:0:
192,248,70344,1,0,1:0:0:0:
232,44,70506,2,0,P|188:32|144:44,1,87.5,8|0,0:0|0:0,0:0:0:0:
56,196,70831,6,0,P|53:155|56:100,2,87.5,2|0|0,0:0|0:0|0:0,0:0:0:0:
124,268,71317,1,0,0:0:0:0:
124,268,71479,1,2,3:0:0:0:
188,180,71641,1,0,1:0:0:0:
240,336,71804,2,0,P|286:325|332:336,1,87.5,8|0,0:0|0:0,0:0:0:0:
416,256,72128,5,2,3:0:0:0:
468,340,72290,1,2,0:0:0:0:
416,156,72452,1,8,0:0:0:0:
416,156,72614,1,2,0:0:0:0:
492,356,72776,5,2,3:0:0:0:
400,240,72939,1,0,1:0:0:0:
400,240,73020,1,0,1:0:0:0:
400,240,73101,2,0,P|420:196|412:148,1,87.5,0|0,1:0|0:0,0:0:0:0:
268,40,73425,6,0,P|296:79|341:96,1,87.5,2|0,3:0|0:0,0:0:0:0:
332,184,73749,2,0,P|283:188|246:219,1,87.5,2|0,3:0|0:0,0:0:0:0:
196,304,74074,1,0,0:0:0:0:
196,304,74236,1,0,0:0:0:0:
48,184,74398,6,0,P|96:188|133:219,1,87.5,8|0,0:0|0:0,0:0:0:0:
212,144,74722,2,0,P|173:116|156:71,1,87.5,2|0,0:0|0:0,0:0:0:0:
268,40,75047,5,8,0:0:0:0:
364,172,75209,1,0,1:0:0:0:
364,172,75290,1,0,1:0:0:0:
364,172,75371,2,0,P|312:164|272:176,1,87.5,2|0,3:0|0:0,0:0:0:0:
324,324,75695,2,0,P|332:272|320:232,1,87.5,2|0,3:0|0:0,0:0:0:0:
104,188,76020,6,0,P|108:252|180:200,1,175,2|0,0:0|0:0,0:0:0:0:
204,56,76506,1,0,0:0:0:0:
204,56,76668,2,0,P|164:89|130:95,1,87.5,2|0,0:0|1:0,0:0:0:0:
308,84,76993,2,0,P|347:117|381:123,1,87.5,8|0,0:0|1:0,0:0:0:0:
489,91,77317,5,0,1:0:0:0:
399,227,77479,1,0,0:0:0:0:
507,195,77641,1,8,0:0:0:0:
381,123,77804,5,0,0:0:0:0:
290,260,77966,1,2,0:0:0:0:
399,227,78128,1,0,1:0:0:0:
272,156,78290,2,0,P|224:164|192:188,1,87.5,2|0,3:0|0:0,0:0:0:0:
192,336,78614,6,0,B|236:312|276:348|276:348|332:348|360:304,2,175,4|0|0,0:0|0:0|0:0,0:0:0:0:
92,268,79425,1,0,1:0:0:0:
94,184,79587,2,0,P|81:229|94:272,1,87.5,8|0,0:0|0:0,0:0:0:0:
200,112,79912,5,2,3:0:0:0:
160,228,80074,1,2,0:0:0:0:
312,136,80236,1,8,0:0:0:0:
312,136,80398,1,2,0:0:0:0:
292,280,80560,5,2,0:0:0:0:
402,226,80722,1,0,1:0:0:0:
229,183,80884,1,8,0:0:0:0:
229,183,81046,1,0,0:0:0:0:
312,356,81209,6,0,P|356:328|368:280,1,87.5,2|0,3:0|0:0,0:0:0:0:
424,152,81533,2,0,P|468:184|480:228,2,87.5,8|0|0,0:0|0:0|0:0,0:0:0:0:
260,68,82020,1,0,1:0:0:0:
260,68,82182,6,0,P|304:56|352:68,1,87.5,2|0,3:0|0:0,0:0:0:0:
248,192,82506,2,0,P|270:152|313:126,1,87.5,2|0,0:0|0:0,0:0:0:0:
408,132,82831,5,8,0:0:0:0:
408,132,82993,1,0,0:0:0:0:
248,192,83155,6,0,P|292:180|340:192,1,87.5,2|0,0:0|0:0,0:0:0:0:
236,316,83479,2,0,P|258:276|301:250,1,87.5,8|0,0:0|0:0,0:0:0:0:
112,284,83804,5,2,0:0:0:0:
158,354,83966,1,0,0:0:0:0:
168,192,84128,2,0,P|118:198|76:192,2,87.5,2|0|2,3:0|0:0|0:0,0:0:0:0:
244,88,84614,1,0,1:0:0:0:
244,88,84776,2,0,P|194:94|152:88,1,87.5,8|0,0:0|0:0,0:0:0:0:
388,36,85101,6,0,P|392:64|388:92,3,52.5000020027161,0|0|0|0,1:0|1:0|1:0|1:0,1:0:0:0:
328,148,85425,2,0,P|324:176|328:204,3,52.5000020027161,0|0|0|0,1:0|1:0|1:0|1:0,1:0:0:0:
388,256,85749,5,0,0:0:0:0:
388,256,85831,1,0,0:0:0:0:
388,256,85912,1,0,0:0:0:0:
464,364,86074,2,0,P|484:312|464:256,1,105.000004005432,8|0,0:0|0:0,0:0:0:0:
320,308,86398,6,0,P|277:297|235:304,1,87.5,2|0,0:0|0:0,0:0:0:0:
155,135,86722,2,0,P|144:177|151:219,1,87.5,2|0,0:0|0:0,0:0:0:0:
120,328,87047,5,0,0:0:0:0:
224,232,87209,1,0,1:0:0:0:
120,328,87371,2,0,P|72:320|48:292,1,87.5,8|0,0:0|0:0,0:0:0:0:
212,160,87695,5,2,1:0:0:0:
112,256,87857,1,0,1:0:0:0:
12,160,88020,5,8,0:0:0:0:
112,256,88182,1,0,1:0:0:0:
108,116,88344,5,2,1:0:0:0:
112,256,88506,1,0,1:0:0:0:
40,84,88668,6,0,P|76:48|128:44,1,87.5,8|0,0:0|0:0,0:0:0:0:
216,116,88993,2,0,P|266:116|306:82,1,87.5,2|0,3:0|0:0,0:0:0:0:
456,80,89317,5,8,0:0:0:0:
352,144,89479,1,0,0:0:0:0:
456,208,89641,1,2,0:0:0:0:
352,276,89804,1,0,0:0:0:0:
252,208,89966,2,0,P|224:268|232:300,1,87.5,2|0,3:0|0:0,0:0:0:0:
134,344,90290,5,2,1:0:0:0:
226,286,90452,1,0,0:0:0:0:
34,340,90614,1,8,0:0:0:0:
34,340,90776,1,0,0:0:0:0:
244,260,90938,5,0,1:0:0:0:
116,361,91101,1,0,1:0:0:0:
116,361,91182,1,0,1:0:0:0:
116,361,91263,2,0,P|67:339|14:347,1,87.5,2|0,3:0|0:0,0:0:0:0:
100,224,91587,6,0,P|96:174|120:136,1,87.5,2|0,3:0|0:0,0:0:0:0:
224,40,91912,2,0,P|228:89|204:128,1,87.5,2|0,3:0|0:0,0:0:0:0:
176,192,92236,1,0,1:0:0:0:
176,192,92398,1,0,1:0:0:0:
288,144,92560,6,0,P|332:120|376:120,1,87.5,4|0,0:0|0:0,0:0:0:0:
480,168,92885,2,0,P|436:192|392:192,1,87.5,2|0,0:0|0:0,0:0:0:0:
480,36,93209,5,8,0:0:0:0:
480,36,93371,1,0,0:0:0:0:
464,184,93533,1,2,1:0:0:0:
372,100,93695,1,0,0:0:0:0:
340,240,93858,2,0,P|332:288|344:328,1,87.5,8|0,0:0|0:0,0:0:0:0:
216,280,94182,6,0,P|168:272|128:285,1,87.5,2|0,0:0|0:0,0:0:0:0:
294,169,94506,2,0,P|311:214|343:242,1,87.5,2|0,3:0|0:0,0:0:0:0:
164,140,94831,2,0,P|194:102|204:61,2,87.5,2|0|8,0:0|0:0|0:0,0:0:0:0:
116,64,95317,1,0,0:0:0:0:
216,240,95479,5,2,1:0:0:0:
84,188,95641,1,0,1:0:0:0:
195,123,95804,5,0,1:0:0:0:
237,326,95966,1,8,0:0:0:0:
84,188,96128,1,0,1:0:0:0:
288,210,96290,1,2,3:0:0:0:
111,313,96452,1,8,0:0:0:0:
237,326,96614,1,0,0:0:0:0:
380,172,96776,6,0,P|368:224|380:268,1,87.5,2|0,0:0|0:0,0:0:0:0:
220,100,97101,2,0,P|272:112|316:100,1,87.5,2|0,0:0|0:0,0:0:0:0:
404,76,97425,5,0,0:0:0:0:
296,184,97587,1,0,1:0:0:0:
404,76,97749,2,0,P|380:32|336:8,1,87.5,8|0,0:0|0:0,0:0:0:0:
220,100,98074,5,2,1:0:0:0:
100,28,98236,1,0,1:0:0:0:
64,220,98398,5,8,0:0:0:0:
136,100,98560,1,0,1:0:0:0:
256,256,98722,5,2,3:0:0:0:
136,184,98884,1,2,1:0:0:0:
96,372,99047,5,8,0:0:0:0:
168,252,99209,1,0,1:0:0:0:
328,292,99371,6,0,P|338:246|316:204,1,87.5,2|0,3:0|0:0,0:0:0:0:
232,152,99695,1,8,0:0:0:0:
232,152,99858,1,0,0:0:0:0:
360,56,100020,6,0,P|314:45|272:68,1,87.5,2|0,1:0|0:0,0:0:0:0:
232,152,100344,1,8,0:0:0:0:
232,152,100506,1,0,0:0:0:0:
164,300,100668,6,0,P|149:258|128:220,1,87.5,2|0,0:0|0:0,0:0:0:0:
40,52,100993,2,0,P|54:93|75:131,1,87.5,8|0,0:0|0:0,0:0:0:0:
224,120,101317,5,2,0:0:0:0:
168,252,101479,1,0,0:0:0:0:
336,176,101641,2,0,P|344:218|344:262,1,87.5,8|0,0:0|0:0,0:0:0:0:
372,68,101966,6,0,P|436:104|448:160,2,119.000002269745,2|0|8,0:0|0:0|0:0,0:0:0:0:
360,160,102939,1,0,0:0:0:0:
292,284,103263,6,0,P|310:311|336:336,1,59.5000011348725,2|0,0:0|0:0,0:0:0:0:
184,216,103587,2,0,P|165:243|140:268,1,59.5000011348725,2|0,0:0|0:0,0:0:0:0:
284,140,103912,1,8,0:0:0:0:
284,140,104236,1,0,0:0:0:0:
140,68,104560,6,0,P|76:104|64:160,2,119.000002269745,2|0|8,0:0|0:0|0:0,0:0:0:0:
144,148,105533,1,0,0:0:0:0:
144,148,105695,1,0,0:0:0:0:
84,272,105858,5,4,0:0:0:0:
144,148,106182,1,2,0:0:0:0:
200,332,106506,2,0,P|230:334|264:328,1,59.5000011348725
344,264,106831,1,0,0:0:0:0:
152,192,107155,6,0,L|196:192,1,35
256,104,107479,2,0,L|256:148,1,35
356,192,107803,2,0,L|312:192,1,35
256,284,108127,2,0,L|256:240,1,35
117,192,108452,6,0,L|166:192,1,35
256,69,108776,2,0,L|256:117,1,35
391,192,109100,2,0,L|342:192,1,35
256,319,109424,2,0,L|256:270,1,35
256,284,109749,6,0,L|256:319,1,35
356,192,110073,2,0,L|391:192,1,35
256,104,110397,2,0,L|256:69,1,35
152,192,110721,2,0,L|117:192,1,35
256,319,111047,6,0,L|256:354,1,35
396,192,111371,2,0,L|431:192,1,35
256,69,111695,2,0,L|256:34,1,35
117,192,112020,2,0,L|82:192,1,35
184,92,112344,6,0,L|149:92,1,35
328,92,112668,2,0,L|363:92,1,35
160,168,112993,6,0,L|125:168,1,35
356,172,113317,2,0,L|391:172,1,35
132,244,113641,6,0,L|97:244,1,35
384,248,113966,2,0,L|419:248,1,35
100,324,114290,6,0,L|65:324,1,35
408,324,114614,2,0,L|443:324,1,35
443,324,114939,6,0,L|408:324,1,35
65,324,115263,2,0,L|100:324,1,35
419,248,115587,6,0,L|384:248,1,35
97,244,115912,2,0,L|132:244,1,35
391,172,116236,6,0,L|356:172,1,35
125,168,116560,2,0,L|160:168,1,35
363,92,116885,6,0,L|328:92,1,35
149,92,117209,2,0,L|184:92,1,35
