osu file format v14

[General]
AudioFilename: audio.mp3
AudioLeadIn: 600
PreviewTime: 287093
Countdown: 0
SampleSet: Soft
StackLeniency: 0.3
Mode: 0
LetterboxInBreaks: 0
WidescreenStoryboard: 0

[Editor]
Bookmarks: 1445,186959,288148,324472
DistanceSpacing: 2.4
BeatDivisor: 4
GridSize: 4
TimelineZoom: 2.599999

[Metadata]
Title:chrono diver -fragment-
TitleUnicode:chrono diver -fragment-
Artist:Nekomata Master feat. Misawa Aki
ArtistUnicode:猫叉Master feat.三澤秋
Creator:Akitoshi
Version:Tranquility
Source:beatmania IIDX 22 PENDUAL
Tags:DnB drum'n'bass naoyuki sato follow slowly healing BEMANI GOLI Asagi Corinn
BeatmapID:1168821
BeatmapSetID:430008

[Difficulty]
HPDrainRate:6
CircleSize:4
OverallDifficulty:9
ApproachRate:9.3
SliderMultiplier:1.7
SliderTickRate:1

[Events]
//Background and Video events
0,0,"hohoemi.jpg",0,0
//Break Periods
//Storyboard Layer 0 (Background)
//Storyboard Layer 1 (Fail)
//Storyboard Layer 2 (Pass)
//Storyboard Layer 3 (Foreground)
//Storyboard Sound Samples

[TimingPoints]
1445,324.324324324324,4,2,1,20,1,0
1445,-200,4,2,1,20,0,0
1526,-200,4,2,1,5,0,0
6634,-200,4,2,1,20,0,0
6715,-200,4,2,1,5,0,0
11499,-200,4,2,1,20,0,0
21553,-200,4,2,1,5,0,0
21877,-200,4,2,1,20,0,0
27309,-200,4,2,1,5,0,0
27390,-200,4,2,1,20,0,0
31283,-200,4,2,1,40,0,0
31364,-200,4,2,1,20,0,0
31931,-125,4,2,1,20,0,0
32580,-125,4,2,2,30,0,0
32662,-125,4,2,1,20,0,0
33066,-200,4,2,1,20,0,0
34363,-200,4,2,1,5,0,0
35174,-200,4,2,1,20,0,0
40364,-200,4,2,1,35,0,0
41013,-200,4,2,1,40,0,0
41336,-166.666666666667,4,2,1,40,0,0
41662,-166.666666666667,4,2,1,50,0,0
41823,-142.857142857143,4,2,1,50,0,0
42310,-142.857142857143,4,2,1,60,0,0
42958,-111.111111111111,4,2,3,70,0,0
43040,-111.111111111111,4,2,1,70,0,0
53336,-100,4,2,3,70,0,0
61120,-90.9090909090909,4,2,3,70,0,0
63715,-100,4,2,2,70,0,0
63796,-100,4,2,3,70,0,0
74093,-100,4,2,2,70,0,0
74174,-100,4,2,3,70,0,0
89662,-117.647058823529,4,2,2,70,0,0
89743,-117.647058823529,4,2,3,60,0,0
94850,-117.647058823529,4,2,2,60,0,0
95012,-117.647058823529,4,2,3,60,0,0
97445,-105.263157894737,4,2,2,60,0,0
97526,-105.263157894737,4,2,3,60,0,0
100040,-100,4,2,3,60,0,0
101337,-95.2380952380952,4,2,3,60,0,0
102634,-90.9090909090909,4,2,3,60,0,0
104255,-133.333333333333,4,2,3,50,0,0
104742,-100,4,2,3,50,0,0
105228,-83.3333333333333,4,2,3,80,0,1
110417,-125,4,2,3,80,0,1
110742,-100,4,2,3,80,0,1
111066,-83.3333333333333,4,2,3,80,0,1
111390,-71.4285714285714,4,2,3,80,0,1
111715,-83.3333333333333,4,2,3,80,0,1
122093,-83.3333333333333,4,2,3,70,0,0
123390,-83.3333333333333,4,2,3,80,0,1
128580,-90.9090909090909,4,2,3,80,0,1
128904,-83.3333333333333,4,2,3,80,0,1
129228,-76.9230769230769,4,2,3,80,0,1
129553,-71.4285714285714,4,2,3,80,0,1
129877,-83.3333333333333,4,2,3,80,0,1
138958,-90.9090909090909,4,2,3,80,0,0
142850,-117.647058823529,4,2,3,80,0,0
144147,-100,4,2,3,70,0,0
154526,-100,4,2,2,70,0,0
154607,-100,4,2,3,70,0,0
164904,-117.647058823529,4,2,2,50,0,0
164985,-117.647058823529,4,2,3,40,0,0
175282,-200,4,2,1,50,0,0
175363,-200,4,2,1,20,0,0
180309,-200,4,2,1,30,0,0
180390,-200,4,2,1,35,0,0
180472,-200,4,2,1,50,0,0
185336,-200,4,2,1,55,0,0
185661,-200,4,2,1,57,0,0
185986,-200,4,2,1,60,0,0
186310,-200,4,2,1,65,0,0
186634,-200,4,2,2,70,0,0
186797,-200,4,2,2,5,0,0
186959,-100,4,2,2,70,0,0
187040,-100,4,2,3,70,0,0
188174,-100,4,2,3,5,0,0
188255,-100,4,2,3,70,0,0
192066,-100,4,2,3,5,0,0
192147,-100,4,2,3,70,0,0
193363,-100,4,2,3,5,0,0
193444,-100,4,2,3,70,0,0
197255,-100,4,2,3,5,0,0
197337,-100,4,2,2,70,0,0
197418,-100,4,2,3,70,0,0
201147,-100,4,2,3,5,0,0
201228,-100,4,2,3,70,0,0
203742,-100,4,2,3,5,0,0
203823,-100,4,2,3,70,0,0
207390,-100,4,2,2,70,0,0
207715,-100,4,2,3,70,0,0
207796,-100,4,2,2,70,0,0
212823,-100,4,2,3,5,0,0
212905,-117.647058823529,4,2,2,70,0,0
212986,-117.647058823529,4,2,3,70,0,0
218093,-117.647058823529,4,2,2,70,0,0
218174,-117.647058823529,4,2,3,70,0,0
220689,-117.647058823529,4,2,2,70,0,0
220770,-117.647058823529,4,2,3,70,0,0
222229,-117.647058823529,4,2,3,5,0,0
222310,-117.647058823529,4,2,3,70,0,0
223526,-117.647058823529,4,2,3,5,0,0
223607,-117.647058823529,4,2,3,70,0,0
228472,-83.3333333333333,4,2,3,80,0,1
229688,-83.3333333333333,4,2,3,5,0,1
229769,-83.3333333333333,4,2,3,80,0,1
233336,-83.3333333333333,4,2,3,80,0,1
233661,-125,4,2,3,80,0,1
233985,-100,4,2,2,80,0,1
234309,-83.3333333333333,4,2,2,80,0,1
234634,-71.4285714285714,4,2,2,80,0,1
234877,-83.3333333333333,4,2,3,5,0,1
234958,-83.3333333333333,4,2,3,80,0,1
240066,-83.3333333333333,4,2,3,5,0,1
240147,-83.3333333333333,4,2,3,80,0,1
245336,-83.3333333333333,4,2,3,80,0,0
246634,-83.3333333333333,4,2,3,80,0,1
247850,-83.3333333333333,4,2,3,5,0,1
247931,-83.3333333333333,4,2,3,80,0,1
251499,-83.3333333333333,4,2,3,80,0,1
253039,-83.3333333333333,4,2,3,5,0,1
253120,-83.3333333333333,4,2,3,80,0,1
258228,-83.3333333333333,4,2,3,5,0,1
258309,-83.3333333333333,4,2,3,80,0,1
262201,-83.3333333333333,4,2,2,80,0,0
262282,-83.3333333333333,4,2,3,80,0,0
267390,-76.9230769230769,4,2,3,70,0,0
267472,-76.9230769230769,4,2,3,70,0,0
267878,-74.0740740740741,4,2,3,70,0,0
268364,-71.4285714285714,4,2,3,70,0,0
268851,-68.9655172413793,4,2,3,70,0,0
269337,-76.9230769230769,4,2,3,70,0,0
272255,-55.5555555555556,4,2,3,70,0,0
272580,-83.3333333333333,4,2,2,60,0,0
272661,-83.3333333333333,4,2,3,60,0,0
275093,-83.3333333333333,4,2,3,5,0,0
275174,-83.3333333333333,4,2,3,60,0,0
277769,-83.3333333333333,4,2,2,60,0,0
277850,-83.3333333333333,4,2,3,60,0,0
280282,-83.3333333333333,4,2,3,5,0,0
280364,-83.3333333333333,4,2,2,60,0,0
280445,-83.3333333333333,4,2,3,60,0,0
281904,-83.3333333333333,4,2,3,5,0,0
281985,-83.3333333333333,4,2,3,60,0,0
283201.03125,-83.3333333333333,4,2,3,5,0,0
283281.96875,-83.3333333333333,4,2,3,60,0,0
287175,-133.333333333333,4,2,3,50,0,0
287661,-100,4,2,3,50,0,0
288147,-83.3333333333333,4,2,3,80,0,1
293336,-125,4,2,3,80,0,1
293661,-100,4,2,3,80,0,1
293985,-83.3333333333333,4,2,3,80,0,1
294309,-71.4285714285714,4,2,3,80,0,1
294634,-83.3333333333333,4,2,3,80,0,1
305012,-83.3333333333333,4,2,3,80,0,0
306309,-83.3333333333333,4,2,3,80,0,1
306390,-83.3333333333333,4,2,3,80,0,0
311499,-125,4,2,3,80,0,0
311823,-100,4,2,3,80,0,0
312147,-83.3333333333333,4,2,3,80,0,0
312472,-71.4285714285714,4,2,3,80,0,0
313120,-66.6666666666667,4,2,3,80,0,0
314093,-83.3333333333333,4,2,3,80,0,0
321877,-90.9090909090909,4,2,3,80,0,0
323174,-83.3333333333333,4,2,3,80,0,0
323823,-80,4,2,3,80,0,0
324472,-76.9230769230769,4,2,3,80,0,1
325688,-76.9230769230769,4,2,3,5,0,1
325769,-76.9230769230769,4,2,3,80,0,1
329336,-76.9230769230769,4,2,3,80,0,1
329661,-125,4,2,3,80,0,1
329985,-100,4,2,3,80,0,1
330309,-83.3333333333333,4,2,3,80,0,1
330634,-71.4285714285714,4,2,2,80,0,1
330715,-71.4285714285714,4,2,3,80,0,1
330877,-71.4285714285714,4,2,3,5,0,1
330958,-76.9230728149414,4,2,3,80,0,1
336066,-76.9230728149414,4,2,3,5,0,1
336147,-76.9230728149414,4,2,3,80,0,1
340039,-76.9230769230769,4,2,2,80,0,0
340121,-76.9230769230769,4,2,3,80,0,0
342634,-76.9230769230769,4,2,2,80,0,0
342716,-76.9230769230769,4,2,3,80,0,0
343932,-76.9230769230769,4,2,2,80,0,0
345067,-76.9230769230769,4,2,2,40,0,0
345229,-200,4,2,1,80,0,0
345310,-200,4,2,1,40,0,0
350418,-200,4,2,1,20,0,0

[Colours]
Combo1 : 128,128,255
Combo2 : 0,255,255
Combo3 : 18,124,255

[HitObjects]
256,192,1445,5,2,0:0:0:0:
256,192,1526,12,0,6309,0:0:0:0:
256,192,6634,5,2,0:0:0:0:
256,192,6715,12,0,11174,0:0:0:0:
256,192,11499,5,0,0:0:0:0:
257,172,11580,1,0,0:0:0:0:
257,152,11661,1,0,0:0:0:0:
258,132,11742,1,0,0:0:0:0:
258,113,11823,5,2,0:0:0:0:
258,113,12796,5,0,0:0:0:0:
171,181,12958,1,0,0:0:0:0:
171,181,14093,1,0,0:0:0:0:
124,95,14255,2,0,L|127:43,1,42.5,0|2,0:0|0:0,0:0:0:0:
126,52,15390,5,0,0:0:0:0:
208,76,15553,1,0,0:0:0:0:
208,76,16688,2,0,L|277:71,1,56.6666666666667
264,71,17012,6,0,P|265:105|347:63,1,170,2|0,0:0|0:0,0:0:0:0:
446,72,17985,2,0,L|522:81,1,56.6666666666667
502,78,18309,2,0,L|496:172,1,85
409,287,18850,1,0,0:0:0:0:
400,295,18958,2,0,L|389:242,1,42.5
321,192,19282,6,0,B|277:179|238:198|238:198|187:218|140:207|111:158|115:112|130:61|198:45|236:50|284:102|283:128|265:160|240:239|240:239|260:267|251:321,1,595
100,356,21877,1,0,0:0:0:0:
94,337,21958,1,0,0:0:0:0:
88,318,22039,1,0,0:0:0:0:
82,299,22120,1,0,0:0:0:0:
76,280,22201,5,2,0:0:0:0:
76,280,23174,1,0,0:0:0:0:
171,234,23336,1,0,0:0:0:0:
171,234,24472,1,0,0:0:0:0:
77,211,24634,2,0,P|68:182|67:155,1,42.5,0|2,0:0|0:0,0:0:0:0:
66,170,25769,5,0,0:0:0:0:
140,128,25931,1,0,0:0:0:0:
140,128,27066,2,0,L|222:124,1,63.75
203,124,27390,6,0,P|200:174|282:144,2,170,2|0|0,0:0|0:0|0:0,0:0:0:0:
274,59,29336,1,0,0:0:0:0:
404,80,29661,1,0,0:0:0:0:
404,80,31282,6,0,L|413:213,1,127.5
414,232,31850,1,0,0:0:0:0:
416,257,31931,2,0,L|495:263,1,68,2|0,0:0|0:0,0:0:0:0:
383,347,32255,2,0,L|300:354,1,68
162,355,32580,6,0,P|146:282|190:238,1,136,4|0,0:0|0:0,0:0:0:0:
281,228,33066,2,0,L|277:143,1,85
364,99,33553,2,0,L|368:184,1,85
458,220,34039,2,0,L|454:135,1,85
454,135,35174,6,0,B|398:127|333:153|333:153|275:177|207:144|207:144|135:156|135:156|200:185|200:185|234:225|238:256|219:295|186:318|151:312|122:290,1,595,2|0,0:0|0:0,0:0:0:0:
131,296,37769,6,0,L|136:380,1,85
33,330,38255,2,0,L|28:246,1,85
126,211,38742,2,0,L|131:295,1,85
28,245,39228,2,0,L|23:161,1,85
103,77,39715,1,0,0:0:0:0:
103,77,40039,1,0,0:0:0:0:
103,77,40363,6,0,P|140:67|198:85,1,85
266,76,40850,2,0,P|225:66|184:76,1,85
178,193,41336,2,0,L|283:187,1,101.999996887207
398,193,41823,2,0,L|258:185,1,118.999996368408
266,76,42309,2,0,P|281:39|306:17,1,59.4999981842042
431,42,42634,2,2,L|437:78,1,29.7499990921021
488,147,42796,2,0,L|482:183,1,29.7499990921021,2|2,0:0|0:0,0:0:0:0:
439,288,42958,6,0,B|347:313|376:253|261:285,1,152.999995330811,4|2,0:0|0:0,0:0:0:0:
178,329,43444,2,0,P|166:275|208:186,1,152.999995330811
303,114,43931,2,0,B|303:73|303:73|286:31,1,76.4999976654053,2|0,0:0|0:0,0:0:0:0:
121,33,44255,6,0,P|137:101|206:92,1,152.999995330811,2|2,0:0|0:0,0:0:0:0:
290,40,44742,1,0,0:0:0:0:
379,77,44904,2,0,L|379:170,1,76.4999976654053,2|0,0:0|0:0,0:0:0:0:
377,250,45228,2,0,P|336:264|279:253,1,76.4999976654053,2|0,0:0|0:0,0:0:0:0:
195,202,45553,6,0,B|151:188|121:207|121:207|81:230|40:213,1,152.999995330811,2|2,0:0|0:0,0:0:0:0:
75,136,46039,1,0,0:0:0:0:
161,277,46201,2,0,P|163:319|165:358,1,76.4999976654053,2|0,0:0|0:0,0:0:0:0:
303,262,46526,2,0,P|301:220|299:181,1,76.4999976654053,2|2,0:0|0:0,0:0:0:0:
302,151,46769,1,2,0:0:0:0:
302,151,46850,6,0,P|359:170|449:115,1,152.999995330811,2|2,0:0|0:0,0:0:0:0:
360,68,47336,1,0,0:0:0:0:
223,93,47499,2,0,P|207:128|208:173,1,76.4999976654053,2|0,0:0|0:0,0:0:0:0:
244,297,47823,1,2,0:0:0:0:
251,314,47904,1,2,0:0:0:0:
254,332,47985,1,2,0:0:0:0:
255,351,48066,1,2,0:0:0:0:
250,369,48147,6,0,P|207:345|92:353,1,152.999995330811,2|2,0:0|0:0,0:0:0:0:
12,267,48634,2,0,L|23:106,1,152.999995330811
133,63,49120,2,0,P|173:71|227:62,1,76.4999976654053,2|0,0:0|0:0,0:0:0:0:
328,45,49444,6,0,B|343:156|343:156|325:200,1,152.999995330811,2|2,0:0|0:0,0:0:0:0:
256,294,49931,1,0,0:0:0:0:
377,305,50093,2,0,P|415:301|460:321,1,76.4999976654053,2|0,0:0|0:0,0:0:0:0:
256,294,50417,2,0,P|218:298|173:278,1,76.4999976654053,2|0,0:0|0:0,0:0:0:0:
170,135,50742,6,0,P|239:144|229:213,1,152.999995330811,2|2,0:0|0:0,0:0:0:0:
107,229,51228,1,0,0:0:0:0:
48,121,51390,2,0,L|58:19,1,76.4999976654053,2|0,0:0|0:0,0:0:0:0:
178,59,51715,2,0,L|170:135,1,76.4999976654053,2|2,0:0|0:0,0:0:0:0:
169,158,51958,1,2,0:0:0:0:
167,180,52039,6,0,P|205:198|263:192,1,76.4999976654053,2|0,0:0|0:0,0:0:0:0:
386,159,52363,1,2,0:0:0:0:
346,307,52526,1,0,0:0:0:0:
239,199,52688,1,2,0:0:0:0:
386,159,52850,2,0,L|422:156,2,25.4999992218018
360,133,53012,2,0,L|451:128,1,76.4999976654053,2|0,0:0|0:0,0:0:0:0:
239,199,53336,6,0,L|70:190,1,170,4|0,0:0|0:0,0:0:0:0:
250,236,53985,2,0,L|81:227,1,170,2|0,0:0|0:0,0:0:0:0:
261,273,54634,2,0,L|92:264,1,170,2|0,0:0|0:0,0:0:0:0:
272,310,55283,2,0,L|103:301,1,170,2|0,0:0|0:0,0:0:0:0:
107,168,55931,6,0,B|180:127|180:127|263:157,1,170,2|0,0:0|0:0,0:0:0:0:
272,310,56580,2,0,B|231:237|231:237|261:154,1,170,2|0,0:0|0:0,0:0:0:0:
414,144,57228,2,0,B|341:185|341:185|258:155,1,170,2|0,0:0|0:0,0:0:0:0:
248,1,57877,2,0,B|289:74|289:74|259:157,1,170,2|0,0:0|0:0,0:0:0:0:
250,178,58282,1,0,0:0:0:0:
240,201,58363,1,0,0:0:0:0:
230,224,58444,1,0,0:0:0:0:
222,248,58526,6,0,P|221:296|231:348,1,85,2|0,0:0|0:0,0:0:0:0:
391,264,58850,2,0,P|392:216|382:164,1,85,2|0,0:0|0:0,0:0:0:0:
217,164,59174,2,0,P|216:212|226:264,1,85,2|0,0:0|0:0,0:0:0:0:
386,180,59498,2,0,P|387:132|377:80,1,85,2|0,0:0|0:0,0:0:0:0:
214,28,59823,6,0,L|104:30,1,85,2|0,0:0|0:0,0:0:0:0:
0,153,60147,2,0,L|110:155,1,85,2|0,0:0|0:0,0:0:0:0:
240,65,60472,2,0,L|130:67,1,85,2|0,0:0|0:0,0:0:0:0:
26,190,60796,2,0,L|136:192,1,85,2|0,0:0|0:0,0:0:0:0:
307,193,61120,5,2,0:0:0:0:
342,204,61201,1,0,0:0:0:0:
367,231,61282,1,2,0:0:0:0:
382,264,61363,1,0,0:0:0:0:
378,301,61444,1,2,0:0:0:0:
364,336,61526,1,0,0:0:0:0:
332,355,61607,1,2,0:0:0:0:
295,360,61688,1,0,0:0:0:0:
256,344,61769,5,2,0:0:0:0:
219,323,61850,1,0,0:0:0:0:
192,290,61931,1,2,0:0:0:0:
160,261,62012,1,0,0:0:0:0:
119,248,62093,1,2,0:0:0:0:
77,246,62174,1,0,0:0:0:0:
37,259,62255,1,2,0:0:0:0:
11,292,62336,1,0,0:0:0:0:
2,337,62417,5,8,0:0:0:0:
266,224,62742,2,0,L|257:92,1,93.5000028533936,0|0,1:0|0:0,0:0:0:0:
133,68,63066,2,0,L|135:25,2,31.1666676177979
111,109,63228,2,0,P|79:113|36:114,1,46.7500014266968,2|0,0:0|0:0,0:0:0:0:
260,131,63390,2,0,P|316:126|414:137,1,140.25000428009,2|0,0:3|0:0,0:0:0:0:
399,133,63715,6,0,P|373:183|407:296,1,170,4|8,0:0|0:0,0:0:0:0:
482,211,64201,1,0,0:0:0:0:
454,52,64363,2,0,P|406:36|349:48,1,85,0|2,0:0|0:0,0:0:0:0:
266,224,64688,1,8,0:0:0:0:
399,134,64850,1,0,0:0:0:0:
220,128,65012,6,0,L|123:125,1,85,2|0,0:0|0:0,0:0:0:0:
10,252,65336,2,0,L|107:255,1,85,8|0,0:0|0:0,0:0:0:0:
176,262,65580,1,0,0:0:0:0:
176,262,65661,2,0,P|190:308|178:359,1,85,0|2,0:0|0:0,0:0:0:0:
135,125,65985,2,0,P|121:79|133:28,1,85,8|0,0:0|0:0,0:0:0:0:
366,47,66309,6,0,B|331:79|331:79|209:76,1,170,2|8,0:0|0:0,0:0:0:0:
34,63,66796,2,0,B|29:113|29:113|52:170|52:170|43:243,1,170,0|2,0:0|0:0,0:0:0:0:
185,343,67282,2,0,L|199:249,1,85,8|0,0:0|0:0,0:0:0:0:
350,164,67607,6,0,P|396:156|450:166,1,85,2|0,0:0|0:0,0:0:0:0:
400,335,67931,1,8,0:0:0:0:
273,209,68093,1,0,0:0:0:0:
273,209,68174,1,0,0:0:0:0:
273,209,68255,1,2,0:0:0:0:
416,252,68417,1,2,0:0:0:0:
185,343,68580,2,0,L|88:341,1,85,8|0,0:0|0:0,0:0:0:0:
5,180,68904,6,0,B|68:181|68:181|111:190|111:190|191:189,1,170,2|8,0:0|0:0,0:0:0:0:
306,160,69390,1,0,0:0:0:0:
180,107,69553,2,0,P|167:148|178:199,1,85,0|2,0:0|0:0,0:0:0:0:
303,319,69877,2,0,P|316:278|305:227,1,85,8|0,0:0|0:0,0:0:0:0:
82,214,70201,6,0,P|136:276|219:272,1,170,2|8,0:0|0:0,0:0:0:0:
306,160,70688,1,0,0:0:0:0:
306,160,70769,1,0,0:0:0:0:
306,160,70850,2,0,L|413:163,1,85,0|2,0:0|0:0,0:0:0:0:
287,38,71174,2,0,L|180:35,1,85,8|0,0:0|0:0,0:0:0:0:
55,139,71499,6,0,B|39:255|39:255|55:314,1,170,2|8,0:0|0:0,0:0:0:0:
222,362,71985,2,0,B|238:246|238:246|222:187,1,170,0|2,0:0|0:0,0:0:0:0:
104,38,72472,2,0,P|64:27|8:38,1,85,8|0,0:0|0:0,0:0:0:0:
139,198,72796,6,0,L|241:194,1,85,2|0,0:0|0:0,0:0:0:0:
419,185,73120,1,2,0:0:0:0:
250,85,73282,1,0,0:0:0:0:
333,263,73444,2,0,L|338:324,1,42.5,2|0,0:0|0:0,0:0:0:0:
422,227,73607,2,0,L|417:166,1,42.5,2|0,0:0|0:0,0:0:0:0:
223,194,73769,2,0,L|235:317,1,85,8|0,0:0|0:0,0:0:0:0:
118,162,74093,6,0,P|167:95|250:85,1,170,6|8,0:0|0:0,0:0:0:0:
223,194,74580,1,0,0:0:0:0:
55,221,74742,2,0,P|36:185|44:121,1,85,0|2,0:0|0:0,0:0:0:0:
163,305,75066,2,0,P|161:345|122:397,1,85,8|0,0:0|0:0,0:0:0:0:
223,194,75390,6,0,B|264:188|264:188|317:197,1,85,2|0,0:0|0:0,0:0:0:0:
474,227,75715,1,8,0:0:0:0:
417,66,75877,1,0,0:0:0:0:
417,66,75958,1,0,0:0:0:0:
417,66,76039,2,0,P|378:47|316:45,1,85,0|2,0:0|0:0,0:0:0:0:
306,195,76363,2,0,P|345:214|407:216,1,85,8|0,0:0|0:0,0:0:0:0:
235,105,76688,6,0,B|189:92|149:110|149:110|109:87|53:104,1,170,2|8,0:0|0:0,0:0:0:0:
23,233,77174,2,0,P|87:266|96:195,1,170,0|2,0:0|0:0,0:0:0:0:
88,363,77661,2,0,P|131:353|180:308,1,85,8|0,0:0|0:0,0:0:0:0:
304,227,77985,6,0,L|403:229,1,85,2|0,0:0|0:0,0:0:0:0:
290,377,78309,1,8,0:0:0:0:
200,221,78472,1,0,0:0:0:0:
200,221,78553,1,0,0:0:0:0:
200,221,78634,2,0,P|212:176|252:134,1,85,0|2,0:0|0:0,0:0:0:0:
389,229,78958,2,0,P|377:274|337:316,1,85,8|0,0:0|0:0,0:0:0:0:
346,108,79282,6,0,P|413:103|499:171,1,170,2|8,0:0|0:0,0:0:0:0:
414,382,79769,2,0,B|375:342|375:342|389:226,1,170,0|2,0:0|0:0,0:0:0:0:
263,102,80255,2,0,L|252:193,1,85,8|0,0:0|0:0,0:0:0:0:
228,371,80580,5,2,0:0:0:0:
140,205,80742,1,0,0:0:0:0:
308,288,80904,1,8,0:0:0:0:
123,319,81066,1,0,0:0:0:0:
123,319,81147,1,0,0:0:0:0:
123,319,81228,2,0,L|19:316,1,85,0|2,0:0|0:0,0:0:0:0:
308,288,81553,2,0,L|412:285,1,85,8|0,0:0|0:0,0:0:0:0:
425,97,81877,6,0,B|380:80|340:101|340:101|291:77|228:112,1,170,2|8,0:0|0:0,0:0:0:0:
227,341,82363,2,0,P|290:286|295:204,1,170,0|2,0:0|0:0,0:0:0:0:
142,68,82850,1,8,0:0:0:0:
255,13,83012,1,0,0:0:0:0:
192,238,83174,5,2,0:0:0:0:
67,29,83336,1,8,0:0:0:0:
81,273,83499,1,2,0:0:0:0:
263,102,83661,1,8,0:0:0:0:
20,146,83823,2,0,L|10:75,1,42.5,2|0,0:0|0:0,0:0:0:0:
81,273,83985,2,0,L|71:344,1,42.5,2|0,0:0|0:0,0:0:0:0:
202,221,84147,2,0,P|247:232|307:221,1,85,8|0,0:0|0:0,0:0:0:0:
458,108,84472,6,0,P|374:90|324:108,1,127.5,6|0,0:3|0:0,0:0:0:0:
272,144,84796,2,0,L|285:233,1,85,2|8,0:0|0:0,0:0:0:0:
436,357,85120,2,0,L|352:323,1,85,2|8,0:0|0:0,0:0:0:0:
169,380,85444,2,0,L|239:324,1,85,2|8,0:0|0:0,0:0:0:0:
437,177,85769,5,2,0:0:0:0:
235,209,85931,1,8,0:0:0:0:
437,295,86093,1,2,0:0:0:0:
235,327,86255,1,8,0:0:0:0:
336,102,86417,5,2,0:0:0:0:
339,351,86580,1,8,0:0:0:0:
174,132,86742,1,2,0:0:0:0:
169,380,86905,1,8,0:0:0:0:
393,234,87066,5,2,0:0:0:0:
400,231,87147,1,0,0:0:0:0:
408,228,87228,1,10,0:0:0:0:
415,225,87309,1,0,0:0:0:0:
423,222,87390,1,2,0:0:0:0:
431,219,87472,1,0,0:0:0:0:
438,216,87553,1,10,0:0:0:0:
446,213,87634,1,0,0:0:0:0:
477,200,87715,5,2,0:0:0:0:
498,226,87796,1,0,0:0:0:0:
504,259,87877,1,10,0:0:0:0:
503,292,87958,1,0,0:0:0:0:
487,322,88039,1,2,0:0:0:0:
459,341,88120,1,0,0:0:0:0:
425,348,88201,1,10,0:0:0:0:
391,342,88282,1,0,0:0:0:0:
360,324,88363,5,2,0:0:0:0:
334,301,88444,1,0,0:0:0:0:
309,277,88526,1,10,0:0:0:0:
278,262,88607,1,0,0:0:0:0:
244,254,88688,1,2,0:0:0:0:
210,255,88769,1,0,0:0:0:0:
178,267,88850,1,8,0:0:0:0:
152,289,88931,1,0,0:0:0:0:
134,317,89012,6,0,L|80:316,1,42.5,2|0,0:0|0:0,0:0:0:0:
17,220,89174,2,0,L|71:219,1,42.5,10|0,0:0|0:0,0:0:0:0:
178,177,89336,2,0,B|181:136|181:136|166:95|166:95|171:32,1,127.5,10|0,0:0|0:0,0:0:0:0:
150,19,89661,6,0,P|51:47|13:109,1,170,6|2,0:0|0:0,0:0:0:0:
17,220,90147,1,0,0:0:0:0:
135,187,90309,2,0,P|171:195|219:186,1,72.2500013780594,8|0,0:0|0:0,0:0:0:0:
352,109,90634,2,0,P|316:101|268:110,1,72.2500013780594,2|0,0:0|0:0,0:0:0:0:
232,294,90958,6,0,P|291:255|312:188,1,144.500002756119,2|2,0:0|0:0,0:0:0:0:
206,191,91444,1,0,0:0:0:0:
116,286,91607,2,0,L|125:362,1,72.2500013780594,8|0,0:0|0:0,0:0:0:0:
206,191,91931,2,0,L|197:115,1,72.2500013780594,2|0,0:0|0:0,0:0:0:0:
62,189,92255,6,0,B|109:198|109:198|219:189,1,144.500002756119,2|2,0:0|0:0,0:0:0:0:
283,104,92742,1,0,0:0:0:0:
392,186,92904,2,0,L|389:283,1,72.2500013780594,8|0,0:0|0:0,0:0:0:0:
283,104,93228,1,2,0:0:0:0:
387,30,93390,1,8,0:0:0:0:
435,150,93553,6,0,L|430:325,1,144.500002756119,2|2,0:0|0:0,0:0:0:0:
347,363,94039,1,0,0:0:0:0:
313,259,94201,2,0,P|275:253|233:260,1,72.2500013780594,8|0,0:0|0:0,0:0:0:0:
275,361,94526,2,0,P|313:367|355:360,1,72.2500013780594,2|0,0:0|0:0,0:0:0:0:
347,227,94850,6,0,P|276:212|202:229,1,144.500002756119,6|2,0:0|0:0,0:0:0:0:
120,291,95336,1,0,0:0:0:0:
85,187,95499,2,0,L|91:103,1,72.2500013780594,8|0,0:0|0:0,0:0:0:0:
101,7,95823,1,2,0:0:0:0:
5,58,95985,1,8,0:0:0:0:
182,117,96147,6,0,P|218:117|262:107,1,72.2500013780594,2|0,0:0|0:0,0:0:0:0:
338,215,96472,2,0,L|323:290,1,72.2500013780594,2|0,0:0|0:0,0:0:0:0:
175,188,96796,2,0,P|175:152|185:108,1,72.2500013780594,8|0,0:0|0:0,0:0:0:0:
86,241,97121,2,0,L|14:244,1,72.2500013780594,2|0,0:0|0:0,0:0:0:0:
181,293,97444,6,0,B|235:296|235:296|275:284|275:284|348:287,1,144.500002756119,6|2,0:0|0:0,0:0:0:0:
443,271,97931,1,0,0:0:0:0:
491,160,98093,2,0,P|484:113|480:73,1,80.7499978437424,8|0,0:0|0:0,0:0:0:0:
313,205,98417,2,0,P|320:252|324:292,1,80.7499978437424,2|8,0:0|0:0,0:0:0:0:
159,374,98742,6,0,P|105:327|132:225,1,161.499995687485,2|2,0:0|0:0,0:0:0:0:
181,293,99228,1,0,0:0:0:0:
10,361,99390,2,0,P|-2:316|10:247,1,80.7499978437424,8|0,0:0|0:0,0:0:0:0:
113,124,99715,1,2,0:0:0:0:
181,293,99877,1,8,0:0:0:0:
313,156,100039,6,0,L|317:54,1,80.7499978437424,2|0,0:0|0:0,0:0:0:0:
184,208,100363,2,0,L|180:310,1,85,2|0,0:0|0:0,0:0:0:0:
372,234,100688,1,8,0:0:0:0:
226,117,100850,1,0,0:0:0:0:
276,296,101012,1,2,0:0:0:0:
313,156,101174,1,8,0:0:0:0:
83,254,101336,5,2,0:0:0:0:
256,218,101499,1,0,0:0:0:0:
98,73,101661,1,2,0:0:0:0:
178,271,101823,1,0,0:0:0:0:
316,75,101985,2,0,L|420:78,1,89.2499972763062,8|0,0:0|0:0,0:0:0:0:
478,282,102309,2,0,L|374:279,1,89.2499972763062,2|8,0:0|0:0,0:0:0:0:
178,271,102634,5,2,0:0:0:0:
150,257,102715,1,0,0:0:0:0:
128,234,102796,1,0,0:0:0:0:
114,206,102877,1,0,0:0:0:0:
109,175,102958,1,2,0:0:0:0:
115,144,103039,1,0,0:0:0:0:
130,117,103120,1,0,0:0:0:0:
153,95,103201,1,0,0:0:0:0:
189,86,103282,5,2,0:0:0:0:
202,120,103363,1,0,0:0:0:0:
203,157,103444,1,0,0:0:0:0:
187,191,103526,1,0,0:0:0:0:
162,218,103607,1,2,0:0:0:0:
128,234,103688,1,0,0:0:0:0:
90,234,103769,1,0,0:0:0:0:
53,224,103850,1,0,0:0:0:0:
27,190,103931,5,8,0:0:0:0:
189,86,104255,2,0,B|234:82|234:82|267:99|267:99|339:92,1,127.500004863739
252,218,104742,1,2,0:0:0:0:
185,61,104904,2,0,B|231:56|231:56|265:74|265:74|338:67,1,127.5,8|0,0:0|0:0,0:0:0:0:
433,61,105228,6,0,B|449:174|449:174|398:145|339:172,1,203.999993774414,4|8,0:0|0:0,0:0:0:0:
389,285,105715,1,0,0:0:0:0:
253,151,105877,2,0,P|269:104|306:69,1,101.999996887207,0|2,0:0|0:0,0:0:0:0:
512,125,106201,1,8,0:0:0:0:
365,174,106363,1,0,0:0:0:0:
185,61,106526,6,0,L|55:57,1,101.999996887207,2|0,0:0|0:0,0:0:0:0:
121,229,106850,1,8,0:0:0:0:
277,120,107012,1,0,0:0:0:0:
277,120,107093,1,0,0:0:0:0:
277,120,107174,2,0,P|292:72|280:12,1,101.999996887207,0|2,0:0|0:0,0:0:0:0:
121,229,107499,2,0,P|106:277|122:337,1,101.999996887207,8|0,0:0|0:0,0:0:0:0:
401,260,107823,6,0,B|358:250|304:276|304:276|255:304|204:283,1,203.999993774414,2|8,0:0|0:0,0:0:0:0:
246,167,108309,1,0,0:0:0:0:
481,201,108472,2,0,P|499:254|483:315,1,101.999996887207,0|2,0:0|0:0,0:0:0:0:
271,377,108796,1,8,0:0:0:0:
401,260,108958,1,0,0:0:0:0:
199,283,109120,5,2,0:0:0:0:
369,125,109282,1,0,0:0:0:0:
364,369,109444,1,8,0:0:0:0:
224,155,109607,1,0,0:0:0:0:
224,155,109688,1,0,0:0:0:0:
224,155,109769,2,0,L|222:89,1,50.9999984436036
103,43,109931,2,0,L|100:103,2,33.9999989624024,2|0|0,0:0|0:0|0:0,0:0:0:0:
71,7,110093,2,0,L|68:134,1,101.999996887207,8|0,0:0|0:0,0:0:0:0:
134,325,110417,6,0,P|172:339|217:333,1,68,2|0,0:0|0:0,0:0:0:0:
218,169,110742,6,0,P|190:201|183:243,1,85,8|0,0:0|0:0,0:0:0:0:
386,266,111066,6,0,P|341:245|291:251,1,101.999996887207,0|2,0:0|0:0,0:0:0:0:
483,318,111390,6,0,B|493:261|493:261|472:198|472:198|491:146|491:146|512:202,1,237.999992736817,8|2,0:0|0:0,0:0:0:0:
386,266,111877,1,0,0:0:0:0:
410,70,112039,2,0,P|458:42|512:41,1,101.999996887207,8|0,0:0|0:0,0:0:0:0:
386,266,112363,2,0,P|341:293|279:293,1,101.999996887207,0|2,0:0|0:0,0:0:0:0:
85,164,112688,1,8,0:0:0:0:
303,170,112850,1,0,0:0:0:0:
207,367,113012,6,0,B|179:318|179:318|196:139,1,203.999993774414,2|8,0:0|0:0,0:0:0:0:
284,294,113499,1,0,0:0:0:0:
76,266,113661,2,0,L|86:156,1,101.999996887207,0|2,0:0|0:0,0:0:0:0:
325,11,113985,1,8,0:0:0:0:
310,161,114147,1,0,0:0:0:0:
105,29,114309,5,2,0:0:0:0:
190,223,114472,1,8,0:0:0:0:
190,223,114553,1,0,0:0:0:0:
190,223,114634,1,2,0:0:0:0:
241,36,114796,1,8,0:0:0:0:
350,247,114958,1,2,0:0:0:0:
350,247,115039,1,0,0:0:0:0:
350,247,115120,2,0,L|413:243,1,50.9999984436036,2|0,0:0|0:0,0:0:0:0:
287,362,115282,2,0,L|147:349,1,101.999996887207,8|0,0:0|0:0,0:0:0:0:
19,195,115607,6,0,B|9:143|9:143|29:110|34:42|34:42|69:82,1,203.999993774414,4|8,0:0|0:0,0:0:0:0:
166,167,116093,1,0,0:0:0:0:
303,125,116255,2,0,P|318:74|292:18,1,101.999996887207,0|2,0:0|0:0,0:0:0:0:
166,167,116580,2,0,P|151:218|173:281,1,101.999996887207,8|0,0:0|0:0,0:0:0:0:
450,250,116904,6,0,B|396:208|396:208|262:218,1,203.999993774414,2|8,0:0|0:0,0:0:0:0:
59,235,117390,1,0,0:0:0:0:
59,235,117472,1,0,0:0:0:0:
59,235,117553,2,0,P|47:179|62:125,1,101.999996887207,0|2,0:0|0:0,0:0:0:0:
261,218,117877,2,0,P|270:271|255:327,1,101.999996887207,8|0,0:0|0:0,0:0:0:0:
180,126,118201,6,0,B|229:80|330:89|330:89|375:129,1,203.999993774414,2|8,0:0|0:0,0:0:0:0:
426,258,118688,1,0,0:0:0:0:
485,113,118850,2,0,P|468:55|424:17,1,101.999996887207,0|2,0:0|0:0,0:0:0:0:
197,18,119174,1,8,0:0:0:0:
246,218,119336,1,0,0:0:0:0:
364,119,119499,6,0,B|310:92|310:92|139:118,1,203.999993774414,2|8,0:0|0:0,0:0:0:0:
16,264,119985,1,0,0:0:0:0:
16,264,120066,1,0,0:0:0:0:
16,264,120147,2,0,P|7:323|20:384,1,101.999996887207,0|2,0:0|0:0,0:0:0:0:
168,113,120472,2,0,P|177:54|164:-7,1,101.999996887207,8|0,0:0|0:0,0:0:0:0:
133,317,120796,6,0,B|195:322|195:322|260:309,1,101.999996887207,2|0,0:3|0:0,0:0:0:0:
449,237,121120,1,8,0:0:0:0:
366,380,121282,1,0,0:0:0:0:
248,219,121444,2,0,L|250:85,1,101.999996887207,0|2,0:0|0:0,0:0:0:0:
451,135,121769,2,0,L|449:269,1,101.999996887207,8|0,0:0|0:0,0:0:0:0:
286,377,122093,5,2,0:0:0:0:
245,380,122174,1,0,0:0:0:0:
204,373,122255,1,0,0:0:0:0:
169,350,122336,1,0,0:0:0:0:
148,314,122417,1,2,0:0:0:0:
141,273,122499,1,0,0:0:0:0:
152,233,122580,1,0,0:0:0:0:
177,200,122661,1,0,0:0:0:0:
215,185,122742,5,2,0:0:0:0:
234,221,122823,1,0,0:0:0:0:
240,261,122904,1,0,0:0:0:0:
232,301,122985,1,0,0:0:0:0:
207,333,123066,1,4,0:3:0:0:
169,350,123147,1,0,0:0:0:0:
128,351,123228,1,0,0:0:0:0:
90,336,123309,1,0,0:0:0:0:
59,304,123390,6,0,B|57:233|41:152|41:152|84:96,1,203.999993774414,4|8,0:0|0:0,0:0:0:0:
171,8,123877,1,0,0:0:0:0:
264,117,124039,2,0,L|396:110,1,101.999996887207,0|2,0:0|0:0,0:0:0:0:
185,203,124363,1,8,0:0:0:0:
278,14,124526,1,0,0:0:0:0:
328,217,124688,6,0,P|377:223|447:192,1,101.999996887207,2|0,0:0|0:0,0:0:0:0:
370,11,125012,1,8,0:0:0:0:
181,101,125174,1,0,0:0:0:0:
181,101,125255,1,0,0:0:0:0:
181,101,125336,2,0,L|185:206,1,101.999996887207,0|2,0:0|0:0,0:0:0:0:
332,319,125661,2,0,L|327:192,1,101.999996887207,8|0,0:0|0:0,0:0:0:0:
177,71,125985,6,0,P|93:99|60:223,1,203.999993774414,2|8,0:0|0:0,0:0:0:0:
168,319,126472,1,0,0:0:0:0:
278,154,126634,2,0,L|387:170,1,101.999996887207,0|2,0:0|0:0,0:0:0:0:
167,185,126958,1,8,0:0:0:0:
252,279,127120,1,0,0:0:0:0:
336,60,127282,5,2,0:0:0:0:
256,283,127444,1,0,0:0:0:0:
181,56,127607,1,8,0:0:0:0:
327,196,127769,1,0,0:0:0:0:
327,196,127850,1,0,0:0:0:0:
327,196,127931,2,0,L|396:193,1,50.9999984436036
447,292,128093,2,0,L|381:295,2,33.9999989624024
479,329,128255,2,0,L|338:335,1,101.999996887207,8|0,0:0|0:0,0:0:0:0:
95,214,128580,5,2,0:0:0:0:
163,371,128742,1,2,0:0:0:0:
281,192,128904,2,0,B|328:185|328:185|387:192,1,101.999996887207,8|0,0:0|0:0,0:0:0:0:
200,296,129228,5,2,0:0:0:0:
269,51,129390,1,2,0:0:0:0:
298,283,129553,2,0,B|205:321|113:264|113:264|144:232,1,237.999992736817,8|2,0:0|0:0,0:0:0:0:
274,146,130039,1,0,0:0:0:0:
441,230,130201,6,0,P|444:289|425:337,1,101.999996887207,8|0,0:0|0:0,0:0:0:0:
274,146,130526,2,0,P|271:87|290:39,1,101.999996887207,0|2,0:0|0:0,0:0:0:0:
445,122,130850,1,8,0:0:0:0:
348,213,131012,1,0,0:0:0:0:
164,116,131174,6,0,B|90:84|2:128|2:128|71:163,1,203.999993774414,2|8,0:0|0:0,0:0:0:0:
195,216,131661,1,0,0:0:0:0:
117,13,131823,2,0,P|57:14|0:29,1,101.999996887207,0|2,0:0|0:0,0:0:0:0:
195,216,132147,1,8,0:0:0:0:
294,26,132309,1,0,0:0:0:0:
507,119,132472,5,2,0:0:0:0:
420,280,132634,1,8,0:0:0:0:
420,280,132715,1,0,0:0:0:0:
420,280,132796,1,2,0:0:0:0:
389,81,132958,1,8,0:0:0:0:
304,194,133120,1,2,0:0:0:0:
304,194,133201,1,0,0:0:0:0:
304,194,133282,2,0,L|228:192,1,50.9999984436036,2|0,0:0|0:0,0:0:0:0:
150,299,133444,2,0,L|281:304,1,101.999996887207,8|0,0:0|0:0,0:0:0:0:
339,157,133769,6,0,B|266:154|266:154|212:172|212:172|107:167,1,203.999993774414,4|8,0:0|0:0,0:0:0:0:
175,47,134255,1,0,0:0:0:0:
40,220,134417,2,0,P|26:171|42:112,1,101.999996887207,0|2,0:0|0:0,0:0:0:0:
209,262,134742,2,0,P|223:311|207:370,1,101.999996887207,8|0,0:0|0:0,0:0:0:0:
138,168,135066,6,0,P|224:145|319:222,1,203.999993774414,2|8,0:0|0:0,0:0:0:0:
397,354,135553,1,0,0:0:0:0:
397,354,135634,1,0,0:0:0:0:
397,354,135715,2,0,L|516:348,1,101.999996887207,0|2,0:0|0:0,0:0:0:0:
415,202,136039,2,0,L|296:208,1,101.999996887207,8|0,0:0|0:0,0:0:0:0:
95,202,136363,6,0,B|71:157|71:157|103:54|103:54|143:98,1,203.999993774414,2|8,0:0|0:0,0:0:0:0:
221,217,136850,1,0,0:0:0:0:
100,297,137012,2,0,B|79:248|79:248|98:192,1,101.999996887207,0|2,0:0|0:0,0:0:0:0:
208,19,137336,1,8,0:0:0:0:
221,217,137499,1,0,0:0:0:0:
340,109,137661,6,0,B|394:94|394:94|492:130|492:130|418:154,1,203.999993774414,2|8,0:0|0:0,0:0:0:0:
299,205,138147,1,0,0:0:0:0:
349,0,138309,1,0,0:0:0:0:
392,220,138472,1,2,0:0:0:0:
206,113,138634,2,0,L|64:116,1,101.999996887207,8|0,0:0|0:0,0:0:0:0:
142,314,138958,5,2,0:0:0:0:
18,156,139120,1,0,0:0:0:0:
219,196,139282,1,2,0:0:0:0:
86,39,139444,1,0,0:0:0:0:
61,272,139607,5,8,0:0:0:0:
148,114,139769,1,0,0:0:0:0:
232,288,139931,1,0,0:0:0:0:
319,130,140093,1,0,0:0:0:0:
139,221,140255,5,2,0:0:0:0:
315,257,140417,1,0,0:0:0:0:
142,314,140580,1,0,0:0:0:0:
318,351,140742,1,0,0:0:0:0:
235,163,140904,5,8,0:0:0:0:
232,336,141066,1,0,0:0:0:0:
322,179,141228,1,0,0:0:0:0:
318,351,141390,1,0,0:0:0:0:
100,259,141553,5,2,0:0:0:0:
117,54,141715,1,0,0:0:0:0:
234,244,141877,1,2,0:0:0:0:
251,39,142039,1,0,0:0:0:0:
53,145,142201,5,8,0:0:0:0:
234,244,142363,1,0,0:0:0:0:
188,90,142526,1,0,0:0:0:0:
100,259,142688,1,0,0:0:0:0:
347,160,142850,5,4,0:3:0:0:
347,160,144147,6,0,B|404:154|404:154|451:174|451:174|518:165,1,170,4|8,0:0|0:0,0:0:0:0:
391,247,144634,1,0,0:0:0:0:
280,223,144796,2,0,P|258:187|263:127,1,85,0|2,0:0|0:0,0:0:0:0:
333,19,145120,1,8,0:0:0:0:
218,36,145282,1,0,0:0:0:0:
385,162,145444,6,0,L|392:268,1,85,2|0,0:0|0:0,0:0:0:0:
275,366,145769,1,8,0:0:0:0:
174,248,145931,1,0,0:0:0:0:
174,248,146012,1,0,0:0:0:0:
174,248,146093,2,0,L|62:249,1,85,0|2,0:0|0:0,0:0:0:0:
283,222,146417,1,8,0:0:0:0:
130,160,146580,1,0,0:0:0:0:
276,99,146742,6,0,P|293:153|282:227,1,127.5,2|0,0:0|0:0,0:0:0:0:
281,247,147066,2,0,B|323:256|323:256|375:251,1,85,8|0,0:0|0:0,0:0:0:0:
509,232,147390,1,0,0:0:0:0:
418,135,147553,1,2,0:0:0:0:
454,347,147715,1,8,0:0:0:0:
454,347,147877,1,0,0:0:0:0:
321,165,148039,6,0,L|316:67,1,85,2|0,0:0|0:0,0:0:0:0:
191,242,148363,1,8,0:0:0:0:
98,105,148526,1,0,0:0:0:0:
98,105,148607,1,0,0:0:0:0:
98,105,148688,2,0,P|50:99|-1:118,1,85,0|2,0:0|0:0,0:0:0:0:
191,242,149012,2,0,P|240:247|289:223,1,85,8|0,0:0|0:0,0:0:0:0:
272,14,149336,6,0,B|220:41|220:41|225:152,1,170,2|8,0:0|0:0,0:0:0:0:
340,208,149823,1,0,0:0:0:0:
400,95,149985,2,0,L|496:92,1,85,0|2,0:0|0:0,0:0:0:0:
425,205,150309,2,0,L|329:208,1,85,8|0,0:0|0:0,0:0:0:0:
143,211,150634,6,0,P|128:254|136:315,1,85,2|0,0:0|0:0,0:0:0:0:
304,371,150958,1,8,0:0:0:0:
230,275,151120,2,0,L|232:231,2,28.3333333333333
210,295,151282,2,0,L|206:420,1,85,0|2,0:0|0:0,0:0:0:0:
27,248,151607,2,0,L|31:123,1,85,8|0,0:0|0:0,0:0:0:0:
159,53,151931,6,0,B|233:38|229:84|318:53,1,127.5,2|0,0:0|0:0,0:0:0:0:
309,60,152255,2,0,L|310:150,1,85,8|0,0:0|0:0,0:0:0:0:
320,277,152580,1,0,0:0:0:0:
404,183,152742,1,2,0:0:0:0:
236,209,152904,2,0,P|216:247|218:311,1,85,8|0,0:0|0:0,0:0:0:0:
241,369,153147,1,0,0:0:0:0:
241,369,153228,5,2,0:0:0:0:
66,331,153391,2,0,L|55:225,1,85,8|2,0:0|0:0,0:0:0:0:
111,81,153715,1,8,0:0:0:0:
111,81,153796,1,0,0:0:0:0:
111,81,153877,2,0,L|114:20,1,42.5,2|0,0:0|0:0,0:0:0:0:
209,93,154039,2,0,L|206:144,2,28.3333333333333,2|0|0,0:0|0:0|0:0,0:0:0:0:
244,75,154201,2,0,B|326:85|326:85|398:59,1,127.5,8|0,0:0|0:0,0:0:0:0:
428,21,154526,6,0,P|446:67|362:148,1,170,6|8,0:0|0:0,0:0:0:0:
244,75,155012,1,0,0:0:0:0:
324,224,155174,2,0,P|358:238|416:230,1,85,0|2,0:0|0:0,0:0:0:0:
244,75,155499,1,8,0:0:0:0:
204,192,155661,1,0,0:0:0:0:
66,98,155823,6,0,L|72:-7,1,85,2|0,0:0|0:0,0:0:0:0:
244,75,156147,1,8,0:0:0:0:
116,218,156309,2,0,L|114:273,2,28.3333333333333
94,188,156472,2,0,L|89:291,1,85,0|2,0:0|0:0,0:0:0:0:
151,111,156796,1,8,0:0:0:0:
232,253,156958,1,0,0:0:0:0:
296,101,157120,6,0,P|356:82|463:136,1,170,2|8,0:0|0:0,0:0:0:0:
363,208,157607,1,0,0:0:0:0:
206,141,157769,2,0,P|197:99|217:42,1,85,0|2,0:0|0:0,0:0:0:0:
363,208,158093,1,8,0:0:0:0:
363,208,158255,1,0,0:0:0:0:
209,298,158417,6,0,B|238:348|238:348|303:353|378:325,1,170,2|8,0:0|0:0,0:0:0:0:
476,290,158904,2,0,L|505:292,2,28.3333333333333
461,266,159066,2,0,L|454:158,1,85,0|2,0:0|0:0,0:0:0:0:
293,78,159390,1,8,0:0:0:0:
357,223,159553,2,0,L|358:261,2,28.3333333333333
340,200,159715,6,0,P|278:209|184:150,1,170,2|8,0:0|0:0,0:0:0:0:
116,41,160201,1,0,0:0:0:0:
39,153,160363,2,0,L|45:249,1,85,0|2,0:0|0:0,0:0:0:0:
194,242,160688,2,0,L|188:146,1,85,8|0,0:0|0:0,0:0:0:0:
134,336,161012,6,0,P|204:353|297:283,1,170,2|8,0:0|0:0,0:0:0:0:
370,167,161499,1,0,0:0:0:0:
370,167,161580,1,0,0:0:0:0:
370,167,161661,2,0,L|480:169,1,85,0|2,0:0|0:0,0:0:0:0:
297,52,161985,2,0,L|187:54,1,85,8|0,0:0|0:0,0:0:0:0:
25,109,162309,6,0,P|4:173|37:256,1,127.5,2|0,0:0|0:0,0:0:0:0:
30,252,162634,2,0,L|121:250,1,85,8|0,0:0|0:0,0:0:0:0:
290,235,162958,1,0,0:0:0:0:
164,347,163120,1,2,0:0:0:0:
197,181,163282,1,8,0:0:0:0:
273,348,163444,6,0,L|275:381,2,28.3333333333333
247,360,163607,1,2,0:0:0:0:
197,181,163769,6,0,L|199:148,2,28.3333333333333,8|0|0,0:0|0:0|0:0,0:0:0:0:
169,174,163931,1,2,0:0:0:0:
162,318,164093,6,0,L|164:351,2,28.3333333333333,8|0|0,0:0|0:0|0:0,0:0:0:0:
138,333,164255,1,2,0:0:0:0:
290,235,164417,6,0,L|288:192,2,28.3333333333333,2|0|0,0:0|0:0|0:0,0:0:0:0:
312,174,164580,2,0,L|318:259,1,85,8|0,0:0|0:0,0:0:0:0:
260,41,164904,6,0,B|208:43|208:43|157:29|157:29|97:30,1,144.500002756119,6|0,0:0|0:0,0:0:0:0:
13,79,165390,1,0,0:0:0:0:
44,190,165553,2,0,L|38:285,1,72.2500013780594,8|0,0:0|0:0,0:0:0:0:
150,295,165877,2,0,L|156:200,1,72.2500013780594
257,170,166201,5,2,0:0:0:0:
361,220,166363,2,0,L|393:217,6,24.0833337926865
382,334,166850,2,0,L|471:327,1,72.2500013780594,8|0,0:0|0:0,0:0:0:0:
457,212,167174,2,0,L|368:219,1,72.2500013780594
254,209,167499,6,0,P|236:144|277:55,1,144.500002756119,2|0,0:0|0:0,0:0:0:0:
355,145,167985,1,0,0:0:0:0:
313,283,168147,2,0,P|278:301|227:301,1,72.2500013780594,8|0,0:0|0:0,0:0:0:0:
104,269,168472,2,0,P|139:251|190:251,1,72.2500013780594
72,342,168796,6,0,L|61:179,1,144.500002756119,2|0,0:0|0:0,0:0:0:0:
95,87,169282,1,0,0:0:0:0:
179,166,169444,2,0,L|281:159,1,72.2500013780594,8|0,0:0|0:0,0:0:0:0:
396,153,169769,1,0,0:0:0:0:
316,32,169931,1,8,0:0:0:0:
330,226,170093,6,0,P|394:252|479:205,1,144.500002756119,2|0,0:0|0:0,0:0:0:0:
396,153,170580,1,0,0:0:0:0:
251,161,170742,2,0,P|233:193|233:252,1,72.2500013780594,8|0,0:0|0:0,0:0:0:0:
273,356,171066,2,0,P|291:324|291:265,1,72.2500013780594
157,173,171390,6,0,B|103:172|103:172|60:192|60:192|-12:190,1,144.500002756119,2|0,0:0|0:0,0:0:0:0:
40,84,171877,1,0,0:0:0:0:
91,272,172039,2,0,L|179:274,1,72.2500013780594,8|0,0:0|0:0,0:0:0:0:
229,174,172363,2,0,L|141:172,1,72.2500013780594
313,113,172688,6,0,P|333:183|302:249,1,144.500002756119,2|0,0:0|0:0,0:0:0:0:
229,174,173174,1,0,0:0:0:0:
260,33,173336,2,0,P|291:19|333:19,1,72.2500013780594,8|0,0:0|0:0,0:0:0:0:
457,85,173661,2,0,L|454:119,5,24.0833337926865,0|0|0|8|0|0,0:0|0:0|0:0|0:0|0:0|0:0,0:0:0:0:
482,66,173985,6,0,L|472:148,1,72.2500013780594,2|8,0:0|0:0,0:0:0:0:
445,294,174309,2,0,P|372:321|298:297,1,144.500002756119,2|8,0:0|0:0,0:0:0:0:
215,176,174796,1,2,0:0:0:0:
370,205,174958,1,0,0:0:0:0:
217,298,175120,1,2,0:0:0:0:
276,98,175282,6,0,B|225:61|167:80|143:110|143:110|83:170|3:114|3:114|58:222|58:222|29:303|29:303|84:280|122:297,1,595,4|0,0:0|0:0,0:0:0:0:
112,293,177877,6,0,B|176:275|225:306|225:306|280:336|358:298|358:298|440:309|440:309|357:338,1,425,2|0,0:0|0:0,0:0:0:0:
358,337,179823,6,0,L|363:237,1,85
291,187,180309,1,0,0:0:0:0:
291,187,180390,1,0,0:0:0:0:
291,187,180472,1,2,0:0:0:0:
256,192,180553,12,0,186797,0:0:0:0:
168,256,186959,6,0,B|160:296|160:296|170:338,1,85,6|0,0:0|0:0,0:0:0:0:
96,172,187283,2,0,L|12:176,1,85,8|0,0:0|0:0,0:0:0:0:
156,64,187607,1,0,0:0:0:0:
252,224,187770,1,2,0:0:0:0:
420,124,187932,2,0,P|370:85|307:86,1,127.5,8|0,0:0|0:0,0:0:0:0:
248,139,188255,6,0,L|252:224,1,85,2|0,0:0|0:0,0:0:0:0:
304,312,188580,1,8,0:0:0:0:
160,232,188743,1,0,0:0:0:0:
160,232,188824,1,0,0:0:0:0:
160,232,188905,1,0,0:0:0:0:
336,168,189067,1,2,0:0:0:0:
196,32,189229,2,0,P|189:73|200:114,1,85,8|0,0:0|0:0,0:0:0:0:
432,112,189553,6,0,B|366:59|366:59|280:68,1,170,2|8,0:0|0:0,0:0:0:0:
240,232,190040,2,0,P|278:214|304:181,1,85
200,114,190364,1,2,0:0:0:0:
116,200,190526,2,0,L|124:284,1,85,8|0,0:0|0:0,0:0:0:0:
104,96,190851,6,0,L|97:11,1,85,2|0,0:0|0:0,0:0:0:0:
116,200,191175,1,8,0:0:0:0:
16,108,191337,1,0,0:0:0:0:
16,108,191418,1,0,0:0:0:0:
16,108,191499,1,0,0:0:0:0:
200,152,191662,1,2,0:0:0:0:
124,320,191824,2,0,B|100:264|100:264|115:199,1,127.5,8|0,0:0|0:0,0:0:0:0:
200,152,192148,6,0,L|285:156,1,85,2|0,0:0|0:0,0:0:0:0:
416,28,192472,2,0,P|424:69|413:109,1,85,8|0,0:0|0:0,0:0:0:0:
304,256,192797,1,0,0:0:0:0:
336,64,192959,1,2,0:0:0:0:
476,172,193121,2,0,B|444:196|444:196|356:192,1,127.5,8|0,0:0|0:0,0:0:0:0:
284,155,193445,6,0,P|276:112|287:70,1,85,2|0,0:0|0:0,0:0:0:0:
388,224,193770,2,0,B|396:264|396:264|384:306,1,85,8|0,0:0|0:0,0:0:0:0:
304,324,194013,1,0,0:0:0:0:
304,324,194094,2,0,L|212:320,1,85,0|2,0:0|0:0,0:0:0:0:
388,224,194418,2,0,L|473:231,1,85,8|0,0:0|0:0,0:0:0:0:
260,240,194743,6,0,B|232:184|232:184|239:76,1,170,2|8,0:0|0:0,0:0:0:0:
351,260,195229,2,0,P|300:324|218:319,1,170,0|2,0:0|0:0,0:0:0:0:
328,80,195716,2,0,L|321:164,1,85,8|2,0:0|0:0,0:0:0:0:
132,360,196040,6,0,P|125:318|136:277,1,85,8|2,0:0|0:0,0:0:0:0:
220,164,196364,1,2,0:0:0:0:
218,319,196526,1,4,0:3:0:0:
218,319,196607,1,0,0:0:0:0:
218,319,196689,1,2,0:0:0:0:
80,176,196851,1,2,0:0:0:0:
308,248,197013,2,0,B|352:252|352:252|392:244|392:244|434:247,1,127.5,8|0,0:0|0:0,0:0:0:0:
504,300,197337,6,0,P|516:256|509:215,1,85,6|0,0:0|0:0,0:0:0:0:
381,166,197661,2,0,P|369:210|376:251,1,85,8|0,0:0|0:0,0:0:0:0:
505,130,197984,1,0,0:0:0:0:
381,166,198146,1,2,0:0:0:0:
269,110,198309,2,0,L|273:22,1,85,8|0,0:0|0:0,0:0:0:0:
180,184,198634,6,0,B|135:192|135:192|95:180,1,85,2|0,0:0|0:0,0:0:0:0:
269,110,198959,2,0,L|353:113,1,85,8|0,0:0|0:0,0:0:0:0:
428,152,199202,1,0,0:0:0:0:
428,152,199282,2,0,P|440:108|432:64,1,85,0|2,0:0|0:0,0:0:0:0:
329,197,199607,2,0,B|317:237|317:237|328:280,1,85,8|0,0:0|0:0,0:0:0:0:
490,302,199932,6,0,B|440:274|440:274|328:278,1,170,2|8,0:0|0:0,0:0:0:0:
184,368,200418,2,0,P|216:338|231:298,1,85
263,165,200743,1,2,0:0:0:0:
128,196,200905,2,0,B|132:284|132:284|110:316,1,127.5,8|0,0:0|0:0,0:0:0:0:
48,256,201229,6,0,L|44:168,1,85,2|0,0:0|0:0,0:0:0:0:
180,60,201553,1,8,0:0:0:0:
216,228,201716,1,0,0:0:0:0:
216,228,201797,1,0,0:0:0:0:
216,228,201878,1,0,0:0:0:0:
76,92,202040,1,2,0:0:0:0:
256,136,202202,2,0,P|281:78|272:15,1,127.5,8|0,0:0|0:0,0:0:0:0:
180,96,202526,6,0,P|171:138|184:184,1,85,2|0,0:0|0:0,0:0:0:0:
296,324,202851,2,0,P|305:282|292:236,1,85,8|0,0:0|0:0,0:0:0:0:
180,178,203175,1,0,0:0:0:0:
220,280,203337,1,2,0:0:0:0:
378,152,203499,2,0,B|340:132|340:132|256:136,1,127.5,8|0,0:0|0:0,0:0:0:0:
180,96,203824,6,0,L|176:11,1,85,2|0,0:0|0:0,0:0:0:0:
96,192,204148,1,8,0:0:0:0:
255,136,204310,1,0,0:0:0:0:
255,136,204391,1,0,0:0:0:0:
255,136,204472,2,0,L|352:132,1,85,0|2,0:0|0:0,0:0:0:0:
112,220,204796,2,0,L|27:223,1,85,8|0,0:0|0:0,0:0:0:0:
196,256,205121,6,0,B|192:192|192:192|168:152|168:152|168:88,1,170,2|8,0:0|0:0,0:0:0:0:
296,216,205607,2,0,B|322:256|322:256|299:335|299:335|278:302,1,170,0|2,0:0|0:0,0:0:0:0:
252,124,206094,2,0,L|255:39,1,85,8|0,0:0|0:0,0:0:0:0:
349,154,206417,5,2,0:0:0:0:
176,293,206580,1,8,0:0:0:0:
351,254,206743,1,2,0:0:0:0:
166,170,206904,1,8,0:0:0:0:
274,277,207067,2,0,L|317:274,1,42.5,2|0,0:0|0:0,0:0:0:0:
147,191,207229,2,0,L|104:195,1,42.5,2|0,0:0|0:0,0:0:0:0:
31,257,207391,2,0,P|10:188|34:129,1,127.5,8|0,0:0|0:0,0:0:0:0:
101,93,207716,6,0,L|105:5,1,85,6|0,0:3|0:0,0:0:0:0:
147,191,208040,2,0,L|140:275,1,85,2|8,0:0|0:0,0:0:0:0:
325,173,208363,2,0,L|245:129,1,85,2|8,0:0|0:0,0:0:0:0:
245,337,208689,2,0,L|317:292,1,85,2|8,0:0|0:0,0:0:0:0:
233,233,209013,5,2,0:0:0:0:
357,357,209175,1,8,0:0:0:0:
389,193,209337,1,2,0:0:0:0:
329,265,209499,1,8,0:0:0:0:
292,160,209662,5,2,0:0:0:0:
420,204,209823,1,8,0:0:0:0:
208,264,209986,1,2,0:0:0:0:
260,55,210148,1,8,0:0:0:0:
387,127,210310,5,2,0:0:0:0:
390,135,210391,1,0,0:0:0:0:
393,143,210472,1,10,0:0:0:0:
396,151,210553,1,0,0:0:0:0:
399,159,210634,1,2,0:0:0:0:
402,167,210716,1,0,0:0:0:0:
405,175,210796,1,10,0:0:0:0:
408,183,210878,1,0,0:0:0:0:
416,213,210959,5,2,0:0:0:0:
388,192,211040,1,0,0:0:0:0:
356,184,211121,1,10,0:0:0:0:
324,180,211202,1,0,0:0:0:0:
292,184,211283,1,2,0:0:0:0:
260,196,211364,1,0,0:0:0:0:
232,212,211445,1,10,0:0:0:0:
200,224,211526,1,0,0:0:0:0:
168,224,211607,5,2,0:0:0:0:
136,216,211689,1,0,0:0:0:0:
108,196,211770,1,10,0:0:0:0:
92,168,211851,1,0,0:0:0:0:
92,136,211932,1,2,0:0:0:0:
104,104,212013,1,0,0:0:0:0:
124,76,212094,1,10,0:0:0:0:
156,64,212175,1,0,0:0:0:0:
188,60,212256,6,0,L|232:64,1,42.5,2|0,0:0|0:0,0:0:0:0:
308,116,212418,2,0,L|350:113,1,42.5,10|0,0:0|0:0,0:0:0:0:
440,52,212580,2,0,B|460:116|460:116|446:174,1,127.5,2|0,0:0|0:0,0:0:0:0:
424,200,212905,6,0,L|280:212,1,144.500002756119,6|2,0:0|0:0,0:0:0:0:
279,212,213553,2,0,B|288:248|288:248|281:282,1,72.2500013780594,8|0,0:0|0:0,0:0:0:0:
196,144,213878,2,0,L|192:64,1,72.2500013780594,2|8,0:0|0:0,0:0:0:0:
138,214,214202,6,0,P|71:246|3:222,1,144.500002756119,2|2,0:0|0:0,0:0:0:0:
67,149,214689,1,0,0:0:0:0:
228,240,214851,1,8,0:0:0:0:
131,85,215013,1,0,0:0:0:0:
228,240,215175,2,0,B|238:277|238:277|226:309,1,72.2500013780594,2|0,0:0|0:0,0:0:0:0:
17,216,215499,6,0,B|-8:146|-8:146|16:80,1,144.500002756119,2|2,0:0|0:0,0:0:0:0:
134,48,215985,1,0,0:0:0:0:
176,156,216147,2,0,L|249:158,1,72.2500013780594,8|0,0:0|0:0,0:0:0:0:
358,208,216472,1,2,0:0:0:0:
218,67,216634,1,8,0:0:0:0:
273,239,216797,6,0,P|279:274|269:311,1,72.2500013780594,2|0,0:0|0:0,0:0:0:0:
93,298,217120,2,0,P|87:261|97:226,1,72.2500013780594,2|0,0:0|0:0,0:0:0:0:
249,146,217445,1,8,0:0:0:0:
186,269,217607,1,0,0:0:0:0:
147,154,217770,1,2,0:0:0:0:
273,239,217932,1,8,0:0:0:0:
387,151,218094,6,0,L|379:6,1,144.500002756119,6|2,0:0|0:0,0:0:0:0:
288,104,218580,1,0,0:0:0:0:
400,172,218743,2,0,L|477:168,1,72.2500013780594,8|0,0:0|0:0,0:0:0:0:
328,234,219066,2,0,L|255:237,1,72.2500013780594,2|8,0:0|0:0,0:0:0:0:
420,364,219391,1,2,0:0:0:0:
420,364,219716,6,0,P|428:329|420:293,1,72.2500013780594,2|0,0:0|0:0,0:0:0:0:
328,164,220040,2,0,P|320:199|328:235,1,72.2500013780594,8|0,0:0|0:0,0:0:0:0:
512,199,220364,2,0,B|472:203|472:203|444:195|444:195|405:198,1,108.375002067089,2|0,0:0|0:0,0:0:0:0:
328,164,220689,6,0,L|324:91,1,72.2500013780594,6|0,0:0|0:0,0:0:0:0:
247,263,221013,2,0,L|251:335,1,72.2500013780594,2|0,0:0|0:0,0:0:0:0:
148,184,221337,2,0,L|76:188,1,72.2500013780594,8|0,0:0|0:0,0:0:0:0:
160,276,221662,1,2,0:0:0:0:
239,155,221824,1,8,0:0:0:0:
351,257,221986,6,0,B|303:275|303:275|247:263,1,108.375002067089,2|0,0:0|0:0,0:0:0:0:
243,227,222310,2,0,L|239:155,1,72.2500013780594,2|0,0:0|0:0,0:0:0:0:
236,64,222634,1,8,0:0:0:0:
160,172,222797,1,0,0:0:0:0:
320,96,222959,2,0,P|324:55|316:23,1,72.2500013780594,2|8,0:0|0:0,0:0:0:0:
239,155,223283,6,0,L|247:263,1,108.375002067089,2|0,0:0|0:0,0:0:0:0:
242,298,223607,2,0,P|208:309|172:306,1,72.2500013780594,2|0,0:0|0:0,0:0:0:0:
100,220,223932,1,8,0:0:0:0:
80,352,224094,1,0,0:0:0:0:
194,214,224255,1,2,0:0:0:0:
10,275,224417,1,8,0:0:0:0:
175,190,224580,6,0,L|170:117,1,72.2500013780594,2|0,0:0|0:0,0:0:0:0:
282,64,224905,2,0,L|286:138,1,72.2500013780594,2|0,0:0|0:0,0:0:0:0:
404,232,225228,1,8,0:0:0:0:
306,153,225390,1,0,0:0:0:0:
407,334,225553,2,0,P|442:334|474:317,1,72.2500013780594,2|8,0:0|0:0,0:0:0:0:
404,232,225878,5,2,0:0:0:0:
375,217,225959,1,0,0:0:0:0:
342,215,226040,1,0,0:0:0:0:
310,224,226121,1,0,0:0:0:0:
284,242,226202,1,2,0:0:0:0:
266,269,226283,1,0,0:0:0:0:
259,300,226364,1,0,0:0:0:0:
267,331,226445,1,0,0:0:0:0:
289,363,226526,5,2,0:0:0:0:
312,330,226607,1,0,0:0:0:0:
314,289,226689,1,0,0:0:0:0:
301,251,226769,1,0,0:0:0:0:
275,220,226850,1,2,0:0:0:0:
252,187,226932,1,0,0:0:0:0:
250,146,227012,1,0,0:0:0:0:
263,108,227093,1,0,0:0:0:0:
291,80,227174,5,8,0:0:0:0:
215,298,227499,2,0,B|115:292|115:292|87:256,1,144.500002756119
210,172,227985,1,2,0:0:0:0:
92,290,228148,2,0,B|66:253|66:253|69:189,1,108.375002067089,8|0,0:0|0:0,0:0:0:0:
190,258,228472,6,0,P|199:307|182:355,1,101.999996887207,4|0,0:0|0:0,0:0:0:0:
68,189,228797,2,0,L|75:82,1,101.999996887207,8|0,0:0|0:0,0:0:0:0:
264,184,229121,1,0,0:0:0:0:
92,290,229283,1,2,0:0:0:0:
168,116,229445,2,0,B|236:72|236:72|320:80,1,165.749992412568,8|0,0:0|0:0,0:0:0:0:
384,160,229770,6,0,L|368:276,1,101.999996887207,2|0,0:0|0:0,0:0:0:0:
320,80,230094,1,8,0:0:0:0:
483,212,230256,1,0,0:0:0:0:
483,212,230337,1,0,0:0:0:0:
483,212,230418,1,0,0:0:0:0:
432,28,230580,1,2,0:0:0:0:
240,140,230743,2,0,B|212:108|212:108|218:40,1,101.999996887207,8|0,0:0|0:0,0:0:0:0:
316,216,231067,6,0,B|328:292|328:292|272:363|272:363|264:326,1,203.999993774414,2|8,0:0|0:0,0:0:0:0:
228,80,231553,1,0,0:0:0:0:
336,200,231716,2,0,L|352:310,1,101.999996887207,0|2,0:0|0:0,0:0:0:0:
320,80,232040,1,8,0:0:0:0:
440,224,232202,1,0,0:0:0:0:
240,140,232364,5,2,0:0:0:0:
400,24,232526,1,0,0:0:0:0:
440,224,232689,2,0,B|396:158|396:158|333:202,1,152.999995330811,8|0,0:0|0:0,0:0:0:0:
324,276,233012,2,0,L|332:336,1,50.9999984436036
242,176,233175,2,0,L|240:140,2,33.9999989624024,2|0|0,0:0|0:0|0:0,0:0:0:0:
245,213,233337,2,0,B|213:233|213:233|140:236,1,101.999996887207,8|0,0:0|0:0,0:0:0:0:
12,190,233662,6,0,P|2:158|12:123,1,68,2|0,0:0|0:0,0:0:0:0:
124,12,233985,6,0,B|148:41|148:41|149:116,1,85,8|0,0:0|0:0,0:0:0:0:
239,261,234309,6,0,B|216:225|216:225|223:129,1,101.999996887207,8|2,0:0|0:0,0:0:0:0:
496,156,234634,6,0,P|419:205|327:179,1,178.499994552612,8|0,0:0|0:0,0:0:0:0:
302,112,234959,6,0,B|291:59|291:59|307:5,1,101.999996887207,2|0,0:0|0:0,0:0:0:0:
401,88,235283,1,8,0:0:0:0:
184,32,235445,1,0,0:0:0:0:
184,32,235526,1,0,0:0:0:0:
184,32,235607,1,0,0:0:0:0:
264,248,235770,1,2,0:0:0:0:
502,90,235931,2,0,B|392:87,1,101.999996887207,8|0,0:0|0:0,0:0:0:0:
264,248,236256,6,0,B|262:308|262:308|307:276|307:276|311:175,1,203.999993774414,2|8,0:0|0:0,0:0:0:0:
208,80,236743,1,0,0:0:0:0:
328,280,236905,2,0,L|331:163,1,101.999996887207,0|2,0:0|0:0,0:0:0:0:
208,80,237229,1,8,0:0:0:0:
349,298,237391,1,0,0:0:0:0:
364,64,237553,5,2,0:0:0:0:
256,224,237716,1,8,0:0:0:0:
256,224,237796,1,0,0:0:0:0:
256,224,237878,1,2,0:0:0:0:
472,152,238040,1,8,0:0:0:0:
472,152,238121,1,0,0:0:0:0:
472,152,238202,1,2,0:0:0:0:
220,84,238364,1,2,0:0:0:0:
340,0,238526,2,0,L|332:110,1,101.999996887207,12|2,0:3|0:0,0:0:0:0:
164,362,238851,6,0,B|146:325|146:325|149:256,1,101.999996887207,6|0,0:0|0:0,0:0:0:0:
304,32,239175,2,0,L|296:144,1,101.999996887207,8|0,0:0|0:0,0:0:0:0:
149,265,239499,1,0,0:0:0:0:
220,84,239662,1,2,0:0:0:0:
377,178,239824,2,0,B|321:174|321:174|277:190|277:190|214:186,1,152.999995330811,8|0,0:0|0:0,0:0:0:0:
152,132,240147,6,0,P|138:81|169:16,1,101.999996887207,2|0,0:0|0:0,0:0:0:0:
284,284,240472,1,8,0:0:0:0:
72,200,240634,1,0,0:0:0:0:
72,200,240716,1,0,0:0:0:0:
72,200,240797,1,0,0:0:0:0:
220,84,240959,1,2,0:0:0:0:
212,344,241121,2,0,B|192:312|192:312|195:239,1,101.999996887207,8|0,0:0|0:0,0:0:0:0:
348,152,241445,6,0,B|344:232|344:232|284:288|284:288|286:230,1,203.999993774414,2|8,0:0|0:0,0:0:0:0:
292,16,241932,1,0,0:0:0:0:
368,140,242094,2,0,L|363:251,1,101.999996887207,0|2,0:0|0:0,0:0:0:0:
376,20,242418,1,8,0:0:0:0:
208,168,242580,1,0,0:0:0:0:
392,124,242743,6,0,B|502:131,1,101.999996887207,2|0,0:0|0:0,0:0:0:0:
208,168,243067,2,0,L|96:160,1,101.999996887207,8|0,0:0|0:0,0:0:0:0:
255,240,243310,1,0,0:0:0:0:
255,240,243391,2,0,L|367:248,1,101.999996887207,0|2,0:0|0:0,0:0:0:0:
263,80,243716,1,8,0:0:0:0:
168,247,243877,1,0,0:0:0:0:
31,76,244039,6,0,P|14:123|26:172,1,101.999996887207,2|0,0:3|0:0,0:0:0:0:
168,354,244364,1,8,0:0:0:0:
130,124,244526,1,0,0:0:0:0:
184,331,244689,5,0,0:0:0:0:
26,172,244851,1,2,0:0:0:0:
255,255,245012,2,0,L|379:247,1,101.999996887207,8|0,0:0|0:0,0:0:0:0:
184,331,245337,5,2,0:0:0:0:
153,299,245418,1,0,0:0:0:0:
148,254,245499,1,0,0:0:0:0:
160,212,245580,1,0,0:0:0:0:
186,174,245661,1,2,0:0:0:0:
227,155,245742,1,0,0:0:0:0:
269,158,245823,1,0,0:0:0:0:
309,177,245904,1,0,0:0:0:0:
331,215,245986,5,2,0:0:0:0:
298,244,246067,1,0,0:0:0:0:
255,255,246148,1,0,0:0:0:0:
211,247,246228,1,0,0:0:0:0:
170,227,246310,1,12,0:3:0:0:
136,198,246391,1,0,0:0:0:0:
92,192,246472,1,2,0:0:0:0:
48,196,246553,1,0,0:0:0:0:
12,220,246634,6,0,B|115:250|120:161|227:182,1,203.999993774414,4|8,0:0|0:0,0:0:0:0:
368,288,247121,1,0,0:0:0:0:
200,377,247283,2,0,B|184:337|184:337|188:269,1,101.999996887207,0|2,0:0|0:0,0:0:0:0:
339,65,247607,2,0,B|337:120|337:120|316:168|316:168|312:226,1,152.999995330811,8|0,0:0|0:0,0:0:0:0:
368,288,247932,6,0,B|416:305|416:305|471:290,1,101.999996887207,2|0,0:0|0:0,0:0:0:0:
224,188,248256,1,8,0:0:0:0:
300,360,248418,1,0,0:0:0:0:
300,360,248499,1,0,0:0:0:0:
300,360,248580,1,0,0:0:0:0:
376,164,248743,1,2,0:0:0:0:
148,248,248905,2,0,P|130:196|140:142,1,101.999996887207,8|0,0:0|0:0,0:0:0:0:
376,164,249228,6,0,B|224:188|224:188|272:136,1,203.999993774414,2|8,0:0|0:0,0:0:0:0:
408,16,249716,1,0,0:0:0:0:
358,189,249878,2,0,L|222:209,1,101.999996887207,0|2,0:0|0:0,0:0:0:0:
488,168,250202,1,8,0:0:0:0:
350,279,250364,1,0,0:0:0:0:
400,84,250526,5,2,0:0:0:0:
478,319,250689,1,0,0:0:0:0:
254,189,250851,2,0,B|234:262|234:262|266:345,1,152.999995330811,8|0,0:0|0:0,0:0:0:0:
348,356,251175,2,0,L|412:352,1,50.9999984436036
476,202,251336,2,0,L|488:170,2,33.9999989624024,2|0|0,0:0|0:0|0:0,0:0:0:0:
458,225,251499,2,0,L|356:231,1,101.999996887207,8|0,0:0|0:0,0:0:0:0:
272,136,251824,5,2,0:0:0:0:
290,276,251986,1,2,0:0:0:0:
176,184,252148,2,0,B|160:134|160:134|176:78,1,101.999996887207,8|0,0:0|0:0,0:0:0:0:
484,112,252472,5,2,0:0:0:0:
400,356,252634,1,2,0:0:0:0:
212,211,252797,2,0,B|184:135|184:135|212:55,1,152.999995330811,8|0,0:0|0:0,0:0:0:0:
302,163,253120,6,0,P|314:217|295:272,1,101.999996887207,2|0,0:0|0:0,0:0:0:0:
208,67,253445,1,8,0:0:0:0:
212,211,253607,1,0,0:0:0:0:
212,211,253689,1,0,0:0:0:0:
212,211,253770,1,2,0:0:0:0:
377,79,253932,1,2,0:0:0:0:
140,116,254093,2,0,P|125:67|149:7,1,101.999996887207,8|0,0:0|0:0,0:0:0:0:
212,216,254417,6,0,P|105:232|23:152,1,203.999993774414,2|8,0:0|0:0,0:0:0:0:
211,60,254905,1,0,0:0:0:0:
148,271,255067,2,0,P|82:264|40:231,1,101.999996887207,0|2,0:0|0:0,0:0:0:0:
211,60,255391,1,8,0:0:0:0:
231,307,255553,1,0,0:0:0:0:
120,136,255716,5,2,0:0:0:0:
316,268,255878,1,8,0:0:0:0:
316,268,255959,1,0,0:0:0:0:
316,268,256040,1,2,0:0:0:0:
211,60,256202,1,8,0:0:0:0:
211,60,256282,1,0,0:0:0:0:
211,60,256364,1,2,0:0:0:0:
174,274,256526,1,2,0:0:0:0:
296,116,256689,2,0,B|313:66|313:66|301:10,1,101.999996887207,12|2,0:3|0:0,0:0:0:0:
67,246,257013,6,0,L|287:232,1,203.999993774414,6|8,0:0|0:0,0:0:0:0:
400,112,257499,1,0,0:0:0:0:
310,320,257662,2,0,B|275:289|275:289|271:225,1,101.999996887207,0|2,0:0|0:0,0:0:0:0:
454,37,257985,2,0,P|492:109|448:191,1,152.999995330811,8|0,0:0|0:0,0:0:0:0:
374,227,258310,6,0,L|262:234,1,101.999996887207,2|0,0:0|0:0,0:0:0:0:
88,96,258634,2,0,L|204:88,1,101.999996887207,8|0,0:0|0:0,0:0:0:0:
265,134,258878,1,0,0:0:0:0:
265,134,258959,2,0,B|281:186|281:186|269:250,1,101.999996887207,0|2,0:0|0:0,0:0:0:0:
40,344,259283,2,0,B|24:292|24:292|36:228,1,101.999996887207,8|0,0:0|0:0,0:0:0:0:
271,233,259607,6,0,B|208:284|208:284|115:281|115:281|160:248,1,203.999993774414,2|8,0:0|0:0,0:0:0:0:
368,156,260094,1,0,0:0:0:0:
212,304,260256,2,0,L|84:296,1,101.999996887207,0|2,0:0|0:0,0:0:0:0:
272,132,260580,1,8,0:0:0:0:
296,360,260743,1,0,0:0:0:0:
188,184,260905,6,0,P|175:131|194:76,1,101.999996887207,2|0,0:0|0:0,0:0:0:0:
298,261,261229,2,0,P|308:316|289:371,1,101.999996887207,8|0,0:0|0:0,0:0:0:0:
272,132,261553,1,0,0:0:0:0:
212,304,261716,1,2,0:0:0:0:
400,272,261878,2,0,L|509:283,1,101.999996887207,8|0,0:0|0:0,0:0:0:0:
298,260,262202,5,2,0:0:0:0:
308,91,262364,1,0,0:0:0:0:
400,272,262526,1,8,0:0:0:0:
249,150,262689,1,0,0:0:0:0:
500,200,262851,5,0,0:0:0:0:
331,374,263013,1,2,0:0:0:0:
391,91,263175,1,8,0:0:0:0:
354,255,263337,1,2,0:0:0:0:
391,91,263499,5,2,0:0:0:0:
253,58,263662,1,0,0:0:0:0:
354,255,263824,1,8,0:0:0:0:
217,215,263986,1,0,0:0:0:0:
328,28,264147,5,0,0:0:0:0:
373,169,264310,1,2,0:0:0:0:
171,77,264472,1,8,0:0:0:0:
217,215,264634,1,2,0:0:0:0:
391,91,264797,5,2,0:0:0:0:
125,167,264959,1,0,0:0:0:0:
394,224,265121,1,8,0:0:0:0:
149,76,265283,1,0,0:0:0:0:
309,154,265445,5,0,0:0:0:0:
71,112,265607,1,2,0:0:0:0:
233,349,265770,1,8,0:0:0:0:
216,136,265931,1,2,0:0:0:0:
392,306,266094,5,2,0:0:0:0:
240,356,266256,1,8,0:0:0:0:
240,356,266337,1,0,0:0:0:0:
240,356,266418,1,2,0:0:0:0:
328,152,266580,1,8,0:0:0:0:
328,152,266662,1,0,0:0:0:0:
328,152,266743,1,2,0:0:0:0:
152,296,266905,5,2,0:0:0:0:
252,60,267067,1,12,0:3:0:0:
276,236,267229,1,2,0:0:0:0:
56,84,267391,6,0,P|107:67|160:80,1,110.5,4|0,0:0|0:0,0:0:0:0:
292,164,267716,1,8,0:0:0:0:
72,272,267878,6,0,P|64:216|91:166,1,114.75
300,88,268202,1,2,0:0:0:0:
264,352,268364,6,0,P|209:331|181:280,1,119,8|0,0:0|0:0,0:0:0:0:
240,40,268689,1,2,0:0:0:0:
420,213,268851,6,0,P|372:249|312:244,1,123.250007629395,0|8,0:0|0:0,0:0:0:0:
168,24,269174,1,0,0:0:0:0:
356,52,269337,6,0,B|369:109|369:109|350:158,1,110.499994941712,0|2,0:0|0:0,0:0:0:0:
120,324,269662,2,0,B|105:269|105:269|125:217,1,110.499994941712,8|0,0:0|0:0,0:0:0:0:
280,104,269986,5,2,0:0:0:0:
196,272,270148,1,8,0:0:0:0:
200,72,270310,5,2,0:0:0:0:
160,272,270472,1,8,0:0:0:0:
116,68,270634,5,2,0:0:0:0:
120,284,270796,1,8,0:0:0:0:
32,88,270958,5,2,0:0:0:0:
88,308,271120,1,8,0:0:0:0:
116,68,271283,6,0,P|114:95|105:121,1,55.2499974708558,2|0,0:0|0:0,0:0:0:0:
88,308,271445,2,0,P|80:284|78:254,1,55.2499974708558,2|0,0:0|0:0,0:0:0:0:
200,72,271607,6,0,P|189:97|172:119,1,55.2499974708558,2|0,0:0|0:0,0:0:0:0:
120,284,271770,2,0,P|120:258|129:230,1,55.2499974708558,2|0,0:0|0:0,0:0:0:0:
280,104,271932,6,0,P|261:124|237:138,1,55.2499974708558,2|0,0:0|0:0,0:0:0:0:
160,272,272094,2,0,P|169:248|187:224,1,55.2499974708558,2|0,0:0|0:0,0:0:0:0:
328,36,272255,6,0,L|316:196,1,152.999995330811,8|2,0:0|0:0,0:0:0:0:
304,204,272580,6,0,L|420:212,1,101.999996887207,6|0,0:0|0:0,0:0:0:0:
192,136,272905,2,0,B|180:85|180:85|197:29,1,101.999996887207,8|0,0:0|0:0,0:0:0:0:
268,272,273229,1,0,0:0:0:0:
272,88,273391,1,2,0:0:0:0:
101,194,273553,2,0,L|-11:186,1,101.999996887207,8|0,0:0|0:0,0:0:0:0:
190,349,273878,6,0,P|269:271|255:165,1,203.999993774414,2|8,0:0|0:0,0:0:0:0:
128,40,274364,1,0,0:0:0:0:
163,235,274526,1,0,0:0:0:0:
264,56,274689,1,2,0:0:0:0:
123,137,274851,2,0,B|213:142|213:142|256:170,1,135.99999584961,8|0,0:0|0:0,0:0:0:0:
332,120,275175,6,0,P|352:68|341:9,1,101.999996887207,2|0,0:0|0:0,0:0:0:0:
200,248,275499,2,0,P|191:302|211:352,1,101.999996887207,8|0,0:0|0:0,0:0:0:0:
256,160,275824,1,0,0:0:0:0:
113,340,275986,1,2,0:0:0:0:
284,284,276148,2,0,L|395:277,1,101.999996887207,8|0,0:0|0:0,0:0:0:0:
462,144,276472,6,0,B|370:91|370:91|378:196,1,203.999993774414,2|8,0:0|0:0,0:0:0:0:
383,369,276959,1,0,0:0:0:0:
284,204,277121,1,0,0:0:0:0:
480,288,277283,1,2,0:0:0:0:
284,204,277445,2,0,L|276:84,1,101.999996887207,8|0,0:0|0:0,0:0:0:0:
200,272,277770,6,0,B|153:288|153:288|76:280,1,101.999996887207,6|0,0:0|0:0,0:0:0:0:
284,204,278094,1,8,0:0:0:0:
216,376,278256,1,0,0:0:0:0:
148,192,278418,1,0,0:0:0:0:
280,316,278580,1,2,0:0:0:0:
415,204,278743,2,0,P|429:150|416:97,1,101.999996887207,8|0,0:0|0:0,0:0:0:0:
235,179,279067,6,0,P|271:221|323:239,1,101.999996887207,2|0,0:0|0:0,0:0:0:0:
347,47,279391,2,0,P|293:52|248:84,1,101.999996887207,8|0,0:0|0:0,0:0:0:0:
328,144,279716,1,0,0:0:0:0:
328,144,279878,1,2,0:0:0:0:
184,8,280040,2,0,B|156:84|156:84|187:162,1,152.999995330811,8|0,0:0|0:0,0:0:0:0:
224,240,280363,6,0,L|213:349,1,101.999996887207,6|0,0:0|0:0,0:0:0:0:
182,150,280689,1,8,0:0:0:0:
340,288,280851,1,0,0:0:0:0:
104,272,281013,1,0,0:0:0:0:
295,164,281175,1,2,0:0:0:0:
214,341,281336,2,0,L|225:232,1,101.999996887207,8|0,0:0|0:0,0:0:0:0:
465,229,281662,6,0,P|406:287|334:286,1,152.999995330811,2|0,0:0|0:0,0:0:0:0:
304,216,281986,2,0,L|316:104,1,101.999996887207,8|0,0:0|0:0,0:0:0:0:
452,44,282310,1,0,0:0:0:0:
384,208,282472,1,2,0:0:0:0:
224,124,282634,2,0,L|100:116,1,101.999996887207,8|0,0:0|0:0,0:0:0:0:
184,368,282959,6,0,B|220:292|220:292|194:214,1,152.999995330811,2|0,0:0|0:0,0:0:0:0:
116,204,283283,2,0,L|5:196,1,101.999996887207,8|0,0:0|0:0,0:0:0:0:
192,120,283607,1,0,0:0:0:0:
124,296,283770,1,2,0:0:0:0:
276,220,283932,2,0,L|386:230,1,101.999996887207,8|0,0:0|0:0,0:0:0:0:
420,36,284255,6,0,B|392:72|392:72|388:136,1,101.999996887207,2|0,0:0|0:0,0:0:0:0:
457,377,284580,2,0,P|479:327|469:273,1,101.999996887207,8|0,0:0|0:0,0:0:0:0:
392,132,284905,1,2,0:0:0:0:
392,132,285067,1,0,0:0:0:0:
264,305,285228,2,0,B|374:312,1,101.999996887207,8|0,0:0|0:0,0:0:0:0:
490,149,285553,5,2,0:0:0:0:
479,117,285634,1,0,0:0:0:0:
458,91,285715,1,0,0:0:0:0:
431,70,285796,1,0,0:0:0:0:
399,60,285877,1,2,0:0:0:0:
365,57,285958,1,0,0:0:0:0:
333,66,286039,1,0,0:0:0:0:
307,87,286120,1,0,0:0:0:0:
287,126,286201,5,2,0:0:0:0:
261,162,286282,1,0,0:0:0:0:
219,176,286363,1,0,0:0:0:0:
174,173,286444,1,0,0:0:0:0:
137,147,286526,1,2,0:0:0:0:
119,106,286607,1,0,0:0:0:0:
131,63,286688,1,0,0:0:0:0:
164,34,286769,1,0,0:0:0:0:
207,28,286850,5,8,0:0:0:0:
388,136,287175,2,0,P|408:186|388:266,1,127.500004863739
281,202,287661,1,2,0:0:0:0:
411,134,287823,2,0,P|431:184|411:264,1,127.500004863739,8|0,0:0|0:0,0:0:0:0:
300,294,288147,6,0,B|225:286|225:286|171:309|171:309|76:300,1,203.999993774414,4|8,0:0|0:0,0:0:0:0:
239,376,288634,1,0,0:0:0:0:
417,254,288796,2,0,P|390:206|330:170,1,101.999996887207,0|2,0:0|0:0,0:0:0:0:
100,127,289120,1,8,0:0:0:0:
225,286,289282,1,0,0:0:0:0:
100,127,289444,6,0,L|109:10,1,101.999996887207,2|0,0:0|0:0,0:0:0:0:
311,106,289769,1,8,0:0:0:0:
123,223,289931,1,0,0:0:0:0:
123,223,290012,1,0,0:0:0:0:
123,223,290093,2,0,P|56:212|9:162,1,101.999996887207,0|2,0:0|0:0,0:0:0:0:
212,69,290417,2,0,P|279:80|326:130,1,101.999996887207,8|0,0:0|0:0,0:0:0:0:
281,352,290742,6,0,B|218:316|218:316|228:185,1,203.999993774414,2|8,0:0|0:0,0:0:0:0:
317,261,291228,1,0,0:0:0:0:
114,333,291390,2,0,L|124:207,1,101.999996887207,0|2,0:0|0:0,0:0:0:0:
212,69,291715,1,8,0:0:0:0:
322,188,291877,1,0,0:0:0:0:
122,231,292039,5,2,0:0:0:0:
212,69,292201,1,0,0:0:0:0:
220,302,292363,1,8,0:0:0:0:
322,188,292526,1,0,0:0:0:0:
322,188,292607,1,0,0:0:0:0:
322,188,292688,2,0,L|385:185,1,50.9999984436036
442,84,292850,2,0,L|386:86,2,33.9999989624024,2|0|0,0:0|0:0|0:0,0:0:0:0:
472,47,293012,2,0,L|343:51,1,101.999996887207,8|0,0:0|0:0,0:0:0:0:
145,127,293336,6,0,P|136:169|142:209,1,68,2|0,0:0|0:0,0:0:0:0:
322,346,293661,6,0,P|331:302|311:244,1,85,8|0,0:0|0:0,0:0:0:0:
124,110,293985,6,0,P|110:154|123:221,1,101.999996887207,0|2,0:0|0:0,0:0:0:0:
427,150,294309,6,0,P|320:108|220:165,1,237.999992736817,8|2,0:0|0:0,0:0:0:0:
328,252,294796,1,0,0:0:0:0:
365,22,294958,2,0,P|311:18|238:37,1,101.999996887207,8|0,0:0|0:0,0:0:0:0:
81,180,295282,1,0,0:0:0:0:
126,9,295444,1,2,0:0:0:0:
316,155,295607,2,0,L|432:149,1,101.999996887207,8|0,0:0|0:0,0:0:0:0:
231,267,295931,6,0,B|162:270|162:270|98:302|98:302|-11:310,1,203.999993774414,2|8,0:0|0:0,0:0:0:0:
190,380,296417,1,0,0:0:0:0:
131,165,296580,2,0,L|9:173,1,101.999996887207,0|2,0:0|0:0,0:0:0:0:
231,267,296904,1,8,0:0:0:0:
226,101,297066,1,0,0:0:0:0:
90,302,297228,5,2,0:0:0:0:
75,81,297390,1,8,0:0:0:0:
75,81,297472,1,0,0:0:0:0:
75,81,297553,1,2,0:0:0:0:
203,230,297715,1,8,0:0:0:0:
259,25,297877,1,2,0:0:0:0:
259,25,297958,1,0,0:0:0:0:
259,25,298039,2,0,L|315:22,1,50.9999984436036,2|0,0:0|0:0,0:0:0:0:
404,169,298201,2,0,L|256:176,1,101.999996887207,8|0,0:0|0:0,0:0:0:0:
90,302,298526,6,0,B|162:298|162:298|218:316|218:316|311:311,1,203.999993774414,4|8,0:0|0:0,0:0:0:0:
452,302,299012,1,0,0:0:0:0:
474,104,299174,2,0,P|419:74|348:91,1,101.999996887207,0|2,0:0|0:0,0:0:0:0:
227,224,299499,1,8,0:0:0:0:
401,171,299661,1,0,0:0:0:0:
209,54,299823,6,0,B|135:17|47:60|47:60|82:93,1,203.999993774414,2|8,0:0|0:0,0:0:0:0:
224,221,300309,1,0,0:0:0:0:
224,221,300390,1,0,0:0:0:0:
224,221,300472,2,0,P|242:274|219:344,1,101.999996887207,0|2,0:0|0:0,0:0:0:0:
83,181,300796,2,0,P|65:128|88:58,1,101.999996887207,8|0,0:0|0:0,0:0:0:0:
360,115,301120,6,0,B|316:119|280:106|280:106|248:122|248:122|209:111|162:124,1,203.999993774414,2|8,0:0|0:0,0:0:0:0:
315,222,301607,1,0,0:0:0:0:
461,136,301769,2,0,P|458:82|424:32,1,101.999996887207,0|2,0:0|0:0,0:0:0:0:
228,8,302093,1,8,0:0:0:0:
373,117,302255,1,0,0:0:0:0:
164,323,302417,6,0,B|145:271|145:271|164:107,1,203.999993774414,2|8,0:0|0:0,0:0:0:0:
351,373,302904,1,0,0:0:0:0:
351,373,302985,1,0,0:0:0:0:
351,373,303066,2,0,P|412:374|459:338,1,101.999996887207,0|2,0:0|0:0,0:0:0:0:
499,131,303390,1,8,0:0:0:0:
382,283,303553,1,0,0:0:0:0:
234,119,303715,6,0,L|238:8,1,101.999996887207,2|0,0:3|0:0,0:0:0:0:
339,209,304039,1,8,0:0:0:0:
114,143,304201,1,0,0:0:0:0:
343,107,304363,2,0,L|338:217,1,101.999996887207,0|2,0:0|0:0,0:0:0:0:
109,253,304688,1,8,0:0:0:0:
234,119,304850,1,0,0:0:0:0:
269,336,305012,5,2,0:0:0:0:
308,347,305093,1,0,0:0:0:0:
347,346,305174,1,0,0:0:0:0:
385,332,305255,1,0,0:0:0:0:
418,309,305336,1,2,0:0:0:0:
442,276,305417,1,0,0:0:0:0:
457,238,305498,1,0,0:0:0:0:
456,197,305579,1,0,0:0:0:0:
438,159,305661,5,2,0:0:0:0:
404,182,305742,1,0,0:0:0:0:
369,203,305823,1,2,0:0:0:0:
329,211,305904,1,0,0:0:0:0:
288,211,305985,1,8,0:0:0:0:
248,202,306066,1,0,0:0:0:0:
211,183,306147,1,0,0:0:0:0:
184,151,306228,1,0,0:0:0:0:
154,117,306309,6,0,B|125:266|125:266|167:335,1,203.999993774414,4|8,0:0|0:0,0:0:0:0:
327,367,306796,1,0,0:0:0:0:
355,185,306958,2,0,P|402:171|467:183,1,101.999996887207,0|2,0:0|0:0,0:0:0:0:
250,303,307282,2,0,P|203:317|138:305,1,101.999996887207,8|0,0:0|0:0,0:0:0:0:
18,140,307607,5,2,0:0:0:0:
195,207,307769,1,0,0:0:0:0:
0,288,307931,1,8,0:0:0:0:
117,154,308093,1,0,0:0:0:0:
117,154,308174,1,0,0:0:0:0:
117,154,308255,2,0,L|115:43,1,101.999996887207,0|2,0:0|0:0,0:0:0:0:
209,22,308499,1,0,0:0:0:0:
209,22,308580,2,0,L|211:133,1,101.999996887207,8|0,0:0|0:0,0:0:0:0:
111,340,308904,5,2,0:0:0:0:
53,180,309066,1,0,0:0:0:0:
267,280,309228,1,8,0:0:0:0:
210,123,309390,1,0,0:0:0:0:
106,350,309553,5,0,0:0:0:0:
42,174,309715,1,2,0:0:0:0:
277,284,309877,1,8,0:0:0:0:
214,112,310039,1,0,0:0:0:0:
80,266,310201,5,2,0:0:0:0:
311,186,310363,1,0,0:0:0:0:
311,186,310444,1,0,0:0:0:0:
311,186,310526,2,0,P|330:140|325:73,1,101.999996887207,8|0,0:0|0:0,0:0:0:0:
187,225,310850,1,0,0:0:0:0:
431,319,311012,1,2,0:0:0:0:
431,319,311093,1,0,0:0:0:0:
431,319,311174,2,0,B|454:272|454:272|443:199,1,101.999996887207,8|0,0:0|0:0,0:0:0:0:
301,50,311499,6,0,P|293:83|308:137,1,68,2|0,0:0|0:0,0:0:0:0:
446,223,311823,6,0,P|452:184|424:116,1,85,8|0,0:0|0:0,0:0:0:0:
252,251,312147,6,0,L|354:246,1,101.999996887207,0|2,0:0|0:0,0:0:0:0:
169,174,312390,1,0,0:0:0:0:
169,174,312472,6,0,P|139:240|229:363,1,237.999992736817,8|2,0:0|0:0,0:0:0:0:
252,251,312958,1,0,0:0:0:0:
148,45,313120,6,0,B|103:53|103:53|60:39|60:39|-6:48,1,127.500004863739,8|0,0:0|0:0,0:0:0:0:
252,251,313444,1,0,0:0:0:0:
404,159,313607,1,2,0:0:0:0:
404,159,313688,1,0,0:0:0:0:
404,159,313769,1,8,0:0:0:0:
269,73,313931,1,0,0:0:0:0:
349,309,314093,5,2,0:0:0:0:
169,174,314255,1,0,0:0:0:0:
404,159,314417,2,0,L|398:48,1,101.999996887207,8|0,0:0|0:0,0:0:0:0:
353,319,314742,5,0,0:0:0:0:
188,258,314904,1,2,0:0:0:0:
404,159,315066,2,0,L|293:165,1,101.999996887207,8|0,0:0|0:0,0:0:0:0:
249,92,315309,1,0,0:0:0:0:
249,92,315390,6,0,L|138:98,1,101.999996887207,2|8,0:0|0:0,0:0:0:0:
7,290,315715,2,0,L|118:284,1,101.999996887207,2|8,0:0|0:0,0:0:0:0:
348,265,316039,2,0,P|355:300|352:326,1,50.9999984436036,2|0,0:0|0:0,0:0:0:0:
245,360,316201,2,0,P|238:325|241:299,1,50.9999984436036,2|0,0:0|0:0,0:0:0:0:
294,165,316363,2,0,P|341:152|429:187,1,101.999996887207,8|0,0:0|0:0,0:0:0:0:
117,284,316688,6,0,B|98:127|98:127|147:45,1,203.999993774414,2|8,0:3|0:0,0:0:0:0:
253,19,317174,1,0,0:0:0:0:
375,100,317336,2,0,L|504:96,1,101.999996887207,0|2,0:0|0:0,0:0:0:0:
427,276,317661,2,0,L|298:280,1,101.999996887207,8|0,0:0|0:0,0:0:0:0:
117,284,317985,5,2,0:0:0:0:
219,375,318147,1,0,0:0:0:0:
206,147,318309,1,8,0:0:0:0:
14,279,318472,1,0,0:0:0:0:
14,279,318553,1,0,0:0:0:0:
14,279,318634,2,0,B|4:234|4:234|9:144,1,101.999996887207,0|2,0:0|0:0,0:0:0:0:
200,38,318958,2,0,B|210:83|210:83|205:173,1,101.999996887207,8|0,0:0|0:0,0:0:0:0:
222,374,319282,5,2,0:0:0:0:
346,182,319444,1,0,0:0:0:0:
134,264,319607,1,8,0:0:0:0:
352,323,319769,1,0,0:0:0:0:
206,138,319931,5,0,0:0:0:0:
219,381,320093,1,2,0:0:0:0:
352,176,320255,1,8,0:0:0:0:
126,264,320418,1,0,0:0:0:0:
358,327,320580,6,0,L|486:322,1,101.999996887207,2|0,0:0|0:0,0:0:0:0:
227,260,320904,2,0,L|99:265,1,101.999996887207,8|0,0:0|0:0,0:0:0:0:
7,116,321228,2,0,P|3:87|14:41,1,50.9999984436036,2|0,0:0|0:0,0:0:0:0:
144,61,321390,2,0,P|148:90|137:136,1,50.9999984436036,2|0,0:0|0:0,0:0:0:0:
111,285,321553,2,0,L|221:280,1,101.999996887207,8|0,0:0|0:0,0:0:0:0:
466,213,321877,6,0,B|470:167|470:167|453:101,1,93.5000028533936,2|0,0:3|0:0,0:0:0:0:
275,191,322201,1,8,0:0:0:0:
372,291,322363,1,0,0:0:0:0:
323,99,322526,6,0,P|274:87|216:105,1,93.5000028533936,2|0,0:0|0:0,0:0:0:0:
108,294,322850,1,8,0:0:0:0:
275,191,323012,1,0,0:0:0:0:
68,222,323174,5,2,0:0:0:0:
38,249,323255,1,0,0:0:0:0:
27,288,323336,1,0,0:0:0:0:
35,327,323417,1,0,0:0:0:0:
60,359,323499,1,8,0:0:0:0:
98,372,323580,1,0,0:0:0:0:
138,365,323661,1,0,0:0:0:0:
169,339,323742,1,0,0:0:0:0:
202,298,323823,5,2,0:0:0:0:
250,277,323904,1,0,0:0:0:0:
303,275,323985,1,2,0:0:0:0:
345,293,324066,1,0,0:0:0:0:
389,322,324147,2,0,B|408:248|408:248|383:161,1,159.375,8|0,0:0|0:0,0:0:0:0:
257,117,324472,6,0,B|241:173|241:173|261:241,1,110.499994941712,4|0,0:0|0:0,0:0:0:0:
125,375,324797,2,0,B|144:323|144:323|133:268,1,110.499994941712,8|0,0:0|0:0,0:0:0:0:
70,101,325121,1,0,0:0:0:0:
22,297,325283,1,2,0:0:0:0:
256,224,325445,2,0,B|312:228|312:228|364:216|364:216|420:220,1,165.749992412568,8|0,0:0|0:0,0:0:0:0:
488,176,325770,6,0,P|505:124|492:71,1,110.499994941712,2|0,0:0|0:0,0:0:0:0:
328,304,326094,1,8,0:0:0:0:
416,120,326256,1,0,0:0:0:0:
416,120,326337,1,0,0:0:0:0:
416,120,326417,1,0,0:0:0:0:
460,344,326580,1,2,0:0:0:0:
248,256,326743,2,0,P|236:309|252:361,1,110.499994941712,8|0,0:0|0:0,0:0:0:0:
312,88,327067,6,0,B|316:24|316:24|264:68|264:68|261:157,1,220.999989883423,2|8,0:0|0:0,0:0:0:0:
328,304,327553,1,0,0:0:0:0:
335,115,327716,2,0,L|343:5,1,110.499994941712,0|2,0:0|0:0,0:0:0:0:
328,212,328040,1,8,0:0:0:0:
440,68,328202,1,0,0:0:0:0:
244,52,328364,5,2,0:0:0:0:
428,184,328526,1,0,0:0:0:0:
256,304,328689,2,0,B|220:224|220:224|244:150,1,165.749992412568,8|0,0:0|0:0,0:0:0:0:
316,116,329013,2,0,L|380:120,1,55.2499974708558
460,224,329174,2,0,L|504:228,2,36.8333320617676,2|0|0,0:0|0:0|0:0,0:0:0:0:
423,244,329337,2,0,B|347:240|347:240|326:207,1,110.5,8|0,0:0|0:0,0:0:0:0:
468,36,329662,6,0,P|476:68|468:101,1,68,2|0,0:0|0:0,0:0:0:0:
328,210,329986,6,0,B|313:179|313:179|320:102,1,85,8|0,0:0|0:0,0:0:0:0:
178,10,330309,6,0,B|199:45|199:45|191:126,1,101.999996887207,2|2,0:0|0:0,0:0:0:0:
0,335,330634,6,0,B|72:287|72:287|167:293,1,178.499994552612,8|0,0:0|0:0,0:0:0:0:
238,347,330959,6,0,P|255:295|243:242,1,110.499994941712,2|0,0:0|0:0,0:0:0:0:
104,64,331283,1,8,0:0:0:0:
163,292,331445,1,0,0:0:0:0:
163,292,331526,1,0,0:0:0:0:
163,292,331607,1,0,0:0:0:0:
244,76,331770,1,2,0:0:0:0:
32,160,331932,2,0,L|142:167,1,110.499994941712,8|0,0:0|0:0,0:0:0:0:
232,328,332256,6,0,B|226:383|226:383|180:312|180:312|224:244,1,220.999989883423,2|8,0:0|0:0,0:0:0:0:
340,180,332743,1,0,0:0:0:0:
171,361,332905,2,0,B|147:311|147:311|176:259,1,110.500005901337,2|2,0:0|0:0,0:0:0:0:
268,104,333229,1,8,0:0:0:0:
300,312,333391,1,0,0:0:0:0:
152,140,333553,5,2,0:0:0:0:
388,260,333716,1,8,0:0:0:0:
388,260,333797,1,0,0:0:0:0:
388,260,333878,1,2,0:0:0:0:
171,361,334040,1,8,0:0:0:0:
171,361,334121,1,0,0:0:0:0:
171,361,334202,1,2,0:0:0:0:
256,128,334364,1,2,0:0:0:0:
456,328,334526,2,0,P|479:278|472:224,1,110.499994941712,12|2,0:3|0:0,0:0:0:0:
253,23,334850,6,0,B|236:76|236:76|255:127,1,110.499994941712,4|0,0:0|0:0,0:0:0:0:
472,224,335175,2,0,L|362:228,1,110.499994941712,8|0,0:0|0:0,0:0:0:0:
240,316,335499,1,0,0:0:0:0:
325,71,335662,1,2,0:0:0:0:
88,192,335824,2,0,B|140:188|140:188|192:212|192:212|248:208,1,165.749992412568,8|0,0:0|0:0,0:0:0:0:
323,176,336148,6,0,P|340:124|325:71,1,110.499994941712,2|0,0:0|0:0,0:0:0:0:
288,336,336472,1,8,0:0:0:0:
228,122,336634,1,0,0:0:0:0:
228,122,336716,1,0,0:0:0:0:
228,122,336796,1,0,0:0:0:0:
374,268,336959,1,2,0:0:0:0:
157,212,337121,2,0,B|140:264|140:264|156:324,1,110.499994941712,8|0,0:0|0:0,0:0:0:0:
268,188,337445,6,0,P|198:107|94:122,1,220.999989883423,2|8,0:0|0:0,0:0:0:0:
228,268,337932,1,0,0:0:0:0:
248,124,338094,2,0,P|203:87|139:83,1,110.499994941712,0|2,0:0|0:0,0:0:0:0:
228,268,338418,1,8,0:0:0:0:
336,64,338580,1,0,0:0:0:0:
320,232,338743,6,0,L|312:352,1,110.499994941712,2|0,0:0|0:0,0:0:0:0:
416,120,339067,2,0,L|427:10,1,110.499994941712,8|0,0:0|0:0,0:0:0:0:
400,272,339391,1,0,0:0:0:0:
512,96,339553,1,2,0:0:0:0:
308,128,339716,2,0,L|197:120,1,110.499994941712,8|2,0:0|0:0,0:0:0:0:
53,297,340040,5,6,0:0:0:0:
185,235,340202,1,0,0:0:0:0:
63,148,340364,1,2,0:0:0:0:
170,348,340526,1,0,0:0:0:0:
98,220,340689,5,8,0:0:0:0:
241,205,340851,1,0,0:0:0:0:
54,343,341013,1,2,0:0:0:0:
28,112,341175,1,0,0:0:0:0:
241,205,341337,5,2,0:0:0:0:
187,311,341499,1,0,0:0:0:0:
336,242,341662,1,2,0:0:0:0:
275,101,341824,1,0,0:0:0:0:
275,306,341986,5,8,0:0:0:0:
343,154,342148,1,0,0:0:0:0:
381,329,342310,1,2,0:0:0:0:
423,216,342472,1,0,0:0:0:0:
241,205,342634,5,6,0:0:0:0:
451,31,342797,1,0,0:0:0:0:
369,256,342959,1,2,0:0:0:0:
267,52,343121,1,0,0:0:0:0:
486,220,343282,5,8,0:0:0:0:
257,307,343445,1,0,0:0:0:0:
379,133,343607,1,2,0:0:0:0:
154,239,343770,1,0,0:0:0:0:
458,305,343932,5,6,0:0:0:0:
284,240,345067,5,0,0:0:0:0:
284,240,345148,1,0,0:0:0:0:
284,240,345229,2,0,B|337:201|337:201|337:129|337:129|460:168|472:276|417:389|320:408|212:380|173:297|201:197|201:197|256:160|256:160|256:100|256:100|280:56|328:48|328:48|248:-12|136:12|84:112|116:200|116:200|124:152|151:135,1,1360,2|4,0:0|0:0,0:0:0:0:
256,192,350499,12,2,355444,0:0:0:0:
