osu file format v14

[General]
AudioFilename: audio.mp3
AudioLeadIn: 0
PreviewTime: -1
Countdown: 0
SampleSet: Normal
StackLeniency: 0.9
Mode: 0
LetterboxInBreaks: 1
WidescreenStoryboard: 0

[Editor]
DistanceSpacing: 0.8
BeatDivisor: 4
GridSize: 8
TimelineZoom: 1

[Metadata]
Title:Chrono diver -fragment- (Long ver.)
TitleUnicode:Chrono diver -fragment- (Long ver.)
Artist:Nekomata Master feat. Misawa Aki
ArtistUnicode:Nekomata Master feat. Misawa Aki
Creator:TheBlueEight
Version:Time Depths
Source:猫叉Master - Follow Slowly album
Tags:猫叉Master Konami beatmaniaIIDX22 PENDUAL
BeatmapID:930650
BeatmapSetID:431455

[Difficulty]
HPDrainRate:6
CircleSize:4
OverallDifficulty:8.9
ApproachRate:9.5
SliderMultiplier:1.8
SliderTickRate:1

[Events]
//Background and Video events
0,0,"maxresdefault.jpg",0,0
//Break Periods
2,19456,32029
2,175456,186407
//Storyboard Layer 0 (Background)
//Storyboard Layer 1 (Fail)
//Storyboard Layer 2 (Pass)
//Storyboard Layer 3 (Foreground)
//Storyboard Sound Samples

[TimingPoints]
1419,324.324324324324,4,1,0,100,1,0
11148,-200,4,1,0,100,0,0
32554,-125,4,1,0,100,0,0
52337,-66.6666666666667,4,1,0,100,0,0
53310,-125,4,1,0,100,0,0
58500,-66.6666666666667,4,1,0,100,0,0
63689,-125,4,1,0,100,0,0
87040,-83.3333333333333,4,1,0,100,0,0
89635,-125,4,1,0,100,0,0
102621,-66.6666666666667,4,1,0,100,0,0
105221,-100,4,1,0,100,0,1
122067,-66.6666666666667,4,1,0,100,0,1
123358,-100,4,1,0,100,0,1
142824,-166.666666666667,4,1,0,100,0,0
144121,-125,4,1,0,100,0,0
164878,-200,4,1,0,100,0,0
186932,-125,4,1,0,100,0,0
207689,-83.3333333333333,4,1,0,100,0,0
212890,-125,4,1,0,100,0,0
225851,-66.6666666666667,4,1,0,100,0,0
227148,-166.666666666667,4,1,0,100,0,0
228446,-100,4,1,0,100,0,1
245310,-66.6666666666667,4,1,0,100,0,1
246621,-100,4,1,0,100,0,1
266067,-125,4,1,0,100,0,0
269964,-83.3333333333333,4,1,0,100,0,0
272548,-125,4,1,0,100,0,0
285528,-66.6666666666667,4,1,0,100,0,0
286824,-100,4,1,0,100,0,0
288124,-66.6666666666667,4,1,0,100,0,1
304986,-55.5555555555556,4,1,0,100,0,1
306283,-100,4,1,0,100,0,0
323148,-66.6666666666667,4,1,0,100,0,0
324446,-76.9230769230769,4,1,0,100,0,1
340027,-125,4,1,0,100,0,0
345202,-200,4,1,0,100,0,0

[HitObjects]
256,144,11473,5,0,0:0:0:0:
256,152,11554,1,0,0:0:0:0:
256,160,11635,1,0,0:0:0:0:
256,168,11716,1,0,0:0:0:0:
256,176,11797,2,0,P|232:232|112:256,1,180
128,56,12770,5,0,0:0:0:0:
216,64,12932,2,0,P|280:128|400:72,1,225
104,16,14067,5,0,0:0:0:0:
168,80,14229,2,0,P|232:144|352:112,1,225
96,248,15364,5,0,0:0:0:0:
208,248,15527,2,0,P|328:200|336:112,1,225
432,48,16662,5,0,0:0:0:0:
456,144,16824,1,0,0:0:0:0:
432,192,16905,1,0,0:0:0:0:
408,232,16986,2,0,P|344:256|224:224,1,180
224,232,17959,5,0,0:0:0:0:
224,264,18121,1,0,0:0:0:0:
240,280,18202,1,0,0:0:0:0:
256,296,18283,2,0,L|360:304,1,90
448,344,18932,2,0,L|400:312,2,45
256,192,32554,12,0,42283,0:0:0:0:
48,80,42608,6,0,L|88:104,1,36
168,64,42770,2,0,L|208:88,1,36
176,200,42932,2,0,P|248:248|304:216,1,144
192,288,43418,2,0,P|256:320|320:288,1,144
424,232,43905,6,0,L|400:192,1,36
384,88,44067,2,0,L|336:56,1,36
272,72,44229,2,0,B|240:120|248:128|248:128|160:160,1,144
152,168,44716,2,0,B|120:208|104:224|104:224|128:296,1,144
288,304,45202,5,0,0:0:0:0:
320,320,45527,5,0,0:0:0:0:
448,280,45851,2,0,L|432:240,1,36
368,160,46013,2,0,P|328:96|136:120,1,288
136,136,46743,1,0,0:0:0:0:
144,168,46824,2,0,L|56:296,1,144
144,200,47310,6,0,L|48:352,1,180
104,344,47797,1,0,0:0:0:0:
160,328,47878,1,0,0:0:0:0:
216,304,47959,1,0,0:0:0:0:
272,280,48040,1,0,0:0:0:0:
328,256,48121,2,0,L|192:168,1,144
160,144,48608,2,0,B|112:120|120:72|168:56|216:80,1,144
248,88,49094,5,0,0:0:0:0:
328,144,49418,2,0,L|200:240,1,144
212,230,49905,2,0,L|336:136,1,144
212,230,50391,1,0,0:0:0:0:
120,184,50716,5,0,0:0:0:0:
264,120,51040,5,0,0:0:0:0:
48,24,51202,5,0,0:0:0:0:
184,176,51689,1,0,0:0:0:0:
40,192,51851,2,0,L|88:192,2,36
256,192,52175,1,0,0:0:0:0:
472,192,52337,1,0,0:0:0:0:
392,192,52500,2,0,L|496:192,2,67.5000025749208
336,192,52743,1,0,0:0:0:0:
264,192,52824,1,0,0:0:0:0:
192,192,52905,1,0,0:0:0:0:
120,192,52986,6,0,L|48:192,2,67.5000025749208
136,288,53310,5,0,0:0:0:0:
192,96,53473,2,0,L|280:136,1,72
368,264,53797,1,0,0:0:0:0:
88,232,53959,5,0,0:0:0:0:
288,80,54121,2,0,L|336:144,1,72
312,304,54446,1,0,0:0:0:0:
128,128,54608,5,0,0:0:0:0:
392,256,54770,2,0,L|320:312,1,72
96,304,55094,1,0,0:0:0:0:
192,80,55256,5,0,0:0:0:0:
224,320,55418,2,0,L|152:280,1,72
408,128,55743,1,0,0:0:0:0:
416,184,55905,6,0,L|352:112,1,72
160,288,56229,1,0,0:0:0:0:
400,264,56391,1,0,0:0:0:0:
192,64,56554,2,0,L|112:96,1,72
408,120,56878,5,0,0:0:0:0:
152,240,57040,2,0,L|184:272,2,36
96,96,57364,1,0,0:0:0:0:
344,296,57527,2,0,L|384:288,6,36
296,288,58094,1,0,0:0:0:0:
256,264,58175,1,0,0:0:0:0:
224,224,58256,1,0,0:0:0:0:
224,176,58337,2,0,L|240:144,1,36
160,104,58500,5,0,0:0:0:0:
224,240,58662,1,0,0:0:0:0:
368,112,58824,1,0,0:0:0:0:
144,192,58986,1,0,0:0:0:0:
288,256,59148,1,0,0:0:0:0:
296,80,59310,1,0,0:0:0:0:
144,224,59473,1,0,0:0:0:0:
368,128,59635,1,0,0:0:0:0:
216,240,59797,5,0,0:0:0:0:
288,152,59959,1,0,0:0:0:0:
152,272,60121,1,0,0:0:0:0:
336,112,60283,1,0,0:0:0:0:
88,272,60446,1,0,0:0:0:0:
400,104,60608,1,0,0:0:0:0:
88,168,60770,1,0,0:0:0:0:
360,280,60932,1,0,0:0:0:0:
104,96,61094,5,0,0:0:0:0:
128,72,61175,1,0,0:0:0:0:
168,56,61256,1,0,0:0:0:0:
208,72,61337,1,0,0:0:0:0:
248,88,61418,1,0,0:0:0:0:
264,128,61500,1,0,0:0:0:0:
280,168,61581,1,0,0:0:0:0:
296,208,61662,1,0,0:0:0:0:
280,248,61743,2,0,L|224:296,1,67.5000025749208
144,224,61905,6,0,L|80:176,1,67.5000025749208
200,88,62067,2,0,L|272:64,1,67.5000025749208
168,280,62229,2,0,L|96:248,1,67.5000025749208
368,224,62391,1,0,0:0:0:0:
96,80,62716,5,0,0:0:0:0:
320,128,63040,2,0,L|264:176,3,67.5000025749208
112,232,63364,1,0,0:0:0:0:
328,320,63689,5,0,0:0:0:0:
360,200,64013,5,0,0:0:0:0:
264,108,64175,1,0,0:0:0:0:
276,248,64337,1,0,0:0:0:0:
176,156,64500,1,0,0:0:0:0:
200,300,64662,2,0,L|220:212,1,72
72,340,64986,6,0,L|132:272,1,72
144,220,65310,1,0,0:0:0:0:
196,116,65473,1,0,0:0:0:0:
108,44,65635,2,0,L|16:60,1,72
236,164,65959,2,0,L|136:152,1,72
328,64,66283,6,0,P|396:116|376:188,1,144
332,204,66770,2,0,P|260:148|276:76,1,144
392,88,67256,1,0,0:0:0:0:
196,204,67418,1,0,0:0:0:0:
384,316,67581,5,0,0:0:0:0:
104,64,67905,5,0,0:0:0:0:
248,132,68067,1,0,0:0:0:0:
276,152,68148,1,0,0:0:0:0:
300,176,68229,2,0,L|392:176,1,72
100,216,68554,1,0,0:0:0:0:
340,320,68878,5,0,0:0:0:0:
312,292,69040,1,0,0:0:0:0:
208,172,69202,1,0,0:0:0:0:
264,232,69364,1,0,0:0:0:0:
152,116,69527,1,0,0:0:0:0:
208,172,69689,1,0,0:0:0:0:
104,64,69851,1,0,0:0:0:0:
120,84,70013,1,0,0:0:0:0:
92,56,70175,1,0,0:0:0:0:
172,144,70337,5,0,0:0:0:0:
280,160,70500,2,0,L|212:220,2,72
344,96,70986,2,0,L|424:56,1,72
144,232,71310,1,0,0:0:0:0:
440,216,71473,2,0,L|300:304,1,144
180,308,71959,2,0,B|252:216|192:160|212:156|264:104,1,216
400,320,72770,5,0,0:0:0:0:
88,320,72932,1,0,0:0:0:0:
176,244,73094,1,0,0:0:0:0:
204,212,73175,1,0,0:0:0:0:
240,184,73256,2,0,L|272:160,1,36
124,100,73418,2,0,L|176:80,1,36
308,68,73581,2,0,L|400:84,1,72
412,288,74067,5,0,0:0:0:0:
428,56,74391,5,0,0:0:0:0:
136,268,74716,1,0,0:0:0:0:
96,44,75040,5,0,0:0:0:0:
388,304,75364,1,0,0:0:0:0:
212,52,75689,6,0,L|136:112,1,72
288,132,76013,2,0,L|340:200,1,72
144,236,76337,2,0,L|80:308,1,72
316,316,76662,2,0,L|392:340,1,72
132,196,76986,1,0,0:0:0:0:
432,196,77148,2,0,P|408:136|256:124,1,216
360,280,77797,5,0,0:0:0:0:
344,88,77959,1,0,0:0:0:0:
124,200,78121,1,0,0:0:0:0:
156,200,78202,1,0,0:0:0:0:
188,200,78283,1,0,0:0:0:0:
220,200,78364,1,0,0:0:0:0:
280,120,78446,2,0,L|312:104,1,36
288,284,78608,2,0,L|324:300,1,36
416,200,78770,5,0,0:0:0:0:
464,200,78932,5,0,0:0:0:0:
256,192,79256,12,0,84446,0:0:0:0:
408,248,84608,5,0,0:0:0:0:
340,140,84770,1,0,0:0:0:0:
232,248,84932,1,0,0:0:0:0:
172,116,85094,1,0,0:0:0:0:
88,260,85256,1,0,0:0:0:0:
32,88,85418,1,0,0:0:0:0:
88,260,85581,1,0,0:0:0:0:
252,336,85743,1,0,0:0:0:0:
368,200,85905,1,0,0:0:0:0:
160,92,86067,1,0,0:0:0:0:
352,32,86229,1,0,0:0:0:0:
368,296,86391,5,0,0:0:0:0:
72,288,86554,1,0,0:0:0:0:
268,204,86716,1,0,0:0:0:0:
332,80,86878,1,0,0:0:0:0:
100,84,87040,5,0,0:0:0:0:
112,124,87121,1,0,0:0:0:0:
136,160,87202,1,0,0:0:0:0:
164,192,87283,1,0,0:0:0:0:
196,220,87364,1,0,0:0:0:0:
228,248,87446,1,0,0:0:0:0:
260,276,87527,1,0,0:0:0:0:
292,304,87608,1,0,0:0:0:0:
376,316,87689,2,0,L|432:292,1,53.9999983520508
364,208,87851,2,0,L|400:156,1,53.9999983520508
284,104,88013,2,0,L|244:48,1,53.9999983520508
112,124,88175,2,0,L|52:168,1,53.9999983520508
224,324,88337,2,0,L|292:308,1,53.9999983520508
260,144,88500,5,0,0:0:0:0:
260,156,88581,1,0,0:0:0:0:
260,168,88662,1,0,0:0:0:0:
260,176,88743,1,0,0:0:0:0:
260,184,88824,1,0,0:0:0:0:
176,288,88986,5,0,0:0:0:0:
328,288,89148,1,0,0:0:0:0:
256,60,89310,5,0,0:0:0:0:
108,80,89635,2,0,L|88:160,1,72
72,272,89959,2,0,L|156:324,1,72
292,296,90283,2,0,L|372:264,1,72
388,88,90608,2,0,L|304:48,1,72
320,256,90932,5,0,0:0:0:0:
192,128,91094,1,0,0:0:0:0:
320,128,91256,1,0,0:0:0:0:
192,256,91418,1,0,0:0:0:0:
256,48,91581,6,0,L|256:128,1,72
48,192,91905,2,0,L|128:192,1,72
464,192,92229,2,0,L|368:192,1,72
256,336,92554,2,0,L|256:256,1,72
192,256,92878,5,0,0:0:0:0:
320,128,93040,1,0,0:0:0:0:
192,128,93202,1,0,0:0:0:0:
320,256,93364,1,0,0:0:0:0:
256,192,93527,6,0,L|256:272,1,72
256,192,93851,2,0,L|256:112,1,72
256,192,94175,2,0,L|352:192,1,72
256,192,94500,2,0,L|160:192,1,72
160,80,94824,5,0,0:0:0:0:
352,80,94986,1,0,0:0:0:0:
160,192,95148,1,0,0:0:0:0:
352,192,95310,1,0,0:0:0:0:
160,304,95473,1,0,0:0:0:0:
352,304,95635,1,0,0:0:0:0:
64,160,95797,6,0,L|64:256,1,72
448,160,96121,2,0,L|448:240,1,72
432,352,96446,5,0,0:0:0:0:
112,64,96770,5,0,0:0:0:0:
80,336,97094,5,0,0:0:0:0:
448,48,97418,5,0,0:0:0:0:
256,144,97743,5,0,0:0:0:0:
256,192,98067,1,0,0:0:0:0:
144,208,98391,6,0,P|144:256|64:320,1,144
192,320,98878,1,0,0:0:0:0:
304,256,99040,1,0,0:0:0:0:
224,240,99202,1,0,0:0:0:0:
352,320,99364,1,0,0:0:0:0:
272,320,99527,5,0,0:0:0:0:
400,160,99689,1,0,0:0:0:0:
400,288,99851,1,0,0:0:0:0:
240,144,100013,1,0,0:0:0:0:
160,240,100175,1,0,0:0:0:0:
304,288,100337,1,0,0:0:0:0:
160,96,100500,1,0,0:0:0:0:
384,144,100662,1,0,0:0:0:0:
192,288,100824,1,0,0:0:0:0:
256,80,100986,5,0,0:0:0:0:
352,272,101148,1,0,0:0:0:0:
176,256,101310,1,0,0:0:0:0:
304,80,101473,1,0,0:0:0:0:
112,112,101635,1,0,0:0:0:0:
272,304,101797,1,0,0:0:0:0:
400,96,101959,5,0,0:0:0:0:
400,320,102121,1,0,0:0:0:0:
272,96,102283,1,0,0:0:0:0:
56,312,102446,5,0,0:0:0:0:
88,288,102527,1,0,0:0:0:0:
112,256,102608,1,0,0:0:0:0:
152,232,102689,1,0,0:0:0:0:
192,224,102770,1,0,0:0:0:0:
232,240,102851,1,0,0:0:0:0:
272,232,102932,1,0,0:0:0:0:
304,208,103013,1,0,0:0:0:0:
336,176,103094,1,0,0:0:0:0:
368,144,103175,1,0,0:0:0:0:
256,136,103256,6,0,L|256:56,1,67.5000025749208
432,208,103418,2,0,L|432:120,1,67.5000025749208
288,320,103581,2,0,L|288:240,1,67.5000025749208
104,152,103743,2,0,L|104:72,1,67.5000025749208
256,192,103905,5,0,0:0:0:0:
256,48,104229,2,0,L|88:192,1,202.500007724762
112,200,104554,2,0,L|168:256,1,67.5000025749208
184,256,104716,2,0,P|240:184|352:160,1,202.500007724762
96,128,105202,6,0,B|208:104|192:200|264:192|320:136|304:64|232:64|232:64|200:304,1,540.000020599366
80,216,106013,5,0,0:0:0:0:
192,168,106175,2,0,L|96:144,1,90
296,64,106500,1,0,0:0:0:0:
312,304,106662,1,0,0:0:0:0:
200,272,106824,2,0,L|96:216,1,90
376,192,107148,1,0,0:0:0:0:
224,64,107310,1,0,0:0:0:0:
96,312,107473,1,0,0:0:0:0:
216,184,107635,1,0,0:0:0:0:
352,304,107797,6,0,P|416:240|376:136,1,180
440,336,108283,1,0,0:0:0:0:
400,120,108446,2,0,P|296:80|232:144,1,180
256,280,108932,1,0,0:0:0:0:
256,104,109094,1,0,0:0:0:0:
160,208,109256,1,0,0:0:0:0:
336,152,109418,1,0,0:0:0:0:
120,88,109581,1,0,0:0:0:0:
96,112,109662,1,0,0:0:0:0:
72,136,109743,1,0,0:0:0:0:
120,304,109905,6,0,L|184:288,1,45
264,272,110067,1,0,0:0:0:0:
400,216,110229,2,0,L|336:192,1,45
208,144,110391,1,0,0:0:0:0:
80,104,110554,2,0,L|144:80,1,45
272,48,110716,1,0,0:0:0:0:
432,128,110878,6,0,L|392:160,1,45
368,176,111040,2,0,L|320:208,1,45
304,224,111202,2,0,L|256:264,1,45
240,272,111364,2,0,P|120:256|128:136,1,225
312,104,112013,5,0,0:0:0:0:
432,192,112175,2,0,L|360:280,1,90
240,48,112500,2,0,L|144:128,1,90
120,288,112824,1,0,0:0:0:0:
232,88,112986,6,0,P|344:96|352:176,1,180
216,304,113473,1,0,0:0:0:0:
104,176,113635,2,0,P|120:104|232:112,1,180
336,288,114121,1,0,0:0:0:0:
296,80,114283,5,0,0:0:0:0:
256,288,114446,1,0,0:0:0:0:
144,72,114608,5,0,0:0:0:0:
144,304,114770,1,0,0:0:0:0:
80,224,114932,5,0,0:0:0:0:
112,192,115013,1,0,0:0:0:0:
144,160,115094,1,0,0:0:0:0:
184,136,115175,1,0,0:0:0:0:
224,120,115256,1,0,0:0:0:0:
264,104,115337,1,0,0:0:0:0:
304,120,115418,1,0,0:0:0:0:
344,144,115500,1,0,0:0:0:0:
376,176,115581,6,0,P|392:248|160:288,1,360
192,224,116391,2,0,L|272:168,1,90
112,144,116716,2,0,L|32:88,1,90
176,56,117040,2,0,L|272:16,1,90
384,80,117364,2,0,L|456:144,1,90
416,216,117689,2,0,L|432:320,1,90
296,312,118013,5,0,0:0:0:0:
192,176,118175,1,0,0:0:0:0:
336,96,118337,1,0,0:0:0:0:
192,272,118500,1,0,0:0:0:0:
368,264,118662,1,0,0:0:0:0:
192,72,118824,1,0,0:0:0:0:
128,240,118986,1,0,0:0:0:0:
360,176,119148,1,0,0:0:0:0:
216,144,119310,2,0,L|120:160,2,90
392,88,119797,1,0,0:0:0:0:
392,280,120121,5,0,0:0:0:0:
224,192,120283,1,0,0:0:0:0:
392,96,120446,1,0,0:0:0:0:
80,56,120770,5,0,0:0:0:0:
128,96,120932,1,0,0:0:0:0:
208,168,121094,1,0,0:0:0:0:
312,248,121256,1,0,0:0:0:0:
408,320,121418,1,0,0:0:0:0:
264,200,121581,1,0,0:0:0:0:
368,288,121743,1,0,0:0:0:0:
184,128,121905,1,0,0:0:0:0:
304,240,122067,2,0,L|384:304,1,67.5000025749208
160,96,122229,2,0,L|232:160,1,67.5000025749208
264,192,122391,5,0,0:0:0:0:
304,168,122473,1,0,0:0:0:0:
296,120,122554,1,0,0:0:0:0:
256,104,122635,1,0,0:0:0:0:
216,112,122716,1,0,0:0:0:0:
184,136,122797,1,0,0:0:0:0:
160,168,122878,1,0,0:0:0:0:
152,208,122959,1,0,0:0:0:0:
168,248,123040,1,0,0:0:0:0:
200,272,123121,1,0,0:0:0:0:
240,288,123202,1,0,0:0:0:0:
416,280,123364,5,0,0:0:0:0:
400,136,123527,1,0,0:0:0:0:
296,216,123689,1,0,0:0:0:0:
264,48,123851,1,0,0:0:0:0:
160,160,124013,2,0,L|64:192,1,90
240,304,124337,5,0,0:0:0:0:
56,336,124500,1,0,0:0:0:0:
216,200,124662,2,0,L|176:120,1,90
360,224,124986,1,0,0:0:0:0:
184,312,125148,1,0,0:0:0:0:
336,128,125310,2,0,L|288:48,1,90
136,128,125635,5,0,0:0:0:0:
304,272,125797,1,0,0:0:0:0:
256,48,125959,5,0,0:0:0:0:
48,200,126121,1,0,0:0:0:0:
224,184,126283,5,0,0:0:0:0:
416,336,126446,1,0,0:0:0:0:
288,88,126608,5,0,0:0:0:0:
88,264,126770,1,0,0:0:0:0:
440,256,126932,2,0,L|368:176,1,90
248,64,127256,2,0,L|168:128,1,90
128,272,127581,2,0,L|224:320,1,90
408,176,127905,2,0,L|360:80,1,90
424,312,128229,6,0,L|304:312,1,90
168,312,128554,1,0,0:0:0:0:
120,128,128716,1,0,0:0:0:0:
96,96,128797,1,0,0:0:0:0:
64,72,128878,1,0,0:0:0:0:
352,112,129040,5,0,0:0:0:0:
376,80,129121,1,0,0:0:0:0:
416,72,129202,1,0,0:0:0:0:
56,352,129364,5,0,0:0:0:0:
96,304,129446,1,0,0:0:0:0:
144,264,129527,2,0,P|192:240|272:320,1,180
64,136,130013,1,0,0:0:0:0:
184,40,130175,1,0,0:0:0:0:
128,240,130337,1,0,0:0:0:0:
304,96,130500,1,0,0:0:0:0:
376,256,130662,2,0,L|288:200,1,90
72,336,130986,5,0,0:0:0:0:
288,288,131148,1,0,0:0:0:0:
152,128,131310,1,0,0:0:0:0:
160,136,131391,1,0,0:0:0:0:
168,144,131473,1,0,0:0:0:0:
424,144,131635,5,0,0:0:0:0:
288,48,131797,1,0,0:0:0:0:
224,288,131959,1,0,0:0:0:0:
216,296,132040,1,0,0:0:0:0:
208,304,132121,1,0,0:0:0:0:
112,176,132283,1,0,0:0:0:0:
224,104,132446,1,0,0:0:0:0:
336,176,132608,1,0,0:0:0:0:
288,296,132770,1,0,0:0:0:0:
136,296,132932,1,0,0:0:0:0:
144,200,133094,6,0,L|112:152,1,45
320,128,133256,2,0,L|352:88,1,45
392,216,133418,2,0,L|320:240,1,45
240,344,133581,2,0,L|184:320,1,45
128,272,133743,6,0,P|96:208|312:96,1,360
416,72,134554,6,0,L|504:8,1,90
368,208,134878,2,0,L|456:136,1,90
336,320,135202,2,0,L|256:240,1,90
464,352,135527,2,0,L|472:232,1,90
360,256,135851,1,0,0:0:0:0:
176,312,136013,1,0,0:0:0:0:
328,184,136175,1,0,0:0:0:0:
72,136,136337,2,0,P|144:64|248:80,1,180
88,96,136824,5,0,0:0:0:0:
120,304,136986,2,0,P|240:272|248:192,1,180
432,72,137473,5,0,0:0:0:0:
144,56,137635,5,0,0:0:0:0:
376,336,137959,5,0,0:0:0:0:
64,272,138283,5,0,0:0:0:0:
128,192,138446,1,0,0:0:0:0:
184,320,138608,1,0,0:0:0:0:
216,224,138932,5,0,0:0:0:0:
256,144,139094,1,0,0:0:0:0:
288,240,139256,1,0,0:0:0:0:
168,144,139418,1,0,0:0:0:0:
344,200,139581,1,0,0:0:0:0:
160,264,139743,1,0,0:0:0:0:
272,96,139905,1,0,0:0:0:0:
304,288,140067,1,0,0:0:0:0:
144,120,140229,1,0,0:0:0:0:
392,176,140391,1,0,0:0:0:0:
136,304,140554,1,0,0:0:0:0:
256,80,140716,1,0,0:0:0:0:
336,320,140878,5,0,0:0:0:0:
88,192,141040,1,0,0:0:0:0:
376,96,141202,1,0,0:0:0:0:
104,32,141364,1,0,0:0:0:0:
112,48,141527,2,0,L|192:64,1,45
344,104,141689,2,0,L|280:128,1,45
136,200,141851,2,0,L|208:216,1,45
384,272,142013,2,0,L|312:288,1,45
96,304,142175,2,0,L|176:336,1,45
376,360,142337,2,0,L|304:344,1,45
256,320,142500,5,0,0:0:0:0:
256,104,142662,1,0,0:0:0:0:
256,192,142824,12,0,144121,0:0:0:0:
96,64,144283,5,0,0:0:0:0:
144,144,144446,1,0,0:0:0:0:
80,88,144608,2,0,L|8:24,1,72
216,64,144932,5,0,0:0:0:0:
304,48,145094,1,0,0:0:0:0:
280,136,145256,1,0,0:0:0:0:
376,144,145418,1,0,0:0:0:0:
432,48,145581,1,0,0:0:0:0:
464,160,145743,1,0,0:0:0:0:
456,296,145905,2,0,L|368:328,1,72
248,336,146229,1,0,0:0:0:0:
88,320,146391,5,0,0:0:0:0:
192,280,146554,1,0,0:0:0:0:
80,200,146716,1,0,0:0:0:0:
208,120,146878,1,0,0:0:0:0:
56,64,147040,1,0,0:0:0:0:
48,264,147202,2,0,L|64:336,1,72
176,336,147527,5,0,0:0:0:0:
240,216,147689,2,0,L|184:136,1,72
400,216,148013,1,0,0:0:0:0:
200,312,148175,1,0,0:0:0:0:
384,144,148337,2,0,L|328:80,1,72
456,200,148662,5,0,0:0:0:0:
392,304,148824,1,0,0:0:0:0:
272,304,148986,2,0,L|176:192,1,144
120,128,149635,1,0,0:0:0:0:
64,56,149959,1,0,0:0:0:0:
120,128,150283,5,0,0:0:0:0:
64,56,150446,1,0,0:0:0:0:
192,200,150608,1,0,0:0:0:0:
64,56,150932,1,0,0:0:0:0:
80,240,151094,2,0,L|112:272,2,36
216,312,151418,1,0,0:0:0:0:
416,320,151581,1,0,0:0:0:0:
256,192,151662,12,0,153202,0:0:0:0:
416,80,153364,6,0,L|400:136,2,36
432,248,153689,6,0,L|376:256,2,36
272,336,154013,6,0,L|240:288,2,36
112,296,154337,1,0,0:0:0:0:
344,288,154500,6,0,P|400:208|384:136,1,144
256,328,154986,1,0,0:0:0:0:
112,288,155148,1,0,0:0:0:0:
288,256,155310,1,0,0:0:0:0:
152,168,155473,2,0,L|208:240,1,72
240,96,155797,5,0,0:0:0:0:
64,168,155959,1,0,0:0:0:0:
96,48,156121,2,0,L|152:112,1,72
328,112,156446,1,0,0:0:0:0:
448,192,156608,1,0,0:0:0:0:
440,56,156770,2,0,L|384:120,1,72
464,248,157094,5,0,0:0:0:0:
408,328,157256,1,0,0:0:0:0:
352,240,157418,2,0,L|272:240,1,72
248,328,157743,2,0,L|168:312,1,72
168,208,158067,5,0,0:0:0:0:
72,264,158229,1,0,0:0:0:0:
80,80,158391,2,0,L|168:104,1,72
224,192,158716,2,0,L|304:168,1,72
368,72,159040,2,0,L|440:120,1,72
416,264,159364,1,0,0:0:0:0:
168,320,159689,1,0,0:0:0:0:
128,296,160013,5,0,0:0:0:0:
288,152,160337,5,0,0:0:0:0:
88,256,160662,5,0,0:0:0:0:
256,96,160986,5,0,0:0:0:0:
48,216,161310,5,0,0:0:0:0:
288,264,161635,5,0,0:0:0:0:
176,96,161959,2,0,B|304:80|384:160|352:240|256:224|256:224|448:304|464:272|480:128|464:112|368:48,1,720
80,80,163743,5,0,0:0:0:0:
96,112,163824,1,0,0:0:0:0:
112,144,163905,1,0,0:0:0:0:
304,200,164067,2,0,L|264:224,1,36
184,288,164229,1,0,0:0:0:0:
360,336,164391,1,0,0:0:0:0:
400,320,164473,1,0,0:0:0:0:
432,296,164554,1,0,0:0:0:0:
160,184,164716,5,0,0:0:0:0:
376,48,164878,5,0,0:0:0:0:
256,192,164959,12,0,170067,0:0:0:0:
256,192,170148,12,0,175256,0:0:0:0:
256,144,186932,5,0,0:0:0:0:
104,80,187256,2,0,P|96:144|144:192,1,108
136,192,187581,1,0,0:0:0:0:
224,312,187743,1,0,0:0:0:0:
64,336,187905,1,0,0:0:0:0:
312,344,188067,1,0,0:0:0:0:
168,280,188229,2,0,L|240:232,1,72
264,176,188554,5,0,0:0:0:0:
160,96,188716,1,0,0:0:0:0:
144,224,188878,2,0,L|88:296,1,72
104,104,189202,2,0,L|40:168,1,72
160,80,189527,2,0,P|256:48|304:48,1,144
344,88,190013,2,0,P|400:144|384:200,1,144
216,280,190500,2,0,P|96:280|80:264,1,144
328,336,190986,5,0,0:0:0:0:
424,168,191148,1,0,0:0:0:0:
272,48,191310,1,0,0:0:0:0:
312,32,191391,1,0,0:0:0:0:
352,16,191473,1,0,0:0:0:0:
144,96,191635,1,0,0:0:0:0:
40,32,191797,1,0,0:0:0:0:
256,304,192121,5,0,0:0:0:0:
384,280,192283,1,0,0:0:0:0:
416,144,192446,2,0,L|352:72,1,72
328,40,192770,2,0,L|272:120,1,72
272,168,193094,2,0,L|416:152,1,144
336,48,193581,1,0,0:0:0:0:
240,128,193743,1,0,0:0:0:0:
152,48,193905,1,0,0:0:0:0:
40,48,194067,2,0,L|64:136,2,72
288,112,194554,1,0,0:0:0:0:
64,256,194716,6,0,P|176:304|216:288,1,144
424,136,195202,2,0,P|376:88|288:72,1,144
144,64,195689,2,0,P|80:112|80:184,1,144
312,120,196175,1,0,0:0:0:0:
424,256,196337,1,0,0:0:0:0:
408,280,196418,1,0,0:0:0:0:
392,304,196500,1,0,0:0:0:0:
456,184,196662,1,0,0:0:0:0:
312,352,196824,1,0,0:0:0:0:
480,352,196986,1,0,0:0:0:0:
88,192,197310,5,0,0:0:0:0:
312,72,197635,2,0,L|384:128,1,72
352,224,197959,2,0,L|280:280,1,72
192,288,198283,2,0,L|104:296,1,72
32,336,198608,1,0,0:0:0:0:
40,232,198770,1,0,0:0:0:0:
56,112,198932,1,0,0:0:0:0:
128,48,199094,2,0,L|208:40,1,72
64,152,199418,2,0,L|40:240,1,72
40,40,199743,1,0,0:0:0:0:
128,104,199905,6,0,L|264:192,1,144
456,336,200391,2,0,L|336:240,1,144
432,184,200878,1,0,0:0:0:0:
248,304,201040,1,0,0:0:0:0:
224,112,201202,1,0,0:0:0:0:
352,240,201364,2,0,L|320:216,1,36
432,304,201527,1,0,0:0:0:0:
272,264,201689,5,0,0:0:0:0:
320,128,201851,1,0,0:0:0:0:
160,200,202013,1,0,0:0:0:0:
208,56,202175,1,0,0:0:0:0:
112,208,202500,2,0,P|184:152|208:152,1,108
232,168,202824,2,0,P|256:224|296:232,1,72
256,192,203067,12,0,205094,0:0:0:0:
176,264,205418,5,0,0:0:0:0:
256,104,205581,1,0,0:0:0:0:
328,264,205743,1,0,0:0:0:0:
312,72,205905,1,0,0:0:0:0:
136,208,206067,1,0,0:0:0:0:
328,312,206229,1,0,0:0:0:0:
384,64,206391,2,0,L|320:136,1,72
144,208,206716,2,0,L|248:192,1,72
376,320,207040,2,0,L|336:232,1,72
120,104,207364,5,0,0:0:0:0:
152,80,207446,1,0,0:0:0:0:
192,64,207527,1,0,0:0:0:0:
232,56,207608,1,0,0:0:0:0:
272,48,207689,2,0,L|328:48,1,53.9999983520508
424,88,207851,5,0,0:0:0:0:
376,216,208013,1,0,0:0:0:0:
456,288,208175,1,0,0:0:0:0:
376,88,208337,1,0,0:0:0:0:
328,248,208500,1,0,0:0:0:0:
472,312,208662,1,0,0:0:0:0:
376,64,208824,1,0,0:0:0:0:
304,280,208986,1,0,0:0:0:0:
496,352,209148,1,0,0:0:0:0:
288,56,209310,5,0,0:0:0:0:
328,320,209473,1,0,0:0:0:0:
496,160,209635,1,0,0:0:0:0:
224,280,209797,1,0,0:0:0:0:
456,88,209959,1,0,0:0:0:0:
224,336,210121,1,0,0:0:0:0:
136,240,210283,5,0,0:0:0:0:
168,216,210364,1,0,0:0:0:0:
192,184,210446,1,0,0:0:0:0:
192,144,210527,1,0,0:0:0:0:
160,120,210608,1,0,0:0:0:0:
144,80,210689,1,0,0:0:0:0:
168,48,210770,1,0,0:0:0:0:
208,40,210851,1,0,0:0:0:0:
248,48,210932,1,0,0:0:0:0:
288,40,211013,1,0,0:0:0:0:
328,48,211094,1,0,0:0:0:0:
376,96,211175,5,0,0:0:0:0:
392,152,211256,1,0,0:0:0:0:
384,208,211337,1,0,0:0:0:0:
360,264,211418,1,0,0:0:0:0:
320,304,211500,1,0,0:0:0:0:
264,320,211581,1,0,0:0:0:0:
208,304,211662,1,0,0:0:0:0:
152,288,211743,1,0,0:0:0:0:
112,240,211824,1,0,0:0:0:0:
88,184,211905,1,0,0:0:0:0:
88,120,211986,1,0,0:0:0:0:
88,120,212067,1,0,0:0:0:0:
88,120,212148,1,0,0:0:0:0:
120,128,212229,6,0,L|184:160,1,53.9999983520508
288,96,212391,2,0,L|344:64,1,53.9999983520508
408,176,212554,6,0,P|416:256|352:328,1,161.999995056153
336,320,212878,2,0,P|216:288|232:176,1,215.999993408203
120,304,213364,1,0,0:0:0:0:
144,192,213527,1,0,0:0:0:0:
40,312,213689,1,0,0:0:0:0:
48,160,213851,1,0,0:0:0:0:
176,256,214013,2,0,L|96:248,1,72
440,336,214500,5,0,0:0:0:0:
344,256,214662,2,0,L|304:192,1,72
432,144,214986,2,0,L|464:80,1,72
248,96,215473,2,0,P|160:56|120:96,1,144
296,136,215959,2,0,L|376:96,1,72
344,224,216283,2,0,L|416:280,1,72
440,80,216608,1,0,0:0:0:0:
280,32,216770,1,0,0:0:0:0:
80,72,217094,5,0,0:0:0:0:
80,72,217175,1,0,0:0:0:0:
80,72,217256,1,0,0:0:0:0:
72,224,217418,1,0,0:0:0:0:
72,224,217500,1,0,0:0:0:0:
72,224,217581,1,0,0:0:0:0:
256,296,217743,1,0,0:0:0:0:
400,320,217905,1,0,0:0:0:0:
432,240,218067,2,0,L|376:88,1,144
440,40,218716,5,0,0:0:0:0:
272,160,218878,1,0,0:0:0:0:
128,64,219040,2,0,L|48:96,1,72
40,192,219364,5,0,0:0:0:0:
256,48,219689,5,0,0:0:0:0:
472,224,220013,5,0,0:0:0:0:
96,336,220337,5,0,0:0:0:0:
248,56,220662,5,0,0:0:0:0:
416,344,220986,5,0,0:0:0:0:
112,112,221310,5,0,0:0:0:0:
384,104,221635,5,0,0:0:0:0:
248,304,221959,5,0,0:0:0:0:
272,88,222283,5,0,0:0:0:0:
112,256,222608,5,0,0:0:0:0:
312,240,222932,5,0,0:0:0:0:
192,136,223256,5,0,0:0:0:0:
216,240,223581,5,0,0:0:0:0:
288,152,223905,5,0,0:0:0:0:
272,240,224229,5,0,0:0:0:0:
232,176,224554,5,0,0:0:0:0:
240,208,224878,5,0,0:0:0:0:
280,168,225202,5,0,0:0:0:0:
256,192,225527,5,0,0:0:0:0:
256,192,225851,5,0,0:0:0:0:
296,168,225932,1,0,0:0:0:0:
288,128,226013,1,0,0:0:0:0:
248,112,226094,1,0,0:0:0:0:
208,120,226175,1,0,0:0:0:0:
184,152,226256,1,0,0:0:0:0:
168,192,226337,1,0,0:0:0:0:
184,232,226418,1,0,0:0:0:0:
216,256,226500,1,0,0:0:0:0:
248,280,226581,1,0,0:0:0:0:
288,272,226662,1,0,0:0:0:0:
320,248,226743,1,0,0:0:0:0:
304,136,226824,6,0,L|240:72,1,67.5000025749208
112,192,226986,2,0,L|80:264,1,67.5000025749208
256,192,227148,12,0,228121,0:0:0:0:
368,312,228446,6,0,B|344:216|248:240|248:208|224:136|128:144|120:152|56:120|96:208,1,360
144,312,229256,1,0,0:0:0:0:
272,192,229418,1,0,0:0:0:0:
352,320,229581,1,0,0:0:0:0:
408,216,229743,2,0,L|464:136,1,90
336,120,230067,2,0,L|272:48,1,90
144,80,230391,2,0,L|64:120,1,90
320,304,230716,6,0,P|400:288|408:176,1,180
168,112,231202,1,0,0:0:0:0:
64,216,231364,1,0,0:0:0:0:
280,328,231527,5,0,0:0:0:0:
224,104,231689,2,0,P|96:112|88:152,1,180
416,264,232175,1,0,0:0:0:0:
216,208,232337,5,0,0:0:0:0:
296,152,232500,1,0,0:0:0:0:
160,240,232662,1,0,0:0:0:0:
352,112,232824,1,0,0:0:0:0:
96,264,232986,1,0,0:0:0:0:
416,104,233148,1,0,0:0:0:0:
352,264,233310,6,0,L|424:320,1,90
128,112,233635,2,0,L|56:40,1,90
344,120,233959,2,0,L|416:64,1,90
424,336,234283,1,0,0:0:0:0:
168,264,234446,1,0,0:0:0:0:
168,272,234527,1,0,0:0:0:0:
168,280,234608,2,0,P|128:320|56:192,1,270
160,120,235256,5,0,0:0:0:0:
288,88,235418,1,0,0:0:0:0:
400,168,235581,1,0,0:0:0:0:
384,256,235743,1,0,0:0:0:0:
256,312,235905,1,0,0:0:0:0:
120,240,236067,1,0,0:0:0:0:
280,80,236229,6,0,P|352:128|344:224,1,180
88,200,236716,1,0,0:0:0:0:
304,336,236878,2,0,P|384:288|368:208,1,180
200,128,237364,1,0,0:0:0:0:
336,184,237527,1,0,0:0:0:0:
200,288,237689,1,0,0:0:0:0:
200,128,237851,1,0,0:0:0:0:
336,184,238013,1,0,0:0:0:0:
176,296,238175,2,0,L|128:304,1,45
192,104,238337,2,0,L|176:48,1,45
360,168,238500,2,0,L|408:144,3,45
424,160,238824,6,0,P|408:264|168:304,1,360
424,160,239635,1,0,0:0:0:0:
184,312,239797,1,0,0:0:0:0:
408,328,239959,1,0,0:0:0:0:
272,288,240121,2,0,L|168:240,1,90
352,200,240446,2,0,L|328:96,1,90
160,176,240770,2,0,L|48:128,1,90
208,80,241094,2,0,L|152:-16,1,90
72,168,241418,6,0,P|80:80|176:56,1,180
336,264,241905,1,0,0:0:0:0:
256,192,242067,1,0,0:0:0:0:
208,104,242229,1,0,0:0:0:0:
296,320,242391,2,0,P|392:304|416:200,1,180
240,248,243040,5,0,0:0:0:0:
208,208,243364,5,0,0:0:0:0:
168,160,243689,5,0,0:0:0:0:
344,128,244013,5,0,0:0:0:0:
304,248,244175,1,0,0:0:0:0:
256,64,244337,5,0,0:0:0:0:
256,296,244500,1,0,0:0:0:0:
152,120,244662,5,0,0:0:0:0:
200,256,244824,1,0,0:0:0:0:
368,192,244986,5,0,0:0:0:0:
144,192,245148,1,0,0:0:0:0:
344,88,245310,1,0,0:0:0:0:
376,112,245391,1,0,0:0:0:0:
400,144,245473,1,0,0:0:0:0:
408,184,245554,1,0,0:0:0:0:
408,224,245635,1,0,0:0:0:0:
392,264,245716,1,0,0:0:0:0:
376,304,245797,1,0,0:0:0:0:
352,336,245878,1,0,0:0:0:0:
304,312,245959,6,0,L|256:256,1,67.5000025749208
152,280,246121,2,0,L|80:240,1,67.5000025749208
240,128,246283,2,0,L|232:56,1,67.5000025749208
80,72,246446,1,0,0:0:0:0:
256,192,246608,5,0,0:0:0:0:
184,232,246770,1,0,0:0:0:0:
144,304,246932,1,0,0:0:0:0:
224,328,247094,1,0,0:0:0:0:
304,328,247256,1,0,0:0:0:0:
360,272,247418,1,0,0:0:0:0:
400,152,247581,1,0,0:0:0:0:
256,80,247743,1,0,0:0:0:0:
96,120,247905,2,0,L|32:208,1,90
192,312,248229,2,0,L|312:296,1,90
408,184,248554,6,0,P|384:96|272:88,1,180
456,64,249202,1,0,0:0:0:0:
208,96,249364,1,0,0:0:0:0:
176,96,249446,1,0,0:0:0:0:
144,96,249527,1,0,0:0:0:0:
40,96,249689,5,0,0:0:0:0:
40,304,249851,1,0,0:0:0:0:
296,304,250013,1,0,0:0:0:0:
328,304,250094,1,0,0:0:0:0:
360,304,250175,1,0,0:0:0:0:
424,192,250337,1,0,0:0:0:0:
208,168,250500,6,0,L|144:96,1,90
296,168,250824,2,0,L|360:96,1,90
144,304,251148,2,0,L|232:224,1,90
368,304,251473,2,0,L|288:232,1,90
104,96,251797,5,0,0:0:0:0:
400,240,251959,1,0,0:0:0:0:
400,240,252040,1,0,0:0:0:0:
400,240,252121,1,0,0:0:0:0:
112,336,252283,1,0,0:0:0:0:
344,336,252446,2,0,L|400:328,1,45
464,312,252608,1,0,0:0:0:0:
96,96,252770,2,0,L|304:64,1,180
408,96,253256,5,0,0:0:0:0:
384,200,253418,1,0,0:0:0:0:
472,160,253581,1,0,0:0:0:0:
288,112,253743,1,0,0:0:0:0:
352,240,253905,1,0,0:0:0:0:
432,96,254067,1,0,0:0:0:0:
256,192,254229,1,0,0:0:0:0:
336,104,254391,2,0,P|216:64|200:96,1,180
352,288,254878,5,0,0:0:0:0:
136,288,255040,2,0,P|120:200|192:168,1,180
384,248,255527,1,0,0:0:0:0:
400,96,255689,1,0,0:0:0:0:
280,248,255851,1,0,0:0:0:0:
96,72,256013,1,0,0:0:0:0:
80,64,256094,1,0,0:0:0:0:
64,56,256175,1,0,0:0:0:0:
120,240,256337,1,0,0:0:0:0:
224,336,256500,2,0,L|328:328,1,90
256,192,256824,5,0,0:0:0:0:
256,192,256986,2,0,B|296:152|264:128|208:128|184:152|160:184|160:240|224:272|280:272|328:264|344:264|352:224|360:184|352:152|352:128,1,360
400,80,257797,1,0,0:0:0:0:
104,72,257959,2,0,P|152:112|128:152,2,90
408,256,258446,2,0,P|376:312|408:328,2,90
112,312,258932,2,0,P|144:272|120:264,2,90
320,248,259418,1,0,0:0:0:0:
96,176,259581,6,0,P|112:88|216:72,1,180
376,112,260067,1,0,0:0:0:0:
112,256,260229,6,0,P|192:328|280:296,1,180
112,88,260716,1,0,0:0:0:0:
256,192,260878,5,0,0:0:0:0:
400,304,261202,5,0,0:0:0:0:
128,312,261527,5,0,0:0:0:0:
120,80,261851,5,0,0:0:0:0:
416,64,262175,5,0,0:0:0:0:
456,88,262337,1,0,0:0:0:0:
368,48,262500,1,0,0:0:0:0:
368,120,262662,1,0,0:0:0:0:
448,24,262824,5,0,0:0:0:0:
456,152,262986,1,0,0:0:0:0:
320,40,263148,1,0,0:0:0:0:
344,168,263310,1,0,0:0:0:0:
480,64,263473,5,0,0:0:0:0:
304,56,263635,1,0,0:0:0:0:
416,192,263797,1,0,0:0:0:0:
456,32,263959,1,0,0:0:0:0:
304,144,264121,5,0,0:0:0:0:
480,128,264283,1,0,0:0:0:0:
320,24,264446,1,0,0:0:0:0:
424,216,264608,1,0,0:0:0:0:
448,40,264770,5,0,0:0:0:0:
272,184,264932,1,0,0:0:0:0:
464,232,265094,1,0,0:0:0:0:
304,40,265256,1,0,0:0:0:0:
280,224,265418,5,0,0:0:0:0:
448,64,265581,1,0,0:0:0:0:
456,272,265743,1,0,0:0:0:0:
240,48,265905,1,0,0:0:0:0:
264,272,266067,6,0,L|224:312,1,36
456,48,266229,2,0,L|496:16,1,36
464,304,266391,2,0,L|488:352,1,36
208,40,266554,2,0,L|168:32,1,36
336,200,266716,1,0,0:0:0:0:
304,168,266797,1,0,0:0:0:0:
248,160,266878,1,0,0:0:0:0:
200,176,266959,1,0,0:0:0:0:
160,216,267040,1,0,0:0:0:0:
104,208,267121,1,0,0:0:0:0:
56,176,267202,1,0,0:0:0:0:
48,120,267283,2,0,L|72:80,1,36
256,192,267446,12,0,269635,0:0:0:0:
368,160,269959,5,0,0:0:0:0:
144,224,270121,1,0,0:0:0:0:
208,80,270283,1,0,0:0:0:0:
304,304,270446,1,0,0:0:0:0:
384,144,270608,5,0,0:0:0:0:
128,240,270770,1,0,0:0:0:0:
192,64,270932,1,0,0:0:0:0:
320,320,271094,1,0,0:0:0:0:
256,192,271256,5,0,0:0:0:0:
288,160,271337,1,0,0:0:0:0:
288,112,271418,1,0,0:0:0:0:
256,80,271500,1,0,0:0:0:0:
208,96,271581,1,0,0:0:0:0:
160,80,271662,1,0,0:0:0:0:
112,64,271743,1,0,0:0:0:0:
80,96,271824,1,0,0:0:0:0:
48,128,271905,2,0,L|32:192,4,53.9999983520508
232,112,272554,5,0,0:0:0:0:
144,288,272716,1,0,0:0:0:0:
368,240,272878,2,0,L|400:176,1,72
304,112,273202,1,0,0:0:0:0:
400,272,273364,1,0,0:0:0:0:
432,128,273527,2,0,L|448:48,1,72
336,32,273851,5,0,0:0:0:0:
256,128,274013,1,0,0:0:0:0:
160,32,274175,1,0,0:0:0:0:
96,128,274337,1,0,0:0:0:0:
64,208,274500,2,0,L|128:272,1,72
192,304,274824,2,0,L|128:368,1,72
256,320,275148,5,0,0:0:0:0:
336,272,275310,1,0,0:0:0:0:
416,144,275473,1,0,0:0:0:0:
384,48,275635,1,0,0:0:0:0:
304,144,275797,2,0,L|224:192,1,72
320,256,276121,2,0,L|256:304,1,72
144,96,276446,2,0,L|80:144,1,72
192,272,276770,5,0,0:0:0:0:
320,224,276932,1,0,0:0:0:0:
192,112,277094,1,0,0:0:0:0:
336,64,277256,1,0,0:0:0:0:
448,160,277418,2,0,L|384:224,1,72
352,272,277743,5,0,0:0:0:0:
304,288,277905,1,0,0:0:0:0:
256,304,278067,1,0,0:0:0:0:
208,320,278229,2,0,L|288:288,1,72
304,144,278554,2,0,L|224:176,1,72
80,304,278878,1,0,0:0:0:0:
256,160,279040,5,0,0:0:0:0:
256,128,279364,5,0,0:0:0:0:
256,80,279689,5,0,0:0:0:0:
256,16,280013,5,0,0:0:0:0:
256,352,280337,5,0,0:0:0:0:
256,272,280662,5,0,0:0:0:0:
144,240,280986,5,0,0:0:0:0:
384,176,281310,1,0,0:0:0:0:
128,48,281635,1,0,0:0:0:0:
288,320,281959,1,0,0:0:0:0:
320,16,282283,1,0,0:0:0:0:
384,112,282446,5,0,0:0:0:0:
240,112,282608,1,0,0:0:0:0:
304,240,282770,1,0,0:0:0:0:
448,208,282932,1,0,0:0:0:0:
400,336,283094,1,0,0:0:0:0:
256,352,283256,2,0,L|160:352,1,72
128,208,283581,2,0,L|48:208,1,72
144,48,283905,5,0,0:0:0:0:
148,52,283986,1,0,0:0:0:0:
152,56,284067,1,0,0:0:0:0:
408,44,284229,1,0,0:0:0:0:
412,48,284310,1,0,0:0:0:0:
416,52,284391,1,0,0:0:0:0:
304,304,284554,1,0,0:0:0:0:
308,308,284635,1,0,0:0:0:0:
312,312,284716,1,0,0:0:0:0:
76,192,284878,5,0,0:0:0:0:
84,196,284959,1,0,0:0:0:0:
92,200,285040,1,0,0:0:0:0:
428,104,285202,5,0,0:0:0:0:
428,104,285283,1,0,0:0:0:0:
428,104,285364,1,0,0:0:0:0:
256,56,285527,5,0,0:0:0:0:
228,88,285608,1,0,0:0:0:0:
200,124,285689,1,0,0:0:0:0:
176,164,285770,1,0,0:0:0:0:
172,208,285851,1,0,0:0:0:0:
200,240,285932,1,0,0:0:0:0:
240,256,286013,1,0,0:0:0:0:
280,268,286094,1,0,0:0:0:0:
320,256,286175,2,0,L|392:216,1,67.5000025749208
116,56,286337,2,0,L|56:144,1,67.5000025749208
132,348,286500,6,0,L|228:332,1,67.5000025749208
412,80,286662,6,0,L|332:56,1,67.5000025749208
256,192,286824,5,0,0:0:0:0:
368,144,288121,6,0,L|156:72,1,180
116,248,288608,5,0,0:0:0:0:
364,316,288770,1,0,0:0:0:0:
388,84,288932,1,0,0:0:0:0:
136,64,289094,2,0,L|32:152,1,135.000005149842
220,192,289418,2,0,L|320:300,1,135.000005149842
100,300,289743,2,0,L|4:400,1,135.000005149842
272,328,290067,5,0,0:0:0:0:
332,304,290148,1,0,0:0:0:0:
392,280,290229,1,0,0:0:0:0:
372,152,290391,1,0,0:0:0:0:
324,112,290473,1,0,0:0:0:0:
284,60,290554,1,0,0:0:0:0:
408,104,290716,6,0,P|392:244|256:252,1,270.000010299683
196,56,291202,1,0,0:0:0:0:
336,304,291364,2,0,P|240:312|72:192,1,270.000010299683
384,224,291851,5,0,0:0:0:0:
224,96,292013,1,0,0:0:0:0:
224,304,292175,1,0,0:0:0:0:
368,64,292337,1,0,0:0:0:0:
180,92,292500,1,0,0:0:0:0:
128,128,292581,1,0,0:0:0:0:
76,164,292662,1,0,0:0:0:0:
312,324,292824,1,0,0:0:0:0:
392,132,292986,6,0,L|240:64,1,135.000005149842
72,156,293310,2,0,L|36:288,1,135.000005149842
176,356,293635,2,0,L|312:360,1,135.000005149842
156,40,293959,1,0,0:0:0:0:
428,32,294121,1,0,0:0:0:0:
472,220,294283,2,0,B|376:248|248:212|248:212|64:72,1,405.000015449525
244,56,294932,5,0,0:0:0:0:
392,176,295094,1,0,0:0:0:0:
240,304,295256,1,0,0:0:0:0:
88,176,295418,1,0,0:0:0:0:
376,52,295581,5,0,0:0:0:0:
380,304,295743,1,0,0:0:0:0:
88,48,295905,2,0,L|88:320,1,270.000010299683
372,192,296391,1,0,0:0:0:0:
104,316,296554,2,0,L|416:316,1,270.000010299683
356,136,297040,5,0,0:0:0:0:
128,220,297202,1,0,0:0:0:0:
356,136,297364,1,0,0:0:0:0:
128,220,297527,1,0,0:0:0:0:
192,60,297689,1,0,0:0:0:0:
184,120,297770,1,0,0:0:0:0:
208,176,297851,1,0,0:0:0:0:
268,192,297932,1,0,0:0:0:0:
328,216,298013,1,0,0:0:0:0:
356,272,298094,1,0,0:0:0:0:
364,336,298175,1,0,0:0:0:0:
76,180,298500,6,0,P|96:96|264:80,1,270.000010299683
384,28,298986,5,0,0:0:0:0:
464,12,299148,1,0,0:0:0:0:
492,124,299310,1,0,0:0:0:0:
416,40,299473,2,0,L|280:112,1,135.000005149842
348,188,299797,2,0,L|252:28,1,135.000005149842
248,240,300121,2,0,L|392:172,1,135.000005149842
140,156,300446,2,0,L|276:248,1,135.000005149842
396,88,300770,5,0,0:0:0:0:
76,196,301094,2,0,L|216:296,2,135.000005149842
432,312,301581,5,0,0:0:0:0:
228,52,301743,2,0,L|104:136,2,135.000005149842
440,108,302229,1,0,0:0:0:0:
360,216,302391,5,0,0:0:0:0:
328,180,302554,1,0,0:0:0:0:
280,240,302716,1,0,0:0:0:0:
232,140,302878,1,0,0:0:0:0:
168,280,303040,1,0,0:0:0:0:
112,80,303202,1,0,0:0:0:0:
64,328,303364,5,0,0:0:0:0:
184,344,303527,6,0,L|340:288,1,135.000005149842
352,272,303851,2,0,L|424:144,1,135.000005149842
256,28,304175,1,0,0:0:0:0:
256,36,304256,1,0,0:0:0:0:
256,44,304337,1,0,0:0:0:0:
256,344,304500,5,0,0:0:0:0:
256,336,304581,1,0,0:0:0:0:
256,328,304662,1,0,0:0:0:0:
460,196,304824,1,0,0:0:0:0:
452,196,304905,1,0,0:0:0:0:
444,196,304986,1,0,0:0:0:0:
404,196,305067,1,0,0:0:0:0:
360,200,305148,1,0,0:0:0:0:
292,200,305229,1,0,0:0:0:0:
216,200,305310,6,0,L|168:132,1,80.9999975280763
376,56,305473,6,0,L|440:120,1,80.9999975280763
328,324,305635,6,0,L|224:292,1,80.9999975280763
64,96,305797,6,0,L|160:56,1,80.9999975280763
444,280,305959,6,0,L|368:216,1,80.9999975280763
96,336,306121,6,0,L|56:244,1,80.9999975280763
256,192,306283,5,0,0:0:0:0:
256,192,306364,12,0,311473,0:0:0:0:
184,92,311635,5,0,0:0:0:0:
152,124,311716,1,0,0:0:0:0:
124,160,311797,1,0,0:0:0:0:
344,304,311959,2,0,L|384:272,2,45
432,72,312283,5,0,0:0:0:0:
400,108,312364,1,0,0:0:0:0:
364,140,312446,2,0,L|216:268,1,180
340,264,312932,1,0,0:0:0:0:
156,76,313094,2,0,L|112:212,1,135
114,204,313418,2,0,P|168:272|224:276,1,135
212,278,313743,2,0,P|288:264|312:176,1,135
360,168,314067,6,0,L|236:312,1,180
124,76,314554,5,0,0:0:0:0:
448,112,314716,2,0,L|384:288,1,180
120,280,315202,1,0,0:0:0:0:
212,112,315364,5,0,0:0:0:0:
320,212,315527,1,0,0:0:0:0:
320,212,315608,1,0,0:0:0:0:
324,216,315689,1,0,0:0:0:0:
88,64,315851,5,0,0:0:0:0:
100,88,315932,1,0,0:0:0:0:
112,112,316013,1,0,0:0:0:0:
408,324,316175,5,0,0:0:0:0:
360,280,316256,1,0,0:0:0:0:
320,232,316337,1,0,0:0:0:0:
176,104,316500,1,0,0:0:0:0:
316,60,316662,6,0,L|424:60,1,90
368,192,316986,1,0,0:0:0:0:
440,248,317148,1,0,0:0:0:0:
344,308,317310,2,0,P|272:296|244:248,1,90
188,200,317635,5,0,0:0:0:0:
272,124,317797,1,0,0:0:0:0:
144,284,317959,2,0,P|96:312|56:284,1,90
56,196,318283,2,0,P|96:172|116:124,1,90
192,52,318608,1,0,0:0:0:0:
300,100,318770,1,0,0:0:0:0:
440,104,318932,5,0,0:0:0:0:
312,160,319094,1,0,0:0:0:0:
328,24,319256,1,0,0:0:0:0:
440,104,319418,1,0,0:0:0:0:
312,160,319581,1,0,0:0:0:0:
328,24,319743,1,0,0:0:0:0:
428,200,319905,5,0,0:0:0:0:
208,80,320067,1,0,0:0:0:0:
68,88,320229,2,0,L|140:172,1,90
232,224,320554,2,0,L|160:300,1,90
56,280,320878,2,0,L|116:364,1,90
264,136,321202,2,0,L|176:216,1,90
348,48,321527,6,0,L|408:152,1,90
132,132,321851,2,0,L|80:224,1,90
320,252,322175,2,0,L|376:344,1,90
152,268,322500,2,0,L|96:348,1,90
256,40,322824,5,0,0:0:0:0:
256,72,322986,1,0,0:0:0:0:
256,124,323148,1,0,0:0:0:0:
256,132,323229,1,0,0:0:0:0:
256,140,323310,1,0,0:0:0:0:
256,148,323391,1,0,0:0:0:0:
232,184,323473,1,0,0:0:0:0:
200,216,323554,1,0,0:0:0:0:
188,260,323635,1,0,0:0:0:0:
176,304,323716,1,0,0:0:0:0:
188,348,323797,1,0,0:0:0:0:
236,352,323878,1,0,0:0:0:0:
280,340,323959,1,0,0:0:0:0:
316,312,324040,1,0,0:0:0:0:
360,264,324121,6,0,L|312:188,1,67.5000025749208
164,128,324283,2,0,L|88:76,1,67.5000025749208
88,320,324446,6,0,L|280:172,1,233.999989288331
384,32,324932,2,0,L|480:128,1,116.999994644165
128,32,325256,2,0,L|16:144,1,116.999994644165
432,240,325581,2,0,P|464:288|400:320,1,116.999994644165
80,240,325905,2,0,P|48:288|112:320,1,116.999994644165
208,144,326229,2,0,L|112:48,1,116.999994644165
304,240,326554,2,0,L|400:336,1,116.999994644165
208,240,326878,6,0,L|112:336,1,116.999994644165
96,128,327202,1,0,0:0:0:0:
96,256,327364,1,0,0:0:0:0:
432,192,327527,2,0,L|288:192,1,116.999994644165
432,64,327851,5,0,0:0:0:0:
432,320,328013,1,0,0:0:0:0:
80,192,328175,2,0,L|208:192,1,116.999994644165
384,80,328500,1,0,0:0:0:0:
128,304,328662,1,0,0:0:0:0:
256,48,328824,5,0,0:0:0:0:
256,336,328986,1,0,0:0:0:0:
128,80,329148,5,0,0:0:0:0:
384,304,329310,1,0,0:0:0:0:
176,192,329473,5,0,0:0:0:0:
256,192,329554,1,0,0:0:0:0:
336,192,329635,1,0,0:0:0:0:
256,96,329797,5,0,0:0:0:0:
256,192,329878,1,0,0:0:0:0:
256,288,329959,1,0,0:0:0:0:
144,192,330121,5,0,0:0:0:0:
256,192,330202,1,0,0:0:0:0:
368,192,330283,1,0,0:0:0:0:
128,112,330446,5,0,0:0:0:0:
112,192,330608,2,0,P|192:288|432:224,1,350.999983932496
464,144,331256,1,0,0:0:0:0:
288,256,331418,5,0,0:0:0:0:
320,48,331581,1,0,0:0:0:0:
144,256,331743,1,0,0:0:0:0:
224,48,331905,1,0,0:0:0:0:
80,144,332067,1,0,0:0:0:0:
208,272,332229,6,0,L|432:192,1,233.999989288331
160,320,332716,1,0,0:0:0:0:
208,48,332878,2,0,L|448:160,1,233.999989288331
160,240,333364,1,0,0:0:0:0:
304,128,333527,5,0,0:0:0:0:
224,256,333689,1,0,0:0:0:0:
208,96,333851,1,0,0:0:0:0:
320,256,334013,1,0,0:0:0:0:
144,256,334175,5,0,0:0:0:0:
368,256,334337,1,0,0:0:0:0:
256,48,334500,1,0,0:0:0:0:
256,368,334824,6,0,B|176:256|320:176|304:128|304:128|240:32|176:48|176:48|144:80,1,467.999978576661
384,272,335797,5,0,0:0:0:0:
144,128,336121,2,0,L|352:256,1,233.999989288331
416,64,336770,2,0,L|208:240,1,233.999989288331
256,336,337418,5,0,0:0:0:0:
128,208,337743,5,0,0:0:0:0:
400,128,338067,5,0,0:0:0:0:
128,32,338391,5,0,0:0:0:0:
320,16,338716,5,0,0:0:0:0:
384,240,339040,5,0,0:0:0:0:
96,272,339364,5,0,0:0:0:0:
144,112,339527,1,0,0:0:0:0:
256,240,339689,1,0,0:0:0:0:
192,224,340013,5,0,0:0:0:0:
288,96,340175,5,0,0:0:0:0:
320,240,340337,5,0,0:0:0:0:
160,96,340500,5,0,0:0:0:0:
144,272,340662,5,0,0:0:0:0:
336,160,340824,5,0,0:0:0:0:
112,160,340986,5,0,0:0:0:0:
256,320,341148,5,0,0:0:0:0:
288,96,341310,5,0,0:0:0:0:
112,224,341473,5,0,0:0:0:0:
336,288,341635,5,0,0:0:0:0:
208,80,341797,5,0,0:0:0:0:
176,288,341959,5,0,0:0:0:0:
384,224,342121,5,0,0:0:0:0:
144,112,342283,5,0,0:0:0:0:
256,304,342446,5,0,0:0:0:0:
384,64,342608,5,0,0:0:0:0:
384,320,342770,1,0,0:0:0:0:
128,320,342932,1,0,0:0:0:0:
128,64,343094,1,0,0:0:0:0:
256,368,343256,1,0,0:0:0:0:
256,184,343418,5,0,0:0:0:0:
256,188,343500,1,0,0:0:0:0:
256,192,343581,1,0,0:0:0:0:
256,192,345202,6,0,B|296:176|284:120|216:96|176:120|124:192|128:236|184:280|240:288|308:280|364:240|376:192|376:164|376:144|372:124|364:112|352:92|336:68|312:52|272:40|236:40|200:32|156:40|128:56|104:64|76:80|60:104|64:136|64:148|56:172|64:208|72:260|96:312|160:332|232:336|276:348|320:348|388:336|424:308|432:300|452:276|464:244|460:232|456:212|456:176|452:152|420:56|344:24,1,1440
256,192,350473,12,0,355581,0:0:0:0:
