osu file format v14

[General]
AudioFilename: audio.mp3
AudioLeadIn: 0
PreviewTime: 78814
Countdown: 0
SampleSet: Soft
StackLeniency: 0.3
Mode: 0
LetterboxInBreaks: 0
WidescreenStoryboard: 1

[Editor]
Bookmarks: 13583,19899,29373,42004,54636,62531,70425,76346,92531
DistanceSpacing: 1.6
BeatDivisor: 4
GridSize: 4
TimelineZoom: 1.2

[Metadata]
Title:TWINKLING
TitleUnicode:TWINKLING
Artist:Nekomata Master feat. Mimi Nyami
ArtistUnicode:猫叉Master feat. ミミニャミ
Creator:yf_bmp
Version:kiryu's Insane
Source:pop'n music ラピストリア
Tags:Pop'n Music Lapistoria Naoyuki Sato PON jubeat prop rhythmin 村川梨衣 後藤真里奈 Rie Murakawa Marina Goto ポップンリズミン rhythmin jubeat plus prop AncuL Firika z1085684963 [Mahua] japanese pop jpop j-pop kiryu video game
BeatmapID:2788180
BeatmapSetID:1346316

[Difficulty]
HPDrainRate:7
CircleSize:4
OverallDifficulty:8
ApproachRate:9
SliderMultiplier:1.92
SliderTickRate:1

[Events]
//Background and Video events
0,0,"BG.jpg",0,0
//Break Periods
//Storyboard Layer 0 (Background)
//Storyboard Layer 1 (Fail)
//Storyboard Layer 2 (Pass)
//Storyboard Layer 3 (Foreground)
//Storyboard Layer 4 (Overlay)
//Storyboard Sound Samples

[TimingPoints]
952,394.736842105263,4,2,89,50,1,0
952,-200,4,2,89,30,0,0
6478,-166.666666666667,4,2,89,30,0,0
6873,-142.857142857143,4,2,89,30,0,0
7267,-125,4,2,89,30,0,0
8846,-125,4,2,89,30,0,0
13188,-111.111111111111,4,2,89,30,0,0
13254,-100,4,2,99,70,0,0
13583,-100,4,2,70,70,0,0
13682,-100,4,2,80,70,0,0
19570,-100,4,2,99,70,0,0
19899,-100,4,2,70,70,0,0
19998,-100,4,2,80,70,0,0
26215,-100,4,2,99,70,0,0
27794,-100,4,2,80,70,0,0
28583,-100,4,2,70,70,0,0
28780,-50,4,2,70,70,0,0
28978,-100,4,2,90,70,0,0
29044,-100,4,2,70,70,0,0
29373,-100,4,2,70,90,0,0
30261,-100,4,2,0,40,0,0
30359,-100,4,2,70,90,0,0
31840,-100,4,2,0,40,0,0
31938,-100,4,2,70,90,0,0
33419,-100,4,2,0,40,0,0
33517,-100,4,2,70,90,0,0
35294,-100,4,1,90,90,0,0
35359,-100,4,2,70,90,0,0
36576,-100,4,2,0,40,0,0
36675,-100,4,2,70,90,0,0
37563,-100,4,2,99,90,0,0
37662,-100,4,2,70,90,0,0
39044,-100,4,2,99,90,0,0
39636,-100,4,2,70,90,0,0
40326,-100,4,2,99,90,0,0
40425,-100,4,2,70,90,0,0
41609,-100,4,2,90,90,0,0
41708,-100,4,2,70,90,0,0
44274,-100,4,2,99,90,0,0
44373,-100,4,2,70,90,0,0
44570,-100,4,2,99,90,0,0
44767,-100,4,2,70,90,0,0
44866,-100,4,2,99,90,0,0
44965,-100,4,2,70,90,0,0
45063,-100,4,2,99,90,0,0
45162,-100,4,2,70,90,0,0
46938,-66.6666666666667,4,2,70,90,0,0
47432,-100,4,2,99,90,0,0
47530,-100,4,2,70,90,0,0
47678,-100,4,2,0,5,0,0
47728,-100,4,2,70,90,0,0
47876,-100,4,2,0,5,0,0
47925,-100,4,2,70,90,0,0
48024,-100,4,2,99,90,0,0
48123,-100,4,2,70,90,0,0
48221,-100,4,2,99,90,0,0
48320,-100,4,2,70,90,0,0
50590,-100,4,2,99,90,0,0
50688,-100,4,2,70,90,0,0
51182,-100,4,2,99,90,0,0
51280,-100,4,2,70,90,0,0
51379,-100,4,2,99,90,0,0
51478,-100,4,2,70,90,0,0
52563,-100,4,2,99,90,0,0
52662,-100,4,2,70,90,0,0
53748,-100,4,2,99,90,0,0
53846,-100,4,2,70,90,0,0
54241,-100,4,2,90,90,0,0
54340,-100,4,2,99,90,0,0
54537,-100,4,2,70,90,0,0
55721,-100,4,2,99,90,0,0
55820,-100,4,2,70,90,0,0
56116,-100,4,2,99,90,0,0
56215,-100,4,2,70,90,0,0
57695,-100,4,2,99,90,0,0
57794,-100,4,2,70,90,0,0
58484,-100,4,2,99,90,0,0
58583,-100,4,2,70,90,0,0
59274,-100,4,2,0,50,0,0
59373,-100,4,2,70,90,0,0
60063,-100,4,2,99,90,0,0
60162,-100,4,2,70,90,0,0
60655,-100,4,2,99,90,0,0
60951,-100,4,2,70,90,0,0
61642,-100,4,2,0,50,0,0
61741,-100,4,2,70,90,0,0
63221,-100,4,2,99,90,0,0
63320,-100,4,2,70,90,0,0
63813,-100,4,2,99,90,0,0
64109,-100,4,2,70,90,0,0
66971,-100,4,2,99,90,0,0
67267,-100,4,2,70,90,0,0
67958,-100,4,2,99,90,0,0
68057,-100,4,2,70,90,0,0
68748,-100,4,2,99,90,0,0
68846,-100,4,2,70,90,0,0
69537,-100,4,2,99,90,0,0
69636,-100,4,2,70,90,0,0
70129,-100,4,2,99,90,0,0
70425,-100,4,2,70,90,0,0
72695,-100,4,2,99,90,0,0
72794,-100,4,2,70,90,0,0
73287,-100,4,2,99,90,0,0
73583,-100,4,2,70,90,0,0
75853,-100,4,2,70,70,0,0
75951,-100,4,2,70,90,0,0
76050,-100,4,2,70,70,0,0
76149,-100,4,2,70,90,0,0
76445,-100,4,2,99,90,0,0
76741,-100,4,2,70,90,0,0
77399,-100,4,2,89,90,0,0
77530,-100,4,2,70,90,0,0
77794,-100,4,2,89,90,0,0
77925,-100,4,2,70,90,0,0
78188,-100,4,2,89,90,0,0
78320,-100,4,2,70,90,0,0
78451,-100,4,2,89,90,0,0
78517,-100,4,2,70,90,0,0
79011,-100,4,2,99,90,0,0
79109,-100,4,2,70,90,0,0
79603,-100,4,2,99,90,0,0
79899,-100,4,2,70,90,0,1
82169,-100,4,2,99,90,0,1
82267,-100,4,2,70,90,0,1
82563,-100,4,2,99,90,0,1
82662,-100,4,2,70,90,0,1
82761,-100,4,2,99,90,0,1
83057,-100,4,2,70,90,0,1
85326,-100,4,2,99,90,0,1
85425,-100,4,2,70,90,0,1
85919,-100,4,2,99,90,0,1
86017,-100,4,2,70,90,0,1
86116,-100,4,2,99,90,0,1
86215,-100,4,2,70,90,0,1
88484,-100,4,2,99,90,0,1
88583,-100,4,2,70,90,0,1
89076,-100,4,2,99,90,0,1
89373,-100,4,2,70,90,0,1
91642,-100,4,2,99,90,0,1
91741,-100,4,2,70,90,0,1
92234,-100,4,2,99,90,0,1
92530,-100,4,2,70,90,0,1
94800,-100,4,2,99,90,0,1
94899,-100,4,2,70,90,0,1
95392,-100,4,2,99,90,0,1
95688,-100,4,2,70,90,0,1
97958,-100,4,2,99,90,0,1
98057,-100,4,2,70,90,0,1
98550,-100,4,2,99,90,0,1
98649,-100,4,2,70,90,0,1
98748,-100,4,2,99,90,0,1
98846,-100,4,2,70,90,0,1
101116,-100,4,2,99,90,0,1
101215,-100,4,2,70,90,0,1
101708,-100,4,2,99,90,0,1
102004,-100,4,2,70,90,0,1
104274,-100,4,2,99,90,0,1
104373,-100,4,2,70,90,0,1
104767,-100,4,2,70,90,0,0
105162,-100,4,2,70,90,0,0
111083,-100,4,2,90,90,0,0
111182,-100,4,2,70,90,0,0
111478,-100,4,2,70,90,0,0
117004,-100,4,2,90,90,0,0
117103,-100,4,2,70,90,0,0
117399,-100,4,2,90,90,0,0
117498,-100,4,2,70,90,0,0

[Colours]
Combo1 : 238,214,45
Combo2 : 255,128,0
Combo3 : 50,201,222
Combo4 : 213,100,165

[HitObjects]
344,216,952,5,2,0:1:0:0:
344,216,1149,1,0,0:1:0:0:
324,344,1346,5,0,0:1:0:0:
324,344,1543,1,0,0:1:0:0:
416,252,1741,5,2,0:2:0:0:
416,252,1938,1,0,0:1:0:0:
287,273,2136,5,0,0:2:0:0:
404,331,2333,1,0,0:1:0:0:
344,216,2530,5,2,0:1:0:0:
276,256,2728,1,0,0:1:0:0:
200,264,2925,1,0,0:1:0:0:
124,248,3123,1,0,0:1:0:0:
148,324,3320,5,2,0:2:0:0:
180,172,3517,2,0,L|186:147,2,16,0|0|0,0:1|0:3|0:3,0:0:0:0:
176,192,3715,1,0,0:2:0:0:
48,232,3912,1,0,0:1:0:0:
72,156,4109,5,2,0:1:0:0:
72,156,4306,1,0,0:1:0:0:
92,28,4503,5,0,0:1:0:0:
92,28,4700,1,0,0:1:0:0:
0,120,4898,5,2,0:2:0:0:
0,120,5095,1,0,0:1:0:0:
129,99,5293,5,2,0:2:0:0:
12,41,5490,1,0,0:1:0:0:
72,156,5688,5,8,0:1:0:0:
72,156,5886,1,0,0:1:0:0:
72,156,6083,6,0,L|68:216,1,48,0|0,0:0|0:1,0:0:0:0:
112,328,6478,6,0,L|115:270,1,57.5999982421876,12|0,0:1|0:1,0:0:0:0:
156,132,6873,6,0,L|151:199,1,67.1999979492188,0|0,0:1|0:1,0:0:0:0:
204,344,7267,6,0,P|244:360|304:360,1,76.8,2|4,0:1|0:3,0:0:0:0:
456,304,7662,2,0,P|424:288|360:288,1,76.8,0|0,0:0|3:3,0:0:0:0:
365,285,7925,1,0,3:3:0:0:
346,291,7991,1,0,3:3:0:0:
332,300,8057,5,2,0:2:0:0:
277,363,8254,2,0,P|220:304|238:224,1,153.6,4|4,0:3|0:3,0:0:0:0:
304,224,8846,5,8,0:1:0:0:
304,224,9044,1,4,0:3:0:0:
432,156,9241,2,0,L|336:164,1,76.8,2|0,0:0|3:1,0:0:0:0:
348,152,9504,1,0,3:3:0:0:
340,140,9570,1,0,3:3:0:0:
332,128,9636,2,0,L|428:136,1,76.8,2|4,0:2|3:3,0:0:0:0:
416,120,9899,1,0,3:3:0:0:
424,108,9965,1,0,3:3:0:0:
432,96,10031,2,0,L|336:104,1,76.8,2|4,0:0|0:3,0:0:0:0:
248,160,10425,6,0,P|260:84|192:28,2,153.6,4|0|2,0:1|0:0|0:2,0:0:0:0:
176,200,11412,2,0,L|24:216,1,153.6,4|4,3:3|0:3,0:0:0:0:
124,128,12004,5,2,0:1:0:0:
153,119,12102,1,0,3:3:0:0:
183,114,12201,1,0,0:1:0:0:
212,276,12399,1,2,0:2:0:0:
40,296,12596,5,0,3:1:0:0:
20,295,12695,1,0,0:0:0:0:
1,291,12793,1,0,0:1:0:0:
100,240,12991,1,4,0:3:0:0:
180,348,13188,2,0,B|82:320|114:403|-16:366,1,172.799994726563,4|4,0:3|0:1,0:0:0:0:
24,216,13780,5,0,0:1:0:0:
176,268,13978,2,0,P|216:260|280:260,1,96,8|2,0:2|0:2,0:0:0:0:
288,272,14241,2,0,L|336:264,2,32,0|0|2,3:0|3:0|0:2,0:0:0:0:
280,384,14570,1,0,1:3:0:0:
444,344,14767,2,0,P|396:335|348:335,1,96,10|0,0:2|0:1,0:0:0:0:
152,340,15162,5,0,1:2:0:0:
176,268,15359,1,2,0:0:0:0:
156,172,15557,1,10,0:2:0:0:
52,112,15754,1,2,0:2:0:0:
76,196,15951,5,2,0:0:0:0:
132,88,16149,1,2,1:2:0:0:
132,88,16215,1,0,3:0:0:0:
132,88,16280,1,0,3:0:0:0:
132,88,16346,1,10,0:2:0:0:
52,112,16544,1,0,0:0:0:0:
156,172,16741,6,0,B|140:128|140:128|176:88,1,96,2|0,1:2|0:1,0:0:0:0:
300,120,17136,2,0,B|316:164|316:164|280:204,1,96,10|0,0:2|0:1,0:0:0:0:
212,232,17399,2,0,L|204:272,2,32,0|0|2,3:3|3:3|3:2,0:0:0:0:
248,48,17728,2,0,L|256:8,2,32,0|0|0,1:0|3:3|3:3,0:0:0:0:
244,68,17925,1,8,0:2:0:0:
300,120,18123,1,2,1:2:0:0:
304,280,18320,5,2,1:2:0:0:
380,308,18517,1,2,0:2:0:0:
296,300,18715,5,10,0:2:0:0:
220,328,18912,1,2,0:2:0:0:
376,344,19109,5,2,0:0:0:0:
476,204,19307,1,8,1:2:0:0:
396,72,19504,6,0,L|370:92,1,32,8|0,0:2|1:3,0:0:0:0:
304,83,19635,2,0,L|333:96,1,32,0|0,1:3|3:2,0:0:0:0:
362,160,19767,2,0,L|358:128,1,32,0|0,1:3|1:3,0:0:0:0:
354,104,19899,6,0,L|138:116,1,192,4|8,0:1|0:2,0:0:0:0:
248,16,20491,6,0,L|284:20,2,32,2|0|0,0:2|3:3|3:3,0:0:0:0:
300,24,20688,1,2,0:0:0:0:
280,184,20886,6,0,L|244:188,2,32,2|0|0,1:2|3:3|3:3,0:0:0:0:
172,196,21083,2,0,P|164:264|164:316,1,96,8|0,0:2|1:1,0:0:0:0:
216,356,21478,5,2,1:2:0:0:
296,344,21675,1,0,0:1:0:0:
424,272,21873,2,0,L|328:268,1,96,10|0,0:2|0:0,0:0:0:0:
472,140,22267,2,0,B|392:152|392:152|372:176|372:176|284:192,1,192,2|10,0:0|0:2,0:0:0:0:
328,268,22859,1,8,1:2:0:0:
256,192,23057,12,2,26215,0:2:0:0:
112,356,26609,5,8,0:0:0:0:
216,344,27004,1,2,0:0:0:0:
216,344,27201,1,0,3:3:0:0:
324,332,27596,1,0,3:3:0:0:
356,260,27794,6,0,P|348:324|348:360,1,96,2|0,0:2|0:3,0:0:0:0:
260,172,28188,2,0,P|268:236|268:272,1,96,2|2,0:0|0:0,0:0:0:0:
200,116,28583,5,0,1:0:0:0:
448,16,28780,2,0,P|416:40|416:-8,1,96,2|0,1:2|3:2,0:0:0:0:
276,92,28978,6,0,B|380:56|352:152|488:104,1,192,0|4,1:0|1:2,0:0:0:0:
392,156,29570,1,10,0:3:0:0:
344,244,29767,5,2,1:2:0:0:
368,356,29965,1,10,0:3:0:0:
440,328,30162,5,0,1:2:0:0:
456,320,30261,1,0,3:3:0:0:
472,312,30359,1,10,0:3:0:0:
496,236,30557,1,2,1:2:0:0:
472,128,30754,1,10,0:3:0:0:
376,48,30951,5,0,1:0:0:0:
420,216,31149,1,10,0:3:0:0:
332,320,31346,1,2,1:2:0:0:
256,349,31544,1,10,0:3:0:0:
240,272,31741,5,0,1:0:0:0:
236,252,31840,1,0,3:0:0:0:
228,232,31938,1,10,0:3:0:0:
168,184,32136,1,2,1:2:0:0:
56,164,32333,1,10,0:3:0:0:
176,172,32530,5,0,1:0:0:0:
252,156,32728,1,10,0:3:0:0:
340,284,32925,1,2,1:2:0:0:
416,308,33123,1,10,0:3:0:0:
432,232,33320,5,0,1:0:0:0:
436,212,33419,1,0,3:0:0:0:
440,192,33517,1,10,0:3:0:0:
420,116,33715,1,2,1:2:0:0:
340,32,33912,1,10,0:3:0:0:
260,28,34109,5,0,1:0:0:0:
291,97,34307,1,10,0:3:0:0:
234,148,34504,1,2,1:2:0:0:
168,110,34701,1,10,0:3:0:0:
185,36,34899,6,0,L|180:112,1,48,2|0,1:2|3:0,0:0:0:0:
176,204,35096,2,0,L|171:280,1,48,10|0,1:3|3:0,0:0:0:0:
120,344,35294,6,0,B|167:337|167:337|213:351,1,96,0|10,1:0|0:3,0:0:0:0:
44,364,35688,5,4,1:2:0:0:
64,288,35886,1,10,0:3:0:0:
172,252,36083,1,2,1:2:0:0:
284,324,36280,1,10,0:3:0:0:
213,351,36478,5,0,1:0:0:0:
204,336,36576,1,0,3:0:0:0:
200,320,36675,1,2,0:3:0:0:
192,244,36873,1,2,1:2:0:0:
264,156,37070,1,10,0:3:0:0:
396,168,37267,5,0,1:0:0:0:
260,276,37465,1,10,0:3:0:0:
260,276,37563,1,0,1:3:0:0:
260,276,37662,1,0,1:0:0:0:
392,248,37859,1,10,0:3:0:0:
476,352,38057,6,0,B|440:276|504:288|460:200,1,144,0|0,1:0|3:0,0:0:0:0:
312,340,38451,2,0,P|392:352|404:384,1,96,2|10,1:2|0:3,0:0:0:0:
466,212,38846,5,0,1:0:0:0:
204,188,39241,2,0,L|396:168,1,192,8|0,3:2|0:3,0:0:0:0:
408,88,39833,1,2,0:3:0:0:
420,8,40030,1,8,0:2:0:0:
344,36,40228,1,2,0:2:0:0:
344,36,40326,1,0,3:0:0:0:
344,36,40425,1,2,0:0:0:0:
468,140,40623,5,2,0:3:0:0:
396,168,40820,1,2,0:2:0:0:
324,200,41017,1,2,3:3:0:0:
388,248,41215,1,2,3:2:0:0:
452,292,41412,1,2,1:3:0:0:
308,352,41609,1,0,1:0:0:0:
308,352,41708,1,2,3:1:0:0:
308,352,41807,1,2,0:3:0:0:
308,352,42004,6,0,B|312:364|312:364|160:352,1,144,4|0,1:2|0:0,0:0:0:0:
160,352,42399,1,4,1:3:0:0:
64,188,42794,5,0,1:3:0:0:
144,180,42991,1,2,0:3:0:0:
220,172,43188,1,4,1:3:0:0:
324,216,43386,5,2,0:0:0:0:
316,220,43484,1,0,3:0:0:0:
308,224,43583,2,0,B|296:232|296:232|308:88,1,144,0|0,1:3|3:0,0:0:0:0:
264,40,43978,5,4,1:3:0:0:
380,60,44175,1,2,0:2:0:0:
380,60,44274,1,0,3:0:0:0:
380,60,44373,1,0,1:3:0:0:
236,72,44570,1,0,3:3:0:0:
88,88,44767,2,0,B|20:96|20:96|28:140,1,96,4|2,1:3|0:2,0:0:0:0:
44,196,45063,1,0,1:3:0:0:
48,212,45162,5,2,1:2:0:0:
48,212,45557,6,0,B|40:224|40:224|216:236,1,144,4|0,1:3|3:0,0:0:0:0:
188,236,45951,1,0,1:3:0:0:
200,308,46149,1,2,0:3:0:0:
208,380,46346,1,4,1:3:0:0:
268,340,46544,6,0,B|284:328|284:328|416:316,1,144,2|0,0:0|3:0,0:0:0:0:
480,344,46938,6,0,B|484:308|484:308|468:256,1,72.0000027465821,2|0,0:0|3:0,0:0:0:0:
360,180,47136,1,4,1:3:0:0:
408,316,47333,1,2,0:2:0:0:
500,200,47530,6,0,B|485:166|485:166|445:129,1,72,2|0,1:2|0:0,0:0:0:0:
445,65,47728,2,0,B|415:43|415:43|362:31,1,72,2|0,1:2|0:0,0:0:0:0:
304,72,47925,1,4,1:3:0:0:
88,52,48123,1,2,1:2:0:0:
80,60,48221,1,0,1:0:0:0:
72,68,48320,1,0,1:3:0:0:
72,68,48715,6,0,B|56:112|56:112|68:180,1,96,4|2,1:3|0:2,0:0:0:0:
244,372,49109,5,0,1:0:0:0:
252,292,49307,1,2,0:3:0:0:
260,212,49504,2,0,B|264:180|264:180|115:205,1,144,4|0,1:3|3:0,0:0:0:0:
128,204,49899,5,0,1:0:0:0:
136,284,50096,1,2,0:3:0:0:
144,364,50294,1,4,1:3:0:0:
316,336,50491,1,2,0:3:0:0:
316,336,50590,1,0,1:0:0:0:
316,336,50688,1,0,1:3:0:0:
488,308,50885,1,2,0:3:0:0:
472,384,51083,6,0,B|444:376|444:376|420:344|420:344|394:336,1,96,4|2,1:3|0:2,0:0:0:0:
216,316,51478,2,0,B|240:312|240:312|260:220|260:220|284:214,1,144,2|0,1:2|3:0,0:0:0:0:
304,208,51873,1,4,1:3:0:0:
400,188,52070,5,2,0:3:0:0:
260,144,52267,1,0,1:3:0:0:
368,48,52465,1,2,0:3:0:0:
368,48,52563,1,0,3:0:0:0:
368,48,52662,1,4,1:3:0:0:
304,0,52859,1,2,0:2:0:0:
296,76,53057,5,2,1:2:0:0:
444,68,53254,2,0,P|480:64|500:32,1,48,4|0,1:3|3:0,0:0:0:0:
368,48,53451,1,2,1:2:0:0:
260,144,53649,2,0,P|243:160|219:165,1,48,4|0,0:3|1:3,0:0:0:0:
296,76,53846,5,2,1:2:0:0:
304,0,54044,1,4,0:3:0:0:
368,48,54241,1,0,1:0:0:0:
444,68,54438,2,0,P|480:64|500:32,1,48,0|4,3:0|0:3,0:0:0:0:
200,92,54636,6,0,B|212:88|204:68|196:72|136:36|92:148,1,144,4|0,1:2|3:0,0:0:0:0:
92,152,55030,1,8,1:1:0:0:
220,284,55228,1,2,0:3:0:0:
220,284,55294,1,8,3:3:0:0:
220,284,55359,1,2,3:2:0:0:
220,284,55425,2,0,P|248:236|220:200,1,96,0|2,1:3|2:3,0:0:0:0:
80,280,55721,1,0,3:0:0:0:
12,244,55820,2,0,P|96:236|164:236,1,144,8|0,1:1|1:0,0:0:0:0:
148,312,56215,5,0,1:3:0:0:
292,328,56412,1,2,0:3:0:0:
16,384,56609,1,8,1:1:0:0:
144,328,56807,5,2,0:3:0:0:
280,360,57004,2,0,P|332:364|384:364,1,96,2|2,1:2|0:3,0:0:0:0:
312,232,57267,2,0,L|320:276,1,32,2|2,0:2|0:2,0:0:0:0:
328,284,57399,2,0,P|375:283|423:279,1,96,8|2,1:1|0:3,0:0:0:0:
388,172,57695,1,0,1:0:0:0:
384,200,57794,6,0,P|480:148|292:128,1,480,0|2,1:2|0:3,0:0:0:0:
464,208,58978,1,8,1:1:0:0:
428,56,59175,1,2,0:3:0:0:
428,56,59274,1,0,3:0:0:0:
428,56,59373,1,2,1:2:0:0:
384,124,59570,1,2,0:0:0:0:
312,160,59767,6,0,P|256:160|212:84,1,144,8|0,1:1|1:0,0:0:0:0:
216,68,60162,2,0,P|172:108|128:108,1,96,0|0,1:3|1:0,0:0:0:0:
100,220,60557,6,0,P|88:188|92:156,1,48,8|0,1:0|1:3,0:0:0:0:
52,28,60754,2,0,P|64:60|60:92,1,48,0|0,3:0|1:3,0:0:0:0:
176,264,60951,6,0,P|192:200|228:176,1,96,0|2,1:3|0:3,0:0:0:0:
356,312,61346,2,0,P|268:292|268:220,1,144,8|0,1:1|3:0,0:0:0:0:
272,240,61741,1,0,1:3:0:0:
348,228,61938,1,2,0:3:0:0:
424,216,62136,2,0,B|444:260|444:260|432:312,1,96,8|2,1:1|0:3,0:0:0:0:
452,140,62530,5,0,1:3:0:0:
376,152,62727,1,2,0:3:0:0:
300,164,62925,2,0,B|280:120|280:120|292:68,1,96,8|2,1:1|0:2,0:0:0:0:
296,56,63221,1,0,1:0:0:0:
300,40,63320,6,0,L|452:16,1,144,2|0,1:2|3:0,0:0:0:0:
468,12,63715,2,0,B|488:56|488:56|476:108,1,96,8|0,1:0|3:3,0:0:0:0:
456,176,64109,1,0,1:3:0:0:
264,156,64307,1,2,0:3:0:0:
343,333,64504,2,0,B|312:336|312:336|308:344|308:344|156:360,1,192,8|2,1:0|1:2,0:0:0:0:
420,340,65096,6,0,L|411:379,2,32,2|2|2,1:3|0:2|0:0,0:0:0:0:
387,270,65294,2,0,B|433:255|433:255|492:295,1,96,8|2,1:1|0:3,0:0:0:0:
268,312,65688,5,0,1:3:0:0:
320,224,65886,1,2,0:2:0:0:
240,304,66083,5,8,1:1:0:0:
88,316,66280,1,2,0:3:0:0:
88,316,66379,1,2,0:0:0:0:
88,316,66478,1,0,1:3:0:0:
224,276,66675,1,0,1:0:0:0:
228,112,66873,1,8,1:0:0:0:
404,64,67070,2,0,L|468:68,1,48,0|0,3:0|1:3,0:0:0:0:
472,68,67267,6,0,L|464:232,1,144,4|0,1:2|3:0,0:0:0:0:
464,232,67662,1,8,1:1:0:0:
380,352,67859,1,2,0:3:0:0:
380,352,67958,1,0,3:0:0:0:
380,352,68057,2,0,P|372:276|364:236,1,96,0|2,1:2|0:3,0:0:0:0:
276,320,68451,2,0,P|184:252|132:284,1,144,8|0,1:1|1:0,0:0:0:0:
96,288,68846,5,0,1:3:0:0:
196,332,69044,1,2,0:3:0:0:
88,264,69241,5,8,1:1:0:0:
248,228,69438,1,2,0:3:0:0:
72,244,69636,1,2,1:2:0:0:
224,116,69833,1,2,0:3:0:0:
224,116,69899,1,2,0:0:0:0:
224,116,69965,1,2,0:0:0:0:
224,116,70030,2,0,L|232:64,2,48,8|0|0,1:0|1:0|3:0,0:0:0:0:
176,188,70326,1,0,1:0:0:0:
176,188,70425,6,0,P|52:264|248:284,1,480,0|2,1:0|0:3,0:0:0:0:
28,120,71609,2,0,P|32:188|44:244,1,96,8|2,1:1|0:3,0:0:0:0:
136,280,72004,5,2,1:2:0:0:
240,224,72201,1,2,0:2:0:0:
152,72,72399,2,0,P|144:119|143:167,1,96,8|2,1:1|0:3,0:0:0:0:
143,167,72695,1,0,1:0:0:0:
143,167,72794,1,0,1:0:0:0:
352,184,72991,1,2,1:3:0:0:
288,28,73188,2,0,P|260:112|252:164,1,96,8|0,1:1|3:1,0:0:0:0:
258,119,73484,1,0,1:0:0:0:
258,119,73583,1,0,1:3:0:0:
352,360,73978,5,8,1:0:0:0:
432,72,74373,6,0,P|412:44|416:96,1,144,2|0,1:2|3:0,0:0:0:0:
484,132,74767,2,0,P|508:64|480:4,1,96,8|2,1:1|0:3,0:0:0:0:
416,176,75162,5,0,1:3:0:0:
312,120,75359,1,2,0:3:0:0:
256,16,75557,2,0,B|228:56|228:56|152:64,1,96,8|0,1:1|1:0,0:0:0:0:
128,120,75853,2,0,B|100:80|100:80|24:72,1,96,4|4,0:3|0:3,0:0:0:0:
0,132,76149,1,0,1:0:0:0:
208,264,76346,6,0,B|24:220|24:220|192:188|192:188|244:60|244:60|288:172|288:172|356:160|356:160|312:232|312:232|340:320|340:320|256:292|256:292|176:376|176:376|200:288,1,1152,4|8,1:2|0:2,0:0:0:0:
276,380,79109,5,0,1:3:0:0:
396,244,79307,1,4,1:3:0:0:
336,80,79504,1,8,1:1:0:0:
336,80,79899,6,0,B|420:96|388:36|488:48,1,144,4|0,1:2|3:0,0:0:0:0:
460,128,80294,2,0,P|480:172|468:232,1,96,8|2,1:1|0:3,0:0:0:0:
316,156,80688,2,0,P|344:116|402:97,1,96,0|2,1:0|0:3,0:0:0:0:
460,128,80951,1,8,0:3:0:0:
460,128,81017,1,8,0:3:0:0:
460,128,81083,1,8,1:0:0:0:
436,336,81280,6,0,P|372:272|412:172,1,192,2|2,0:3|0:3,0:0:0:0:
256,100,81873,1,8,1:1:0:0:
114,182,82070,2,0,P|140:270|76:336,1,192,2|2,0:3|0:3,0:0:0:0:
76,335,82563,1,0,3:0:0:0:
76,335,82662,1,8,1:1:0:0:
224,268,82859,1,0,3:0:0:0:
36,160,83057,6,0,B|52:76|-8:108|4:8,1,144,0|0,1:0|3:0,0:0:0:0:
80,36,83451,2,0,P|140:32|176:0,1,96,8|2,1:0|0:3,0:0:0:0:
208,184,83846,2,0,P|148:180|112:148,1,96,0|2,1:0|0:3,0:0:0:0:
180,104,84109,1,8,0:3:0:0:
180,104,84175,1,8,0:3:0:0:
180,104,84241,1,8,1:0:0:0:
260,120,84438,6,0,P|344:52|440:92,1,192,2|2,0:3|0:3,0:0:0:0:
468,304,85030,1,8,1:1:0:0:
288,196,85228,1,2,0:3:0:0:
288,196,85326,1,0,1:0:0:0:
288,196,85425,2,0,P|348:200|384:232,1,96,0|2,1:3|0:3,0:0:0:0:
336,360,85820,2,0,P|336:312|311:272,1,96,8|2,1:1|1:3,0:0:0:0:
256,336,86215,6,0,B|172:320|204:380|104:368,1,144,4|0,1:2|3:0,0:0:0:0:
128,348,86609,2,0,P|52:336|16:300,1,96,8|2,1:1|0:3,0:0:0:0:
72,180,87004,2,0,P|148:192|184:228,1,96,0|2,1:0|0:3,0:0:0:0:
170,281,87267,1,8,0:3:0:0:
170,281,87333,1,8,0:3:0:0:
170,281,87399,1,8,1:0:0:0:
360,264,87596,6,0,P|288:352|208:328,1,192,2|2,0:3|0:3,0:0:0:0:
416,164,88188,1,8,1:1:0:0:
464,240,88386,6,0,P|372:243|326:164,1,192,2|2,0:3|0:3,0:0:0:0:
484,232,88978,2,0,L|480:360,1,96,8|0,1:1|3:3,0:0:0:0:
416,372,89373,5,0,1:0:0:0:
256,260,89767,1,8,1:1:0:0:
96,372,90162,1,4,1:1:0:0:
164,192,90557,5,8,1:1:0:0:
164,192,90754,1,2,0:3:0:0:
32,48,90951,6,0,L|52:160,1,96,4|2,1:2|0:3,0:0:0:0:
256,4,91346,2,0,L|256:124,1,96,10|2,1:1|0:3,0:0:0:0:
480,48,91741,2,0,L|460:160,1,96,2|4,1:2|0:3,0:0:0:0:
456,168,92037,1,2,0:3:0:0:
448,196,92136,1,8,1:1:0:0:
144,344,92333,5,0,3:0:0:0:
136,340,92432,1,0,1:0:0:0:
128,336,92530,1,4,1:2:0:0:
92,268,92728,1,2,0:3:0:0:
124,176,92925,1,8,1:1:0:0:
232,136,93123,1,2,0:3:0:0:
336,220,93320,1,0,1:0:0:0:
308,372,93517,2,0,L|300:336,2,32,2|8|8,0:3|0:3|0:3,0:0:0:0:
296,320,93715,1,8,1:0:0:0:
344,256,93912,6,0,P|416:232|500:308,1,192,2|2,0:3|0:3,0:0:0:0:
436,352,94504,1,8,1:1:0:0:
308,372,94701,1,2,0:3:0:0:
276,364,94800,1,0,1:0:0:0:
248,344,94899,1,0,1:0:0:0:
200,224,95096,1,2,0:3:0:0:
228,112,95294,1,8,1:1:0:0:
288,64,95491,1,0,3:0:0:0:
288,64,95590,1,0,1:0:0:0:
288,64,95688,5,0,1:2:0:0:
296,140,95886,1,2,0:3:0:0:
344,224,96083,1,8,1:0:0:0:
444,280,96280,1,2,0:3:0:0:
404,112,96478,5,8,1:3:0:0:
356,236,96675,2,0,L|320:244,2,32,2|8|8,0:3|0:3|0:3,0:0:0:0:
304,248,96873,1,8,1:0:0:0:
424,376,97070,2,0,P|352:324|244:348,1,192,2|2,0:3|0:3,0:0:0:0:
220,208,97662,1,8,1:1:0:0:
476,160,97859,5,2,0:3:0:0:
484,128,97958,1,0,1:0:0:0:
488,96,98057,1,0,1:3:0:0:
396,200,98254,1,2,0:3:0:0:
388,20,98451,2,0,P|396:92|408:136,1,96,8|2,1:1|1:3,0:0:0:0:
472,252,98846,5,4,1:2:0:0:
400,280,99044,1,2,0:3:0:0:
304,268,99241,1,8,1:0:0:0:
216,192,99438,1,2,0:3:0:0:
84,172,99636,1,8,1:3:0:0:
0,300,99833,2,0,L|32:296,2,32,2|8|8,0:3|0:3|0:3,0:0:0:0:
56,292,100030,1,8,1:0:0:0:
104,356,100228,6,0,P|156:324|144:192,1,192,2|2,0:3|0:3,0:0:0:0:
76,88,100820,1,8,1:0:0:0:
32,156,101017,1,2,0:3:0:0:
56,168,101116,1,0,1:0:0:0:
83,172,101215,1,0,1:3:0:0:
148,124,101412,1,2,0:3:0:0:
220,156,101609,2,0,P|280:104|368:124,1,144,8|0,1:0|1:0,0:0:0:0:
360,120,102004,6,0,P|352:64|312:32,1,96,0|2,1:0|0:3,0:0:0:0:
348,200,102399,2,0,P|303:234|295:285,1,96,8|2,1:0|0:3,0:0:0:0:
424,172,102794,2,0,P|476:193|524:174,1,96,4|2,1:0|0:3,0:0:0:0:
476,108,103188,1,8,1:0:0:0:
348,200,103386,1,2,0:3:0:0:
424,344,103583,6,0,P|433:297|413:255,1,96,4|2,1:2|0:3,0:0:0:0:
296,292,103978,2,0,P|281:247|242:220,1,96,8|2,1:0|0:3,0:0:0:0:
159,310,104373,2,0,P|123:278|76:275,1,96,2|6,1:1|0:3,0:0:0:0:
92,356,104767,1,12,0:3:0:0:
92,356,105162,5,4,1:2:0:0:
76,276,105359,1,2,0:0:0:0:
156,260,105557,1,0,1:0:0:0:
172,340,105754,1,2,0:0:0:0:
236,288,105951,5,2,1:0:0:0:
252,208,106148,1,0,0:3:0:0:
332,224,106346,1,2,1:2:0:0:
316,304,106543,1,0,0:3:0:0:
396,276,106741,5,0,1:0:0:0:
476,292,106938,1,2,0:0:0:0:
492,212,107136,1,0,1:0:0:0:
412,196,107333,1,2,0:0:0:0:
360,132,107530,5,2,1:2:0:0:
440,116,107727,1,0,0:3:0:0:
424,36,107924,1,2,1:2:0:0:
344,52,108122,1,0,0:0:0:0:
284,108,108320,5,0,1:0:0:0:
268,188,108518,1,2,0:0:0:0:
188,172,108715,1,0,1:0:0:0:
204,92,108912,1,2,0:0:0:0:
128,120,109109,5,0,1:0:0:0:
112,40,109307,1,2,0:0:0:0:
32,56,109504,1,2,1:0:0:0:
48,136,109701,1,0,0:0:0:0:
76,284,109899,6,0,B|80:212|80:212|104:196,1,96,0|2,1:0|0:0,0:0:0:0:
212,232,110294,2,0,B|208:304|208:304|184:320,1,96,0|2,1:0|0:3,0:0:0:0:
120,348,110557,2,0,L|117:379,2,32,8|8|2,0:3|0:3|1:0,0:0:0:0:
394,379,110886,6,0,L|392:348,2,32,2|8|8,0:3|0:3|0:3,0:0:0:0:
323,317,111083,2,0,B|304:304|304:304|300:232,1,96,0|0,1:0|1:0,0:0:0:0:
436,284,111478,5,4,1:2:0:0:
256,192,111576,12,2,116215,1:2:0:0:
281,103,116412,6,0,B|292:72|292:72|133:60,1,192,2|2,0:3|1:3,0:0:0:0:
52,52,117004,6,0,L|40:80,1,24,0|0,1:0|0:0,0:0:0:0:
168,40,117201,1,4,0:3:0:0:
284,28,117399,6,0,L|272:0,1,24,0|0,1:0|0:0,0:0:0:0:
400,16,117596,1,2,0:0:0:0:
