osu file format v14

[General]
AudioFilename: audio.mp3
AudioLeadIn: 0
PreviewTime: 78814
Countdown: 0
SampleSet: Soft
StackLeniency: 0.7
Mode: 0
LetterboxInBreaks: 0
WidescreenStoryboard: 1

[Editor]
Bookmarks: 19899
DistanceSpacing: 1.3
BeatDivisor: 4
GridSize: 4
TimelineZoom: 2.3

[Metadata]
Title:TWINKLING
TitleUnicode:TWINKLING
Artist:Nekomata Master feat. Mimi Nyami
ArtistUnicode:猫叉Master feat. ミミニャミ
Creator:yf_bmp
Version:Hard
Source:pop'n music ラピストリア
Tags:Pop'n Music Lapistoria Naoyuki Sato PON jubeat prop rhythmin 村川梨衣 後藤真里奈 Rie Murakawa Marina Goto ポップンリズミン rhythmin jubeat plus prop AncuL Firika z1085684963 [Mahua] japanese pop jpop j-pop kiryu video game
BeatmapID:2788177
BeatmapSetID:1346316

[Difficulty]
HPDrainRate:5
CircleSize:3.8
OverallDifficulty:5
ApproachRate:6.5
SliderMultiplier:1.2
SliderTickRate:1

[Events]
//Background and Video events
0,0,"BG.jpg",0,0
//Break Periods
//Storyboard Layer 0 (Background)
//Storyboard Layer 1 (Fail)
//Storyboard Layer 2 (Pass)
//Storyboard Layer 3 (Foreground)
//Storyboard Layer 4 (Overlay)
//Storyboard Sound Samples

[TimingPoints]
952,394.736842105263,4,2,89,50,1,0
952,-166.666666666667,4,2,89,50,0,0
7267,-114.942528735632,4,2,89,50,0,0
13254,-100,4,2,99,70,0,0
13583,-114.942528735632,4,2,70,70,0,0
13682,-114.942528735632,4,2,80,70,0,0
19570,-114.942528735632,4,2,99,70,0,0
19899,-114.942528735632,4,2,70,70,0,0
19998,-114.942528735632,4,2,80,70,0,0
25919,-114.942528735632,4,2,99,70,0,0
26017,-114.942528735632,4,2,80,70,0,0
26116,-114.942528735632,4,2,99,70,0,0
26215,-114.942528735632,4,2,99,70,0,0
27794,-114.942528735632,4,2,80,70,0,0
28583,-114.942528735632,4,2,70,70,0,0
28978,-114.942528735632,4,2,90,70,0,0
29044,-114.942528735632,4,2,70,70,0,0
29373,-100,4,2,70,90,0,0
35294,-100,4,1,90,90,0,0
35359,-100,4,2,70,90,0,0
37563,-100,4,2,99,90,0,0
37662,-100,4,2,70,90,0,0
39044,-100,4,2,99,90,0,0
39636,-100,4,2,70,90,0,0
41609,-100,4,2,90,90,0,0
41708,-100,4,2,70,90,0,0
44274,-100,4,2,99,90,0,0
44373,-100,4,2,70,90,0,0
44570,-100,4,2,99,90,0,0
44767,-100,4,2,70,90,0,0
44866,-100,4,2,99,90,0,0
44965,-100,4,2,70,90,0,0
45063,-100,4,2,99,90,0,0
45162,-100,4,2,70,90,0,0
47432,-100,4,2,99,90,0,0
47530,-100,4,2,70,90,0,0
48024,-100,4,2,99,90,0,0
48123,-100,4,2,70,90,0,0
48221,-100,4,2,99,90,0,0
48320,-100,4,2,70,90,0,0
50590,-100,4,2,99,90,0,0
50688,-100,4,2,70,90,0,0
51182,-100,4,2,99,90,0,0
51280,-100,4,2,70,90,0,0
51379,-100,4,2,99,90,0,0
51478,-100,4,2,70,90,0,0
53748,-100,4,2,99,90,0,0
53846,-100,4,2,70,90,0,0
54241,-100,4,2,90,90,0,0
54340,-100,4,2,99,90,0,0
54537,-100,4,2,70,90,0,0
56116,-100,4,2,99,90,0,0
56215,-100,4,2,70,90,0,0
57695,-100,4,2,99,90,0,0
57794,-100,4,2,70,90,0,0
58484,-100,4,2,99,90,0,0
58583,-100,4,2,70,90,0,0
59274,-100,4,2,99,90,0,0
59373,-100,4,2,70,90,0,0
60063,-100,4,2,99,90,0,0
60162,-100,4,2,70,90,0,0
60655,-100,4,2,99,90,0,0
60951,-100,4,2,70,90,0,0
63221,-100,4,2,99,90,0,0
63320,-100,4,2,70,90,0,0
63813,-100,4,2,99,90,0,0
64109,-100,4,2,70,90,0,0
66971,-100,4,2,99,90,0,0
67267,-100,4,2,70,90,0,0
68748,-100,4,2,99,90,0,0
68846,-100,4,2,70,90,0,0
69537,-100,4,2,99,90,0,0
69636,-100,4,2,70,90,0,0
70129,-100,4,2,99,90,0,0
70425,-100,4,2,70,90,0,0
72695,-100,4,2,99,90,0,0
72794,-100,4,2,70,90,0,0
73287,-100,4,2,99,90,0,0
73583,-100,4,2,70,90,0,0
75853,-100,4,2,70,70,0,0
75951,-100,4,2,70,90,0,0
76050,-100,4,2,70,70,0,0
76149,-100,4,2,70,90,0,0
76445,-100,4,2,99,90,0,0
76741,-100,4,2,70,90,0,0
77399,-100,4,2,89,90,0,0
77530,-100,4,2,70,90,0,0
77629,-100,4,2,99,90,0,0
77728,-100,4,2,70,90,0,0
77794,-100,4,2,89,90,0,0
77925,-100,4,2,70,90,0,0
78024,-100,4,2,99,90,0,0
78123,-100,4,2,70,90,0,0
78188,-100,4,2,89,90,0,0
78320,-100,4,2,70,90,0,0
78451,-100,4,2,89,90,0,0
78517,-100,4,2,70,90,0,0
79011,-100,4,2,99,90,0,0
79109,-100,4,2,70,90,0,0
79603,-100,4,2,99,90,0,0
79899,-100,4,2,70,90,0,1
82169,-100,4,2,99,90,0,1
82267,-100,4,2,70,90,0,1
82761,-100,4,2,99,90,0,1
83057,-100,4,2,70,90,0,1
85326,-100,4,2,99,90,0,1
85425,-100,4,2,70,90,0,1
85919,-100,4,2,99,90,0,1
86017,-100,4,2,70,90,0,1
86116,-100,4,2,99,90,0,1
86215,-100,4,2,70,90,0,1
88484,-100,4,2,99,90,0,1
88583,-100,4,2,70,90,0,1
89076,-100,4,2,99,90,0,1
89373,-100,4,2,70,90,0,1
91642,-100,4,2,99,90,0,1
91741,-100,4,2,70,90,0,1
92234,-100,4,2,99,90,0,1
92530,-100,4,2,70,90,0,1
94800,-100,4,2,99,90,0,1
94899,-100,4,2,70,90,0,1
95392,-100,4,2,99,90,0,1
95688,-100,4,2,70,90,0,1
97958,-100,4,2,99,90,0,1
98057,-100,4,2,70,90,0,1
98550,-100,4,2,99,90,0,1
98649,-100,4,2,70,90,0,1
98748,-100,4,2,99,90,0,1
98846,-100,4,2,70,90,0,1
101116,-100,4,2,99,90,0,1
101215,-100,4,2,70,90,0,1
101708,-100,4,2,99,90,0,1
102004,-100,4,2,70,90,0,1
104274,-100,4,2,99,90,0,1
104373,-100,4,2,70,90,0,1
105162,-100,4,2,70,90,0,0
111083,-100,4,2,90,90,0,0
111182,-100,4,2,70,90,0,0
111478,-133.333333333333,4,2,70,90,0,0
117004,-100,4,2,90,90,0,0
117103,-100,4,2,70,90,0,0
117399,-100,4,2,90,90,0,0
117498,-100,4,2,70,90,0,0

[Colours]
Combo1 : 238,214,45
Combo2 : 255,128,0
Combo3 : 50,201,222
Combo4 : 213,100,165

[HitObjects]
215,97,952,6,0,B|302:4|302:4|333:123,1,251.999992309571,2|0,0:1|0:1,0:0:0:0:
334,124,2530,2,0,B|449:178|449:178|345:245,1,251.999992309571,2|0,0:1|0:1,0:0:0:0:
344,245,4109,2,0,B|329:371|329:371|232:293,1,251.999992309571,2|0,0:1|0:1,0:0:0:0:
232,292,5688,2,0,L|114:315,1,107.999996704102,8|0,0:1|0:1,0:0:0:0:
113,300,6478,2,0,L|152:200,1,107.999996704102,12|0,0:1|0:1,0:0:0:0:
140,188,7267,6,0,L|73:179,1,52.2000004380798,2|4,0:1|0:3,0:0:0:0:
40,120,7662,2,0,P|42:94|53:70,1,52.2000004380798,0|0,0:0|3:3,0:0:0:0:
124,32,8057,1,2,0:2:0:0:
124,32,8254,1,4,0:3:0:0:
224,152,8649,1,4,0:3:0:0:
224,152,8846,6,0,L|291:161,1,52.2000004380798,8|4,0:1|0:3,0:0:0:0:
324,220,9241,2,0,P|322:246|311:270,1,52.2000004380798,2|0,0:0|3:1,0:0:0:0:
240,308,9636,1,2,0:2:0:0:
240,308,9833,1,4,3:3:0:0:
396,284,10228,1,4,0:3:0:0:
404,208,10425,6,0,P|406:177|380:36,1,156.60000131424,4|0,0:1|0:1,0:0:0:0:
312,28,11215,2,0,P|308:59|300:80,1,52.2000004380798,2|4,0:2|3:3,0:0:0:0:
252,140,11609,1,0,0:2:0:0:
96,116,12004,6,0,B|89:105|89:105|94:95|94:95|83:86|83:86|89:76|89:76|82:65|82:65|68:11,2,104.40000087616,2|2|0,0:1|0:2|0:1,0:0:0:0:
40,264,13188,2,0,L|12:260,2,26.1000002190399,4|0|0,0:3|0:0|3:3,0:0:0:0:
120,264,13583,6,0,P|132:244|132:200,1,52.2000004380798,4|0,0:1|0:0,0:0:0:0:
128,292,13978,2,0,P|150:297|192:283,1,52.2000004380798,8|2,0:2|0:2,0:0:0:0:
104,312,14373,5,2,0:2:0:0:
76,160,14767,1,10,0:2:0:0:
228,192,15162,6,0,P|240:212|240:256,1,52.2000004380798,0|2,1:2|0:0,0:0:0:0:
236,164,15557,2,0,P|258:159|300:173,1,52.2000004380798,10|2,0:2|0:2,0:0:0:0:
212,144,15952,5,2,0:0:0:0:
260,80,16149,1,2,1:2:0:0:
336,104,16346,1,10,0:2:0:0:
432,228,16741,6,0,P|452:240|496:240,1,52.2000004380798,2|0,1:2|0:1,0:0:0:0:
404,236,17136,2,0,P|399:258|413:300,1,52.2000004380798,10|0,0:2|0:1,0:0:0:0:
384,212,17531,5,2,3:2:0:0:
337,361,17925,1,8,0:2:0:0:
192,300,18320,6,0,P|172:312|128:312,1,52.2000004380798,2|2,1:2|0:2,0:0:0:0:
219,358,18715,2,0,P|225:333|220:308,1,52.2000004380798,10|2,0:2|0:2,0:0:0:0:
224,228,19110,5,2,0:0:0:0:
148,236,19307,1,8,1:2:0:0:
180,164,19504,2,0,P|184:152|180:132,3,26.1000002190399,8|0|0|0,0:2|1:0|3:2|1:0,0:0:0:0:
156,108,19899,6,0,P|153:82|140:59,1,52.2000004380798,4|0,0:1|0:0,0:0:0:0:
68,28,20294,2,0,P|90:26|129:47,1,52.2000004380798,8|2,0:2|0:2,0:0:0:0:
77,104,20689,5,2,0:0:0:0:
232,72,21083,1,8,0:2:0:0:
348,176,21478,6,0,P|351:150|364:127,1,52.2000004380798,2|0,1:2|0:1,0:0:0:0:
436,96,21873,2,0,P|414:94|375:115,1,52.2000004380798,10|0,0:2|0:0,0:0:0:0:
427,172,22268,5,2,0:0:0:0:
396,244,22465,1,8,1:2:0:0:
320,248,22662,1,10,0:2:0:0:
168,220,23057,6,0,P|194:223|217:236,1,52.2000004380798,2|0,1:2|0:1,0:0:0:0:
248,308,23452,2,0,P|250:286|229:247,1,52.2000004380798,10|0,0:2|0:1,0:0:0:0:
172,299,23847,5,2,0:0:0:0:
196,372,24044,1,2,1:2:0:0:
120,360,24241,1,10,0:2:0:0:
88,208,24636,6,0,P|62:211|39:224,1,52.2000004380798,0|2,1:3|3:2,0:0:0:0:
0,308,25031,2,0,P|-2:286|19:247,1,52.2000004380798,10|2,0:2|3:2,0:0:0:0:
0,152,25426,5,2,3:2:0:0:
52,92,25623,1,8,1:2:0:0:
12,28,25820,1,8,0:0:0:0:
12,28,26017,6,0,P|8:16|12:-4,2,26.1000002190399,0|0|2,0:2|1:0|0:2,0:0:0:0:
88,24,27794,5,2,0:2:0:0:
52,92,27991,1,0,0:3:0:0:
100,152,28188,2,0,L|164:156,1,52.2000004380798,2|2,0:0|0:0,0:0:0:0:
172,232,28583,5,0,1:0:0:0:
236,276,28780,1,2,1:2:0:0:
192,340,28977,2,0,L|128:344,1,52.2000004380798,0|2,1:0|0:2,0:0:0:0:
84,288,29373,5,4,1:2:0:0:
100,212,29570,1,10,0:3:0:0:
160,264,29767,1,2,1:2:0:0:
160,264,29965,1,10,0:3:0:0:
200,116,30359,1,10,0:3:0:0:
200,116,30556,1,2,1:2:0:0:
200,116,30754,1,10,0:3:0:0:
236,268,31149,5,10,0:3:0:0:
296,320,31346,1,2,1:2:0:0:
296,320,31544,1,10,0:3:0:0:
336,172,31938,1,10,0:3:0:0:
336,172,32135,1,2,1:2:0:0:
336,172,32333,1,10,0:3:0:0:
376,324,32728,5,10,0:3:0:0:
436,376,32925,1,2,1:2:0:0:
436,376,33123,1,10,0:3:0:0:
484,236,33517,1,10,0:3:0:0:
484,236,33714,1,2,1:2:0:0:
484,236,33912,1,10,0:3:0:0:
416,180,34109,6,0,L|427:112,1,60,0|10,1:0|0:3,0:0:0:0:
332,112,34504,2,0,L|336:180,1,60,2|10,1:2|0:3,0:0:0:0:
312,244,34899,2,0,L|232:260,1,60,2|10,1:2|0:3,0:0:0:0:
176,272,35294,1,0,1:0:0:0:
88,144,35688,6,0,B|72:80|112:88|95:26,2,120,4|2|0,1:2|1:2|1:0,0:0:0:0:
104,300,36873,1,2,1:2:0:0:
168,160,37267,1,0,1:0:0:0:
88,144,37465,2,0,P|66:141|40:152,2,30,10|0|0,0:3|1:3|1:0,0:0:0:0:
112,220,37859,1,10,0:3:0:0:
188,240,38057,2,0,P|256:244|312:196,1,120,0|2,1:0|1:2,0:0:0:0:
324,144,38649,1,10,0:3:0:0:
292,72,38846,5,0,1:0:0:0:
444,44,39241,2,0,P|445:24|452:0,4,30,8|0|0|0|0,3:2|1:2|3:0|1:0|0:3,0:0:0:0:
500,188,40030,1,8,0:2:0:0:
500,188,40228,1,2,0:2:0:0:
468,260,40425,6,0,P|436:272|404:264,1,60,2|2,0:0|0:3,0:0:0:0:
340,304,40820,2,0,P|311:285|299:254,1,60,2|2,0:2|3:3,0:0:0:0:
228,228,41215,2,0,P|226:193|243:165,1,60,2|2,3:2|1:3,0:0:0:0:
204,100,41609,1,0,1:0:0:0:
60,40,42004,5,4,1:2:0:0:
76,196,42399,2,0,P|76:168|88:128,2,60,4|2|0,1:3|0:3|1:3,0:0:0:0:
112,264,42991,1,2,0:3:0:0:
176,308,43188,1,4,1:3:0:0:
176,308,43386,2,0,P|216:320|280:280,1,120,2|2,0:0|0:3,0:0:0:0:
300,204,43978,5,4,1:3:0:0:
356,260,44175,2,0,P|368:264|392:264,2,30,2|0|0,0:2|3:0|1:3,0:0:0:0:
300,204,44570,1,0,3:3:0:0:
288,128,44767,2,0,P|288:112|292:84,4,30,4|0|2|0|2,1:3|1:3|0:2|1:3|1:2,0:0:0:0:
400,20,45557,6,0,P|372:20|332:32,2,60,4|2|0,1:3|0:3|1:3,0:0:0:0:
468,56,46149,1,2,0:3:0:0:
512,120,46346,1,4,1:3:0:0:
512,120,46544,2,0,P|524:160|484:224,1,120,2|2,0:0|0:0,0:0:0:0:
408,244,47136,5,4,1:3:0:0:
464,300,47333,2,0,P|468:312|468:336,2,30,2|0|2,0:2|1:3|1:2,0:0:0:0:
408,244,47728,1,2,1:2:0:0:
332,232,47925,2,0,P|316:232|288:236,4,30,4|0|2|0|0,1:3|1:0|1:2|1:0|1:3,0:0:0:0:
336,76,48715,6,0,P|336:48|324:8,2,60,4|2|0,1:3|0:2|1:0,0:0:0:0:
300,144,49307,1,2,0:3:0:0:
236,188,49504,1,4,1:3:0:0:
236,188,49702,2,0,B|180:200|169:159|120:172,1,120,2|2,0:0|0:3,0:0:0:0:
52,212,50294,5,4,1:3:0:0:
52,136,50491,2,0,P|48:124|48:100,2,30,2|0|0,0:3|1:0|1:3,0:0:0:0:
119,172,50886,1,2,0:3:0:0:
116,248,51083,2,0,P|120:260|120:284,4,30,4|0|2|0|2,0:3|1:3|0:2|1:3|1:2,0:0:0:0:
212,372,51873,6,0,P|205:341|212:240,1,120,4|0,1:3|1:3,0:0:0:0:
260,196,52465,1,2,0:3:0:0:
336,172,52662,2,0,P|338:141|332:96,1,60,4|2,1:3|0:2,0:0:0:0:
300,44,53057,5,2,1:2:0:0:
376,48,53254,1,4,1:3:0:0:
408,200,53649,1,4,0:3:0:0:
344,344,54044,1,4,0:3:0:0:
416,376,54241,2,0,P|424:360|416:332,4,30,0|0|0|4|4,1:0|1:3|3:0|0:3|1:2,0:0:0:0:
480,236,55030,6,0,P|485:265|485:295,1,60,8|2,1:1|0:3,0:0:0:0:
409,274,55425,2,0,L|344:264,1,60,0|2,1:3|0:3,0:0:0:0:
272,252,55820,1,8,1:1:0:0:
173,298,56116,5,0,1:0:0:0:
173,298,56215,1,0,1:0:0:0:
96,280,56412,1,2,0:3:0:0:
152,224,56609,2,0,P|160:198|164:148,1,60,8|2,1:1|0:3,0:0:0:0:
148,88,57004,1,2,1:2:0:0:
276,0,57399,2,0,P|268:32|268:64,1,60,8|2,1:1|0:3,0:0:0:0:
296,132,57794,6,0,P|372:151|343:41,1,240,0|0,1:2|1:0,0:0:0:0:
192,20,58978,1,8,1:1:0:0:
148,88,59175,6,0,P|129:92|112:92,2,30,2|0|2,0:3|1:0|1:2,0:0:0:0:
164,165,59570,1,2,0:0:0:0:
140,240,59767,1,8,1:1:0:0:
152,84,60162,5,0,1:3:0:0:
204,140,60359,1,0,1:0:0:0:
280,164,60557,1,8,1:0:0:0:
244,232,60754,6,0,P|231:240|216:248,2,30,0|0|0,3:0|1:3|1:3,0:0:0:0:
159,368,61346,6,0,P|131:376|100:373,1,60,8|2,1:1|0:3,0:0:0:0:
95,296,61741,2,0,P|123:288|154:291,1,60,0|2,1:3|0:3,0:0:0:0:
223,324,62136,1,8,1:1:0:0:
372,364,62530,5,0,1:3:0:0:
450,346,62728,1,2,0:3:0:0:
394,290,62925,2,0,P|386:264|382:214,1,60,8|2,1:1|0:2,0:0:0:0:
398,154,63320,1,2,1:2:0:0:
456,8,63715,2,0,P|461:25|460:40,2,30,8|0|0,1:0|1:0|3:3,0:0:0:0:
384,36,64109,6,0,P|352:44|304:32,1,60,0|2,1:3|0:3,0:0:0:0:
248,44,64504,2,0,P|291:112|344:116,1,120,8|2,1:0|1:2,0:0:0:0:
312,196,65096,1,2,1:3:0:0:
312,196,65294,2,0,L|300:272,1,60,8|2,1:1|0:3,0:0:0:0:
244,304,65688,5,0,1:3:0:0:
168,280,65886,1,2,0:2:0:0:
116,224,66083,1,8,1:1:0:0:
104,380,66478,5,0,1:3:0:0:
128,305,66675,1,0,1:0:0:0:
111,227,66873,2,0,L|95:194,4,30,8|0|0|0|4,1:0|1:3|3:0|1:3|1:2,0:0:0:0:
152,76,67662,6,0,P|144:48|147:17,1,60,8|2,1:1|0:3,0:0:0:0:
224,12,68057,2,0,P|232:40|229:71,1,60,0|2,1:2|0:3,0:0:0:0:
196,140,68452,1,8,1:1:0:0:
213,258,68748,5,0,1:0:0:0:
213,258,68846,1,0,1:0:0:0:
232,336,69044,1,2,0:3:0:0:
288,280,69241,2,0,P|314:272|364:268,1,60,8|2,1:1|0:3,0:0:0:0:
424,284,69636,1,2,1:2:0:0:
512,156,70031,2,0,P|480:164|448:164,1,60,8|0,1:0|3:0,0:0:0:0:
380,136,70426,6,0,P|361:60|471:89,1,240,0|2,1:0|1:2,0:0:0:0:
440,240,71609,1,8,1:1:0:0:
372,284,71806,6,0,P|368:303|368:320,2,30,2|0|2,0:3|0:0|1:2,0:0:0:0:
295,268,72201,1,2,0:2:0:0:
220,292,72398,1,8,1:1:0:0:
376,280,72793,5,0,1:0:0:0:
320,228,72990,1,2,1:3:0:0:
296,152,73188,1,8,1:1:0:0:
228,188,73385,6,0,P|220:201|212:216,2,30,0|0|0,3:1|1:0|1:3,0:0:0:0:
72,208,73978,6,0,P|64:180|67:149,1,60,8|2,1:0|0:3,0:0:0:0:
140,112,74373,2,0,P|148:140|145:171,1,60,2|2,1:2|0:3,0:0:0:0:
140,248,74768,1,8,1:1:0:0:
4,328,75162,5,0,1:3:0:0:
76,300,75360,1,2,0:3:0:0:
148,328,75557,2,0,P|166:347|207:376,1,60,8|0,1:1|1:0,0:0:0:0:
232,372,75853,1,4,0:3:0:0:
304,340,76050,1,4,0:3:0:0:
420,344,76347,6,0,P|434:347|447:355,2,30,4|0|0,1:2|1:3|3:0,0:0:0:0:
364,292,76741,2,0,P|355:263|360:208,1,60,2|2,0:3|0:3,0:0:0:0:
368,156,77136,2,0,L|376:96,1,60,8|2,0:0|0:3,0:0:0:0:
420,32,77530,2,0,P|434:31|456:35,2,30,2|0|2,0:2|1:0|0:3,0:0:0:0:
340,24,77925,2,0,P|328:12|320:0,2,30,10|0|2,0:2|1:0|0:3,0:0:0:0:
375,96,78320,5,2,2:0:0:0:
375,96,78518,1,8,0:3:0:0:
296,112,78715,1,8,0:2:0:0:
364,252,79110,5,0,1:3:0:0:
288,272,79307,1,4,1:3:0:0:
216,240,79504,2,0,P|213:217|224:184,2,30,8|0|0,1:1|1:3|3:0,0:0:0:0:
220,320,79899,6,0,P|104:320|32:224,1,240,4|0,1:2|1:0,0:0:0:0:
36,152,80886,1,2,0:3:0:0:
108,124,81083,1,8,1:0:0:0:
48,72,81280,2,0,P|46:33|56:8,1,60,2|0,0:3|1:3,0:0:0:0:
124,48,81675,5,2,0:3:0:0:
184,100,81873,1,8,1:1:0:0:
184,176,82070,2,0,P|176:199|176:224,2,30,2|0|0,0:3|1:0|1:3,0:0:0:0:
232,112,82465,1,2,0:3:0:0:
308,100,82662,1,8,1:1:0:0:
444,24,83057,6,0,P|474:136|399:230,1,240,0|0,1:0|1:0,0:0:0:0:
356,288,84044,1,2,0:3:0:0:
328,216,84241,1,8,1:0:0:0:
276,276,84438,2,0,P|237:277|212:268,1,60,2|0,0:3|1:3,0:0:0:0:
204,348,84833,5,2,0:3:0:0:
144,296,85031,1,8,1:1:0:0:
144,220,85228,2,0,P|151:196|152:172,2,30,2|0|0,0:3|1:0|1:3,0:0:0:0:
96,284,85623,1,2,0:3:0:0:
20,296,85820,1,8,1:1:0:0:
20,296,86017,1,2,1:3:0:0:
0,220,86215,6,0,P|0:112|64:0,1,240,4|0,1:2|1:0,0:0:0:0:
144,4,87202,1,2,0:3:0:0:
104,72,87399,1,8,1:0:0:0:
184,72,87596,2,0,P|172:112|160:128,1,60,2|0,0:3|1:0,0:0:0:0:
204,192,87991,5,2,0:3:0:0:
264,140,88189,1,8,1:1:0:0:
264,64,88386,2,0,P|256:40|256:16,2,30,2|0|0,0:3|1:0|1:0,0:0:0:0:
312,128,88781,1,2,0:3:0:0:
388,140,88978,1,8,1:1:0:0:
444,284,89373,6,0,L|384:296,1,60,0|2,1:0|0:3,0:0:0:0:
352,368,89767,2,0,L|371:310,1,60,8|2,1:1|0:3,0:0:0:0:
324,248,90162,2,0,L|364:293,1,60,4|2,1:1|0:3,0:0:0:0:
422,353,90557,6,0,L|382:307,1,60,8|2,1:1|0:3,0:0:0:0:
303,315,90951,2,0,L|363:302,1,60,4|2,1:2|0:3,0:0:0:0:
393,231,91346,2,0,L|374:288,1,60,10|2,1:1|0:3,0:0:0:0:
310,234,91741,5,2,1:2:0:0:
248,188,91938,1,4,0:3:0:0:
248,108,92136,2,0,P|260:84|280:68,3,30,8|0|0|0,1:1|1:0|3:0|1:0,0:0:0:0:
292,64,92530,6,0,P|408:64|480:160,1,240,4|0,1:2|1:0,0:0:0:0:
476,232,93517,1,2,0:3:0:0:
404,260,93714,1,8,1:0:0:0:
464,312,93911,2,0,P|466:351|456:376,1,60,2|0,0:3|1:0,0:0:0:0:
388,336,94306,5,2,0:3:0:0:
388,256,94504,1,8,1:1:0:0:
328,208,94701,2,0,P|336:185|336:160,2,30,2|0|0,0:3|1:0|1:0,0:0:0:0:
252,224,95096,1,2,0:3:0:0:
204,284,95293,1,8,1:1:0:0:
68,360,95688,6,0,P|38:248|113:154,1,240,0|8,1:2|1:3,0:0:0:0:
156,96,96675,1,2,0:3:0:0:
184,168,96872,1,8,1:0:0:0:
236,108,97069,2,0,P|275:107|300:116,1,60,2|0,0:3|1:3,0:0:0:0:
308,36,97464,5,2,0:3:0:0:
308,116,97662,1,8,1:1:0:0:
368,164,97859,2,0,P|361:188|360:212,2,30,2|0|0,0:3|1:0|1:3,0:0:0:0:
448,156,98254,1,2,0:3:0:0:
492,88,98451,1,8,1:1:0:0:
492,88,98648,1,2,1:3:0:0:
460,160,98846,6,0,P|460:268|396:380,1,240,4|8,1:2|1:3,0:0:0:0:
316,376,99833,1,2,0:3:0:0:
356,308,100030,1,8,1:0:0:0:
276,308,100227,2,0,P|288:268|300:252,1,60,2|0,0:3|1:3,0:0:0:0:
228,216,100623,5,2,0:3:0:0:
228,136,100821,1,8,1:0:0:0:
168,88,101018,2,0,P|175:64|176:40,2,30,2|0|0,0:3|1:0|1:3,0:0:0:0:
88,96,101413,1,2,0:3:0:0:
44,164,101610,1,8,1:0:0:0:
116,300,102004,6,0,L|176:312,1,60,0|2,1:0|0:3,0:0:0:0:
208,384,102398,2,0,L|189:326,1,60,8|2,1:0|0:3,0:0:0:0:
236,264,102793,2,0,L|196:309,1,60,4|2,1:0|0:3,0:0:0:0:
138,369,103188,6,0,L|178:323,1,60,8|2,1:0|0:3,0:0:0:0:
257,331,103582,2,0,L|197:318,1,60,4|2,1:2|0:3,0:0:0:0:
167,247,103977,2,0,L|186:304,1,60,8|2,1:0|0:3,0:0:0:0:
250,250,104372,5,2,1:1:0:0:
308,196,104569,1,6,0:3:0:0:
364,140,104767,1,12,0:3:0:0:
456,268,105162,5,4,1:2:0:0:
404,324,105359,2,0,P|398:347|400:396,2,60,2|0|2,0:0|1:0|0:0,0:0:0:0:
380,248,105951,1,2,1:0:0:0:
432,192,106149,2,0,P|437:168|436:120,2,60,0|2|0,0:3|1:2|0:3,0:0:0:0:
356,172,106741,5,0,1:0:0:0:
304,228,106938,2,0,P|298:251|300:300,2,60,2|0|2,0:0|1:0|0:0,0:0:0:0:
280,152,107530,1,2,1:2:0:0:
332,96,107728,2,0,P|337:72|336:24,2,60,0|2|0,0:3|1:2|0:0,0:0:0:0:
256,76,108320,5,0,1:0:0:0:
204,132,108517,2,0,P|198:155|200:204,2,60,2|0|2,0:0|1:0|0:0,0:0:0:0:
180,56,109109,1,0,1:0:0:0:
128,116,109306,2,0,P|104:121|56:120,1,60,2|2,0:0|1:0,0:0:0:0:
120,196,109701,1,0,0:0:0:0:
164,264,109899,5,0,1:0:0:0:
88,272,110096,2,0,P|58:272|28:265,1,60,2|0,0:0|1:0,0:0:0:0:
132,340,110491,1,2,0:3:0:0:
208,332,110688,5,2,1:0:0:0:
244,260,110886,2,0,L|244:188,1,60,2|0,0:3|1:0,0:0:0:0:
224,124,111280,1,0,1:0:0:0:
268,60,111478,6,0,B|312:44|312:44|404:92,1,135.000005149841,4|2,1:2|0:3,0:0:0:0:
427,57,112267,2,0,L|431:1,2,45.0000017166138,2|0|8,0:0|1:3|0:2,0:0:0:0:
292,108,113057,6,0,B|338:114|338:114|397:200,1,135.000005149841,2|2,0:0|0:3,0:0:0:0:
433,179,113846,2,0,L|462:131,2,45.0000017166138,2|0|8,0:0|1:0|0:2,0:0:0:0:
296,164,114636,6,0,B|333:191|333:191|345:294,1,135.000005149841,2|2,1:0|0:3,0:0:0:0:
387,294,115425,2,0,L|435:266,2,45.0000017166138,2|0|8,0:0|1:0|0:2,0:0:0:0:
272,216,116215,6,0,B|291:257|291:257|254:353,1,135.000005149841,2|2,1:2|1:3,0:0:0:0:
291,373,117004,6,0,L|352:372,1,60,0|4,1:0|0:3,0:0:0:0:
387,294,117399,2,0,L|448:293,1,60,0|2,1:0|0:0,0:0:0:0:
