osu file format v14

[General]
AudioFilename: audio.mp3
AudioLeadIn: 0
PreviewTime: 78947
Countdown: 0
SampleSet: Normal
StackLeniency: 0.7
Mode: 1
LetterboxInBreaks: 0
WidescreenStoryboard: 0

[Editor]
DistanceSpacing: 0.7
BeatDivisor: 8
GridSize: 32
TimelineZoom: 2.7

[Metadata]
Title:TWINKLING
TitleUnicode:TWINKLING
Artist:Nekomata Master feat. Mimi Nyami
ArtistUnicode:猫叉Master feat. ミミニャミ
Creator:bank78952
Version:Muzukashii
Source:pop'n music ラピストリア
Tags:Pop'n Music Lapistoria Naoyuki Sato PON jubeat prop rhythmin 村川梨衣 Rie Murakawa 後藤真里奈 Marina Goto rew0825
BeatmapID:1032386
BeatmapSetID:483914

[Difficulty]
HPDrainRate:5
CircleSize:2
OverallDifficulty:5
ApproachRate:10
SliderMultiplier:1.4
SliderTickRate:1

[Events]
//Background and Video events
0,0,"pop.jpg",0,-120
//Break Periods
//Storyboard Layer 0 (Background)
//Storyboard Layer 1 (Fail)
//Storyboard Layer 2 (Pass)
//Storyboard Layer 3 (Foreground)
//Storyboard Sound Samples

[TimingPoints]
1184,394.736842105263,4,1,0,40,1,0
13815,-100,4,1,0,50,0,0
29605,-100,4,1,0,75,0,0
79144,-100,4,1,0,65,0,0
80131,-100,4,1,0,75,0,1
105394,-100,4,1,0,75,0,0

[HitObjects]
256,192,1184,5,0,0:0:0:0:
256,192,1578,1,8,0:0:0:0:
256,192,1776,1,0,0:0:0:0:
256,224,1973,1,8,0:0:0:0:
256,192,2368,1,8,0:0:0:0:
256,192,2762,1,0,0:0:0:0:
256,192,3552,1,0,0:0:0:0:
256,192,3947,1,8,0:0:0:0:
256,192,4341,1,0,0:0:0:0:
256,192,4736,1,8,0:0:0:0:
256,192,4933,1,0,0:0:0:0:
256,192,5131,1,8,0:0:0:0:
256,192,5526,1,0,0:0:0:0:
256,192,5920,1,8,0:0:0:0:
256,192,6710,1,8,0:0:0:0:
256,192,7105,1,0,0:0:0:0:
256,192,7302,1,0,0:0:0:0:
256,192,7499,1,0,0:0:0:0:
263,200,7894,1,8,0:0:0:0:
256,192,8289,1,8,0:0:0:0:
256,192,8486,1,8,0:0:0:0:
256,192,8881,1,8,0:0:0:0:
256,192,9078,1,0,0:0:0:0:
256,192,9473,1,8,0:0:0:0:
256,192,9868,1,8,0:0:0:0:
256,192,10065,1,0,0:0:0:0:
256,192,10262,1,8,0:0:0:0:
256,192,10657,1,8,0:0:0:0:
256,192,11447,1,0,0:0:0:0:
256,192,11841,1,8,0:0:0:0:
256,192,12236,1,8,0:0:0:0:
256,192,12335,1,8,0:0:0:0:
256,192,12433,1,8,0:0:0:0:
256,192,12631,1,0,0:0:0:0:
256,192,13026,1,8,0:0:0:0:
256,192,13223,1,0,0:0:0:0:
256,192,13420,1,8,0:0:0:0:
256,192,13815,1,4,0:0:0:0:
256,192,14210,1,8,0:0:0:0:
256,192,14802,1,0,0:0:0:0:
256,192,14999,1,8,0:0:0:0:
256,192,15394,1,0,0:0:0:0:
256,192,15789,1,8,0:0:0:0:
256,192,16183,1,8,0:0:0:0:
256,192,16381,1,0,0:0:0:0:
256,192,16578,1,8,0:0:0:0:
256,192,16973,1,0,0:0:0:0:
256,192,17368,1,8,0:0:0:0:
256,192,17960,1,0,0:0:0:0:
256,192,18157,1,8,0:0:0:0:
256,192,18552,1,0,0:0:0:0:
256,192,18947,1,8,0:0:0:0:
256,192,19144,1,8,0:0:0:0:
256,192,19341,1,0,0:0:0:0:
256,192,19736,1,8,0:0:0:0:
256,192,20131,1,4,0:0:0:0:
256,192,20526,1,8,0:0:0:0:
256,192,21118,1,0,0:0:0:0:
256,192,21315,1,8,0:0:0:0:
256,192,21710,1,0,0:0:0:0:
256,192,22105,1,8,0:0:0:0:
256,192,22302,1,0,0:0:0:0:
256,192,22697,1,0,0:0:0:0:
256,192,22894,1,8,0:0:0:0:
256,192,23289,1,0,0:0:0:0:
256,192,23683,1,8,0:0:0:0:
256,192,23881,1,8,0:0:0:0:
256,192,24078,1,0,0:0:0:0:
256,192,24473,1,8,0:0:0:0:
256,192,24868,1,8,0:0:0:0:
256,192,25065,1,0,0:0:0:0:
256,192,25262,1,8,0:0:0:0:
256,192,25460,1,8,0:0:0:0:
256,192,25558,1,8,0:0:0:0:
256,192,25657,1,8,0:0:0:0:
256,192,25855,1,0,0:0:0:0:
256,192,26052,1,8,0:0:0:0:
256,192,26447,1,0,0:0:0:0:
256,192,26841,1,8,0:0:0:0:
256,160,27433,1,0,0:0:0:0:
256,192,27631,1,8,0:0:0:0:
256,192,28026,1,8,0:0:0:0:
256,192,28223,1,8,0:0:0:0:
256,192,28420,1,8,0:0:0:0:
256,192,28618,1,0,0:0:0:0:
256,192,28815,1,0,0:0:0:0:
256,192,29012,1,8,0:0:0:0:
256,192,29210,1,8,0:0:0:0:
256,192,29605,1,4,0:0:0:0:
256,192,29999,1,8,0:0:0:0:
256,192,30591,1,0,0:0:0:0:
288,192,30789,1,8,0:0:0:0:
288,192,30986,1,0,0:0:0:0:
256,192,31381,1,0,0:0:0:0:
288,224,31578,1,8,0:0:0:0:
256,192,31776,1,0,0:0:0:0:
288,192,31973,1,0,0:0:0:0:
256,192,32368,1,8,0:0:0:0:
256,192,32565,1,0,0:0:0:0:
256,192,32960,1,0,0:0:0:0:
256,224,33157,1,8,0:0:0:0:
256,224,33355,1,0,0:0:0:0:
320,224,33749,1,0,0:0:0:0:
320,224,33947,1,8,0:0:0:0:
288,192,34144,1,0,0:0:0:0:
320,224,34539,1,0,0:0:0:0:
256,192,34736,1,8,0:0:0:0:
320,192,35131,1,0,0:0:0:0:
320,192,35328,1,8,0:0:0:0:
256,192,35526,1,8,0:0:0:0:
256,192,35920,1,4,0:0:0:0:
256,192,36710,1,0,0:0:0:0:
288,192,36907,1,0,0:0:0:0:
288,192,37105,1,8,0:0:0:0:
256,192,37499,1,0,0:0:0:0:
288,192,37697,1,8,0:0:0:0:
288,192,37795,1,8,0:0:0:0:
288,192,37894,1,8,0:0:0:0:
288,192,38091,1,0,0:0:0:0:
256,192,38289,1,0,0:0:0:0:
288,192,38683,1,8,0:0:0:0:
256,192,39078,1,0,0:0:0:0:
288,192,39276,1,0,0:0:0:0:
288,192,39473,1,8,0:0:0:0:
288,192,39670,1,8,0:0:0:0:
256,192,39868,1,0,0:0:0:0:
288,192,40262,1,8,0:0:0:0:
256,192,40657,1,0,0:0:0:0:
288,192,40855,1,8,0:0:0:0:
256,192,41052,1,8,0:0:0:0:
288,192,41249,1,8,0:0:0:0:
288,192,41447,1,0,0:0:0:0:
288,192,41644,1,0,0:0:0:0:
256,192,41841,1,8,0:0:0:0:
256,192,42236,1,4,0:0:0:0:
256,192,42631,1,8,0:0:0:0:
288,192,43026,1,0,0:0:0:0:
288,192,43223,1,8,0:0:0:0:
288,192,43420,1,0,0:0:0:0:
256,192,44210,1,8,0:0:0:0:
288,192,44605,1,0,0:0:0:0:
288,224,44802,1,0,0:0:0:0:
256,192,44999,1,8,0:0:0:0:
256,192,45394,1,0,0:0:0:0:
256,192,45789,1,8,0:0:0:0:
288,224,46183,1,8,0:0:0:0:
288,224,46381,1,0,0:0:0:0:
256,160,46578,1,8,0:0:0:0:
256,192,46973,1,0,0:0:0:0:
288,224,47170,1,8,0:0:0:0:
288,224,47368,1,8,0:0:0:0:
288,224,47565,1,0,0:0:0:0:
288,224,47762,1,8,0:0:0:0:
256,192,48157,1,8,0:0:0:0:
224,192,48355,1,8,0:0:0:0:
256,192,48552,1,0,0:0:0:0:
288,224,48947,1,8,0:0:0:0:
256,192,49341,1,0,0:0:0:0:
320,224,49539,1,8,0:0:0:0:
320,224,49736,1,0,0:0:0:0:
256,192,50526,1,8,0:0:0:0:
320,224,50723,1,0,0:0:0:0:
288,256,50822,1,0,0:0:0:0:
288,224,50920,1,0,0:0:0:0:
288,224,51118,1,0,0:0:0:0:
256,192,51315,1,8,0:0:0:0:
256,192,51710,1,0,0:0:0:0:
288,192,52105,1,8,0:0:0:0:
256,192,52499,1,0,0:0:0:0:
288,192,52697,1,8,0:0:0:0:
256,192,52894,1,8,0:0:0:0:
288,192,53091,1,0,0:0:0:0:
288,192,53289,1,0,0:0:0:0:
256,192,53683,1,8,0:0:0:0:
288,192,54078,1,0,0:0:0:0:
288,192,54276,1,0,0:0:0:0:
256,192,54473,1,8,0:0:0:0:
256,192,54868,1,4,0:0:0:0:
256,192,55262,1,8,0:0:0:0:
288,192,55460,1,0,0:0:0:0:
288,192,55657,1,8,0:0:0:0:
288,192,55855,1,8,0:0:0:0:
288,192,56052,1,0,0:0:0:0:
288,192,56447,1,0,0:0:0:0:
288,192,56644,1,0,0:0:0:0:
256,192,56841,1,8,0:0:0:0:
224,192,57039,1,8,0:0:0:0:
256,192,57236,1,0,0:0:0:0:
256,192,57631,1,8,0:0:0:0:
288,192,57828,1,0,0:0:0:0:
288,192,58026,1,8,0:0:0:0:
256,192,58815,1,0,0:0:0:0:
256,192,59210,1,8,0:0:0:0:
288,192,59407,1,8,0:0:0:0:
256,192,59605,1,0,0:0:0:0:
256,192,59999,1,8,0:0:0:0:
288,192,60394,1,8,0:0:0:0:
256,192,60789,1,8,0:0:0:0:
288,192,60986,1,0,0:0:0:0:
256,192,61578,1,8,0:0:0:0:
256,192,61973,1,0,0:0:0:0:
256,192,62170,1,0,0:0:0:0:
256,192,62368,1,8,0:0:0:0:
256,192,62762,1,0,0:0:0:0:
256,192,62960,1,0,0:0:0:0:
256,192,63157,1,8,0:0:0:0:
256,192,63355,1,0,0:0:0:0:
256,192,63552,1,0,0:0:0:0:
256,192,63947,1,8,0:0:0:0:
256,192,64144,1,8,0:0:0:0:
256,192,64341,1,0,0:0:0:0:
256,192,64539,1,0,0:0:0:0:
256,192,64736,1,8,0:0:0:0:
256,192,65131,1,0,0:0:0:0:
256,192,65526,1,8,0:0:0:0:
256,192,65723,1,8,0:0:0:0:
256,192,65920,1,0,0:0:0:0:
256,192,66315,1,8,0:0:0:0:
256,192,66710,1,0,0:0:0:0:
256,192,66907,1,8,0:0:0:0:
256,192,67105,1,8,0:0:0:0:
276,200,67302,1,0,0:0:0:0:
256,192,67499,1,4,0:0:0:0:
256,192,67894,1,8,0:0:0:0:
256,192,68289,1,0,0:0:0:0:
256,192,68486,1,0,0:0:0:0:
256,192,68683,1,8,0:0:0:0:
256,192,69078,1,0,0:0:0:0:
256,192,69276,1,0,0:0:0:0:
224,224,69473,1,8,0:0:0:0:
256,192,69670,1,8,0:0:0:0:
256,192,69868,1,0,0:0:0:0:
256,192,70262,1,8,0:0:0:0:
256,192,70460,1,8,0:0:0:0:
256,192,70657,1,0,0:0:0:0:
288,192,71447,1,0,0:0:0:0:
288,192,71644,1,0,0:0:0:0:
256,192,71841,1,8,0:0:0:0:
256,192,72236,1,0,0:0:0:0:
288,192,72433,1,0,0:0:0:0:
288,192,72631,1,8,0:0:0:0:
256,192,73026,1,0,0:0:0:0:
256,192,73420,1,8,0:0:0:0:
256,192,73618,1,0,0:0:0:0:
256,192,74210,1,8,0:0:0:0:
256,192,74605,1,0,0:0:0:0:
256,192,74802,1,0,0:0:0:0:
256,192,74999,1,8,0:0:0:0:
256,192,75394,1,0,0:0:0:0:
256,192,75591,1,8,0:0:0:0:
256,192,75789,1,0,0:0:0:0:
256,192,75986,1,8,0:0:0:0:
256,224,76085,1,8,0:0:0:0:
256,192,76381,1,8,0:0:0:0:
256,192,76578,1,4,0:0:0:0:
256,192,76973,12,0,78947,0:0:0:0:
256,192,79144,5,8,0:0:0:0:
256,192,79341,1,0,0:0:0:0:
256,192,79539,1,8,0:0:0:0:
288,192,79736,1,0,0:0:0:0:
256,192,80131,5,12,0:0:0:0:
256,192,80921,1,0,0:0:0:0:
256,192,81118,1,0,0:0:0:0:
256,192,81315,1,8,0:0:0:0:
256,192,81512,1,0,0:0:0:0:
256,192,81907,1,8,0:0:0:0:
256,192,82105,1,8,0:0:0:0:
288,192,82302,1,0,0:0:0:0:
288,192,82401,1,0,0:0:0:0:
256,192,82499,1,0,0:0:0:0:
288,192,82697,1,8,0:0:0:0:
288,192,82894,1,0,0:0:0:0:
256,192,83289,1,8,0:0:0:0:
256,192,83683,1,8,0:0:0:0:
256,192,84078,1,0,0:0:0:0:
283,227,84276,1,0,0:0:0:0:
256,192,84473,1,8,0:0:0:0:
256,192,84670,1,0,0:0:0:0:
288,192,85065,1,8,0:0:0:0:
288,192,85262,1,0,0:0:0:0:
256,192,85460,1,8,0:0:0:0:
292,195,85558,1,8,0:0:0:0:
292,195,85657,1,8,0:0:0:0:
256,192,85855,1,0,0:0:0:0:
256,192,86052,1,8,0:0:0:0:
256,192,86447,1,12,0:0:0:0:
203,274,86841,1,8,0:0:0:0:
256,192,87236,1,0,0:0:0:0:
291,207,87433,1,0,0:0:0:0:
256,192,87631,1,8,0:0:0:0:
256,192,87828,1,8,0:0:0:0:
288,192,88223,1,8,0:0:0:0:
288,192,88420,1,8,0:0:0:0:
288,192,88618,1,0,0:0:0:0:
301,195,88716,1,0,0:0:0:0:
303,191,88815,1,0,0:0:0:0:
288,192,89012,1,8,0:0:0:0:
256,192,89210,1,8,0:0:0:0:
256,192,89605,1,0,0:0:0:0:
256,192,89999,1,8,0:0:0:0:
256,192,90394,1,0,0:0:0:0:
256,192,90591,1,0,0:0:0:0:
288,192,90789,1,8,0:0:0:0:
288,192,90986,1,0,0:0:0:0:
256,192,91183,1,8,0:0:0:0:
288,192,91381,1,8,0:0:0:0:
301,195,91480,1,8,0:0:0:0:
256,192,91578,1,8,0:0:0:0:
256,192,91973,1,0,0:0:0:0:
288,192,92170,1,8,0:0:0:0:
288,192,92368,1,0,0:0:0:0:
256,192,92466,1,0,0:0:0:0:
256,192,92565,1,0,0:0:0:0:
256,192,92762,1,12,0:0:0:0:
288,192,93552,1,0,0:0:0:0:
288,192,93749,1,0,0:0:0:0:
256,192,93947,1,8,0:0:0:0:
288,192,94144,1,0,0:0:0:0:
290,202,94539,1,8,0:0:0:0:
256,192,94736,1,8,0:0:0:0:
288,192,94933,1,0,0:0:0:0:
288,192,95328,1,8,0:0:0:0:
288,192,95526,1,0,0:0:0:0:
256,192,95920,1,8,0:0:0:0:
256,192,96315,1,8,0:0:0:0:
256,192,96512,1,8,0:0:0:0:
256,192,96710,1,0,0:0:0:0:
256,192,97105,1,8,0:0:0:0:
288,192,97302,1,0,0:0:0:0:
288,192,97697,1,0,0:0:0:0:
288,192,97894,1,8,0:0:0:0:
288,192,98091,1,0,0:0:0:0:
224,192,98486,1,8,0:0:0:0:
256,192,98683,1,0,0:0:0:0:
256,192,99078,1,12,0:0:0:0:
256,192,99473,1,8,0:0:0:0:
256,192,99670,1,8,0:0:0:0:
256,192,99868,1,0,0:0:0:0:
277,196,99966,1,0,0:0:0:0:
281,204,100065,1,0,0:0:0:0:
256,192,100262,1,8,0:0:0:0:
288,192,100460,1,0,0:0:0:0:
288,192,100855,1,8,0:0:0:0:
288,192,101052,1,0,0:0:0:0:
285,203,101249,1,8,0:0:0:0:
281,202,101348,1,8,0:0:0:0:
285,203,101447,1,8,0:0:0:0:
256,192,101644,1,8,0:0:0:0:
256,192,101841,1,8,0:0:0:0:
256,192,102236,1,8,0:0:0:0:
288,192,102433,1,0,0:0:0:0:
288,192,102631,1,8,0:0:0:0:
288,192,102828,1,8,0:0:0:0:
256,192,103026,1,0,0:0:0:0:
288,192,103420,1,8,0:0:0:0:
288,192,103618,1,0,0:0:0:0:
256,192,103815,1,8,0:0:0:0:
288,192,104012,1,0,0:0:0:0:
256,192,104210,1,8,0:0:0:0:
256,192,104605,1,0,0:0:0:0:
288,192,104802,1,0,0:0:0:0:
288,192,104999,1,12,0:0:0:0:
256,192,105394,1,4,0:0:0:0:
288,192,106183,1,8,0:0:0:0:
256,192,106578,1,8,0:0:0:0:
256,192,106973,1,0,0:0:0:0:
288,192,107170,1,0,0:0:0:0:
256,192,107368,1,8,0:0:0:0:
288,192,107762,1,0,0:0:0:0:
256,192,108157,1,8,0:0:0:0:
256,192,108552,1,0,0:0:0:0:
288,192,108749,1,0,0:0:0:0:
256,192,108947,1,8,0:0:0:0:
288,192,109341,1,0,0:0:0:0:
288,192,109539,1,8,0:0:0:0:
256,192,109736,1,8,0:0:0:0:
256,192,110131,1,0,0:0:0:0:
288,192,110526,1,8,0:0:0:0:
288,192,110723,1,8,0:0:0:0:
288,192,110822,1,8,0:0:0:0:
288,192,110920,1,8,0:0:0:0:
288,192,111118,1,8,0:0:0:0:
288,192,111216,1,8,0:0:0:0:
256,192,111315,1,8,0:0:0:0:
288,192,111512,1,0,0:0:0:0:
256,192,111710,1,4,0:0:0:0:
288,192,112105,1,8,0:0:0:0:
256,192,112697,1,0,0:0:0:0:
256,192,112894,1,8,0:0:0:0:
256,192,113289,1,0,0:0:0:0:
288,192,113683,1,8,0:0:0:0:
288,192,113881,1,0,0:0:0:0:
256,192,114276,1,0,0:0:0:0:
256,192,114473,1,8,0:0:0:0:
256,192,114868,1,0,0:0:0:0:
288,192,115262,1,8,0:0:0:0:
256,192,115855,1,0,0:0:0:0:
288,192,116052,1,8,0:0:0:0:
256,192,116447,1,0,0:0:0:0:
288,192,116841,1,8,0:0:0:0:
288,192,117039,1,0,0:0:0:0:
256,192,117236,1,12,0:0:0:0:
256,192,117631,1,12,0:0:0:0:
224,256,117828,1,0,0:0:0:0:
