osu file format v14

[General]
AudioFilename: audio.mp3
AudioLeadIn: 0
PreviewTime: 59318
Countdown: 1
SampleSet: Soft
StackLeniency: 0.7
Mode: 3
LetterboxInBreaks: 0
SpecialStyle: 0
WidescreenStoryboard: 1

[Editor]
DistanceSpacing: 0.8
BeatDivisor: 4
GridSize: 32
TimelineZoom: 1.7

[Metadata]
Title:Sleepless days
TitleUnicode:Sleepless days
Artist:Nekomata Master feat. Mayumi Morinaga
ArtistUnicode:猫叉Master feat. Mayumi Morinaga
Creator:Arzenvald
Version:Insomnia
Source:SOUND VOLTEX IV HEAVENLY HAVEN
Tags:SDVX KONAMI BEMANI Kenryu toumetsu ikusa 鍵龍討滅戦 PON QUIZ MAGIC ACADEMY THE WORLD EVOLVE beatmania IIDX 25 senya
BeatmapID:1927503
BeatmapSetID:895356

[Difficulty]
HPDrainRate:8
CircleSize:4
OverallDifficulty:8
ApproachRate:5
SliderMultiplier:1.4
SliderTickRate:1

[Events]
//Background and Video events
0,0,"BG.jpg",0,0
//Break Periods
//Storyboard Layer 0 (Background)
//Storyboard Layer 1 (Fail)
//Storyboard Layer 2 (Pass)
//Storyboard Layer 3 (Foreground)
//Storyboard Layer 4 (Overlay)
//Storyboard Sound Samples

[TimingPoints]
595,319.148936170213,4,2,0,50,1,0
595,-142.857142857143,4,2,0,50,0,0
8254,-136.986301369863,4,2,0,50,0,0
8733,-131.578947368421,4,2,0,50,0,0
9212,-126.582278481013,4,2,0,50,0,0
10169,-121.951219512195,4,2,0,50,0,0
10807,-111.111111111111,4,2,0,50,0,0
20063,-114.942528735632,4,2,0,50,0,0
20382,-119.047619047619,4,2,0,50,0,0
20701,-133.333333333333,4,2,0,50,0,0
21020,-111.111111111111,4,2,0,50,0,0
32509,-250,4,2,0,50,0,0
32669,-111.111111111111,4,2,0,50,0,0
33786,-105.263157894737,4,2,0,50,0,0
49424,-111.111111111111,4,2,0,50,0,0
55967,-117.647058823529,4,2,0,50,0,0
56126,-125,4,2,0,50,0,0
56286,-133.333333333333,4,2,0,50,0,0
56446,-142.857142857143,4,2,0,50,0,0
58041,-116.279069767442,4,2,0,50,0,0
59318,-100,4,2,0,50,0,1
76871,-100,4,2,0,50,0,0
79743,-125,4,2,0,50,0,0
82297,338.983050847458,4,2,0,36,1,0
82297,-144.927536231884,4,2,0,36,0,0
82855,361.44578313253,4,2,0,36,1,8
82855,-147.058823529412,4,2,0,36,0,0
83493,387.096774193548,4,2,0,36,1,0
83493,-149.253731343284,4,2,0,36,0,0

[HitObjects]
320,192,595,5,0,0:0:0:0:
192,192,595,128,4,1073:0:0:0:0:
448,192,1073,128,0,1552:0:0:0:0:
320,192,1392,1,0,0:0:0:0:
64,192,1552,128,0,2509:0:0:0:0:
320,192,2988,1,0,0:0:0:0:
192,192,3068,1,0,0:0:0:0:
64,192,3148,128,0,3626:0:0:0:0:
320,192,3626,128,0,4105:0:0:0:0:
192,192,3946,1,0,0:0:0:0:
448,192,4105,128,0,4743:0:0:0:0:
320,192,5063,128,0,5382:0:0:0:0:
448,192,5382,128,0,5701:0:0:0:0:
192,192,5701,128,0,6180:0:0:0:0:
64,192,6020,1,0,0:0:0:0:
448,192,6180,128,0,6658:0:0:0:0:
320,192,6499,1,0,0:0:0:0:
192,192,6579,1,0,0:0:0:0:
64,192,6658,128,0,7616:0:0:0:0:
448,192,8254,128,0,8573:0:0:0:0:
192,192,8733,128,0,9052:0:0:0:0:
448,192,9052,1,0,0:0:0:0:
64,192,9212,128,0,9531:0:0:0:0:
320,192,9212,128,0,10169:0:0:0:0:
192,192,10169,1,0,0:0:0:0:
320,192,10249,1,0,0:0:0:0:
64,192,10329,1,0,0:0:0:0:
192,192,10408,1,0,0:0:0:0:
320,192,10488,1,0,0:0:0:0:
192,192,10568,1,0,0:0:0:0:
320,192,10648,1,0,0:0:0:0:
448,192,10727,1,0,0:0:0:0:
64,192,10807,1,6,0:0:0:0:
192,192,10807,1,4,3:0:0:0:
320,192,10967,1,0,0:0:0:0:
64,192,11126,1,2,0:0:0:0:
192,192,11126,1,4,3:0:0:0:
192,192,11286,1,0,0:0:0:0:
320,192,11446,1,8,0:0:0:0:
448,192,11446,1,0,0:0:0:0:
192,192,11446,1,0,0:0:0:0:
64,192,11605,1,0,0:0:0:0:
192,192,11765,1,4,3:0:0:0:
448,192,11765,1,0,0:0:0:0:
320,192,11924,1,0,0:0:0:0:
192,192,12084,1,2,0:0:0:0:
448,192,12084,1,4,3:0:0:0:
192,192,12243,1,0,0:0:0:0:
64,192,12403,1,2,0:0:0:0:
448,192,12403,1,4,3:0:0:0:
64,192,12563,1,0,0:0:0:0:
320,192,12722,1,8,0:0:0:0:
448,192,12722,1,0,0:0:0:0:
64,192,12722,1,0,0:0:0:0:
192,192,12882,1,0,0:0:0:0:
64,192,13041,1,4,3:0:0:0:
448,192,13041,1,0,0:0:0:0:
192,192,13201,1,0,0:0:0:0:
320,192,13360,1,2,0:0:0:0:
448,192,13360,1,4,3:0:0:0:
320,192,13520,1,0,0:0:0:0:
64,192,13680,1,2,0:0:0:0:
448,192,13680,1,4,3:0:0:0:
64,192,13839,1,0,0:0:0:0:
320,192,13999,1,8,0:0:0:0:
448,192,13999,1,0,0:0:0:0:
64,192,13999,1,0,0:0:0:0:
192,192,14158,1,0,0:0:0:0:
64,192,14318,1,4,3:0:0:0:
448,192,14318,1,0,0:0:0:0:
192,192,14477,1,0,0:0:0:0:
320,192,14637,1,2,0:0:0:0:
448,192,14637,1,4,3:0:0:0:
320,192,14797,1,0,0:0:0:0:
64,192,14956,1,2,0:0:0:0:
192,192,14956,1,4,3:0:0:0:
192,192,15116,1,0,0:0:0:0:
320,192,15275,1,8,0:0:0:0:
448,192,15275,128,0,15595:0:0:0:0:
192,192,15275,1,0,0:0:0:0:
64,192,15435,1,0,0:0:0:0:
320,192,15595,128,4,15754:3:0:0:0:
64,192,15595,1,0,0:0:0:0:
192,192,15754,128,0,15914:0:0:0:0:
64,192,15914,1,2,0:0:0:0:
448,192,15914,1,4,3:0:0:0:
448,192,16073,1,0,0:0:0:0:
64,192,16233,1,2,0:0:0:0:
320,192,16233,1,4,3:0:0:0:
64,192,16392,1,0,0:0:0:0:
448,192,16392,128,0,16712:0:0:0:0:
192,192,16552,1,8,0:0:0:0:
64,192,16552,1,0,0:0:0:0:
320,192,16712,1,0,0:0:0:0:
192,192,16871,1,4,3:0:0:0:
64,192,16871,1,0,0:0:0:0:
448,192,17031,1,0,0:0:0:0:
64,192,17190,1,2,0:0:0:0:
320,192,17190,1,4,3:0:0:0:
320,192,17350,1,0,0:0:0:0:
64,192,17509,1,2,0:0:0:0:
192,192,17509,1,4,3:0:0:0:
64,192,17669,1,0,0:0:0:0:
320,192,17829,1,8,0:0:0:0:
448,192,17829,1,0,0:0:0:0:
64,192,17829,1,0,0:0:0:0:
192,192,17988,1,0,0:0:0:0:
64,192,18148,1,4,3:0:0:0:
320,192,18148,1,0,0:0:0:0:
448,192,18307,1,0,0:0:0:0:
64,192,18467,1,2,0:0:0:0:
192,192,18467,1,4,3:0:0:0:
192,192,18626,1,0,0:0:0:0:
64,192,18786,1,2,0:0:0:0:
320,192,18786,1,4,3:0:0:0:
320,192,18946,1,0,0:0:0:0:
192,192,19105,1,8,0:0:0:0:
448,192,19105,1,0,0:0:0:0:
320,192,19105,1,0,0:0:0:0:
64,192,19265,1,0,0:0:0:0:
192,192,19424,1,4,3:0:0:0:
448,192,19424,1,0,0:0:0:0:
448,192,19584,1,0,0:0:0:0:
192,192,19743,128,2,20063:0:0:0:0:
320,192,19743,1,4,3:0:0:0:
448,192,20063,128,0,20382:0:0:0:0:
64,192,20382,1,8,0:0:0:0:
320,192,20382,128,0,20701:0:0:0:0:
192,192,20382,1,0,0:0:0:0:
64,192,20701,1,2,0:0:0:0:
192,192,20701,128,4,21020:3:0:0:0:
64,192,21020,128,4,21339:0:0:0:0:
320,192,21020,1,2,0:0:0:0:
448,192,21020,1,4,3:0:0:0:
192,192,21180,1,0,0:0:0:0:
320,192,21339,1,2,0:0:0:0:
448,192,21339,1,4,3:0:0:0:
192,192,21499,1,0,0:0:0:0:
320,192,21658,1,8,0:0:0:0:
448,192,21658,1,0,0:0:0:0:
192,192,21658,1,0,0:0:0:0:
448,192,21818,1,0,0:0:0:0:
64,192,21977,1,4,3:0:0:0:
192,192,21977,1,0,0:0:0:0:
448,192,22137,1,0,0:0:0:0:
64,192,22297,1,2,0:0:0:0:
320,192,22297,128,4,22616:3:0:0:0:
448,192,22456,1,0,0:0:0:0:
64,192,22616,1,2,0:0:0:0:
192,192,22616,1,4,3:0:0:0:
448,192,22775,1,0,0:0:0:0:
192,192,22935,1,8,0:0:0:0:
448,192,22935,1,0,0:0:0:0:
320,192,22935,1,0,0:0:0:0:
320,192,23095,1,0,0:0:0:0:
64,192,23254,1,4,3:0:0:0:
192,192,23254,1,0,0:0:0:0:
320,192,23414,1,0,0:0:0:0:
192,192,23573,128,2,23892:0:0:0:0:
64,192,23573,1,4,3:0:0:0:
448,192,23733,1,0,0:0:0:0:
320,192,23892,1,2,0:0:0:0:
64,192,23892,1,4,3:0:0:0:
192,192,24052,1,0,0:0:0:0:
448,192,24212,1,0,0:0:0:0:
192,192,24212,1,8,0:0:0:0:
320,192,24212,1,0,0:0:0:0:
448,192,24371,1,0,0:0:0:0:
192,192,24531,1,4,3:0:0:0:
320,192,24531,1,0,0:0:0:0:
448,192,24690,1,0,0:0:0:0:
64,192,24850,128,2,25169:0:0:0:0:
192,192,24850,1,4,3:0:0:0:
448,192,25009,1,0,0:0:0:0:
320,192,25169,1,2,0:0:0:0:
192,192,25169,1,4,3:0:0:0:
448,192,25329,1,0,0:0:0:0:
320,192,25488,1,0,0:0:0:0:
192,192,25488,128,8,25807:0:0:0:0:
448,192,25488,1,0,0:0:0:0:
64,192,25648,1,0,0:0:0:0:
320,192,25807,1,4,3:0:0:0:
448,192,25807,1,0,0:0:0:0:
320,192,25967,1,0,0:0:0:0:
64,192,26126,1,2,0:0:0:0:
448,192,26126,128,4,26446:3:0:0:0:
64,192,26286,1,0,0:0:0:0:
192,192,26446,1,2,0:0:0:0:
320,192,26446,1,4,3:0:0:0:
448,192,26605,1,0,0:0:0:0:
448,192,26765,1,8,0:0:0:0:
192,192,26765,1,0,0:0:0:0:
320,192,26765,1,0,0:0:0:0:
320,192,26924,1,0,0:0:0:0:
192,192,27084,1,4,3:0:0:0:
448,192,27084,1,0,0:0:0:0:
64,192,27243,1,0,0:0:0:0:
192,192,27403,128,2,27722:0:0:0:0:
448,192,27403,1,4,3:0:0:0:
64,192,27563,1,0,0:0:0:0:
320,192,27722,1,2,0:0:0:0:
448,192,27722,1,4,3:0:0:0:
192,192,27882,1,0,0:0:0:0:
64,192,28041,128,8,28360:0:0:0:0:
192,192,28041,1,0,0:0:0:0:
320,192,28041,1,0,0:0:0:0:
320,192,28201,1,0,0:0:0:0:
192,192,28360,1,4,3:0:0:0:
448,192,28360,1,0,0:0:0:0:
64,192,28520,1,0,0:0:0:0:
64,192,28680,1,2,0:0:0:0:
448,192,28680,128,4,28999:3:0:0:0:
320,192,28839,1,0,0:0:0:0:
192,192,28999,1,2,0:0:0:0:
320,192,28999,1,4,3:0:0:0:
64,192,29158,1,0,0:0:0:0:
192,192,29318,1,0,0:0:0:0:
64,192,29318,1,8,0:0:0:0:
320,192,29318,128,0,29637:0:0:0:0:
448,192,29477,1,0,0:0:0:0:
64,192,29637,1,4,3:0:0:0:
192,192,29637,1,0,0:0:0:0:
448,192,29797,1,0,0:0:0:0:
192,192,29956,128,2,30275:0:0:0:0:
448,192,29956,1,4,3:0:0:0:
64,192,30116,1,0,0:0:0:0:
64,192,30275,1,2,0:0:0:0:
448,192,30275,1,4,3:0:0:0:
192,192,30435,1,0,0:0:0:0:
448,192,30435,1,0,0:0:0:0:
64,192,30595,1,8,0:0:0:0:
448,192,30595,1,0,0:0:0:0:
320,192,30595,1,0,0:0:0:0:
192,192,30754,1,0,0:0:0:0:
64,192,30914,1,4,3:0:0:0:
320,192,30914,1,0,0:0:0:0:
448,192,31073,128,0,31233:0:0:0:0:
64,192,31233,1,4,0:0:0:0:
192,192,31233,1,2,0:0:0:0:
320,192,31233,1,4,3:0:0:0:
64,192,31392,1,0,0:0:0:0:
192,192,31552,1,2,0:0:0:0:
320,192,31552,1,4,3:0:0:0:
448,192,31712,1,0,0:0:0:0:
320,192,31871,1,8,0:0:0:0:
448,192,31871,1,0,0:0:0:0:
320,192,32031,1,0,0:0:0:0:
64,192,32190,1,4,3:0:0:0:
192,192,32190,1,0,0:0:0:0:
192,192,32350,1,0,0:0:0:0:
64,192,32509,1,2,0:0:0:0:
320,192,32509,1,4,3:0:0:0:
448,192,32509,1,0,0:0:0:0:
192,192,32829,128,0,32908:0:0:0:0:
320,192,32988,128,0,33068:0:0:0:0:
448,192,32988,128,0,33307:0:0:0:0:
64,192,33148,128,0,33227:0:0:0:0:
192,192,33307,128,4,33387:3:0:0:0:
320,192,33467,128,0,33946:1:0:0:0:
448,192,33467,128,0,33946:0:0:0:0:
64,192,33786,1,4,0:0:0:0:
192,192,33786,1,4,3:0:0:0:
64,192,34105,1,0,1:0:0:0:
192,192,34105,1,0,0:0:0:0:
448,192,34105,128,0,34185:0:0:0:0:
320,192,34265,128,0,34345:0:0:0:0:
64,192,34424,1,0,0:0:0:0:
448,192,34424,128,0,34504:0:0:0:0:
320,192,34584,128,4,34664:3:0:0:0:
448,192,34584,1,0,0:0:0:0:
64,192,34743,1,0,1:0:0:0:
192,192,34743,128,0,34823:0:0:0:0:
448,192,34743,1,0,0:0:0:0:
64,192,34903,128,0,35382:0:0:0:0:
320,192,35063,1,4,3:0:0:0:
448,192,35063,1,0,0:0:0:0:
320,192,35382,1,0,1:0:0:0:
192,192,35382,1,0,0:0:0:0:
448,192,35382,128,0,35701:0:0:0:0:
320,192,35701,128,0,36020:0:0:0:0:
64,192,35860,1,4,3:0:0:0:
64,192,36020,1,0,1:0:0:0:
192,192,36020,1,0,0:0:0:0:
448,192,36020,128,0,36499:0:0:0:0:
192,192,36339,1,4,3:0:0:0:
320,192,36339,128,0,36499:0:0:0:0:
192,192,36658,128,0,36738:1:0:0:0:
64,192,36658,1,0,0:0:0:0:
448,192,36658,1,0,0:0:0:0:
320,192,36818,128,0,36898:0:0:0:0:
64,192,36977,128,0,37057:0:0:0:0:
192,192,36977,1,0,0:0:0:0:
192,192,37137,128,4,37217:3:0:0:0:
320,192,37137,1,0,0:0:0:0:
64,192,37297,1,0,1:0:0:0:
320,192,37297,128,0,37376:0:0:0:0:
448,192,37297,1,0,0:0:0:0:
192,192,37456,128,0,37935:0:0:0:0:
64,192,37616,1,4,3:0:0:0:
320,192,37616,1,0,0:0:0:0:
64,192,37935,1,0,1:0:0:0:
448,192,37935,128,0,38254:0:0:0:0:
320,192,37935,1,0,0:0:0:0:
192,192,38254,128,0,38414:0:0:0:0:
320,192,38414,128,4,38573:3:0:0:0:
64,192,38573,128,0,38892:1:0:0:0:
192,192,38573,1,0,0:0:0:0:
448,192,38573,1,0,0:0:0:0:
320,192,38852,1,0,0:0:0:0:
192,192,38892,1,4,0:0:0:0:
448,192,38892,1,4,3:0:0:0:
64,192,39212,1,0,1:0:0:0:
320,192,39212,128,0,39291:0:0:0:0:
448,192,39212,1,0,0:0:0:0:
320,192,39371,128,0,39451:0:0:0:0:
192,192,39531,128,0,39610:0:0:0:0:
448,192,39531,1,0,0:0:0:0:
64,192,39690,128,4,39770:3:0:0:0:
320,192,39690,1,0,0:0:0:0:
64,192,39850,128,0,39930:1:0:0:0:
192,192,39850,1,0,0:0:0:0:
448,192,39850,1,0,0:0:0:0:
320,192,40009,128,0,40329:0:0:0:0:
64,192,40169,1,4,3:0:0:0:
192,192,40169,128,0,40329:0:0:0:0:
64,192,40488,1,0,1:0:0:0:
320,192,40488,128,0,40648:0:0:0:0:
448,192,40488,128,0,40648:0:0:0:0:
64,192,40807,128,0,40887:0:0:0:0:
192,192,40967,128,4,41047:3:0:0:0:
320,192,40967,1,0,0:0:0:0:
64,192,41126,1,0,1:0:0:0:
320,192,41126,128,0,41525:0:0:0:0:
448,192,41126,1,0,0:0:0:0:
64,192,41446,1,4,3:0:0:0:
192,192,41446,1,0,0:0:0:0:
320,192,41605,128,0,41685:0:0:0:0:
64,192,41765,1,0,1:0:0:0:
320,192,41765,128,0,41845:0:0:0:0:
448,192,41765,1,0,0:0:0:0:
320,192,41924,128,0,42004:0:0:0:0:
320,192,42084,128,0,42164:0:0:0:0:
448,192,42164,1,0,0:0:0:0:
192,192,42243,1,0,0:0:0:0:
320,192,42243,128,0,42323:0:0:0:0:
64,192,42403,1,0,1:0:0:0:
320,192,42403,1,0,0:0:0:0:
448,192,42403,1,0,0:0:0:0:
320,192,42563,128,0,42722:0:0:0:0:
64,192,42722,1,4,3:0:0:0:
448,192,42722,1,0,0:0:0:0:
320,192,42802,1,0,0:0:0:0:
192,192,42882,1,0,0:0:0:0:
320,192,42962,1,0,0:0:0:0:
64,192,43041,1,0,1:0:0:0:
192,192,43041,1,0,0:0:0:0:
448,192,43041,1,0,0:0:0:0:
320,192,43121,1,0,0:0:0:0:
448,192,43201,1,0,0:0:0:0:
64,192,43281,1,0,0:0:0:0:
192,192,43360,1,0,0:0:0:0:
320,192,43440,1,0,0:0:0:0:
64,192,43520,1,4,3:0:0:0:
448,192,43520,1,0,0:0:0:0:
192,192,43600,1,0,0:0:0:0:
64,192,43680,1,0,1:0:0:0:
320,192,43680,1,0,0:0:0:0:
448,192,43680,1,0,0:0:0:0:
192,192,43759,1,0,0:0:0:0:
320,192,43839,1,0,0:0:0:0:
448,192,43919,1,0,0:0:0:0:
64,192,43999,1,4,0:0:0:0:
192,192,43999,1,4,3:0:0:0:
320,192,43999,1,0,0:0:0:0:
64,192,44158,1,0,0:0:0:0:
64,192,44318,1,0,1:0:0:0:
320,192,44318,1,0,0:0:0:0:
448,192,44318,128,0,44398:0:0:0:0:
192,192,44477,128,0,44557:0:0:0:0:
64,192,44637,1,0,0:0:0:0:
448,192,44637,128,0,44717:0:0:0:0:
192,192,44797,1,4,3:0:0:0:
320,192,44797,128,0,44876:0:0:0:0:
64,192,44956,1,0,1:0:0:0:
192,192,44956,128,0,45036:0:0:0:0:
448,192,44956,1,0,0:0:0:0:
64,192,45116,128,0,45196:0:0:0:0:
192,192,45275,128,4,45595:3:0:0:0:
448,192,45275,1,0,0:0:0:0:
64,192,45595,1,0,1:0:0:0:
320,192,45595,1,0,0:0:0:0:
448,192,45595,128,0,45914:0:0:0:0:
64,192,45914,128,0,46233:0:0:0:0:
320,192,46073,1,4,3:0:0:0:
192,192,46233,1,0,1:0:0:0:
320,192,46233,128,0,46712:0:0:0:0:
448,192,46233,1,0,0:0:0:0:
64,192,46552,1,4,3:0:0:0:
448,192,46552,128,0,46712:0:0:0:0:
64,192,46871,1,0,1:0:0:0:
192,192,46871,128,0,46951:0:0:0:0:
448,192,46871,1,0,0:0:0:0:
320,192,47031,128,0,47110:0:0:0:0:
64,192,47190,128,0,47270:0:0:0:0:
448,192,47190,1,0,0:0:0:0:
64,192,47350,1,4,3:0:0:0:
192,192,47350,128,0,47430:0:0:0:0:
64,192,47509,1,0,1:0:0:0:
320,192,47509,128,0,47589:0:0:0:0:
448,192,47509,1,0,0:0:0:0:
448,192,47669,128,0,48068:0:0:0:0:
64,192,47829,1,4,3:0:0:0:
192,192,47829,1,0,0:0:0:0:
64,192,48148,1,0,1:0:0:0:
320,192,48148,128,0,48467:0:0:0:0:
448,192,48148,1,0,0:0:0:0:
448,192,48467,128,0,48626:0:0:0:0:
192,192,48626,128,4,48786:3:0:0:0:
64,192,48786,128,0,49105:1:0:0:0:
320,192,48786,1,0,0:0:0:0:
448,192,48786,1,0,0:0:0:0:
320,192,49065,1,0,0:0:0:0:
192,192,49105,1,4,0:0:0:0:
448,192,49105,1,4,3:0:0:0:
64,192,49424,1,4,3:0:0:0:
320,192,49424,128,0,49504:0:0:0:0:
448,192,49424,1,0,0:0:0:0:
320,192,49584,128,0,49664:0:0:0:0:
64,192,49743,1,0,1:0:0:0:
192,192,49743,128,0,49983:0:0:0:0:
448,192,49743,1,0,0:0:0:0:
320,192,49903,128,0,49983:0:0:0:0:
64,192,50063,128,4,50142:3:0:0:0:
448,192,50063,1,0,0:0:0:0:
192,192,50222,128,0,50302:0:0:0:0:
64,192,50382,1,4,3:0:0:0:
448,192,50382,128,0,50860:0:0:0:0:
64,192,50701,1,4,3:0:0:0:
320,192,50701,128,0,50860:0:0:0:0:
64,192,51020,128,0,51100:1:0:0:0:
320,192,51020,1,0,0:0:0:0:
448,192,51020,1,0,0:0:0:0:
192,192,51180,128,0,51259:0:0:0:0:
64,192,51339,1,4,0:0:0:0:
192,192,51339,1,4,3:0:0:0:
320,192,51339,128,0,51419:0:0:0:0:
448,192,51339,128,0,52297:0:0:0:0:
64,192,51658,1,4,3:0:0:0:
192,192,51658,1,0,0:0:0:0:
64,192,51977,1,4,3:0:0:0:
192,192,51977,1,0,0:0:0:0:
64,192,52297,1,0,1:0:0:0:
192,192,52297,1,0,0:0:0:0:
320,192,52297,1,0,0:0:0:0:
192,192,52616,128,4,52696:3:0:0:0:
320,192,52616,1,0,0:0:0:0:
64,192,52775,128,0,52855:0:0:0:0:
64,192,52935,1,4,3:0:0:0:
320,192,52935,128,0,53254:0:0:0:0:
64,192,53254,128,4,53573:3:0:0:0:
192,192,53254,1,0,0:0:0:0:
448,192,53493,128,0,53573:0:0:0:0:
192,192,53573,1,0,1:0:0:0:
320,192,53573,128,0,53653:0:0:0:0:
64,192,53733,128,0,53813:0:0:0:0:
64,192,53892,1,4,0:0:0:0:
192,192,53892,1,4,3:0:0:0:
320,192,53892,1,0,0:0:0:0:
448,192,53892,128,0,54850:0:0:0:0:
64,192,54212,1,4,3:0:0:0:
192,192,54212,1,0,0:0:0:0:
64,192,54531,1,4,3:0:0:0:
192,192,54531,1,0,0:0:0:0:
64,192,54850,1,0,1:0:0:0:
192,192,54850,1,0,0:0:0:0:
320,192,54850,1,0,0:0:0:0:
64,192,55169,1,4,3:0:0:0:
192,192,55169,128,0,55249:0:0:0:0:
320,192,55329,128,0,55408:0:0:0:0:
64,192,55488,1,4,3:0:0:0:
448,192,55488,128,0,55807:0:0:0:0:
64,192,55807,1,4,3:0:0:0:
320,192,55807,128,0,55887:0:0:0:0:
320,192,55967,128,0,56047:0:0:0:0:
64,192,56126,1,0,1:0:0:0:
192,192,56126,128,0,56206:0:0:0:0:
448,192,56126,1,0,0:0:0:0:
320,192,56286,128,0,56366:0:0:0:0:
64,192,56446,1,4,0:0:0:0:
192,192,56446,1,4,3:0:0:0:
320,192,56446,1,0,0:0:0:0:
448,192,56446,128,0,58680:0:0:0:0:
64,192,58041,128,0,58680:0:0:0:0:
192,192,58680,1,0,0:0:0:0:
320,192,58759,1,0,0:0:0:0:
448,192,58839,1,0,0:0:0:0:
192,192,58919,1,0,0:0:0:0:
320,192,58999,1,0,0:0:0:0:
64,192,59079,1,0,0:0:0:0:
192,192,59158,1,0,0:0:0:0:
320,192,59238,1,0,0:0:0:0:
64,192,59318,128,4,59637:0:0:0:0:
192,192,59318,1,4,3:0:0:0:
448,192,59318,1,0,0:0:0:0:
192,192,59637,1,0,1:0:0:0:
320,192,59637,1,0,0:0:0:0:
448,192,59637,128,0,59956:0:0:0:0:
320,192,59797,1,0,0:0:0:0:
64,192,59956,128,0,60275:0:0:0:0:
192,192,59956,1,0,0:0:0:0:
448,192,60116,1,4,3:0:0:0:
192,192,60275,1,0,1:0:0:0:
320,192,60275,1,0,0:0:0:0:
448,192,60275,128,0,60754:0:0:0:0:
192,192,60435,1,0,0:0:0:0:
320,192,60595,1,4,3:0:0:0:
192,192,60595,1,0,0:0:0:0:
64,192,60754,1,0,0:0:0:0:
192,192,60914,1,0,1:0:0:0:
320,192,60914,1,0,0:0:0:0:
448,192,60914,128,0,61073:0:0:0:0:
64,192,61073,1,0,0:0:0:0:
192,192,61153,1,0,0:0:0:0:
320,192,61233,1,0,0:0:0:0:
448,192,61233,128,0,61392:0:0:0:0:
64,192,61392,1,4,3:0:0:0:
192,192,61392,1,0,0:0:0:0:
64,192,61552,1,0,1:0:0:0:
320,192,61552,1,0,0:0:0:0:
448,192,61552,128,0,62031:0:0:0:0:
320,192,61712,1,0,0:0:0:0:
64,192,61871,1,4,3:0:0:0:
320,192,61871,1,0,0:0:0:0:
192,192,62031,1,0,0:0:0:0:
192,192,62190,1,0,0:0:0:0:
448,192,62190,1,0,0:0:0:0:
64,192,62190,128,0,62350:1:0:0:0:
448,192,62350,1,0,0:0:0:0:
320,192,62430,1,0,0:0:0:0:
192,192,62509,1,0,0:0:0:0:
64,192,62509,128,0,62669:0:0:0:0:
320,192,62669,1,4,3:0:0:0:
448,192,62669,128,0,62829:0:0:0:0:
192,192,62829,1,0,0:0:0:0:
320,192,62829,1,0,0:0:0:0:
64,192,62829,128,0,63706:1:0:0:0:
192,192,62988,1,0,0:0:0:0:
448,192,63148,1,4,3:0:0:0:
192,192,63148,1,0,0:0:0:0:
320,192,63307,1,0,0:0:0:0:
192,192,63467,1,0,1:0:0:0:
320,192,63467,1,0,0:0:0:0:
448,192,63467,1,0,0:0:0:0:
448,192,63626,1,0,0:0:0:0:
320,192,63706,1,0,0:0:0:0:
192,192,63786,1,0,0:0:0:0:
64,192,63786,1,0,0:0:0:0:
320,192,63946,1,4,3:0:0:0:
192,192,63946,1,0,0:0:0:0:
320,192,64105,1,0,0:0:0:0:
448,192,64105,1,0,0:0:0:0:
64,192,64105,128,0,64265:1:0:0:0:
192,192,64265,1,0,0:0:0:0:
320,192,64345,1,0,0:0:0:0:
64,192,64424,128,4,64584:0:0:0:0:
192,192,64424,1,4,3:0:0:0:
448,192,64424,1,0,0:0:0:0:
320,192,64584,1,0,0:0:0:0:
64,192,64743,1,0,1:0:0:0:
320,192,64743,1,0,0:0:0:0:
448,192,64743,128,0,65063:0:0:0:0:
192,192,64903,1,0,0:0:0:0:
64,192,65063,1,0,0:0:0:0:
192,192,65063,128,0,65222:0:0:0:0:
320,192,65222,1,4,3:0:0:0:
448,192,65222,1,0,0:0:0:0:
64,192,65382,1,0,1:0:0:0:
448,192,65382,1,0,0:0:0:0:
320,192,65382,128,0,65860:0:0:0:0:
64,192,65541,1,0,0:0:0:0:
448,192,65701,1,0,0:0:0:0:
64,192,65701,1,4,3:0:0:0:
192,192,65860,1,0,0:0:0:0:
64,192,66020,1,0,1:0:0:0:
192,192,66020,128,0,66339:0:0:0:0:
448,192,66020,1,0,0:0:0:0:
320,192,66180,1,0,0:0:0:0:
448,192,66339,1,0,0:0:0:0:
320,192,66339,128,0,66499:0:0:0:0:
192,192,66499,1,4,3:0:0:0:
64,192,66499,1,0,0:0:0:0:
192,192,66658,128,0,67137:1:0:0:0:
64,192,66658,1,0,0:0:0:0:
448,192,66658,1,0,0:0:0:0:
448,192,66818,1,0,0:0:0:0:
448,192,66977,1,0,0:0:0:0:
64,192,66977,1,4,3:0:0:0:
320,192,67137,1,0,0:0:0:0:
64,192,67297,1,0,1:0:0:0:
320,192,67297,128,0,67616:0:0:0:0:
448,192,67297,1,0,0:0:0:0:
448,192,67456,1,0,0:0:0:0:
64,192,67616,1,0,0:0:0:0:
192,192,67616,128,0,67935:0:0:0:0:
320,192,67775,1,4,3:0:0:0:
448,192,67775,1,0,0:0:0:0:
64,192,67935,1,0,1:0:0:0:
320,192,67935,1,0,0:0:0:0:
448,192,67935,128,0,68892:0:0:0:0:
64,192,68095,1,0,0:0:0:0:
64,192,68254,1,4,3:0:0:0:
320,192,68254,1,0,0:0:0:0:
192,192,68414,1,0,0:0:0:0:
64,192,68573,1,0,1:0:0:0:
320,192,68573,1,0,0:0:0:0:
192,192,68573,1,0,0:0:0:0:
320,192,68733,1,0,0:0:0:0:
64,192,68892,1,0,0:0:0:0:
192,192,68892,1,0,0:0:0:0:
448,192,69052,1,4,3:0:0:0:
320,192,69052,1,0,0:0:0:0:
64,192,69212,1,0,1:0:0:0:
448,192,69212,128,0,69371:0:0:0:0:
192,192,69212,1,0,0:0:0:0:
320,192,69291,1,0,0:0:0:0:
64,192,69371,1,0,0:0:0:0:
192,192,69451,1,0,0:0:0:0:
64,192,69531,1,4,3:0:0:0:
320,192,69531,1,4,0:0:0:0:
448,192,69531,128,0,69690:0:0:0:0:
192,192,69690,1,0,0:0:0:0:
64,192,69850,128,0,70169:1:0:0:0:
192,192,69850,1,0,0:0:0:0:
448,192,69850,1,0,0:0:0:0:
320,192,70009,1,0,0:0:0:0:
320,192,70169,1,0,0:0:0:0:
448,192,70169,128,0,70488:0:0:0:0:
64,192,70329,1,4,3:0:0:0:
64,192,70488,128,0,70967:1:0:0:0:
192,192,70488,1,0,0:0:0:0:
320,192,70488,1,0,0:0:0:0:
320,192,70648,1,0,0:0:0:0:
320,192,70807,1,4,3:0:0:0:
448,192,70807,1,0,0:0:0:0:
192,192,70967,1,0,0:0:0:0:
320,192,71126,1,0,0:0:0:0:
448,192,71126,1,0,0:0:0:0:
64,192,71126,128,0,71286:1:0:0:0:
192,192,71286,1,0,0:0:0:0:
320,192,71446,1,0,0:0:0:0:
64,192,71446,128,0,71605:0:0:0:0:
320,192,71605,1,4,3:0:0:0:
448,192,71605,1,0,0:0:0:0:
64,192,71765,1,0,1:0:0:0:
192,192,71765,128,0,72084:0:0:0:0:
448,192,71765,1,0,0:0:0:0:
64,192,71924,1,0,0:0:0:0:
64,192,72084,1,4,3:0:0:0:
448,192,72084,1,0,0:0:0:0:
320,192,72243,1,0,0:0:0:0:
320,192,72403,1,0,0:0:0:0:
448,192,72403,1,0,0:0:0:0:
64,192,72403,128,0,72563:1:0:0:0:
192,192,72563,1,0,0:0:0:0:
448,192,72642,1,0,0:0:0:0:
192,192,72722,1,0,0:0:0:0:
64,192,72722,128,0,72882:0:0:0:0:
320,192,72882,1,4,3:0:0:0:
448,192,72882,128,0,73041:0:0:0:0:
64,192,73041,1,0,1:0:0:0:
192,192,73041,1,0,0:0:0:0:
320,192,73041,128,0,73360:0:0:0:0:
192,192,73201,1,0,0:0:0:0:
192,192,73360,1,4,3:0:0:0:
448,192,73360,1,0,0:0:0:0:
64,192,73520,1,0,0:0:0:0:
64,192,73680,1,0,1:0:0:0:
320,192,73680,1,0,0:0:0:0:
448,192,73680,1,0,0:0:0:0:
192,192,73839,1,0,0:0:0:0:
320,192,73919,1,0,0:0:0:0:
192,192,73999,1,0,0:0:0:0:
64,192,73999,128,0,74158:0:0:0:0:
448,192,74158,1,0,0:0:0:0:
320,192,74158,128,4,74318:3:0:0:0:
192,192,74318,1,0,0:0:0:0:
448,192,74318,1,0,0:0:0:0:
64,192,74318,128,0,74956:1:0:0:0:
320,192,74477,1,0,0:0:0:0:
448,192,74557,1,0,0:0:0:0:
320,192,74637,1,4,0:0:0:0:
192,192,74637,1,4,3:0:0:0:
192,192,74797,1,0,0:0:0:0:
192,192,74956,1,0,1:0:0:0:
320,192,74956,1,0,0:0:0:0:
448,192,74956,1,0,0:0:0:0:
64,192,75116,1,0,0:0:0:0:
192,192,75275,1,0,0:0:0:0:
64,192,75275,128,0,75435:0:0:0:0:
320,192,75435,1,0,0:0:0:0:
192,192,75435,128,4,75595:3:0:0:0:
64,192,75595,128,0,76233:1:0:0:0:
320,192,75595,1,0,0:0:0:0:
448,192,75595,1,0,0:0:0:0:
448,192,75754,1,0,0:0:0:0:
192,192,75914,1,4,3:0:0:0:
320,192,75914,1,0,0:0:0:0:
192,192,76073,1,0,0:0:0:0:
448,192,76233,1,0,1:0:0:0:
320,192,76233,1,0,0:0:0:0:
192,192,76233,128,0,76552:0:0:0:0:
448,192,76392,1,0,0:0:0:0:
320,192,76472,1,0,0:0:0:0:
64,192,76552,128,4,76871:3:0:0:0:
448,192,76552,1,0,0:0:0:0:
192,192,76871,1,4,0:0:0:0:
320,192,76871,1,0,1:0:0:0:
448,192,76871,128,0,79743:0:0:0:0:
192,192,78626,1,0,0:0:0:0:
64,192,78706,1,0,0:0:0:0:
320,192,78786,1,0,0:0:0:0:
192,192,78866,1,0,0:0:0:0:
64,192,78946,1,0,0:0:0:0:
320,192,79025,1,0,0:0:0:0:
64,192,79105,128,0,79743:0:0:0:0:
192,192,79743,1,4,3:0:0:0:
320,192,79743,1,0,0:0:0:0:
448,192,80222,1,0,0:0:0:0:
320,192,80541,1,0,0:0:0:0:
192,192,80621,1,0,0:0:0:0:
64,192,80701,1,0,0:0:0:0:
192,192,82137,1,0,0:0:0:0:
320,192,82217,1,0,0:0:0:0:
64,192,82297,1,2,0:0:0:0:
448,192,82297,128,0,82855:0:0:0:0:
192,192,82855,1,2,0:0:0:0:
320,192,82855,128,0,83487:0:0:0:0:
192,192,83306,1,0,0:0:0:0:
64,192,83487,128,0,87751:0:0:0:0:
448,192,83487,1,0,0:0:0:0:
