osu file format v14

[General]
AudioFilename: audio.mp3
AudioLeadIn: 0
PreviewTime: 59318
Countdown: 0
SampleSet: Soft
StackLeniency: 0.7
Mode: 0
LetterboxInBreaks: 0
WidescreenStoryboard: 0

[Editor]
DistanceSpacing: 1.7
BeatDivisor: 4
GridSize: 32
TimelineZoom: 1.4

[Metadata]
Title:Sleepless Days
TitleUnicode:Sleepless Days
Artist:Nekomata Master feat. Mayumi Morinaga
ArtistUnicode:猫叉Master feat. Mayumi Morinaga
Creator:Sajinn
Version:MAXIMUM
Source:クイズマジックアカデミー THE WORLD EVOLVE
Tags:japanese video game electronic xahlt Kuon- smoke ayyri eiri- THE WORLD EVOLVE 鍵龍討滅戦 beatmania IIDX 25 CANNON BALLERS SOUND VOLTEX IV HEAVENLY HAVEN senya quiz magic academy moimoi bemani konami
BeatmapID:3077522
BeatmapSetID:1502048

[Difficulty]
HPDrainRate:5.2
CircleSize:4.4
OverallDifficulty:9.1
ApproachRate:9.2
SliderMultiplier:2.02
SliderTickRate:1

[Events]
//Background and Video events
0,0,"SBG.jpg",0,0
//Break Periods
//Storyboard Layer 0 (Background)
//Storyboard Layer 1 (Fail)
//Storyboard Layer 2 (Pass)
//Storyboard Layer 3 (Foreground)
//Storyboard Layer 4 (Overlay)
//Storyboard Sound Samples

[TimingPoints]
595,319.148936170213,4,2,22,42,1,0
595,-192.307692307693,4,2,22,42,0,0
5621,-192.307692307693,4,2,22,5,0,0
5701,-192.307692307693,4,2,22,42,0,0
10169,-833.333333333347,4,2,22,42,0,0
10727,-192.307692307693,4,2,22,5,0,0
10807,-75.7575757575759,4,2,22,52,0,0
11047,-192.307692307693,4,2,22,5,0,0
11126,-75.7575757575759,4,2,22,52,0,0
12084,-138.888888888889,4,2,22,52,0,0
14557,-192.307692307693,4,2,22,5,0,0
14637,-138.888888888889,4,2,22,52,0,0
18706,-192.307692307693,4,2,22,5,0,0
18786,-138.888888888889,4,2,22,52,0,0
19345,-192.307692307693,4,2,22,5,0,0
19425,-138.888888888889,4,2,22,52,0,0
21020,-75.7575757575759,4,2,22,52,0,0
21259,-192.307692307693,4,2,22,5,0,0
21339,-138.888888888889,4,2,22,52,0,0
25727,-192.307692307693,4,2,22,5,0,0
25807,-138.888888888889,4,2,22,52,0,0
30196,-192.307692307693,4,2,22,5,0,0
30276,-138.888888888889,4,2,22,52,0,0
31153,-192.307692307693,4,2,22,5,0,0
31233,-98.0392156862745,4,2,22,52,0,0
31712,-138.888888888889,4,2,22,52,0,0
33467,-312.500000000001,4,2,22,52,0,0
33706,-192.307692307693,4,2,22,5,0,0
33786,-75.7575757575758,4,2,22,62,0,0
34025,-192.307692307693,4,2,22,5,0,0
34105,-108.695652173913,4,2,22,62,0,0
34185,-192.307692307693,4,2,22,5,0,0
34265,-108.695652173913,4,2,22,62,0,0
35302,-192.307692307693,4,2,22,5,0,0
35382,-108.695652173913,4,2,22,62,0,0
35621,-192.307692307693,4,2,22,5,0,0
35701,-108.695652173913,4,2,22,62,0,0
36100,-192.307692307693,4,2,22,5,0,0
36180,-108.695652173913,4,2,22,62,0,0
36579,-192.307692307693,4,2,22,5,0,0
36659,-108.695652173913,4,2,22,62,0,0
37376,-192.307692307693,4,2,22,5,0,0
37456,-108.695652173913,4,2,22,62,0,0
38892,-75.7575757575758,4,2,22,62,0,0
39132,-192.307692307693,4,2,22,5,0,0
39211,-108.695652173913,4,2,22,62,0,0
39291,-192.307692307693,4,2,22,5,0,0
39371,-108.695652173913,4,2,22,62,0,0
40727,-192.307692307693,4,2,22,5,0,0
40807,-108.695652173913,4,2,22,62,0,0
43440,-192.307692307693,4,2,22,5,0,0
43520,-108.695652173913,4,2,22,62,0,0
43600,-192.307692307693,4,2,22,5,0,0
43680,-108.695652173913,4,2,22,62,0,0
43759,-192.307692307693,4,2,22,5,0,0
43839,-108.695652173913,4,2,22,62,0,0
43919,-192.307692307693,4,2,22,5,0,0
43999,-75.7575757575758,4,2,22,62,0,0
44238,-192.307692307693,4,2,22,5,0,0
44318,-108.695652173913,4,2,22,62,0,0
44398,-192.307692307693,4,2,22,5,0,0
44478,-108.695652173913,4,2,22,62,0,0
45515,-192.307692307693,4,2,22,5,0,0
45595,-108.695652173913,4,2,22,62,0,0
45834,-192.307692307693,4,2,22,5,0,0
45914,-108.695652173913,4,2,22,62,0,0
46313,-192.307692307693,4,2,22,5,0,0
46393,-108.695652173913,4,2,22,62,0,0
46791,-192.307692307693,4,2,22,5,0,0
46871,-108.695652173913,4,2,22,62,0,0
47589,-192.307692307693,4,2,22,5,0,0
47669,-108.695652173913,4,2,22,62,0,0
49345,-192.307692307693,4,2,22,5,0,0
49424,-138.888888888889,4,2,22,52,0,0
56446,-833.333333333333,4,2,22,52,0,0
56525,-192.307692307693,4,2,22,5,0,0
59318,-70.4225352112676,4,2,22,72,0,0
59557,-192.307692307693,4,2,22,5,0,0
59637,-81.9672131147541,4,2,22,72,0,0
60515,-192.307692307693,4,2,22,5,0,0
60595,-81.9672131147541,4,2,22,72,0,0
60834,-192.307692307693,4,2,22,5,0,0
60914,-81.9672131147541,4,2,22,72,0,0
61791,-192.307692307693,4,2,22,5,0,0
61871,-81.9672131147541,4,2,22,72,0,0
62430,-192.307692307693,4,2,22,5,0,0
62510,-81.9672131147541,4,2,22,72,0,0
63227,-192.307692307693,4,2,22,5,0,0
63307,-81.9672131147541,4,2,22,72,0,0
63866,-192.307692307693,4,2,22,5,0,0
63946,-81.9672131147541,4,2,22,72,0,0
64424,-70.4225352112676,4,2,22,72,0,0
64664,-192.307692307693,4,2,22,5,0,0
64743,-81.9672131147541,4,2,22,72,0,0
65621,-192.307692307693,4,2,22,5,0,0
65700,-81.9672131147541,4,2,22,72,0,0
65940,-192.307692307693,4,2,22,5,0,0
66019,-81.9672131147541,4,2,22,72,0,0
67217,-192.307692307693,4,2,22,5,0,0
67296,-81.9672131147541,4,2,22,72,0,0
68972,-192.307692307693,4,2,22,5,0,0
69051,-81.9672131147541,4,2,22,72,0,0
69132,-192.307692307693,4,2,22,5,0,0
69211,-81.9672131147541,4,2,22,72,0,0
69291,-192.307692307693,4,2,22,5,0,0
69370,-81.9672131147541,4,2,22,72,0,0
69451,-192.307692307693,4,2,22,5,0,0
69531,-70.4225352112676,4,2,22,72,0,0
69770,-192.307692307693,4,2,22,5,0,0
69850,-81.9672131147541,4,2,22,72,0,0
70727,-192.307692307693,4,2,22,5,0,0
70806,-81.9672131147541,4,2,22,72,0,0
71047,-192.307692307693,4,2,22,5,0,0
71126,-81.9672131147541,4,2,22,72,0,0
71366,-192.307692307693,4,2,22,5,0,0
71445,-81.9672131147541,4,2,22,72,0,0
72323,-192.307692307693,4,2,22,5,0,0
72402,-81.9672131147541,4,2,22,72,0,0
73600,-192.307692307693,4,2,22,5,0,0
73679,-81.9672131147541,4,2,22,72,0,0
74557,-192.307692307693,4,2,22,5,0,0
74636,-81.9672131147541,4,2,22,72,0,0
74876,-192.307692307693,4,2,22,5,0,0
74955,-81.9672131147541,4,2,22,72,0,0
76153,-192.307692307693,4,2,22,5,0,0
76232,-81.9672131147541,4,2,22,72,0,0
76871,-833.333333333333,4,2,22,72,0,0
76951,-192.307692307693,4,2,22,5,0,0
79743,-833.333333333333,4,2,22,42,0,0
82217,-192.307692307693,4,2,22,5,0,0
82297,361.44578313253,4,2,22,42,1,0
82839,454.545454545455,4,2,22,42,1,0
82839,-833.333333333333,4,2,22,42,0,0
83491,500,4,2,22,42,1,0
83491,-833.333333333333,4,2,22,42,0,0
83616,-192.307692307693,4,2,22,5,0,0

[Colours]
Combo1 : 159,255,255
Combo2 : 187,187,255
Combo3 : 255,170,255
Combo4 : 177,255,100

[HitObjects]
77,161,595,6,0,P|141:151|195:133,1,105.039999358887,6|0,0:2|0:2,0:2:0:0:
280,256,1073,2,0,P|229:241|177:234,1,105.039999358887,2|0,0:2|0:2,0:2:0:0:
290,272,1552,1,2,0:2:0:0:
301,282,1871,5,0,0:2:0:0:
363,318,2190,1,0,0:2:0:0:
421,283,2509,1,0,0:2:0:0:
364,246,2829,1,0,0:2:0:0:
461,210,3068,5,2,0:2:0:0:
467,202,3148,2,0,P|438:167|428:86,1,105.039999358887,2|0,0:2|0:2,0:2:0:0:
305,132,3626,2,0,P|334:97|344:16,1,105.039999358887,2|0,0:2|0:2,0:2:0:0:
149,71,4105,2,0,P|197:63|268:46,1,105.039999358887,2|0,0:2|0:2,0:2:0:0:
137,84,4743,5,0,0:2:0:0:
124,99,5063,6,0,P|109:139|105:172,1,52.5199996794434,2|0,0:2|0:2,0:2:0:0:
9,248,5382,2,0,P|39:221|92:232,1,78.779999519165,2|0,0:2|0:2,0:2:0:0:
86,238,5701,6,0,P|123:259|201:260,1,105.039999358887,2|0,0:2|0:2,0:2:0:0:
201,361,6180,2,0,P|247:337|299:334,1,105.039999358887,2|0,0:2|0:2,0:2:0:0:
303,323,6579,2,0,P|310:325|316:329,2,13.1299999198608,2|2|2,0:2|0:2|0:2,0:2:0:0:
397,384,6977,5,0,0:2:0:0:
446,335,7297,1,0,0:2:0:0:
409,280,7616,1,0,0:2:0:0:
446,224,7935,1,0,0:2:0:0:
341,151,8174,5,2,0:2:0:0:
350,157,8254,2,0,P|384:188|445:175,1,105.039999358887,2|0,0:2|0:2,0:2:0:0:
512,52,8733,2,0,P|476:71|406:87,1,105.039999358887,2|0,0:2|0:2,0:2:0:0:
346,28,9212,6,0,P|334:42|328:55,11,26.2599998397217,2|0|0|0|0|0|0|0|0|0|0|0,0:2|0:2|0:2|0:2|0:2|0:2|0:2|0:2|0:2|0:2|0:2|0:2,0:2:0:0:
249,62,10169,6,0,P|260:87|263:103,1,42.4200010356446,2|0,0:2|0:2,0:2:0:0:
334,188,10807,6,0,B|279:167|238:210|238:210|220:277|141:267,1,199.979999389709,4|0,1:2|0:2,0:2:0:0:
158,262,11126,5,2,1:2:0:0:
74,217,11286,1,2,0:2:0:0:
8,335,11446,5,10,0:2:0:0:
74,300,11605,1,2,0:2:0:0:
196,353,11765,5,2,1:2:0:0:
255,384,11924,1,2,0:2:0:0:
415,337,12084,6,0,B|331:317|349:366|265:344,1,145.440003550781,2|0,1:2|1:2,0:2:0:0:
246,273,12563,1,0,0:2:0:0:
373,110,12722,2,0,P|398:144|375:184,1,72.7200017753907,10|0,0:2|0:2,0:2:0:0:
243,190,13041,2,0,P|190:179|142:162,1,72.7200017753907,2|0,1:2|0:2,0:2:0:0:
9,52,13360,6,0,B|44:41|65:20|65:20|69:74|111:93,1,145.440003550781,2|0,1:2|1:2,0:2:0:0:
227,111,13839,1,2,0:2:0:0:
183,245,13999,2,0,P|177:201|169:163,1,72.7200017753907,10|0,0:2|0:2,0:2:0:0:
28,263,14318,2,0,B|16:252|-4:252|-4:252|49:237|82:282,1,109.080002663086,2|0,1:2|0:2,0:2:0:0:
109,324,14637,6,0,B|193:295|168:371|248:356,1,145.440003550781,2|0,1:2|1:2,0:2:0:0:
378,369,15116,1,2,0:2:0:0:
297,233,15275,1,10,0:2:0:0:
367,276,15435,5,0,1:2:0:0:
313,321,15595,1,0,1:2:0:0:
383,269,15754,1,0,1:2:0:0:
239,285,15914,6,0,P|269:207|271:118,1,145.440003550781,0|2,1:2|1:2,0:2:0:0:
336,103,16392,1,0,0:2:0:0:
170,13,16552,5,10,0:2:0:0:
250,47,16712,1,2,0:2:0:0:
158,118,16871,5,2,1:2:0:0:
95,142,17031,1,2,0:2:0:0:
9,35,17190,6,0,P|46:87|58:194,1,145.440003550781,2|0,1:2|1:2,0:2:0:0:
15,227,17669,1,2,0:2:0:0:
195,337,17829,2,0,P|154:319|111:308,1,72.7200017753907,10|0,0:2|0:2,0:2:0:0:
228,181,18148,2,0,B|209:216|209:216|230:257,1,72.7200017753907,2|0,1:2|0:2,0:2:0:0:
427,329,18467,6,0,P|386:362|336:348,1,109.080002663086,2|0,1:2|0:2,0:2:0:0:
327,336,18786,1,2,1:2:0:0:
338,179,18946,1,2,0:2:0:0:
496,269,19105,6,0,P|444:255|378:237,1,109.080002663086,10|0,0:2|0:2,0:2:0:0:
377,246,19424,1,2,1:2:0:0:
392,121,19584,1,2,0:2:0:0:
263,178,19743,6,0,B|182:157|191:220|111:201,1,145.440003550781,2|2,1:2|0:2,0:2:0:0:
60,93,20222,1,2,0:2:0:0:
117,43,20382,2,0,B|142:74|142:74|129:120,1,72.7200017753907,10|0,0:2|0:2,0:2:0:0:
21,246,20701,2,0,P|29:210|40:175,1,72.7200017753907,2|0,1:2|0:2,0:2:0:0:
282,341,21020,6,0,B|312:355|343:338|343:338|277:390|203:335,1,199.979999389709,4|0,1:2|0:2,0:2:0:0:
159,296,21339,2,0,P|112:309|69:314,1,72.7200017753907,2|0,1:2|0:2,0:2:0:0:
190,190,21658,5,10,0:2:0:0:
251,227,21818,1,0,0:2:0:0:
355,192,21977,5,2,1:2:0:0:
450,153,22137,1,2,0:2:0:0:
383,38,22297,6,0,P|356:88|337:188,1,145.440003550781,2|0,1:2|1:2,0:2:0:0:
425,227,22775,1,0,0:2:0:0:
312,107,22935,2,0,P|276:100|241:90,1,72.7200017753907,10|0,0:2|0:2,0:2:0:0:
190,190,23254,2,0,P|155:200|119:206,1,72.7200017753907,2|0,1:2|0:2,0:2:0:0:
54,22,23573,6,0,P|106:23|131:118,1,145.440003550781,2|0,1:2|1:2,0:2:0:0:
50,170,24052,1,2,0:2:0:0:
102,277,24212,2,0,P|112:242|118:206,1,72.7200017753907,10|0,0:2|0:2,0:2:0:0:
257,161,24531,2,0,P|246:126|240:90,1,72.7200017753907,2|0,1:2|0:2,0:2:0:0:
468,71,24850,6,0,B|386:41|401:123|320:94,1,145.440003550781,2|0,1:2|1:2,0:2:0:0:
257,161,25329,1,0,0:2:0:0:
402,215,25488,2,0,B|411:201|432:196|432:196|387:184|366:227,1,109.080002663086,10|0,0:2|0:2,0:2:0:0:
320,277,25807,2,0,B|303:312|303:312|326:356,1,72.7200017753907,0|0,1:2|0:2,0:2:0:0:
508,297,26126,6,0,P|462:292|421:280,1,72.7200017753907,0|0,1:2|0:2,0:2:0:0:
343,160,26446,2,0,P|307:168|271:171,1,72.7200017753907,2|0,1:2|0:2,0:2:0:0:
186,312,26765,1,10,0:2:0:0:
122,264,26924,1,2,0:2:0:0:
116,259,27004,1,2,0:2:0:0:
110,255,27084,1,2,1:2:0:0:
172,116,27243,1,0,0:2:0:0:
4,231,27403,6,0,P|62:224|154:198,1,145.440003550781,2|0,1:2|1:2,0:2:0:0:
238,71,27882,1,2,0:2:0:0:
159,44,28041,2,0,P|166:86|176:138,1,72.7200017753907,10|0,0:2|0:2,0:2:0:0:
343,160,28360,2,0,B|311:139|311:139|257:161,1,72.7200017753907,2|0,1:2|0:2,0:2:0:0:
207,268,28680,5,2,1:2:0:0:
238,329,28839,1,0,0:2:0:0:
362,236,28999,1,2,1:2:0:0:
334,315,29158,1,0,0:2:0:0:
194,257,29318,5,10,0:2:0:0:
89,315,29477,1,0,0:2:0:0:
221,343,29637,1,2,1:2:0:0:
122,252,29797,1,0,0:2:0:0:
173,118,29956,6,0,B|191:113|201:93|201:93|206:146|245:162,1,109.080002663086,2|0,1:2|0:2,0:2:0:0:
270,213,30275,5,2,1:2:0:0:
350,248,30435,1,2,0:2:0:0:
457,196,30595,5,10,0:2:0:0:
357,232,30754,1,2,0:2:0:0:
447,181,30914,2,0,P|396:171|381:112,1,109.080002663086,2|0,1:2|0:2,0:2:0:0:
353,43,31233,6,0,B|301:28|253:-1|253:-1|192:46|260:106,1,206.040001257568,6|0,1:2|1:2,0:2:0:0:
270,209,31712,1,0,0:2:0:0:
212,168,31871,2,0,P|163:159|123:147,1,72.7200017753907,8|0,0:2|0:2,0:2:0:0:
18,270,32190,2,0,P|42:229|76:230,1,72.7200017753907,0|0,1:2|0:2,0:2:0:0:
191,330,32509,5,0,1:2:0:0:
201,340,32829,5,2,0:2:0:0:
213,349,32988,5,2,0:2:0:0:
251,362,33148,5,2,0:2:0:0:
321,349,33307,5,2,1:2:0:0:
358,274,33467,6,0,P|352:248|347:226,1,48.48,10|0,0:2|0:2,0:2:0:0:
447,130,33786,6,0,B|388:108|353:148|353:148|331:211|260:199,1,199.979999389709,4|0,1:2|0:2,0:2:0:0:
96,198,34105,6,0,P|124:190|161:173,1,46.4599984403687,10|0,0:2|0:2,0:2:0:0:
255,38,34265,1,2,0:2:0:0:
209,93,34424,5,2,0:2:0:0:
256,184,34584,1,2,1:2:0:0:
207,325,34743,5,10,0:2:0:0:
144,274,34903,1,2,1:2:0:0:
138,270,34983,1,0,1:2:0:0:
132,266,35063,6,0,B|186:274|186:274|211:301|211:301|288:310,1,139.379995321106,0|0,1:2|0:2,0:2:0:0:
375,367,35382,2,0,B|337:357|334:321|334:321|372:315|390:279,1,139.379995321106,10|0,0:2|0:2,0:2:0:0:
435,208,35701,2,0,P|374:198|309:176,1,92.9199968807374,2|0,0:2|1:2,0:2:0:0:
192,138,36020,2,0,P|218:131|247:113,1,46.4599984403687,10|0,0:2|0:2,0:2:0:0:
346,43,36180,1,0,1:2:0:0:
350,39,36259,1,0,1:2:0:0:
355,35,36339,6,0,B|318:53|322:94|322:94|314:52|254:37,1,139.379995321106,0|0,1:2|0:2,0:2:0:0:
204,53,36658,5,10,0:2:0:0:
183,148,36818,1,2,0:2:0:0:
225,212,36977,5,2,0:2:0:0:
158,325,37137,1,2,1:2:0:0:
77,244,37297,6,0,P|98:251|121:256,1,46.4599984403687,10|0,0:2|0:2,0:2:0:0:
263,356,37456,1,2,1:2:0:0:
267,360,37536,1,0,1:2:0:0:
272,364,37616,6,0,B|304:332|285:297|285:297|236:319|167:334,1,185.839993761475,0|10,1:2|0:2,0:2:0:0:
75,322,38095,1,0,0:2:0:0:
8,188,38254,5,2,0:2:0:0:
66,230,38414,1,2,1:2:0:0:
122,184,38573,1,10,0:2:0:0:
325,271,38733,1,0,1:2:0:0:
330,275,38813,1,0,1:2:0:0:
336,279,38892,6,0,B|270:310|225:240|225:240|275:244|300:199,1,199.979999389709,4|0,0:2|0:2,0:2:0:0:
301,121,39212,6,0,P|322:129|345:134,1,46.4599984403687,10|0,0:2|0:2,0:2:0:0:
449,267,39371,1,2,0:2:0:0:
403,209,39531,5,2,0:2:0:0:
458,126,39690,1,2,1:2:0:0:
415,35,39850,5,10,0:2:0:0:
478,60,40009,1,2,0:2:0:0:
403,22,40169,6,0,P|346:42|307:46,1,92.9199968807374,2|0,1:2|0:2,0:2:0:0:
133,102,40488,2,0,B|158:82|167:58|167:58|175:117|226:132,1,139.379995321106,10|0,0:2|0:2,0:2:0:0:
281,140,40807,5,2,0:2:0:0:
216,276,40967,1,2,1:2:0:0:
170,215,41126,1,10,0:2:0:0:
290,256,41286,5,0,1:2:0:0:
295,260,41366,1,0,1:2:0:0:
300,264,41446,2,0,B|346:252|396:243|396:243|402:189|337:171,1,185.839993761475,0|8,1:2|0:2,0:2:0:0:
207,124,41924,1,0,0:2:0:0:
274,61,42084,2,0,P|261:63|248:65,4,23.2299992201844,2|2|2|2|2,0:2|0:2|0:2|0:2|1:2,0:2:0:0:
392,109,42403,1,8,0:2:0:0:
462,66,42563,1,0,0:2:0:0:
350,40,42722,5,2,1:2:0:0:
401,121,42882,1,0,1:2:0:0:
339,242,43041,1,8,0:2:0:0:
296,141,43201,1,2,1:2:0:0:
497,227,43360,6,0,P|463:213|424:205,1,46.4599984403687,2|0,1:2|0:2,0:2:0:0:
330,255,43520,2,0,P|307:262|286:271,1,46.4599984403687,0|0,1:2|0:2,0:2:0:0:
402,344,43680,2,0,P|421:316|415:279,1,46.4599984403687,8|0,0:2|0:2,0:2:0:0:
225,201,43839,2,0,P|206:173|212:136,1,46.4599984403687,2|0,1:2|0:2,0:2:0:0:
350,40,43999,6,0,B|360:16|384:12|384:12|340:-1|310:45|325:50|290:85|233:60,1,199.979999389709,4|0,1:2|0:2,0:2:0:0:
64,19,44318,6,0,P|74:44|86:90,1,46.4599984403687,10|0,0:2|0:2,0:2:0:0:
128,167,44477,1,2,0:2:0:0:
162,96,44637,5,2,0:2:0:0:
2,225,44797,1,2,1:2:0:0:
107,167,44956,5,10,0:2:0:0:
234,312,45116,1,2,1:2:0:0:
238,318,45196,1,0,1:2:0:0:
243,324,45275,6,0,B|195:303|195:303|175:272|175:272|128:252,1,139.379995321106,0|0,1:2|0:2,0:2:0:0:
29,362,45595,2,0,B|61:344|102:333|102:333|63:326|41:276,1,139.379995321106,10|0,0:2|0:2,0:2:0:0:
2,225,45914,2,0,P|15:177|26:125,1,92.9199968807374,2|0,0:2|1:2,0:2:0:0:
64,19,46233,2,0,P|91:37|122:42,1,46.4599984403687,10|0,0:2|0:2,0:2:0:0:
258,92,46392,1,0,1:2:0:0:
262,96,46472,1,0,1:2:0:0:
267,99,46552,6,0,B|240:85|227:49|227:49|226:97|174:137,1,139.379995321106,0|0,1:2|0:2,0:2:0:0:
124,151,46871,5,10,0:2:0:0:
222,236,47031,1,2,0:2:0:0:
292,198,47190,5,2,0:2:0:0:
205,239,47350,1,2,1:2:0:0:
330,338,47509,6,0,P|351:317|364:275,1,46.4599984403687,10|0,0:2|0:2,0:2:0:0:
359,158,47669,1,2,1:2:0:0:
356,152,47749,1,0,1:2:0:0:
352,147,47829,6,0,B|259:212|402:259|290:337,1,185.839993761475,0|10,1:2|0:2,0:2:0:0:
229,325,48307,1,0,0:2:0:0:
51,231,48467,5,2,0:2:0:0:
132,255,48626,1,2,1:2:0:0:
35,225,48786,1,10,0:2:0:0:
153,170,48946,1,0,1:2:0:0:
160,166,49025,1,0,1:2:0:0:
167,164,49105,6,0,B|179:137|228:132|228:132|179:113|176:54,1,139.379995321106,4|0,1:2|0:2,0:2:0:0:
125,39,49424,2,0,P|86:31|48:22,1,72.7200017753907,0|2,1:2|0:2,0:2:0:0:
256,56,49743,2,0,P|301:47|412:19,1,145.440003550781,10|0,0:2|1:2,0:2:0:0:
457,67,50222,1,2,0:2:0:0:
306,250,50382,6,0,P|299:206|284:156,1,72.7200017753907,2|0,1:2|0:2,0:2:0:0:
451,161,50701,2,0,B|411:169|411:169|380:146,1,72.7200017753907,2|0,1:2|0:2,0:2:0:0:
340,69,51020,1,10,0:2:0:0:
340,69,51180,1,2,0:2:0:0:
202,199,51339,6,0,B|122:168|133:241|51:211,2,145.440003550781,6|0|0,1:2|1:2|1:2,0:2:0:0:
260,263,52137,1,0,0:2:0:0:
114,369,52297,2,0,P|121:325|136:275,1,72.7200017753907,8|0,0:2|0:2,0:2:0:0:
55,206,52616,2,0,P|48:162|33:112,1,72.7200017753907,2|2,1:2|0:2,0:2:0:0:
146,49,52935,6,0,B|186:35|216:59|216:59|228:103|276:106,1,145.440003550781,2|2,1:2|1:2,0:2:0:0:
340,69,53414,1,0,0:2:0:0:
429,169,53573,1,10,0:2:0:0:
429,169,53733,1,2,0:2:0:0:
326,311,53892,6,0,B|287:241|372:241|328:165,2,145.440003550781,6|2|2,1:2|1:2|1:2,0:2:0:0:
384,361,54690,1,0,0:2:0:0:
242,240,54850,2,0,P|195:230|160:221,1,72.7200017753907,8|0,0:2|0:2,0:2:0:0:
60,348,55169,2,0,P|90:325|84:279,1,72.7200017753907,2|2,1:2|0:2,0:2:0:0:
6,185,55488,6,0,P|50:178|155:139,1,145.440003550781,2|2,1:2|1:2,0:2:0:0:
169,26,55967,1,2,0:2:0:0:
108,65,56126,1,10,0:2:0:0:
57,17,56286,1,2,0:2:0:0:
200,194,56446,6,0,B|256:196|309:208|309:208|269:180|270:133,1,193.920004734375,6|0,1:2|0:2,0:2:0:0:
270,137,59318,6,0,B|299:88|358:119|358:119|336:179|318:243,1,215.129989167344,4|0,1:2|0:2,0:2:0:0:
376,309,59637,1,10,0:2:0:0:
147,377,59797,1,0,1:2:0:0:
142,379,59876,1,0,1:2:0:0:
136,382,59956,1,2,1:2:0:0:
80,329,60116,1,0,1:2:0:0:
259,141,60275,1,10,0:2:0:0:
279,311,60435,2,0,P|247:287|191:261,1,61.6099974617463,0|0,1:2|0:2,0:2:0:0:
0,202,60595,6,0,B|28:184|40:139|40:139|61:208|143:219,1,184.829992385239,0|0,1:2|0:2,0:2:0:0:
196,203,60914,1,10,0:2:0:0:
288,319,61073,1,2,0:2:0:0:
421,237,61233,1,2,0:2:0:0:
394,301,61392,1,2,1:2:0:0:
265,129,61552,2,0,B|307:112|354:85|354:85|407:122|359:193,1,184.829992385239,10|0,0:2|0:2,0:2:0:0:
251,118,61871,6,0,P|187:109|113:81,1,123.219994923493,0|0,1:2|1:2,0:2:0:0:
88,32,62110,1,0,1:2:0:0:
80,25,62190,2,0,P|125:87|34:122,1,184.829992385239,10|0,0:2|0:2,0:2:0:0:
8,65,62509,1,2,0:2:0:0:
82,161,62669,1,2,1:2:0:0:
42,250,62829,1,10,0:2:0:0:
86,326,62988,1,0,1:2:0:0:
89,331,63068,1,0,1:2:0:0:
94,335,63148,6,0,P|118:321|163:313,1,61.6099974617463,0|0,1:2|0:2,0:2:0:0:
322,369,63307,1,0,0:2:0:0:
174,234,63467,1,8,0:2:0:0:
307,241,63626,1,0,1:2:0:0:
311,246,63706,1,0,1:2:0:0:
316,250,63786,2,0,P|286:243|259:228,1,61.6099974617463,0|0,1:2|0:2,0:2:0:0:
212,59,63946,1,0,1:2:0:0:
409,116,64105,1,10,0:2:0:0:
340,156,64265,1,0,0:2:0:0:
451,40,64424,6,0,B|461:19|490:10|490:10|391:1|381:104|437:164,1,215.129989167344,4|0,1:2|0:2,0:2:0:0:
391,217,64743,2,0,P|423:206|526:179,1,123.219994923493,10|0,0:2|0:2,0:2:0:0:
321,77,65063,1,2,0:2:0:0:
208,164,65222,1,0,1:2:0:0:
203,169,65302,1,0,1:2:0:0:
197,173,65382,1,10,0:2:0:0:
90,93,65541,2,0,P|116:130|123:164,1,61.6099974617463,0|0,0:2|0:2,0:2:0:0:
221,358,65701,6,0,B|177:344|120:339|120:339|176:313|181:265,1,184.829992385239,0|0,1:2|0:2,0:2:0:0:
234,366,66020,2,0,B|283:351|283:351|297:331|297:331|347:316,1,123.219994923493,10|0,0:2|0:2,0:2:0:0:
490,157,66339,1,2,0:2:0:0:
451,293,66499,1,0,1:2:0:0:
382,189,66658,1,10,0:2:0:0:
446,219,66818,1,0,0:2:0:0:
226,164,66977,6,0,B|258:108|329:124|329:124|288:152|303:222,1,184.829992385239,0|0,1:2|0:2,0:2:0:0:
213,167,67297,2,0,B|167:152|167:152|151:130|151:130|105:115,1,123.219994923493,10|0,0:2|0:2,0:2:0:0:
81,331,67616,1,2,0:2:0:0:
160,258,67775,1,0,1:2:0:0:
166,253,67855,1,0,1:2:0:0:
172,249,67935,1,10,0:2:0:0:
133,181,68095,1,0,0:2:0:0:
263,34,68254,5,0,1:2:0:0:
111,189,68414,1,0,1:2:0:0:
281,337,68573,1,8,0:2:0:0:
433,182,68733,1,0,1:2:0:0:
241,146,68892,6,0,P|205:139|162:122,1,61.6099974617463,0|0,1:2|0:2,0:2:0:0:
260,135,69052,2,0,P|229:128|200:118,1,61.6099974617463,0|0,1:2|0:2,0:2:0:0:
295,321,69212,2,0,P|324:311|354:305,1,61.6099974617463,10|0,0:2|0:2,0:2:0:0:
201,225,69371,2,0,P|231:231|260:241,1,61.6099974617463,8|0,0:2|0:2,0:2:0:0:
461,94,69531,6,0,B|416:99|380:71|380:71|447:123|430:206,1,215.129989167344,4|0,1:2|0:2,0:2:0:0:
512,279,69850,2,0,P|468:269|368:238,1,123.219994923493,10|0,0:2|1:2,0:2:0:0:
343,188,70089,1,0,1:2:0:0:
336,181,70169,1,2,1:2:0:0:
225,257,70329,1,0,1:2:0:0:
67,175,70488,1,10,0:2:0:0:
183,157,70648,2,0,P|167:185|160:251,1,61.6099974617463,0|0,1:2|0:2,0:2:0:0:
92,344,70807,6,0,B|50:329|1:317|1:317|-1:257|62:251,1,184.829992385239,0|0,1:2|0:2,0:2:0:0:
110,359,71126,2,0,B|158:357|175:305|175:305|227:283|263:323,1,184.829992385239,10|0,0:2|0:2,0:2:0:0:
306,384,71446,1,2,0:2:0:0:
238,278,71605,1,2,1:2:0:0:
314,200,71765,1,10,0:2:0:0:
436,282,71924,1,0,1:2:0:0:
442,286,72004,1,0,1:2:0:0:
447,290,72084,6,0,P|382:294|366:187,1,184.829992385239,0|0,1:2|0:2,0:2:0:0:
361,116,72403,2,0,P|410:109|478:74,1,123.219994923493,10|0,0:2|0:2,0:2:0:0:
282,17,72722,1,2,0:2:0:0:
181,88,72882,1,2,1:2:0:0:
53,19,73041,1,10,0:2:0:0:
197,93,73201,1,0,0:2:0:0:
13,124,73360,6,0,B|67:96|106:123|106:123|132:177|193:168,1,184.829992385239,0|0,1:2|0:2,0:2:0:0:
244,205,73680,2,0,P|285:255|259:308,1,123.219994923493,8|0,0:2|0:2,0:2:0:0:
89,341,73999,1,2,0:2:0:0:
155,310,74158,1,0,1:2:0:0:
203,363,74318,1,10,0:2:0:0:
311,273,74477,2,0,P|332:245|337:207,1,61.6099974617463,0|0,1:2|0:2,0:2:0:0:
417,87,74637,6,0,B|320:69|342:164|248:158,1,184.829992385239,4|0,1:2|0:2,0:2:0:0:
197,98,74956,2,0,P|215:42|176:0,1,123.219994923493,10|0,0:2|0:2,0:2:0:0:
5,105,75275,1,2,0:2:0:0:
64,161,75435,1,0,1:2:0:0:
70,166,75515,1,0,1:2:0:0:
74,170,75595,1,10,1:2:0:0:
71,51,75754,1,0,0:2:0:0:
22,221,75914,6,0,B|53:207|67:165|67:165|83:243|134:269,1,184.829992385239,0|0,1:2|0:2,0:2:0:0:
138,337,76233,1,10,0:2:0:0:
228,287,76392,1,0,0:2:0:0:
407,352,76552,1,2,1:2:0:0:
252,281,76712,1,0,0:2:0:0:
479,236,76871,6,0,B|413:223|361:254|361:254|404:228|403:179,1,212.100005178223,6|0,1:2|0:2,0:2:0:0:
355,124,79743,5,2,1:2:0:0:
288,166,80222,1,2,0:2:0:0:
244,107,80621,1,2,0:2:0:0:
238,95,80701,2,0,P|202:73|131:60,1,115.140002811035,2|2,0:2|0:2,0:2:0:0:
75,112,82297,5,2,0:2:0:0:
127,165,82839,6,0,P|123:173|122:181,2,12.1200002958984,2|0|0,0:2|0:2|0:2,0:2:0:0:
24,279,83491,6,0,P|50:233|176:248,1,193.920004734375,2|0,0:2|0:2,0:2:0:0:
