osu file format v14

[General]
AudioFilename: audio_1.2.mp3
AudioLeadIn: 0
PreviewTime: 49431
Countdown: 0
SampleSet: Normal
StackLeniency: 0.7
Mode: 3
LetterboxInBreaks: 0
SpecialStyle: 0
WidescreenStoryboard: 0

[Editor]
DistanceSpacing: 0.8
BeatDivisor: 4
GridSize: 32
TimelineZoom: 2.4

[Metadata]
Title:Sleepless Days
TitleUnicode:Sleepless Days
Artist:Nekomata Master feat. Mayumi Morinaga
ArtistUnicode:猫叉Master feat. Mayumi Morinaga
Creator:Calcyon
Version:Eternal Daydream x1.2
Source:SOUND VOLTEX IV HEAVENLY HAVEN
Tags:sdvx konami bemani kenryu toumetsu ikusa 鍵龍討滅戦 pon quiz magic academy the world evolve beatmania iidx 25
BeatmapID:1793387
BeatmapSetID:858116

[Difficulty]
HPDrainRate:8
CircleSize:4
OverallDifficulty:8
ApproachRate:5
SliderMultiplier:1.4
SliderTickRate:1

[Events]
//Background and Video events
0,0,"bg.jpg",0,0
//Break Periods
//Storyboard Layer 0 (Background)
//Storyboard Layer 1 (Fail)
//Storyboard Layer 2 (Pass)
//Storyboard Layer 3 (Foreground)
//Storyboard Sound Samples

[TimingPoints]
495,265.957446808511,4,1,0,30,1,0
49431,-100,4,1,0,30,0,1
64059,-100,4,1,0,30,0,0

[HitObjects]
320,192,495,5,2,0:0:0:0:
448,192,495,1,0,0:0:0:0:
64,192,628,1,0,0:0:0:0:
192,192,761,1,0,0:0:0:0:
320,192,894,1,0,0:0:0:0:
64,192,894,1,2,0:0:0:0:
448,192,1027,1,0,0:0:0:0:
192,192,1160,1,0,0:0:0:0:
320,192,1293,1,2,0:0:0:0:
448,192,1293,1,0,0:0:0:0:
64,192,1426,1,0,0:0:0:0:
192,192,1559,1,0,0:0:0:0:
64,192,1692,1,0,0:0:0:0:
320,192,1825,1,0,0:0:0:0:
64,192,1958,1,0,0:0:0:0:
448,192,2090,1,0,0:0:0:0:
64,192,2224,1,0,0:0:0:0:
320,192,2357,1,0,0:0:0:0:
448,192,2490,1,0,0:0:0:0:
192,192,2623,1,0,0:0:0:0:
64,192,2623,1,2,0:0:0:0:
448,192,2755,1,0,0:0:0:0:
192,192,2889,1,0,0:0:0:0:
320,192,3021,1,2,0:0:0:0:
448,192,3021,1,0,0:0:0:0:
64,192,3155,1,0,0:0:0:0:
448,192,3288,1,0,0:0:0:0:
320,192,3420,1,0,0:0:0:0:
192,192,3420,1,2,0:0:0:0:
448,192,3554,1,0,0:0:0:0:
192,192,3686,1,0,0:0:0:0:
64,192,3820,1,0,0:0:0:0:
320,192,3952,1,0,0:0:0:0:
64,192,4085,1,0,0:0:0:0:
448,192,4219,1,0,0:0:0:0:
320,192,4219,1,2,0:0:0:0:
64,192,4351,1,0,0:0:0:0:
192,192,4485,1,2,0:0:0:0:
320,192,4485,1,0,0:0:0:0:
448,192,4617,1,0,0:0:0:0:
64,192,4750,1,2,0:0:0:0:
192,192,4750,1,0,0:0:0:0:
448,192,4883,1,0,0:0:0:0:
320,192,5016,1,0,0:0:0:0:
192,192,5150,1,2,0:0:0:0:
448,192,5150,1,0,0:0:0:0:
64,192,5282,1,0,0:0:0:0:
448,192,5415,1,0,0:0:0:0:
320,192,5482,1,0,0:0:0:0:
192,192,5548,1,0,0:0:0:0:
64,192,5548,1,2,0:0:0:0:
192,192,5814,1,0,0:0:0:0:
64,192,5947,1,0,0:0:0:0:
320,192,6080,1,0,0:0:0:0:
64,192,6213,1,0,0:0:0:0:
448,192,6346,1,0,0:0:0:0:
64,192,6479,1,0,0:0:0:0:
320,192,6612,1,0,0:0:0:0:
64,192,6745,1,0,0:0:0:0:
192,192,6878,1,2,0:0:0:0:
320,192,6878,1,0,0:0:0:0:
448,192,7011,1,0,0:0:0:0:
320,192,7144,1,0,0:0:0:0:
448,192,7277,1,0,0:0:0:0:
64,192,7277,1,2,0:0:0:0:
192,192,7410,1,0,0:0:0:0:
448,192,7543,1,0,0:0:0:0:
192,192,7610,1,0,0:0:0:0:
448,192,7676,1,0,0:0:0:0:
320,192,7676,1,2,0:0:0:0:
64,192,7742,1,0,0:0:0:0:
320,192,7809,1,0,0:0:0:0:
448,192,7875,1,0,0:0:0:0:
64,192,7942,1,0,0:0:0:0:
192,192,8008,1,0,0:0:0:0:
448,192,8075,1,0,0:0:0:0:
192,192,8141,1,0,0:0:0:0:
320,192,8208,1,0,0:0:0:0:
448,192,8275,1,0,0:0:0:0:
192,192,8340,1,0,0:0:0:0:
64,192,8407,1,0,0:0:0:0:
448,192,8474,1,0,0:0:0:0:
320,192,8474,128,2,9005:0:0:0:0:
192,192,8740,128,0,9005:0:0:0:0:
448,192,9005,1,0,0:0:0:0:
64,192,9005,1,8,0:0:0:0:
320,192,9139,1,0,0:0:0:0:
64,192,9271,1,8,0:0:0:0:
192,192,9271,1,0,0:0:0:0:
192,192,9405,1,0,0:0:0:0:
64,192,9538,1,2,0:0:0:0:
320,192,9538,1,0,0:0:0:0:
448,192,9538,1,0,0:0:0:0:
320,192,9670,1,0,0:0:0:0:
64,192,9804,1,8,0:0:0:0:
192,192,9804,1,0,0:0:0:0:
64,192,9936,1,0,0:0:0:0:
448,192,10070,1,0,0:0:0:0:
192,192,10070,1,8,0:0:0:0:
448,192,10202,1,0,0:0:0:0:
192,192,10335,1,8,0:0:0:0:
320,192,10335,1,0,0:0:0:0:
192,192,10469,1,0,0:0:0:0:
64,192,10601,1,2,0:0:0:0:
320,192,10601,1,0,0:0:0:0:
448,192,10601,1,0,0:0:0:0:
320,192,10735,1,0,0:0:0:0:
64,192,10867,1,8,0:0:0:0:
448,192,10867,1,0,0:0:0:0:
64,192,11000,1,0,0:0:0:0:
448,192,11133,1,0,0:0:0:0:
320,192,11133,1,8,0:0:0:0:
448,192,11266,1,0,0:0:0:0:
64,192,11400,1,8,0:0:0:0:
192,192,11400,1,0,0:0:0:0:
192,192,11532,1,0,0:0:0:0:
64,192,11665,1,2,0:0:0:0:
320,192,11665,1,0,0:0:0:0:
448,192,11665,1,0,0:0:0:0:
320,192,11798,1,0,0:0:0:0:
64,192,11931,1,8,0:0:0:0:
448,192,11931,1,0,0:0:0:0:
64,192,12064,1,0,0:0:0:0:
448,192,12197,1,0,0:0:0:0:
192,192,12197,1,8,0:0:0:0:
448,192,12330,1,0,0:0:0:0:
320,192,12463,1,0,0:0:0:0:
64,192,12463,1,8,0:0:0:0:
320,192,12596,1,0,0:0:0:0:
192,192,12729,1,0,0:0:0:0:
64,192,12729,1,2,0:0:0:0:
448,192,12729,1,0,0:0:0:0:
192,192,12862,1,0,0:0:0:0:
64,192,12995,1,8,0:0:0:0:
320,192,12995,1,0,0:0:0:0:
64,192,13128,1,0,0:0:0:0:
192,192,13261,1,8,0:0:0:0:
320,192,13261,1,0,0:0:0:0:
320,192,13394,1,0,0:0:0:0:
192,192,13527,1,8,0:0:0:0:
448,192,13527,1,0,0:0:0:0:
192,192,13660,1,0,0:0:0:0:
64,192,13793,1,2,0:0:0:0:
320,192,13793,1,0,0:0:0:0:
448,192,13793,1,0,0:0:0:0:
64,192,13926,1,0,0:0:0:0:
448,192,14059,1,0,0:0:0:0:
320,192,14059,1,8,0:0:0:0:
448,192,14192,1,0,0:0:0:0:
192,192,14325,1,0,0:0:0:0:
64,192,14325,1,8,0:0:0:0:
64,192,14458,1,0,0:0:0:0:
192,192,14590,1,8,0:0:0:0:
320,192,14590,1,0,0:0:0:0:
192,192,14724,1,0,0:0:0:0:
448,192,14857,1,0,0:0:0:0:
320,192,14857,1,0,0:0:0:0:
64,192,14857,1,2,0:0:0:0:
320,192,14990,1,0,0:0:0:0:
448,192,15123,1,0,0:0:0:0:
64,192,15123,1,8,0:0:0:0:
448,192,15255,1,0,0:0:0:0:
192,192,15389,1,0,0:0:0:0:
64,192,15389,1,8,0:0:0:0:
192,192,15521,1,0,0:0:0:0:
320,192,15655,1,8,0:0:0:0:
448,192,15655,1,0,0:0:0:0:
320,192,15788,1,0,0:0:0:0:
448,192,15920,1,0,0:0:0:0:
64,192,15920,1,2,0:0:0:0:
192,192,15920,1,0,0:0:0:0:
64,192,16054,1,0,0:0:0:0:
320,192,16186,1,8,0:0:0:0:
448,192,16186,1,0,0:0:0:0:
448,192,16320,1,0,0:0:0:0:
320,192,16452,128,0,17450:0:0:0:0:
448,192,16719,128,0,17450:0:0:0:0:
192,192,16985,128,0,17450:0:0:0:0:
64,192,17250,128,0,17450:0:0:0:0:
64,192,17516,1,8,0:0:0:0:
192,192,17516,1,2,0:0:0:0:
320,192,17516,1,0,0:0:0:0:
448,192,17516,1,0,0:0:0:0:
320,192,17650,1,0,0:0:0:0:
64,192,17782,1,8,0:0:0:0:
448,192,17782,1,0,0:0:0:0:
64,192,17915,1,0,0:0:0:0:
192,192,18048,1,2,0:0:0:0:
320,192,18048,1,0,0:0:0:0:
448,192,18048,1,0,0:0:0:0:
320,192,18181,1,0,0:0:0:0:
192,192,18314,1,8,0:0:0:0:
448,192,18314,1,0,0:0:0:0:
192,192,18447,1,0,0:0:0:0:
64,192,18580,1,10,0:0:0:0:
192,192,18580,1,0,0:0:0:0:
320,192,18580,1,0,0:0:0:0:
448,192,18580,1,0,0:0:0:0:
64,192,18713,1,0,0:0:0:0:
448,192,18846,1,0,0:0:0:0:
192,192,18846,1,8,0:0:0:0:
448,192,18979,1,0,0:0:0:0:
320,192,19112,1,0,0:0:0:0:
192,192,19112,1,0,0:0:0:0:
64,192,19112,1,2,0:0:0:0:
320,192,19245,1,0,0:0:0:0:
448,192,19378,1,0,0:0:0:0:
64,192,19378,1,8,0:0:0:0:
64,192,19511,1,0,0:0:0:0:
64,192,19644,1,10,0:0:0:0:
192,192,19644,1,0,0:0:0:0:
320,192,19644,1,0,0:0:0:0:
448,192,19644,1,0,0:0:0:0:
192,192,19777,1,0,0:0:0:0:
448,192,19910,1,0,0:0:0:0:
320,192,19910,1,8,0:0:0:0:
448,192,20043,1,0,0:0:0:0:
64,192,20176,1,2,0:0:0:0:
192,192,20176,1,0,0:0:0:0:
320,192,20176,1,0,0:0:0:0:
192,192,20309,1,0,0:0:0:0:
64,192,20442,1,8,0:0:0:0:
320,192,20442,1,0,0:0:0:0:
320,192,20575,1,0,0:0:0:0:
64,192,20708,1,10,0:0:0:0:
192,192,20708,1,0,0:0:0:0:
320,192,20708,1,0,0:0:0:0:
448,192,20708,1,0,0:0:0:0:
64,192,20840,1,0,0:0:0:0:
192,192,20974,1,8,0:0:0:0:
448,192,20974,1,0,0:0:0:0:
448,192,21107,1,0,0:0:0:0:
64,192,21240,1,10,0:0:0:0:
320,192,21240,1,0,0:0:0:0:
192,192,21240,1,0,0:0:0:0:
448,192,21240,1,0,0:0:0:0:
320,192,21373,1,0,0:0:0:0:
320,192,21505,1,0,0:0:0:0:
192,192,21505,1,8,0:0:0:0:
192,192,21639,1,0,0:0:0:0:
64,192,21771,1,10,0:0:0:0:
192,192,21771,1,0,0:0:0:0:
320,192,21771,1,0,0:0:0:0:
448,192,21771,1,0,0:0:0:0:
64,192,21905,1,0,0:0:0:0:
192,192,22038,1,8,0:0:0:0:
320,192,22038,1,0,0:0:0:0:
320,192,22170,1,0,0:0:0:0:
448,192,22304,1,0,0:0:0:0:
64,192,22304,1,2,0:0:0:0:
192,192,22304,1,0,0:0:0:0:
192,192,22436,1,0,0:0:0:0:
64,192,22570,1,8,0:0:0:0:
448,192,22570,1,0,0:0:0:0:
64,192,22702,1,0,0:0:0:0:
64,192,22835,1,10,0:0:0:0:
192,192,22835,1,0,0:0:0:0:
320,192,22835,1,0,0:0:0:0:
448,192,22835,1,0,0:0:0:0:
448,192,22969,1,0,0:0:0:0:
320,192,23101,1,0,0:0:0:0:
64,192,23101,1,8,0:0:0:0:
320,192,23235,1,0,0:0:0:0:
64,192,23367,1,10,0:0:0:0:
192,192,23367,1,0,0:0:0:0:
320,192,23367,1,0,0:0:0:0:
448,192,23367,1,0,0:0:0:0:
192,192,23500,1,0,0:0:0:0:
448,192,23633,1,0,0:0:0:0:
64,192,23633,1,8,0:0:0:0:
448,192,23766,1,0,0:0:0:0:
64,192,23900,1,10,0:0:0:0:
192,192,23900,1,0,0:0:0:0:
320,192,23900,1,0,0:0:0:0:
448,192,23900,1,0,0:0:0:0:
64,192,24032,1,0,0:0:0:0:
448,192,24165,1,0,0:0:0:0:
320,192,24165,1,8,0:0:0:0:
320,192,24298,1,0,0:0:0:0:
64,192,24431,1,10,0:0:0:0:
192,192,24431,1,0,0:0:0:0:
448,192,24431,1,0,0:0:0:0:
320,192,24431,1,0,0:0:0:0:
64,192,24564,1,0,0:0:0:0:
192,192,24697,1,8,0:0:0:0:
448,192,24697,1,0,0:0:0:0:
192,192,24830,1,0,0:0:0:0:
64,192,24963,1,10,0:0:0:0:
192,192,24963,1,0,0:0:0:0:
320,192,24963,1,0,0:0:0:0:
448,192,24963,1,0,0:0:0:0:
320,192,25096,1,0,0:0:0:0:
64,192,25229,1,8,0:0:0:0:
448,192,25229,1,0,0:0:0:0:
64,192,25362,1,0,0:0:0:0:
192,192,25495,1,2,0:0:0:0:
320,192,25495,1,0,0:0:0:0:
448,192,25495,1,0,0:0:0:0:
192,192,25628,1,0,0:0:0:0:
320,192,25761,1,8,0:0:0:0:
448,192,25761,1,0,0:0:0:0:
448,192,25894,1,0,0:0:0:0:
64,192,26027,1,2,0:0:0:0:
192,192,26027,1,0,0:0:0:0:
320,192,26027,1,0,0:0:0:0:
192,192,26160,1,0,0:0:0:0:
320,192,26293,1,8,0:0:0:0:
448,192,26293,1,0,0:0:0:0:
320,192,26426,1,0,0:0:0:0:
64,192,26559,1,2,0:0:0:0:
192,192,26559,1,0,0:0:0:0:
448,192,26559,1,0,0:0:0:0:
64,192,26692,1,0,0:0:0:0:
448,192,26825,1,0,0:0:0:0:
320,192,26825,1,8,0:0:0:0:
448,192,26958,1,0,0:0:0:0:
64,192,27090,1,10,0:0:0:0:
320,192,27090,1,0,0:0:0:0:
192,192,27090,1,0,0:0:0:0:
448,192,27090,1,0,0:0:0:0:
192,192,27357,128,0,27623:0:0:0:0:
320,192,27490,128,0,28088:0:0:0:0:
64,192,27623,128,0,28088:0:0:0:0:
192,192,27755,128,0,28088:0:0:0:0:
448,192,27889,128,0,28088:0:0:0:0:
320,192,28155,1,0,0:0:0:0:
192,192,28155,1,0,0:0:0:0:
448,192,28155,1,0,0:0:0:0:
64,192,28155,1,10,0:0:0:0:
64,192,28420,1,2,0:0:0:0:
192,192,28420,1,0,0:0:0:0:
448,192,28420,1,0,0:0:0:0:
320,192,28487,1,0,0:0:0:0:
448,192,28554,1,0,0:0:0:0:
192,192,28620,1,0,0:0:0:0:
64,192,28686,1,0,0:0:0:0:
192,192,28753,1,0,0:0:0:0:
320,192,28820,1,0,0:0:0:0:
64,192,28820,1,8,0:0:0:0:
448,192,28886,1,0,0:0:0:0:
192,192,28952,1,8,0:0:0:0:
320,192,28952,1,0,0:0:0:0:
64,192,29019,1,0,0:0:0:0:
320,192,29085,1,0,0:0:0:0:
192,192,29152,1,0,0:0:0:0:
320,192,29219,1,8,0:0:0:0:
448,192,29219,1,0,0:0:0:0:
192,192,29285,1,0,0:0:0:0:
320,192,29351,1,0,0:0:0:0:
448,192,29418,1,0,0:0:0:0:
192,192,29485,1,0,0:0:0:0:
64,192,29485,1,8,0:0:0:0:
320,192,29551,1,0,0:0:0:0:
448,192,29617,1,0,0:0:0:0:
320,192,29684,1,0,0:0:0:0:
64,192,29750,1,0,0:0:0:0:
192,192,29817,1,0,0:0:0:0:
448,192,29883,1,0,0:0:0:0:
64,192,29883,1,8,0:0:0:0:
192,192,29950,1,0,0:0:0:0:
320,192,30016,1,0,0:0:0:0:
64,192,30016,1,8,0:0:0:0:
448,192,30083,1,0,0:0:0:0:
320,192,30150,1,0,0:0:0:0:
448,192,30215,1,0,0:0:0:0:
320,192,30282,1,0,0:0:0:0:
64,192,30282,1,8,0:0:0:0:
192,192,30349,1,0,0:0:0:0:
448,192,30415,1,0,0:0:0:0:
64,192,30482,1,0,0:0:0:0:
320,192,30548,1,8,0:0:0:0:
448,192,30548,1,0,0:0:0:0:
192,192,30615,1,0,0:0:0:0:
64,192,30681,1,0,0:0:0:0:
448,192,30748,1,0,0:0:0:0:
192,192,30814,1,0,0:0:0:0:
320,192,30880,1,0,0:0:0:0:
64,192,30947,1,8,0:0:0:0:
192,192,30947,1,0,0:0:0:0:
448,192,31014,1,0,0:0:0:0:
320,192,31080,1,0,0:0:0:0:
192,192,31080,1,8,0:0:0:0:
64,192,31146,1,0,0:0:0:0:
320,192,31213,1,0,0:0:0:0:
192,192,31280,1,0,0:0:0:0:
448,192,31346,1,0,0:0:0:0:
320,192,31346,1,8,0:0:0:0:
192,192,31413,1,0,0:0:0:0:
320,192,31479,1,0,0:0:0:0:
192,192,31545,1,0,0:0:0:0:
448,192,31612,1,0,0:0:0:0:
64,192,31612,1,8,0:0:0:0:
192,192,31679,1,0,0:0:0:0:
448,192,31745,1,0,0:0:0:0:
192,192,31811,1,0,0:0:0:0:
64,192,31878,1,0,0:0:0:0:
320,192,31945,1,0,0:0:0:0:
64,192,32011,1,8,0:0:0:0:
448,192,32011,1,0,0:0:0:0:
192,192,32077,1,0,0:0:0:0:
448,192,32144,1,0,0:0:0:0:
320,192,32144,1,8,0:0:0:0:
64,192,32210,1,0,0:0:0:0:
448,192,32277,1,0,0:0:0:0:
64,192,32344,1,0,0:0:0:0:
448,192,32410,1,0,0:0:0:0:
192,192,32410,1,8,0:0:0:0:
320,192,32476,1,0,0:0:0:0:
64,192,32543,1,0,0:0:0:0:
192,192,32610,1,0,0:0:0:0:
448,192,32676,1,0,0:0:0:0:
320,192,32676,1,8,0:0:0:0:
64,192,32742,1,0,0:0:0:0:
192,192,32809,1,0,0:0:0:0:
448,192,32875,1,0,0:0:0:0:
64,192,32942,1,0,0:0:0:0:
192,192,33008,1,0,0:0:0:0:
320,192,33075,1,8,0:0:0:0:
448,192,33075,1,0,0:0:0:0:
192,192,33141,1,0,0:0:0:0:
64,192,33208,1,8,0:0:0:0:
320,192,33208,1,0,0:0:0:0:
448,192,33275,1,0,0:0:0:0:
192,192,33340,1,0,0:0:0:0:
320,192,33407,1,0,0:0:0:0:
192,192,33474,1,0,0:0:0:0:
64,192,33474,1,8,0:0:0:0:
448,192,33540,1,0,0:0:0:0:
192,192,33607,1,0,0:0:0:0:
320,192,33673,1,0,0:0:0:0:
448,192,33740,1,0,0:0:0:0:
64,192,33740,1,8,0:0:0:0:
192,192,33806,1,0,0:0:0:0:
64,192,33873,1,0,0:0:0:0:
192,192,33939,1,0,0:0:0:0:
448,192,34005,1,0,0:0:0:0:
320,192,34072,1,0,0:0:0:0:
64,192,34139,1,8,0:0:0:0:
448,192,34139,1,0,0:0:0:0:
192,192,34205,1,0,0:0:0:0:
320,192,34271,1,8,0:0:0:0:
448,192,34271,1,0,0:0:0:0:
64,192,34338,1,0,0:0:0:0:
320,192,34405,1,0,0:0:0:0:
448,192,34471,1,0,0:0:0:0:
192,192,34538,1,0,0:0:0:0:
64,192,34538,1,8,0:0:0:0:
448,192,34604,1,0,0:0:0:0:
192,192,34670,1,0,0:0:0:0:
64,192,34737,1,0,0:0:0:0:
448,192,34804,1,0,0:0:0:0:
320,192,34804,1,8,0:0:0:0:
192,192,34870,1,0,0:0:0:0:
448,192,34936,1,0,0:0:0:0:
192,192,35003,1,0,0:0:0:0:
320,192,35070,1,0,0:0:0:0:
64,192,35136,1,0,0:0:0:0:
320,192,35202,1,8,0:0:0:0:
448,192,35202,1,0,0:0:0:0:
192,192,35269,1,0,0:0:0:0:
448,192,35335,1,0,0:0:0:0:
64,192,35335,1,8,0:0:0:0:
320,192,35402,1,0,0:0:0:0:
192,192,35469,1,0,0:0:0:0:
320,192,35535,1,0,0:0:0:0:
448,192,35601,1,0,0:0:0:0:
64,192,35601,1,8,0:0:0:0:
320,192,35668,1,0,0:0:0:0:
192,192,35735,1,0,0:0:0:0:
64,192,35801,1,0,0:0:0:0:
448,192,35867,1,0,0:0:0:0:
320,192,35867,1,8,0:0:0:0:
192,192,35934,1,0,0:0:0:0:
64,192,36000,1,0,0:0:0:0:
320,192,36067,1,0,0:0:0:0:
192,192,36133,1,0,0:0:0:0:
320,192,36200,1,0,0:0:0:0:
448,192,36266,1,0,0:0:0:0:
64,192,36266,1,8,0:0:0:0:
192,192,36333,1,0,0:0:0:0:
320,192,36400,1,8,0:0:0:0:
448,192,36400,1,0,0:0:0:0:
64,192,36465,1,0,0:0:0:0:
192,192,36532,1,0,0:0:0:0:
320,192,36599,1,0,0:0:0:0:
448,192,36665,1,0,0:0:0:0:
64,192,36665,1,8,0:0:0:0:
192,192,36732,1,0,0:0:0:0:
448,192,36798,1,0,0:0:0:0:
320,192,36865,1,0,0:0:0:0:
64,192,36931,1,8,0:0:0:0:
192,192,36931,1,0,0:0:0:0:
320,192,36998,1,0,0:0:0:0:
64,192,37064,1,0,0:0:0:0:
320,192,37130,1,0,0:0:0:0:
192,192,37197,1,0,0:0:0:0:
448,192,37264,1,0,0:0:0:0:
64,192,37330,1,8,0:0:0:0:
320,192,37330,1,0,0:0:0:0:
192,192,37396,1,0,0:0:0:0:
448,192,37463,1,0,0:0:0:0:
320,192,37463,1,8,0:0:0:0:
192,192,37530,1,0,0:0:0:0:
64,192,37596,1,0,0:0:0:0:
320,192,37663,1,0,0:0:0:0:
448,192,37729,1,0,0:0:0:0:
192,192,37729,1,8,0:0:0:0:
64,192,37795,1,0,0:0:0:0:
192,192,37862,1,0,0:0:0:0:
64,192,37929,1,0,0:0:0:0:
320,192,37995,1,0,0:0:0:0:
192,192,37995,1,8,0:0:0:0:
448,192,38061,1,0,0:0:0:0:
320,192,38128,1,0,0:0:0:0:
448,192,38195,1,0,0:0:0:0:
192,192,38261,1,0,0:0:0:0:
320,192,38327,1,0,0:0:0:0:
192,192,38394,1,0,0:0:0:0:
64,192,38394,1,8,0:0:0:0:
320,192,38460,1,0,0:0:0:0:
448,192,38527,1,0,0:0:0:0:
192,192,38527,1,8,0:0:0:0:
64,192,38594,1,0,0:0:0:0:
448,192,38660,1,0,0:0:0:0:
64,192,38726,1,0,0:0:0:0:
448,192,38793,1,0,0:0:0:0:
320,192,38793,1,8,0:0:0:0:
192,192,38860,1,0,0:0:0:0:
320,192,38926,1,0,0:0:0:0:
64,192,38992,1,0,0:0:0:0:
192,192,39059,1,8,0:0:0:0:
448,192,39059,1,0,0:0:0:0:
64,192,39125,1,0,0:0:0:0:
320,192,39192,1,0,0:0:0:0:
192,192,39258,1,0,0:0:0:0:
320,192,39325,1,0,0:0:0:0:
448,192,39391,1,0,0:0:0:0:
320,192,39458,1,0,0:0:0:0:
192,192,39458,1,8,0:0:0:0:
64,192,39525,1,0,0:0:0:0:
448,192,39590,1,0,0:0:0:0:
320,192,39590,1,8,0:0:0:0:
64,192,39657,1,0,0:0:0:0:
192,192,39724,1,0,0:0:0:0:
320,192,39790,1,0,0:0:0:0:
448,192,39857,1,0,0:0:0:0:
192,192,39857,1,8,0:0:0:0:
320,192,39923,1,0,0:0:0:0:
64,192,39990,1,0,0:0:0:0:
192,192,40056,1,0,0:0:0:0:
448,192,40123,1,0,0:0:0:0:
320,192,40123,1,8,0:0:0:0:
64,192,40189,1,0,0:0:0:0:
448,192,40255,1,0,0:0:0:0:
64,192,40322,1,0,0:0:0:0:
192,192,40389,1,0,0:0:0:0:
448,192,40455,1,0,0:0:0:0:
320,192,40521,1,0,0:0:0:0:
192,192,40521,1,8,0:0:0:0:
448,192,40588,1,0,0:0:0:0:
64,192,40655,1,8,0:0:0:0:
192,192,40655,1,0,0:0:0:0:
320,192,40721,1,0,0:0:0:0:
64,192,40788,1,0,0:0:0:0:
320,192,40854,1,0,0:0:0:0:
64,192,40920,1,2,0:0:0:0:
448,192,40920,1,0,0:0:0:0:
192,192,40920,1,0,0:0:0:0:
64,192,41054,1,0,0:0:0:0:
320,192,41186,1,0,0:0:0:0:
192,192,41186,1,8,0:0:0:0:
320,192,41320,1,0,0:0:0:0:
448,192,41452,1,0,0:0:0:0:
192,192,41452,1,0,0:0:0:0:
64,192,41452,1,2,0:0:0:0:
448,192,41585,1,0,0:0:0:0:
192,192,41719,1,8,0:0:0:0:
320,192,41719,1,0,0:0:0:0:
192,192,41851,1,0,0:0:0:0:
64,192,41985,1,8,0:0:0:0:
448,192,41985,1,0,0:0:0:0:
64,192,42117,1,0,0:0:0:0:
192,192,42250,1,8,0:0:0:0:
448,192,42250,1,0,0:0:0:0:
448,192,42383,1,0,0:0:0:0:
64,192,42516,1,2,0:0:0:0:
192,192,42516,1,0,0:0:0:0:
320,192,42516,1,0,0:0:0:0:
192,192,42650,1,0,0:0:0:0:
448,192,42782,1,0,0:0:0:0:
320,192,42782,1,0,0:0:0:0:
64,192,42782,1,2,0:0:0:0:
192,192,42849,1,0,0:0:0:0:
320,192,42915,1,0,0:0:0:0:
192,192,42982,1,0,0:0:0:0:
320,192,43048,1,8,0:0:0:0:
448,192,43048,1,0,0:0:0:0:
64,192,43115,1,0,0:0:0:0:
320,192,43181,1,0,0:0:0:0:
64,192,43248,1,0,0:0:0:0:
320,192,43314,1,0,0:0:0:0:
192,192,43314,1,8,0:0:0:0:
448,192,43380,1,0,0:0:0:0:
192,192,43447,1,0,0:0:0:0:
448,192,43514,1,0,0:0:0:0:
64,192,43580,1,2,0:0:0:0:
320,192,43580,1,0,0:0:0:0:
192,192,43580,1,0,0:0:0:0:
320,192,43713,1,0,0:0:0:0:
192,192,43846,1,8,0:0:0:0:
448,192,43846,1,0,0:0:0:0:
192,192,43979,1,0,0:0:0:0:
320,192,44112,1,8,0:0:0:0:
448,192,44112,1,0,0:0:0:0:
448,192,44245,1,0,0:0:0:0:
64,192,44378,1,8,0:0:0:0:
320,192,44378,1,0,0:0:0:0:
64,192,44511,1,0,0:0:0:0:
192,192,44644,1,2,0:0:0:0:
320,192,44644,1,0,0:0:0:0:
448,192,44644,1,0,0:0:0:0:
448,192,44777,1,0,0:0:0:0:
64,192,44910,1,2,0:0:0:0:
192,192,44910,1,0,0:0:0:0:
320,192,44910,1,0,0:0:0:0:
448,192,44976,1,0,0:0:0:0:
64,192,45043,1,0,0:0:0:0:
320,192,45110,1,0,0:0:0:0:
192,192,45176,1,0,0:0:0:0:
64,192,45176,1,8,0:0:0:0:
448,192,45242,1,0,0:0:0:0:
192,192,45309,1,0,0:0:0:0:
320,192,45375,1,0,0:0:0:0:
192,192,45442,1,0,0:0:0:0:
64,192,45442,1,8,0:0:0:0:
448,192,45508,1,0,0:0:0:0:
320,192,45575,1,0,0:0:0:0:
192,192,45641,1,0,0:0:0:0:
448,192,45708,1,0,0:0:0:0:
320,192,45708,1,0,0:0:0:0:
64,192,45708,1,2,0:0:0:0:
320,192,45840,1,0,0:0:0:0:
448,192,45974,1,0,0:0:0:0:
192,192,45974,1,8,0:0:0:0:
448,192,46107,1,0,0:0:0:0:
64,192,46240,1,8,0:0:0:0:
192,192,46240,1,0,0:0:0:0:
192,192,46373,1,0,0:0:0:0:
448,192,46505,1,0,0:0:0:0:
64,192,46505,1,8,0:0:0:0:
64,192,46639,1,0,0:0:0:0:
192,192,46771,1,2,0:0:0:0:
320,192,46771,1,0,0:0:0:0:
448,192,46771,1,0,0:0:0:0:
320,192,46905,1,0,0:0:0:0:
192,192,47038,1,0,0:0:0:0:
64,192,47038,1,8,0:0:0:0:
448,192,47104,1,0,0:0:0:0:
64,192,47170,1,0,0:0:0:0:
448,192,47237,1,0,0:0:0:0:
64,192,47304,1,0,0:0:0:0:
448,192,47370,1,0,0:0:0:0:
64,192,47436,1,0,0:0:0:0:
448,192,47503,1,0,0:0:0:0:
64,192,47570,1,0,0:0:0:0:
448,192,47636,1,0,0:0:0:0:
64,192,47702,1,0,0:0:0:0:
448,192,47769,1,0,0:0:0:0:
64,192,47835,1,0,0:0:0:0:
448,192,47902,1,0,0:0:0:0:
64,192,47969,1,0,0:0:0:0:
448,192,48035,1,0,0:0:0:0:
64,192,48101,1,0,0:0:0:0:
448,192,48168,1,0,0:0:0:0:
64,192,48235,1,0,0:0:0:0:
448,192,48301,1,0,0:0:0:0:
320,192,48367,1,0,0:0:0:0:
192,192,48434,1,0,0:0:0:0:
64,192,48500,1,0,0:0:0:0:
320,192,48567,1,0,0:0:0:0:
64,192,48633,1,0,0:0:0:0:
320,192,48700,1,0,0:0:0:0:
192,192,48766,1,0,0:0:0:0:
64,192,48833,1,0,0:0:0:0:
320,192,48900,1,0,0:0:0:0:
192,192,48965,1,0,0:0:0:0:
448,192,49032,128,0,49365:0:0:0:0:
320,192,49099,128,0,49365:0:0:0:0:
192,192,49165,128,0,49365:0:0:0:0:
64,192,49232,128,0,49365:0:0:0:0:
64,192,49431,1,2,0:0:0:0:
320,192,49431,1,0,0:0:0:0:
448,192,49431,1,0,0:0:0:0:
192,192,49498,1,0,0:0:0:0:
448,192,49564,1,0,0:0:0:0:
320,192,49630,1,0,0:0:0:0:
192,192,49697,1,0,0:0:0:0:
64,192,49697,1,2,0:0:0:0:
448,192,49697,1,0,0:0:0:0:
320,192,49764,1,0,0:0:0:0:
64,192,49830,1,0,0:0:0:0:
192,192,49896,1,0,0:0:0:0:
448,192,49963,1,0,0:0:0:0:
192,192,50030,1,0,0:0:0:0:
320,192,50096,1,8,0:0:0:0:
448,192,50096,1,0,0:0:0:0:
64,192,50163,1,0,0:0:0:0:
192,192,50229,1,2,0:0:0:0:
448,192,50229,1,0,0:0:0:0:
320,192,50229,1,0,0:0:0:0:
64,192,50295,1,0,0:0:0:0:
320,192,50362,1,0,0:0:0:0:
64,192,50429,1,0,0:0:0:0:
192,192,50495,1,8,0:0:0:0:
320,192,50495,1,0,0:0:0:0:
448,192,50561,1,0,0:0:0:0:
192,192,50628,1,0,0:0:0:0:
320,192,50695,1,0,0:0:0:0:
192,192,50761,1,0,0:0:0:0:
448,192,50761,1,0,0:0:0:0:
64,192,50761,1,2,0:0:0:0:
320,192,50827,1,0,0:0:0:0:
64,192,50894,1,0,0:0:0:0:
192,192,50960,1,0,0:0:0:0:
64,192,51027,1,0,0:0:0:0:
448,192,51094,1,0,0:0:0:0:
320,192,51160,1,0,0:0:0:0:
192,192,51160,1,8,0:0:0:0:
64,192,51226,1,0,0:0:0:0:
192,192,51293,1,2,0:0:0:0:
320,192,51293,1,0,0:0:0:0:
448,192,51293,1,0,0:0:0:0:
64,192,51360,1,0,0:0:0:0:
448,192,51426,1,0,0:0:0:0:
192,192,51492,1,0,0:0:0:0:
448,192,51559,1,0,0:0:0:0:
320,192,51559,1,8,0:0:0:0:
64,192,51625,1,0,0:0:0:0:
320,192,51692,1,0,0:0:0:0:
192,192,51758,1,0,0:0:0:0:
64,192,51825,1,2,0:0:0:0:
320,192,51825,1,0,0:0:0:0:
448,192,51825,1,0,0:0:0:0:
192,192,51891,1,0,0:0:0:0:
320,192,51958,1,0,0:0:0:0:
192,192,52025,1,0,0:0:0:0:
320,192,52090,1,0,0:0:0:0:
64,192,52157,1,0,0:0:0:0:
320,192,52224,1,0,0:0:0:0:
192,192,52224,1,8,0:0:0:0:
448,192,52290,1,0,0:0:0:0:
64,192,52357,1,2,0:0:0:0:
192,192,52357,1,0,0:0:0:0:
320,192,52357,1,0,0:0:0:0:
448,192,52423,1,0,0:0:0:0:
192,192,52490,1,0,0:0:0:0:
64,192,52556,1,0,0:0:0:0:
320,192,52623,1,0,0:0:0:0:
192,192,52623,1,8,0:0:0:0:
448,192,52689,1,0,0:0:0:0:
320,192,52755,1,0,0:0:0:0:
64,192,52822,1,0,0:0:0:0:
192,192,52889,1,2,0:0:0:0:
448,192,52889,1,0,0:0:0:0:
320,192,52889,1,0,0:0:0:0:
64,192,52955,1,0,0:0:0:0:
320,192,53021,1,0,0:0:0:0:
192,192,53088,1,0,0:0:0:0:
448,192,53155,1,0,0:0:0:0:
64,192,53221,1,0,0:0:0:0:
320,192,53288,1,8,0:0:0:0:
448,192,53288,1,0,0:0:0:0:
192,192,53354,1,0,0:0:0:0:
64,192,53420,1,2,0:0:0:0:
320,192,53420,1,0,0:0:0:0:
448,192,53420,1,0,0:0:0:0:
192,192,53487,1,0,0:0:0:0:
448,192,53554,1,0,0:0:0:0:
320,192,53620,1,0,0:0:0:0:
64,192,53686,1,2,0:0:0:0:
192,192,53686,1,0,0:0:0:0:
448,192,53686,1,0,0:0:0:0:
320,192,53753,1,0,0:0:0:0:
64,192,53820,1,0,0:0:0:0:
192,192,53886,1,0,0:0:0:0:
64,192,53952,1,0,0:0:0:0:
320,192,53952,1,2,0:0:0:0:
448,192,53952,1,0,0:0:0:0:
192,192,54019,1,0,0:0:0:0:
448,192,54085,1,0,0:0:0:0:
320,192,54152,1,0,0:0:0:0:
192,192,54219,1,0,0:0:0:0:
448,192,54285,1,0,0:0:0:0:
192,192,54351,1,8,0:0:0:0:
320,192,54351,1,0,0:0:0:0:
64,192,54418,1,0,0:0:0:0:
192,192,54485,1,2,0:0:0:0:
320,192,54485,1,0,0:0:0:0:
448,192,54485,1,0,0:0:0:0:
64,192,54551,1,0,0:0:0:0:
320,192,54617,1,0,0:0:0:0:
192,192,54684,1,0,0:0:0:0:
320,192,54750,1,8,0:0:0:0:
448,192,54750,1,0,0:0:0:0:
64,192,54817,1,0,0:0:0:0:
192,192,54883,1,0,0:0:0:0:
448,192,54950,1,0,0:0:0:0:
64,192,55016,1,8,0:0:0:0:
192,192,55016,1,0,0:0:0:0:
320,192,55083,1,8,0:0:0:0:
448,192,55083,1,0,0:0:0:0:
64,192,55150,1,8,0:0:0:0:
192,192,55150,1,0,0:0:0:0:
320,192,55215,1,0,0:0:0:0:
448,192,55282,1,0,0:0:0:0:
192,192,55349,1,0,0:0:0:0:
320,192,55415,1,0,0:0:0:0:
64,192,55415,1,8,0:0:0:0:
448,192,55482,1,0,0:0:0:0:
192,192,55548,1,0,0:0:0:0:
320,192,55548,1,0,0:0:0:0:
64,192,55548,1,2,0:0:0:0:
448,192,55615,1,0,0:0:0:0:
192,192,55681,1,0,0:0:0:0:
320,192,55748,1,0,0:0:0:0:
192,192,55814,1,0,0:0:0:0:
64,192,55814,1,8,0:0:0:0:
448,192,55880,1,0,0:0:0:0:
320,192,55947,1,0,0:0:0:0:
64,192,56014,1,0,0:0:0:0:
192,192,56080,1,2,0:0:0:0:
320,192,56080,1,0,0:0:0:0:
448,192,56080,1,0,0:0:0:0:
64,192,56146,1,0,0:0:0:0:
448,192,56213,1,0,0:0:0:0:
192,192,56280,1,0,0:0:0:0:
320,192,56346,1,0,0:0:0:0:
192,192,56413,1,0,0:0:0:0:
64,192,56479,1,8,0:0:0:0:
448,192,56479,1,0,0:0:0:0:
320,192,56545,1,0,0:0:0:0:
64,192,56612,1,2,0:0:0:0:
192,192,56612,1,0,0:0:0:0:
448,192,56612,1,0,0:0:0:0:
320,192,56679,1,0,0:0:0:0:
64,192,56745,1,0,0:0:0:0:
192,192,56811,1,0,0:0:0:0:
448,192,56878,1,0,0:0:0:0:
320,192,56878,1,8,0:0:0:0:
64,192,56945,1,0,0:0:0:0:
192,192,57011,1,0,0:0:0:0:
448,192,57077,1,0,0:0:0:0:
192,192,57144,1,0,0:0:0:0:
64,192,57144,1,8,0:0:0:0:
320,192,57210,1,0,0:0:0:0:
448,192,57277,1,0,0:0:0:0:
192,192,57344,1,0,0:0:0:0:
320,192,57410,1,0,0:0:0:0:
448,192,57476,1,0,0:0:0:0:
64,192,57543,1,8,0:0:0:0:
192,192,57543,1,0,0:0:0:0:
448,192,57610,1,0,0:0:0:0:
192,192,57676,1,0,0:0:0:0:
64,192,57676,1,2,0:0:0:0:
320,192,57676,1,0,0:0:0:0:
448,192,57742,1,0,0:0:0:0:
192,192,57809,1,0,0:0:0:0:
320,192,57875,1,0,0:0:0:0:
64,192,57942,1,2,0:0:0:0:
192,192,57942,1,0,0:0:0:0:
448,192,57942,1,0,0:0:0:0:
320,192,58008,1,0,0:0:0:0:
64,192,58075,1,0,0:0:0:0:
192,192,58141,1,0,0:0:0:0:
448,192,58208,1,0,0:0:0:0:
320,192,58208,1,0,0:0:0:0:
64,192,58208,1,2,0:0:0:0:
192,192,58275,1,0,0:0:0:0:
448,192,58340,1,0,0:0:0:0:
192,192,58407,1,0,0:0:0:0:
320,192,58474,1,0,0:0:0:0:
64,192,58540,1,0,0:0:0:0:
192,192,58607,1,8,0:0:0:0:
320,192,58607,1,0,0:0:0:0:
448,192,58673,1,0,0:0:0:0:
64,192,58740,1,2,0:0:0:0:
192,192,58740,1,0,0:0:0:0:
320,192,58740,1,0,0:0:0:0:
448,192,58806,1,0,0:0:0:0:
192,192,58873,1,0,0:0:0:0:
64,192,58939,1,0,0:0:0:0:
192,192,59005,1,8,0:0:0:0:
320,192,59005,1,0,0:0:0:0:
448,192,59072,1,0,0:0:0:0:
192,192,59139,1,0,0:0:0:0:
320,192,59205,1,0,0:0:0:0:
192,192,59271,1,0,0:0:0:0:
64,192,59271,1,2,0:0:0:0:
448,192,59271,1,0,0:0:0:0:
320,192,59338,1,0,0:0:0:0:
64,192,59405,1,0,0:0:0:0:
448,192,59471,1,0,0:0:0:0:
320,192,59538,1,0,0:0:0:0:
448,192,59604,1,0,0:0:0:0:
192,192,59670,1,0,0:0:0:0:
64,192,59670,1,8,0:0:0:0:
320,192,59737,1,0,0:0:0:0:
192,192,59804,1,0,0:0:0:0:
64,192,59804,1,2,0:0:0:0:
448,192,59804,1,0,0:0:0:0:
320,192,59870,1,0,0:0:0:0:
64,192,59936,1,0,0:0:0:0:
448,192,60003,1,0,0:0:0:0:
192,192,60070,1,8,0:0:0:0:
320,192,60070,1,0,0:0:0:0:
64,192,60136,1,0,0:0:0:0:
448,192,60202,1,0,0:0:0:0:
64,192,60269,1,0,0:0:0:0:
192,192,60335,1,2,0:0:0:0:
320,192,60335,1,0,0:0:0:0:
448,192,60335,1,0,0:0:0:0:
64,192,60402,1,0,0:0:0:0:
320,192,60469,1,0,0:0:0:0:
192,192,60535,1,0,0:0:0:0:
448,192,60601,1,0,0:0:0:0:
64,192,60668,1,0,0:0:0:0:
320,192,60735,1,8,0:0:0:0:
448,192,60735,1,0,0:0:0:0:
192,192,60801,1,0,0:0:0:0:
64,192,60867,1,0,0:0:0:0:
320,192,60867,1,2,0:0:0:0:
448,192,60867,1,0,0:0:0:0:
192,192,60934,1,0,0:0:0:0:
448,192,61000,1,0,0:0:0:0:
64,192,61067,1,0,0:0:0:0:
320,192,61133,1,8,0:0:0:0:
448,192,61133,1,0,0:0:0:0:
192,192,61200,1,0,0:0:0:0:
64,192,61266,1,0,0:0:0:0:
448,192,61333,1,0,0:0:0:0:
320,192,61400,1,0,0:0:0:0:
192,192,61400,1,0,0:0:0:0:
64,192,61400,1,2,0:0:0:0:
448,192,61465,1,0,0:0:0:0:
192,192,61532,1,0,0:0:0:0:
320,192,61599,1,0,0:0:0:0:
64,192,61665,1,0,0:0:0:0:
320,192,61732,1,0,0:0:0:0:
448,192,61798,1,0,0:0:0:0:
64,192,61798,1,8,0:0:0:0:
192,192,61865,1,0,0:0:0:0:
448,192,61931,1,0,0:0:0:0:
320,192,61931,1,2,0:0:0:0:
64,192,61931,1,0,0:0:0:0:
192,192,61998,1,0,0:0:0:0:
320,192,62064,1,0,0:0:0:0:
448,192,62130,1,0,0:0:0:0:
64,192,62197,1,2,0:0:0:0:
192,192,62197,1,0,0:0:0:0:
320,192,62197,1,0,0:0:0:0:
448,192,62264,1,0,0:0:0:0:
192,192,62330,1,0,0:0:0:0:
320,192,62396,1,0,0:0:0:0:
64,192,62463,1,8,0:0:0:0:
448,192,62463,1,0,0:0:0:0:
192,192,62530,1,0,0:0:0:0:
448,192,62596,1,0,0:0:0:0:
320,192,62663,1,0,0:0:0:0:
64,192,62729,1,0,0:0:0:0:
192,192,62795,1,0,0:0:0:0:
320,192,62862,1,8,0:0:0:0:
448,192,62862,1,0,0:0:0:0:
64,192,62929,1,0,0:0:0:0:
192,192,62995,1,2,0:0:0:0:
320,192,62995,1,0,0:0:0:0:
448,192,62995,1,0,0:0:0:0:
64,192,63061,1,0,0:0:0:0:
320,192,63128,1,0,0:0:0:0:
64,192,63195,1,0,0:0:0:0:
192,192,63261,1,8,0:0:0:0:
320,192,63261,1,0,0:0:0:0:
448,192,63327,1,0,0:0:0:0:
64,192,63394,1,0,0:0:0:0:
448,192,63460,1,0,0:0:0:0:
192,192,63527,1,8,0:0:0:0:
320,192,63527,1,0,0:0:0:0:
64,192,63594,1,0,0:0:0:0:
320,192,63660,1,0,0:0:0:0:
192,192,63726,1,0,0:0:0:0:
64,192,63793,1,8,0:0:0:0:
320,192,63793,1,0,0:0:0:0:
448,192,63860,1,0,0:0:0:0:
192,192,63926,1,0,0:0:0:0:
320,192,63992,1,0,0:0:0:0:
64,192,64059,128,8,66452:0:0:0:0:
192,192,64059,1,0,0:0:0:0:
192,192,65477,1,2,0:0:0:0:
320,192,65521,1,2,0:0:0:0:
448,192,65566,1,2,0:0:0:0:
192,192,65610,1,2,0:0:0:0:
320,192,65655,1,2,0:0:0:0:
448,192,65699,1,2,0:0:0:0:
192,192,65954,128,0,66452:0:0:0:0:
448,192,66452,1,0,0:0:0:0:
320,192,66452,1,8,0:0:0:0:
64,192,66585,1,0,0:0:0:0:
192,192,66719,1,0,0:0:0:0:
64,192,66851,1,8,0:0:0:0:
320,192,66851,1,0,0:0:0:0:
448,192,66985,1,0,0:0:0:0:
320,192,67117,1,0,0:0:0:0:
192,192,67184,1,0,0:0:0:0:
64,192,67250,1,8,0:0:0:0:
448,192,67250,1,0,0:0:0:0:
192,192,67516,1,0,0:0:0:0:
64,192,67650,1,0,0:0:0:0:
320,192,67782,1,0,0:0:0:0:
64,192,67915,1,0,0:0:0:0:
448,192,68048,1,0,0:0:0:0:
64,192,68181,1,0,0:0:0:0:
320,192,68314,1,0,0:0:0:0:
64,192,68447,1,0,0:0:0:0:
192,192,68580,1,8,0:0:0:0:
320,192,68580,128,0,69024:0:0:0:0:
448,192,69024,1,0,0:0:0:0:
192,192,69024,128,8,69577:0:0:0:0:
64,192,69577,128,8,73367:0:0:0:0:
320,192,69577,1,0,0:0:0:0:
