osu file format v14

[General]
AudioFilename: audio.mp3
AudioLeadIn: 0
PreviewTime: 59967
Countdown: 0
SampleSet: Soft
StackLeniency: 0.7
Mode: 2
LetterboxInBreaks: 0
WidescreenStoryboard: 0

[Editor]
Bookmarks: 33148,33786,43360,43999,58680,59318,64105,64424,69212,69531
DistanceSpacing: 2.4
BeatDivisor: 4
GridSize: 32
TimelineZoom: 2.8

[Metadata]
Title:Sleepless days
TitleUnicode:Sleepless days
Artist:Nekomata Master feat. Mayumi Morinaga
ArtistUnicode:猫叉Master feat. Mayumi Morinaga
Creator:Bastian
Version:Rain
Source:クイズマジックアカデミー THE WORLD EVOLVE
Tags:jorkseljund greaper SOUND VOLTEX IV HEAVENLY HAVEN THE WORLD EVOLVE 鍵龍討滅戦 beatmania IIDX 25 CANNON BALLERS senya quiz magic academy moimoi bemani konami opening
BeatmapID:2009086
BeatmapSetID:959574

[Difficulty]
HPDrainRate:6
CircleSize:4
OverallDifficulty:9
ApproachRate:9
SliderMultiplier:1.8
SliderTickRate:2

[Events]
//Background and Video events
0,0,"FateValkyrieServant.jpg",0,0
//Break Periods
//Storyboard Layer 0 (Background)
//Storyboard Layer 1 (Fail)
//Storyboard Layer 2 (Pass)
//Storyboard Layer 3 (Foreground)
//Storyboard Layer 4 (Overlay)
//Storyboard Sound Samples

[TimingPoints]
1324,319.148936170213,4,2,3,50,1,0
1324,-133.333333333333,4,2,3,50,0,0
10898,-100,4,2,3,55,0,0
11536,-100,4,2,1,60,0,0
21749,-100,4,2,1,65,0,0
34515,-100,4,2,1,75,0,0
43451,-100,4,2,1,65,0,0
44089,-100,4,2,1,60,0,0
44728,-100,4,2,1,75,0,0
57175,-200,4,2,1,60,0,0
59249,-100,4,2,1,65,0,0
59409,-100,4,2,1,50,0,0
60047,-100,4,2,1,75,0,1
69941,-100,4,2,1,70,0,0
70260,-100,4,2,1,75,0,1
77600,-100,4,2,1,70,0,0
80153,-100,4,2,1,5,0,0
80472,-133.333333333333,4,2,1,60,0,0
83026,361.44578313253,4,2,1,65,1,0
83568,454.545454545455,4,2,1,65,1,8
84220,500,4,2,1,65,1,0
84470,-100,4,2,1,50,0,0
84970,-100,4,2,1,45,0,0
85470,-100,4,2,1,40,0,0
85970,-100,4,2,1,35,0,0
86470,-100,4,2,1,30,0,0
86970,-100,4,2,1,25,0,0
87470,-100,4,2,1,20,0,0
87720,-100,4,2,1,15,0,0
87970,-100,4,2,1,10,0,0
88220,-100,4,2,1,5,0,0

[Colours]
Combo1 : 255,206,183
Combo2 : 255,128,255
Combo3 : 128,128,255
Combo4 : 0,58,166

[HitObjects]
83,315,1324,6,0,L|297:315,2,202.500007724762,4|0|8,0:0|0:0|0:0,0:0:0:0:
286,316,3877,6,0,L|61:316,1,202.500007724762,0|0,0:0|0:0,0:0:0:0:
407,316,4834,2,0,P|494:234|402:151,1,270.000010299683,0|0,0:0|0:0,0:0:0:0:
243,150,5792,1,0,0:0:0:0:
81,150,6111,1,0,0:0:0:0:
310,151,6430,6,0,L|524:151,2,202.500007724762,0|0|2,0:0|0:0|0:0,0:0:0:0:
104,156,8983,6,0,L|318:156,1,202.500007724762,0|0,0:0|0:0,0:0:0:0:
104,156,9941,2,0,P|15:237|102:321,1,270.000010299683,0|0,0:0|0:0,0:0:0:0:
317,321,10898,2,0,L|31:321,1,270,0|0,0:0|0:0,0:0:0:0:
119,321,11456,1,0,0:0:0:0:
387,322,11536,6,0,P|446:268|368:219,1,180,4|0,0:0|0:0,0:0:0:0:
242,213,12015,1,0,0:0:0:0:
386,213,12175,2,0,L|386:114,1,90,8|0,0:0|0:0,0:0:0:0:
241,123,12494,2,0,L|357:123,1,90,0|0,0:0|0:0,0:0:0:0:
112,122,12813,6,0,P|52:176|111:230,1,180,0|0,0:0|0:0,0:0:0:0:
256,231,13292,1,0,0:0:0:0:
112,231,13451,2,0,L|112:127,1,90,8|0,0:0|0:0,0:0:0:0:
256,141,13770,2,0,L|166:141,1,90,0|0,0:0|0:0,0:0:0:0:
383,140,14089,6,0,P|442:193|384:248,1,180,0|0,0:0|0:0,0:0:0:0:
238,248,14568,2,0,L|131:248,1,90,0|8,0:0|0:0,0:0:0:0:
292,248,14887,2,0,L|382:248,2,90,0|0|0,0:0|0:0|0:0,0:0:0:0:
75,248,15366,6,0,P|15:194|74:140,1,180,0|0,0:0|0:0,0:0:0:0:
217,139,15845,1,0,0:0:0:0:
450,139,16004,1,8,0:0:0:0:
359,139,16164,1,0,0:0:0:0:
449,139,16324,1,0,0:0:0:0:
359,139,16483,1,0,0:0:0:0:
88,139,16643,6,0,L|289:139,1,180,0|0,0:0|0:0,0:0:0:0:
124,139,17121,1,0,0:0:0:0:
359,139,17281,2,0,L|461:139,1,90,8|0,0:0|0:0,0:0:0:0:
304,139,17600,2,0,L|195:139,1,90,0|0,0:0|0:0,0:0:0:0:
359,139,17919,6,0,P|418:192|360:247,1,180,0|0,0:0|0:0,0:0:0:0:
214,247,18398,1,0,0:0:0:0:
358,247,18558,2,0,L|358:147,1,90,8|0,0:0|0:0,0:0:0:0:
213,157,18877,1,0,0:0:0:0:
356,157,19036,1,0,0:0:0:0:
139,157,19196,6,0,P|79:211|139:264,1,180,0|0,0:0|0:0,0:0:0:0:
283,264,19675,1,0,0:0:0:0:
139,264,19834,2,0,L|40:264,2,90,8|0|0,0:0|0:0|0:0,0:0:0:0:
283,264,20313,1,0,0:0:0:0:
67,264,20472,6,0,P|7:210|66:156,1,180,0|0,0:0|0:0,0:0:0:0:
209,155,20951,1,0,0:0:0:0:
66,156,21111,2,0,L|66:269,1,90,8|0,0:0|0:0,0:0:0:0:
291,246,21430,2,0,L|398:246,1,90,0|0,0:0|0:0,0:0:0:0:
138,156,21749,6,0,P|79:211|139:264,1,180,6|0,0:0|0:0,0:0:0:0:
284,264,22228,2,0,L|388:264,1,90,0|8,0:0|0:0,0:0:0:0:
229,264,22547,2,0,L|139:264,2,90,0|0|0,0:0|0:0|0:0,0:0:0:0:
454,264,23026,6,0,P|497:170|435:130,1,180,2|0,0:0|0:0,0:0:0:0:
310,84,23504,1,0,0:0:0:0:
165,84,23664,2,0,L|55:84,1,90,8|0,0:0|0:0,0:0:0:0:
219,84,23983,1,0,0:0:0:0:
363,84,24143,1,0,0:0:0:0:
147,84,24302,6,0,P|88:139|148:192,1,180,2|0,0:0|0:0,0:0:0:0:
291,192,24781,1,0,0:0:0:0:
74,192,24941,2,0,L|74:297,1,90,8|0,0:0|0:0,0:0:0:0:
218,282,25260,1,0,0:0:0:0:
74,282,25419,1,0,0:0:0:0:
300,282,25579,6,0,L|411:282,2,90,2|0|0,0:0|0:0|0:0,0:0:0:0:
115,283,26217,2,0,L|115:184,1,90,8|0,0:0|0:0,0:0:0:0:
259,193,26536,1,0,0:0:0:0:
115,193,26696,1,0,0:0:0:0:
340,173,26855,6,0,L|526:173,1,180,2|0,0:0|0:0,0:0:0:0:
375,173,27334,1,0,0:0:0:0:
158,173,27494,2,0,L|45:173,1,90,8|0,0:0|0:0,0:0:0:0:
285,173,27813,2,0,L|375:173,1,90,0|0,0:0|0:0,0:0:0:0:
80,175,28132,6,0,P|21:229|80:284,1,180,2|0,0:0|0:0,0:0:0:0:
224,284,28611,1,0,0:0:0:0:
367,284,28770,1,8,0:0:0:0:
115,284,29089,2,0,L|115:182,1,90,0|0,0:0|0:0,0:0:0:0:
367,284,29409,6,0,P|422:227|355:169,1,180
120,167,30047,2,0,L|120:60,1,90,8|0,0:0|0:0,0:0:0:0:
264,77,30366,2,0,L|362:77,1,90
137,77,30685,1,0,0:0:0:0:
378,277,31004,6,0,L|497:277,2,90,0|0|8,0:0|0:0|0:0,0:0:0:0:
233,277,31483,1,0,0:0:0:0:
88,277,31643,2,0,L|89:169,1,90,0|0,0:0|0:0,0:0:0:0:
365,188,31962,6,0,P|423:133|364:78,1,180,4|0,0:0|0:0,0:0:0:0:
207,77,32441,1,0,0:0:0:0:
423,77,32600,2,0,L|423:167,1,90,8|0,0:0|0:0,0:0:0:0:
205,167,32919,2,0,L|115:167,1,90,0|0,0:0|0:0,0:0:0:0:
332,167,33238,5,8,0:0:0:0:
119,186,33558,2,0,L|21:186,1,90,0|0,0:0|0:0,0:0:0:0:
353,186,33877,2,0,L|425:97,1,90,0|0,0:0|0:0,0:0:0:0:
188,69,34196,5,8,0:0:0:0:
129,95,34276,1,0,0:0:0:0:
129,159,34356,1,0,0:0:0:0:
186,186,34435,1,0,0:0:0:0:
366,186,34515,6,0,P|425:241|365:294,1,180,6|10,0:0|0:0,0:0:0:0:
221,294,34994,1,0,0:0:0:0:
365,294,35153,2,0,L|455:294,2,90,0|0|10,0:0|0:0|0:0,0:0:0:0:
148,294,35632,6,0,P|88:240|147:185,1,180,0|0,0:0|0:0,0:0:0:0:
292,185,36111,2,0,L|391:185,1,90,10|0,0:0|0:0,0:0:0:0:
235,184,36430,2,0,L|145:184,1,90,0|0,0:0|0:0,0:0:0:0:
370,184,36749,2,0,P|430:130|371:75,1,180,10|0,0:0|0:0,0:0:0:0:
84,74,37387,6,0,L|-15:74,1,90,10|0,0:0|0:0,0:0:0:0:
138,74,37706,2,0,L|228:74,2,90,0|0|10,0:0|0:0|0:0,0:0:0:0:
372,74,38185,2,0,P|429:129|369:183,1,180,0|0,0:0|0:0,0:0:0:0:
228,254,38664,6,0,L|133:254,1,90,10|0,0:0|0:0,0:0:0:0:
282,254,38983,2,0,L|372:254,1,90,0|0,0:0|0:0,0:0:0:0:
138,254,39302,2,0,L|80:160,1,90,10|0,0:0|0:0,0:0:0:0:
316,163,39621,6,0,L|427:163,1,90,4|0,0:0|0:0,0:0:0:0:
170,163,39941,2,0,L|56:163,2,90,10|0|0,0:0|0:0|0:0,0:0:0:0:
313,163,40419,1,0,0:0:0:0:
168,163,40579,2,0,L|168:59,1,90,10|0,0:0|0:0,0:0:0:0:
393,73,40898,6,0,P|450:128|390:182,1,180,0|10,0:0|0:0,0:0:0:0:
244,181,41377,1,0,0:0:0:0:
389,181,41536,2,0,L|389:80,1,90,0|0,0:0|0:0,0:0:0:0:
172,91,41855,2,0,P|114:146|174:200,1,180,10|0,0:0|0:0,0:0:0:0:
349,202,42494,6,0,L|236:202,3,90,10|0|0|0,0:0|0:0|0:0|0:0,0:0:0:0:
403,202,43132,2,0,L|403:92,1,90,10|0,0:0|0:0,0:0:0:0:
186,112,43451,6,0,L|64:112,1,90,2|0,0:0|0:0,0:0:0:0:
240,112,43770,2,0,L|330:112,1,90,10|0,0:0|0:0,0:0:0:0:
113,112,44089,2,0,L|113:216,1,90,2|0,0:0|0:0,0:0:0:0:
331,202,44409,2,0,L|434:202,1,90,10|0,0:0|0:0,0:0:0:0:
79,225,44728,6,0,P|19:171|77:115,1,180,6|10,0:0|0:0,0:0:0:0:
219,115,45206,1,0,0:0:0:0:
363,115,45366,2,0,L|472:115,3,90,0|0|10|0,0:0|0:0|0:0|0:0,0:0:0:0:
236,115,46004,6,0,L|124:115,1,90,0|0,0:0|0:0,0:0:0:0:
364,115,46324,2,0,L|478:115,1,90,10|0,0:0|0:0,0:0:0:0:
308,200,46643,2,0,L|214:200,1,90,0|0,0:0|0:0,0:0:0:0:
435,200,46962,2,0,P|484:261|419:339,1,180,10|0,0:0|0:0,0:0:0:0:
182,115,47600,6,0,L|58:115,2,90,10|0|0,0:0|0:0|0:0,0:0:0:0:
37,115,48079,1,0,0:0:0:0:
182,115,48238,1,10,0:0:0:0:
413,117,48398,6,0,P|470:173|410:227,1,180,0|0,0:0|0:0,0:0:0:0:
250,225,48877,2,0,L|366:225,1,90,10|0,0:0|0:0,0:0:0:0:
195,225,49196,2,0,L|105:225,1,90,0|0,0:0|0:0,0:0:0:0:
249,225,49515,2,0,L|249:117,1,90,10|0,0:0|0:0,0:0:0:0:
32,135,49834,6,0,L|223:135,1,180,4|0,0:0|0:0,0:0:0:0:
356,135,50313,1,0,0:0:0:0:
140,135,50472,2,0,L|35:135,2,90,8|0|0,0:0|0:0|0:0,0:0:0:0:
284,135,50951,1,0,0:0:0:0:
67,135,51111,6,0,L|268:135,2,180,0|0|8,0:0|0:0|0:0,0:0:0:0:
211,135,51909,1,0,0:0:0:0:
435,135,52068,2,0,P|492:191|432:245,1,180,4|0,0:0|0:0,0:0:0:0:
143,244,52706,5,0,0:0:0:0:
431,244,53026,1,8,0:0:0:0:
143,244,53345,2,0,L|20:245,1,90,0|0,0:0|0:0,0:0:0:0:
278,244,53664,6,0,L|458:244,1,180,0|0,0:0|0:0,0:0:0:0:
170,244,54302,2,0,L|100:160,1,90,8|0,0:0|0:0,0:0:0:0:
395,154,54621,6,0,P|455:100|398:44,1,180,4|0,0:0|0:0,0:0:0:0:
109,43,55260,2,0,P|52:99|112:152,1,180,0|8,0:0|0:0,0:0:0:0:
382,153,55898,2,0,L|481:153,1,90,0|0,0:0|0:0,0:0:0:0:
255,153,56217,6,0,P|198:209|258:262,1,180,0|0,0:0|0:0,0:0:0:0:
402,262,56696,1,0,0:0:0:0:
258,261,56855,2,0,L|206:355,1,90,8|0,0:0|0:0,0:0:0:0:
439,341,57175,2,0,B|133:250|133:250|346:193|-2:132|67:92,1,585,4|0,0:0|0:0,0:0:0:0:
377,174,59409,5,0,0:0:0:0:
436,200,59489,1,0,0:0:0:0:
436,264,59569,1,0,0:0:0:0:
379,291,59648,1,0,0:0:0:0:
221,291,59728,2,0,L|135:291,1,45,0|0,0:0|0:0,0:0:0:0:
333,291,59887,2,0,L|378:291,1,45,0|0,0:0|0:0,0:0:0:0:
101,290,60047,6,0,L|0:290,1,90,4|0,0:0|0:0,0:0:0:0:
229,291,60366,2,0,L|319:291,1,90,10|0,0:0|0:0,0:0:0:0:
174,291,60685,2,0,L|84:291,1,90,0|0,0:0|0:0,0:0:0:0:
302,291,61004,6,0,P|362:238|305:182,1,180,10|0,0:0|0:0,0:0:0:0:
161,182,61483,1,0,0:0:0:0:
305,182,61643,2,0,L|305:82,1,90,10|0,0:0|0:0,0:0:0:0:
449,92,61962,2,0,L|359:92,1,90,0|0,0:0|0:0,0:0:0:0:
142,92,62281,6,0,P|85:148|145:200,1,180,10|0,0:0|0:0,0:0:0:0:
290,199,62760,1,0,0:0:0:0:
146,199,62919,2,0,L|146:305,1,90,10|0,0:0|0:0,0:0:0:0:
290,289,63238,2,0,L|200:289,1,90,0|0,0:0|0:0,0:0:0:0:
427,289,63558,6,0,P|488:237|431:181,1,180,10|0,0:0|0:0,0:0:0:0:
287,180,64036,1,0,0:0:0:0:
430,180,64196,2,0,L|430:71,1,90,10|0,0:0|0:0,0:0:0:0:
285,90,64515,1,0,0:0:0:0:
140,90,64675,1,0,0:0:0:0:
364,90,64834,5,10,0:0:0:0:
423,116,64914,1,0,0:0:0:0:
423,180,64994,1,0,0:0:0:0:
366,207,65073,1,0,0:0:0:0:
208,207,65153,6,0,L|84:207,1,90,6|0,0:0|0:0,0:0:0:0:
262,207,65472,2,0,L|360:207,1,90,10|0,0:0|0:0,0:0:0:0:
118,207,65792,2,0,L|118:89,1,90,0|0,0:0|0:0,0:0:0:0:
342,207,66111,2,0,P|403:155|346:99,1,180,10|0,0:0|0:0,0:0:0:0:
190,98,66589,6,0,L|100:98,1,90,0|10,0:0|0:0,0:0:0:0:
320,98,66909,2,0,L|429:98,2,90,0|0|0,0:0|0:0|0:0,0:0:0:0:
103,98,67387,6,0,P|45:154|106:205,1,180,10|0,0:0|0:0,0:0:0:0:
249,205,67866,1,0,0:0:0:0:
104,205,68026,2,0,L|229:205,1,90,10|0,0:0|0:0,0:0:0:0:
58,122,68345,2,0,L|183:122,1,90
406,209,68664,6,0,L|206:209,1,180,10|0,0:0|0:0,0:0:0:0:
370,209,69143,1,0,0:0:0:0:
154,209,69302,2,0,L|49:209,1,90,10|0,0:0|0:0,0:0:0:0:
208,209,69621,2,0,L|307:209,1,90
80,209,69941,5,10,0:0:0:0:
23,182,70020,1,0,0:0:0:0:
23,118,70100,1,0,0:0:0:0:
82,92,70180,1,0,0:0:0:0:
270,209,70260,6,0,L|372:209,1,90,6|0,0:0|0:0,0:0:0:0:
215,209,70579,2,0,L|215:97,1,90,10|0,0:0|0:0,0:0:0:0:
432,119,70898,2,0,L|432:218,1,90
176,119,71217,6,0,P|117:173|178:226,1,180,10|0,0:0|0:0,0:0:0:0:
322,226,71696,1,0,0:0:0:0:
106,226,71855,2,0,L|106:110,1,90,10|0,0:0|0:0,0:0:0:0:
251,136,72175,2,0,L|251:230,1,90,0|0,0:0|0:0,0:0:0:0:
25,226,72494,6,0,P|-11:142|37:67,1,180,10|0,0:0|0:0,0:0:0:0:
168,46,72972,1,0,0:0:0:0:
312,46,73132,2,0,L|423:46,1,90,10|0,0:0|0:0,0:0:0:0:
185,46,73451,2,0,L|95:46,1,90,0|0,0:0|0:0,0:0:0:0:
312,46,73770,6,0,P|370:100|309:153,1,180,10|0,0:0|0:0,0:0:0:0:
164,153,74249,1,0,0:0:0:0:
308,153,74409,2,0,L|308:260,1,90,10|0,0:0|0:0,0:0:0:0:
163,243,74728,2,0,L|253:243,1,90,0|0,0:0|0:0,0:0:0:0:
36,243,75047,2,0,L|36:129,1,90,10|0,0:0|0:0,0:0:0:0:
306,153,75366,6,0,P|351:171|301:257,1,180,4|10,0:0|0:0,0:0:0:0:
173,257,75845,1,0,0:0:0:0:
301,257,76004,2,0,L|208:257,2,90,0|0|10,0:0|0:0|0:0,0:0:0:0:
156,257,76483,6,0,L|156:157,1,90,0|0,0:0|0:0,0:0:0:0:
300,167,76802,1,0,0:0:0:0:
155,167,76962,2,0,L|93:72,1,90,10|0,0:0|0:0,0:0:0:0:
340,91,77281,2,0,L|389:166,1,90,0|0,0:0|0:0,0:0:0:0:
155,167,77600,5,4,0:0:0:0:
256,192,77760,12,0,80153,0:0:0:0:
243,196,80472,6,0,L|448:196,2,202.500007724762,4|0|2,0:0|0:0|0:0,0:0:0:0:
75,196,83026,1,2,0:0:0:0:
383,196,83568,1,0,0:0:0:0:
22,196,84220,5,4,0:0:0:0:
256,192,84470,12,0,88220,0:0:0:0:
