osu file format v14

[General]
AudioFilename: audio.mp3
AudioLeadIn: 0
PreviewTime: 59967
Countdown: 0
SampleSet: Soft
StackLeniency: 0.7
Mode: 2
LetterboxInBreaks: 0
WidescreenStoryboard: 1

[Editor]
DistanceSpacing: 2.2
BeatDivisor: 4
GridSize: 8
TimelineZoom: 1.5

[Metadata]
Title:Sleepless days
TitleUnicode:Sleepless days
Artist:Nekomata Master feat. Mayumi Morinaga
ArtistUnicode:猫叉Master feat. Mayumi Morinaga
Creator:Bastian
Version:Greaper's Salad
Source:クイズマジックアカデミー THE WORLD EVOLVE
Tags:jorkseljund greaper SOUND VOLTEX IV HEAVENLY HAVEN THE WORLD EVOLVE 鍵龍討滅戦 beatmania IIDX 25 CANNON BALLERS senya quiz magic academy moimoi bemani konami opening
BeatmapID:2221225
BeatmapSetID:959574

[Difficulty]
HPDrainRate:4
CircleSize:3
OverallDifficulty:7
ApproachRate:7
SliderMultiplier:1.2
SliderTickRate:1

[Events]
//Background and Video events
0,0,"FateValkyrieServant.jpg",0,0
//Break Periods
//Storyboard Layer 0 (Background)
//Storyboard Layer 1 (Fail)
//Storyboard Layer 2 (Pass)
//Storyboard Layer 3 (Foreground)
//Storyboard Layer 4 (Overlay)
//Storyboard Sound Samples

[TimingPoints]
1324,319.148936170213,4,2,3,50,1,0
10898,-100,4,2,3,55,0,0
11536,-100,4,2,1,60,0,0
21749,-100,4,2,1,65,0,0
34515,-100,4,2,1,75,0,0
43451,-100,4,2,1,65,0,0
44089,-100,4,2,1,60,0,0
44728,-100,4,2,1,75,0,0
57175,-100,4,2,1,60,0,0
59249,-100,4,2,1,65,0,0
60047,-100,4,2,1,75,0,1
69941,-100,4,2,1,70,0,0
70260,-100,4,2,1,75,0,1
77600,-100,4,2,1,70,0,0
80153,-100,4,2,1,5,0,0
80472,-100,4,2,1,60,0,0
83026,361.44578313253,4,2,1,65,1,0
83568,454.545454545455,4,2,1,65,1,8
84220,500,4,2,1,65,1,0
84470,-100,4,2,1,50,0,0
84970,-100,4,2,1,45,0,0
85470,-100,4,2,1,40,0,0
85970,-100,4,2,1,35,0,0
86470,-100,4,2,1,30,0,0
86970,-100,4,2,1,25,0,0
87470,-100,4,2,1,20,0,0
87720,-100,4,2,1,15,0,0
87970,-100,4,2,1,10,0,0
88220,-100,4,2,1,5,0,0

[Colours]
Combo1 : 255,206,183
Combo2 : 255,128,255
Combo3 : 128,128,255
Combo4 : 0,58,166

[HitObjects]
306,191,1324,6,0,L|492:178,2,180,4|0|8,0:0|0:0|0:0,0:0:0:0:
197,207,2600,2,0,P|137:195|201:82,1,240
411,71,3877,6,0,L|213:87,2,180
291,109,5153,2,0,P|263:131|342:270,1,240
462,251,6111,1,0,0:0:0:0:
186,255,6430,6,0,L|1:240,2,180,0|0|2,0:0|0:0|0:0,0:0:0:0:
302,208,7706,2,0,P|383:192|305:96,1,240,0|0,0:0|0:0,0:0:0:0:
105,87,8983,6,0,L|295:77,1,180,0|0,0:0|0:0,0:0:0:0:
256,192,9941,12,0,10898,0:0:0:0:
76,178,11536,5,4,0:0:0:0:
201,173,11855,2,0,L|329:159,2,120,0|8|0,0:0|0:0|0:0,0:0:0:0:
478,209,12813,2,0,L|484:68,1,120,0|0,0:0|0:0,0:0:0:0:
351,67,13451,2,0,L|491:57,1,120,8|0,0:0|0:0,0:0:0:0:
194,65,14089,6,0,P|141:88|219:200,1,240,0|8,0:0|0:0,0:0:0:0:
334,213,15047,1,0,0:0:0:0:
69,329,15366,2,0,P|75:260|226:189,1,240,0|8,0:0|0:0,0:0:0:0:
89,156,16324,2,0,L|78:32,1,120,0|0,0:0|0:0,0:0:0:0:
224,43,16962,5,0,0:0:0:0:
348,45,17281,2,0,L|353:185,1,120,8|0,0:0|0:0,0:0:0:0:
97,64,17919,2,0,P|98:132|246:217,1,240,0|8,0:0|0:0,0:0:0:0:
349,249,18877,1,0,0:0:0:0:
85,196,19196,5,0,0:0:0:0:
202,185,19515,2,0,L|211:51,1,120,0|8,0:0|0:0,0:0:0:0:
78,61,20153,1,0,0:0:0:0:
356,66,20472,1,0,0:0:0:0:
163,130,21111,2,0,L|153:262,1,120,8|0,0:0|0:0,0:0:0:0:
426,214,21749,5,6,0:0:0:0:
300,184,22068,2,0,L|283:41,1,120,0|8,0:0|0:0,0:0:0:0:
395,68,22706,2,0,L|459:64,1,60,0|0,0:0|0:0,0:0:0:0:
275,75,23026,2,0,P|200:98|280:205,1,240,2|8,0:0|0:0,0:0:0:0:
379,223,23983,1,0,0:0:0:0:
106,274,24302,6,0,P|108:231|252:110,1,240,2|8,0:0|0:0,0:0:0:0:
112,97,25260,1,0,0:0:0:0:
378,86,25579,2,0,L|504:91,1,120,2|0,0:0|0:0,0:0:0:0:
220,136,26217,2,0,L|207:271,1,120,8|0,0:0|0:0,0:0:0:0:
484,245,26855,6,0,P|465:172|304:102,1,240,2|8,0:0|0:0,0:0:0:0:
193,97,27813,1,0,0:0:0:0:
471,61,28132,1,2,0:0:0:0:
345,49,28451,2,0,L|201:39,2,120,0|8|0,0:0|0:0|0:0,0:0:0:0:
72,52,29409,6,0,P|23:130|124:222,1,240,0|8,0:0|0:0,0:0:0:0:
230,203,30366,2,0,L|369:215,1,120,0|0,0:0|0:0,0:0:0:0:
220,233,31004,1,0,0:0:0:0:
98,200,31324,2,0,P|55:126|59:64,1,120,8|0,0:0|0:0,0:0:0:0:
329,67,31962,6,0,L|521:105,2,180,4|0|0,0:0|0:0|0:0,0:0:0:0:
53,76,33238,1,8,0:0:0:0:
159,100,33558,2,0,L|286:112,1,120,0|0,0:0|0:0,0:0:0:0:
338,144,34036,1,0,0:0:0:0:
344,208,34196,1,8,0:0:0:0:
80,207,34515,5,6,0:0:0:0:
204,164,34834,2,0,L|23:145,1,180,10|0,0:0|0:0,0:0:0:0:
93,95,35472,1,10,0:0:0:0:
264,75,35632,6,0,P|403:174|404:187,1,180,0|10,0:0|0:0,0:0:0:0:
283,206,36430,2,0,L|152:226,2,120,0|10|0,0:0|0:0|0:0,0:0:0:0:
19,206,37387,6,0,P|39:129|123:71,1,180,10|0,0:0|0:0,0:0:0:0:
186,58,38026,1,10,0:0:0:0:
361,53,38185,6,0,P|417:109|387:195,1,180,0|10,0:0|0:0,0:0:0:0:
264,190,38983,2,0,L|430:209,1,120,0|10,0:0|0:0,0:0:0:0:
114,195,39621,5,4,0:0:0:0:
238,192,39941,2,0,P|321:165|410:132,1,180,10|0,0:0|0:0,0:0:0:0:
347,70,40579,1,10,0:0:0:0:
78,59,40898,6,0,L|88:185,1,120,0|10,0:0|0:0,0:0:0:0:
210,190,41536,2,0,L|287:195,1,60,0|0,0:0|0:0,0:0:0:0:
94,189,41855,6,0,P|67:150|186:43,1,240,10|10,0:0|0:0,0:0:0:0:
303,62,42813,2,0,L|314:201,1,120,0|10,0:0|0:0,0:0:0:0:
38,176,43451,6,0,L|163:189,1,120,2|10,0:0|0:0,0:0:0:0:
278,189,44089,2,0,L|289:47,1,120,2|10,0:0|0:0,0:0:0:0:
17,56,44728,5,6,0:0:0:0:
142,57,45047,2,0,L|301:63,2,120,10|0|10,0:0|0:0|0:0,0:0:0:0:
422,63,46004,6,0,L|433:202,1,120,0|10,0:0|0:0,0:0:0:0:
307,194,46643,2,0,L|159:203,1,120,0|10,0:0|0:0,0:0:0:0:
454,243,47281,5,0,0:0:0:0:
331,238,47600,2,0,L|115:217,1,180,10|0,0:0|0:0,0:0:0:0:
211,171,48238,1,10,0:0:0:0:
385,164,48398,6,0,P|447:134|403:47,1,180,0|10,0:0|0:0,0:0:0:0:
302,51,49196,2,0,L|220:55,2,60,0|0|10,0:0|0:0|0:0,0:0:0:0:
25,50,49834,5,4,0:0:0:0:
154,55,50153,1,0,0:0:0:0:
93,94,50313,1,0,0:0:0:0:
31,113,50472,2,0,L|23:244,1,120,8|0,0:0|0:0,0:0:0:0:
301,183,51111,6,0,L|432:185,1,120,0|0,0:0|0:0,0:0:0:0:
301,130,51749,2,0,L|289:44,1,60,8|0,0:0|0:0,0:0:0:0:
468,54,52068,5,4,0:0:0:0:
346,194,52387,2,0,L|202:206,2,120,0|0|8,0:0|0:0|0:0,0:0:0:0:
462,238,53345,2,0,L|469:311,1,60,0|0,0:0|0:0,0:0:0:0:
299,295,53664,6,0,L|139:288,1,120,0|0,0:0|0:0,0:0:0:0:
281,231,54302,2,0,L|293:147,1,60,8|0,0:0|0:0,0:0:0:0:
114,135,54621,5,4,0:0:0:0:
223,123,54941,2,0,L|358:115,2,120,0|0|8,0:0|0:0|0:0,0:0:0:0:
109,90,55898,2,0,L|101:22,1,60,0|0,0:0|0:0,0:0:0:0:
278,34,56217,6,0,L|403:54,1,120,0|0,0:0|0:0,0:0:0:0:
448,102,56696,1,0,0:0:0:0:
436,169,56855,1,8,0:0:0:0:
377,192,57015,1,0,0:0:0:0:
190,194,57175,5,4,0:0:0:0:
256,192,57494,12,0,59728,0:0:0:0:
339,201,60047,6,0,L|350:64,1,120,4|10,0:0|0:0,0:0:0:0:
240,88,60685,2,0,L|161:79,1,60,0|0,0:0|0:0,0:0:0:0:
363,63,61004,6,0,P|417:94|312:185,1,240,10|10,0:0|0:0,0:0:0:0:
273,192,61802,1,0,0:0:0:0:
212,186,61962,1,0,0:0:0:0:
491,297,62281,6,0,P|474:226|322:182,1,240,10|10,0:0|0:0,0:0:0:0:
216,201,63238,2,0,L|207:112,1,60,0|0,0:0|0:0,0:0:0:0:
395,92,63558,5,10,0:0:0:0:
276,78,63877,2,0,L|138:70,2,120,0|10|0,0:0|0:0|0:0,0:0:0:0:
396,60,64834,1,10,0:0:0:0:
126,143,65153,6,0,L|113:276,1,120,6|10,0:0|0:0,0:0:0:0:
236,253,65792,2,0,L|315:259,1,60,0|0,0:0|0:0,0:0:0:0:
115,262,66111,6,0,P|54:234|51:67,1,240,10|10,0:0|0:0,0:0:0:0:
149,79,67068,2,0,L|68:69,1,60,0|0,0:0|0:0,0:0:0:0:
271,70,67387,6,0,P|286:141|255:155,1,120,10|0,0:0|0:0,0:0:0:0:
122,167,68026,2,0,L|115:295,1,120,10|0,0:0|0:0,0:0:0:0:
175,288,68504,1,0,0:0:0:0:
360,285,68664,6,0,P|421:241|324:161,1,240,10|10,0:0|0:0,0:0:0:0:
201,149,69621,1,0,0:0:0:0:
138,141,69781,1,0,0:0:0:0:
127,69,69941,1,10,0:0:0:0:
406,77,70260,6,0,L|285:119,2,120,6|10|0,0:0|0:0|0:0,0:0:0:0:
465,76,71058,1,0,0:0:0:0:
285,178,71217,6,0,L|148:206,1,120,10|0,0:0|0:0,0:0:0:0:
294,248,71855,2,0,L|305:373,1,120,10|0,0:0|0:0,0:0:0:0:
243,366,72334,1,0,0:0:0:0:
62,353,72494,6,0,P|37:287|153:187,1,240,10|10,0:0|0:0,0:0:0:0:
263,196,73451,2,0,L|339:188,1,60,0|0,0:0|0:0,0:0:0:0:
147,186,73770,6,0,L|46:109,2,120,10|0|10,0:0|0:0|0:0,0:0:0:0:
279,186,74728,1,0,0:0:0:0:
304,240,74887,1,0,0:0:0:0:
330,294,75047,1,10,0:0:0:0:
57,306,75366,6,0,L|25:182,1,120,4|10,0:0|0:0,0:0:0:0:
143,122,76004,2,0,L|209:116,1,60,0|0,0:0|0:0,0:0:0:0:
385,100,76324,2,0,P|376:172|229:213,1,240,10|10,0:0|0:0,0:0:0:0:
353,238,77281,1,0,0:0:0:0:
76,240,77600,5,4,0:0:0:0:
256,192,77919,12,0,79834,0:0:0:0:
256,144,80472,6,0,L|58:136,2,180,4|0|2,0:0|0:0|0:0,0:0:0:0:
367,147,81749,2,0,P|434:176|330:262,1,240
147,238,83026,2,0,P|57:157|61:89,1,180,2|0,0:0|0:0,0:0:0:0:
478,105,84220,5,4,0:0:0:0:
256,192,84720,12,0,88220,0:0:0:0:
