osu file format v14

[General]
AudioFilename: audio.mp3
AudioLeadIn: 0
PreviewTime: 59967
Countdown: 0
SampleSet: Soft
StackLeniency: 0.7
Mode: 2
LetterboxInBreaks: 0
WidescreenStoryboard: 1

[Editor]
DistanceSpacing: 1.2
BeatDivisor: 4
GridSize: 8
TimelineZoom: 3.799998

[Metadata]
Title:Sleepless days
TitleUnicode:Sleepless days
Artist:Nekomata Master feat. Mayumi Morinaga
ArtistUnicode:猫叉Master feat. Mayumi Morinaga
Creator:Bastian
Version:Greaper's Dream
Source:クイズマジックアカデミー THE WORLD EVOLVE
Tags:jorkseljund greaper SOUND VOLTEX IV HEAVENLY HAVEN THE WORLD EVOLVE 鍵龍討滅戦 beatmania IIDX 25 CANNON BALLERS senya quiz magic academy moimoi bemani konami opening
BeatmapID:2079318
BeatmapSetID:959574

[Difficulty]
HPDrainRate:6
CircleSize:4.1
OverallDifficulty:9.2
ApproachRate:9.2
SliderMultiplier:1.8
SliderTickRate:2

[Events]
//Background and Video events
0,0,"FateValkyrieServant.jpg",0,0
//Break Periods
//Storyboard Layer 0 (Background)
//Storyboard Layer 1 (Fail)
//Storyboard Layer 2 (Pass)
//Storyboard Layer 3 (Foreground)
//Storyboard Layer 4 (Overlay)
//Storyboard Sound Samples

[TimingPoints]
1324,319.148936170213,4,2,3,50,1,0
1324,-111.111111111111,4,2,3,50,0,0
9941,-111.111111111111,4,2,3,50,0,0
10898,-100,4,2,3,55,0,0
11536,-100,4,2,1,60,0,0
21749,-100,4,2,1,65,0,0
34515,-100,4,2,1,75,0,0
43451,-100,4,2,1,65,0,0
44089,-100,4,2,1,60,0,0
44728,-100,4,2,1,75,0,0
57175,-200,4,2,1,60,0,0
59249,-100,4,2,1,65,0,0
59409,-100,4,2,1,50,0,0
60047,-100,4,2,1,75,0,1
69941,-100,4,2,1,70,0,0
70260,-100,4,2,1,75,0,1
77600,-100,4,2,1,70,0,0
80153,-100,4,2,1,5,0,0
80472,-111.111111111111,4,2,1,60,0,0
83026,361.44578313253,4,2,1,65,1,0
83568,454.545454545455,4,2,1,65,1,8
84220,500,4,2,1,65,1,0
84470,-100,4,2,1,50,0,0
84970,-100,4,2,1,45,0,0
85470,-100,4,2,1,40,0,0
85970,-100,4,2,1,35,0,0
86470,-100,4,2,1,30,0,0
86970,-100,4,2,1,25,0,0
87470,-100,4,2,1,20,0,0
87720,-100,4,2,1,15,0,0
87970,-100,4,2,1,10,0,0
88220,-100,4,2,1,5,0,0

[Colours]
Combo1 : 255,206,183
Combo2 : 255,128,255
Combo3 : 128,128,255
Combo4 : 0,58,166

[HitObjects]
131,247,1324,6,0,L|33:233,2,80.9999975280763,4|0|0,0:0|0:0|0:0,0:0:0:0:
357,167,1802,1,0,0:0:0:0:
268,146,1962,1,0,0:0:0:0:
341,109,2121,1,0,0:0:0:0:
81,87,2281,6,0,P|80:156|158:187,1,161.999995056153,8|0,0:0|0:0,0:0:0:0:
230,191,2760,1,0,0:0:0:0:
132,244,2919,1,0,0:0:0:0:
114,299,3079,1,0,0:0:0:0:
211,281,3238,1,0,0:0:0:0:
279,313,3398,1,0,0:0:0:0:
204,345,3558,1,0,0:0:0:0:
122,345,3717,1,0,0:0:0:0:
346,198,3877,6,0,L|456:194,2,80.9999975280763,0|0|0,0:0|0:0|0:0,0:0:0:0:
124,149,4355,1,0,0:0:0:0:
222,111,4515,1,0,0:0:0:0:
140,86,4675,1,0,0:0:0:0:
384,88,4834,6,0,L|502:98,1,80.9999975280763,0|0,0:0|0:0,0:0:0:0:
333,147,5153,1,0,0:0:0:0:
250,155,5313,1,0,0:0:0:0:
356,200,5472,1,0,0:0:0:0:
437,215,5632,1,0,0:0:0:0:
153,257,5792,6,0,L|52:236,1,80.9999975280763,0|0,0:0|0:0,0:0:0:0:
228,199,6111,2,0,L|127:181,1,80.9999975280763,0|0,0:0|0:0,0:0:0:0:
366,126,6430,6,0,L|455:118,2,80.9999975280763,0|0|0,0:0|0:0|0:0,0:0:0:0:
148,131,6909,1,0,0:0:0:0:
43,97,7068,1,0,0:0:0:0:
125,80,7228,1,0,0:0:0:0:
393,69,7387,6,0,P|449:107|396:169,1,161.999995056153,2|0,0:0|0:0,0:0:0:0:
324,187,7866,1,0,0:0:0:0:
424,205,8026,1,0,0:0:0:0:
343,241,8185,1,0,0:0:0:0:
176,247,8345,1,0,0:0:0:0:
95,223,8504,1,0,0:0:0:0:
194,193,8664,1,0,0:0:0:0:
276,167,8824,1,0,0:0:0:0:
55,92,8983,6,0,L|156:106,2,80.9999975280763,0|0|0,0:0|0:0|0:0,0:0:0:0:
273,97,9462,1,0,0:0:0:0:
357,116,9621,1,0,0:0:0:0:
276,167,9781,1,0,0:0:0:0:
50,193,9941,6,0,P|171:272|58:354,1,323.999990112305,0|0,0:0|0:0,0:0:0:0:
451,155,10898,5,0,0:0:0:0:
497,136,10978,1,0,0:0:0:0:
487,80,11058,1,0,0:0:0:0:
439,70,11137,1,0,0:0:0:0:
282,41,11217,5,0,0:0:0:0:
237,72,11297,1,0,0:0:0:0:
394,94,11377,1,0,0:0:0:0:
438,128,11456,1,0,0:0:0:0:
203,149,11536,6,0,L|91:166,1,90,4|0,0:0|0:0,0:0:0:0:
269,212,11855,2,0,L|283:325,1,90,0|0,0:0|0:0,0:0:0:0:
118,298,12175,2,0,L|223:302,1,90,8|0,0:0|0:0,0:0:0:0:
96,236,12494,2,0,L|86:128,1,90,0|0,0:0|0:0,0:0:0:0:
356,273,12813,6,0,L|233:259,2,90,0|0|0,0:0|0:0|0:0,0:0:0:0:
196,200,13292,1,0,0:0:0:0:
423,158,13451,2,0,L|439:60,1,90,8|0,0:0|0:0,0:0:0:0:
156,65,13770,2,0,L|53:59,1,90,0|0,0:0|0:0,0:0:0:0:
386,74,14089,6,0,P|456:99|394:190,1,180,0|0,0:0|0:0,0:0:0:0:
341,189,14568,1,0,0:0:0:0:
115,199,14728,2,0,L|225:204,1,90,8|0,0:0|0:0,0:0:0:0:
358,304,15047,2,0,L|359:201,1,90,0|0,0:0|0:0,0:0:0:0:
107,315,15366,6,0,L|220:301,2,90,0|0|0,0:0|0:0|0:0,0:0:0:0:
22,318,15845,1,0,0:0:0:0:
322,149,16004,2,0,L|208:135,1,90,8|0,0:0|0:0,0:0:0:0:
395,94,16324,2,0,L|412:204,1,90,0|0,0:0|0:0,0:0:0:0:
146,86,16643,6,0,L|50:83,1,90,0|0,0:0|0:0,0:0:0:0:
214,148,16962,1,0,0:0:0:0:
50,155,17121,1,0,0:0:0:0:
289,211,17281,2,0,L|406:200,1,90,8|0,0:0|0:0,0:0:0:0:
208,217,17600,2,0,L|199:336,1,90,0|0,0:0|0:0,0:0:0:0:
467,296,17919,6,0,L|354:292,2,90,0|0|0,0:0|0:0|0:0,0:0:0:0:
354,242,18398,1,0,0:0:0:0:
118,192,18558,2,0,L|106:81,1,90,8|0,0:0|0:0,0:0:0:0:
280,93,18877,2,0,L|402:84,1,90,0|0,0:0|0:0,0:0:0:0:
127,93,19196,6,0,L|19:81,1,90,0|0,0:0|0:0,0:0:0:0:
194,160,19515,2,0,L|92:181,1,90,0|0,0:0|0:0,0:0:0:0:
389,264,19834,2,0,L|282:250,1,90,8|0,0:0|0:0,0:0:0:0:
467,206,20153,2,0,L|477:103,1,90,0|0,0:0|0:0,0:0:0:0:
195,88,20472,5,0,0:0:0:0:
367,96,20792,2,0,L|380:195,1,90,0|0,0:0|0:0,0:0:0:0:
152,131,21111,2,0,L|146:255,1,90,8|0,0:0|0:0,0:0:0:0:
283,226,21430,2,0,L|398:228,1,90,0|0,0:0|0:0,0:0:0:0:
137,274,21749,6,0,L|39:272,1,90,6|0,0:0|0:0,0:0:0:0:
193,216,22068,2,0,L|302:206,1,90,0|0,0:0|0:0,0:0:0:0:
47,206,22387,2,0,L|59:108,1,90,8|0,0:0|0:0,0:0:0:0:
223,106,22706,1,0,0:0:0:0:
69,69,22866,1,0,0:0:0:0:
340,74,23026,5,2,0:0:0:0:
421,113,23185,1,0,0:0:0:0:
321,153,23345,1,0,0:0:0:0:
164,169,23504,1,0,0:0:0:0:
395,229,23664,2,0,L|412:330,1,90,8|0,0:0|0:0,0:0:0:0:
248,245,23983,2,0,L|141:239,1,90,0|0,0:0|0:0,0:0:0:0:
397,129,24302,6,0,L|286:114,2,90,2|0|0,0:0|0:0|0:0,0:0:0:0:
481,126,24781,1,0,0:0:0:0:
220,68,24941,2,0,L|210:170,1,90,8|0,0:0|0:0,0:0:0:0:
380,182,25260,2,0,L|481:159,1,90,0|0,0:0|0:0,0:0:0:0:
224,185,25579,6,0,L|227:297,1,90,2|0,0:0|0:0,0:0:0:0:
72,226,25898,2,0,L|66:337,1,90,0|0,0:0|0:0,0:0:0:0:
341,294,26217,2,0,L|217:308,1,90,8|0,0:0|0:0,0:0:0:0:
415,264,26536,2,0,L|424:150,1,90,0|0,0:0|0:0,0:0:0:0:
147,133,26855,6,0,L|51:126,1,90,2|0,0:0|0:0,0:0:0:0:
209,70,27175,1,0,0:0:0:0:
114,69,27334,1,0,0:0:0:0:
351,196,27494,2,0,L|471:203,1,90,8|0,0:0|0:0,0:0:0:0:
198,232,27813,2,0,L|187:338,1,90,0|0,0:0|0:0,0:0:0:0:
438,308,28132,6,0,L|461:193,1,90,2|0,0:0|0:0,0:0:0:0:
209,296,28451,1,0,0:0:0:0:
340,257,28611,1,0,0:0:0:0:
191,218,28770,2,0,L|164:105,1,90,8|0,0:0|0:0,0:0:0:0:
332,218,29089,2,0,L|350:122,1,90,0|0,0:0|0:0,0:0:0:0:
100,87,29409,6,0,L|214:103,2,90,0|0|0,0:0|0:0|0:0,0:0:0:0:
221,144,29887,1,0,0:0:0:0:
456,68,30047,2,0,L|472:162,1,90,8|0,0:0|0:0,0:0:0:0:
310,206,30366,1,0,0:0:0:0:
476,229,30526,1,0,0:0:0:0:
232,268,30685,6,0,L|213:159,1,90,0|0,0:0|0:0,0:0:0:0:
329,133,31004,2,0,L|430:123,1,90,0|0,0:0|0:0,0:0:0:0:
182,164,31324,2,0,L|174:73,1,90,8|0,0:0|0:0,0:0:0:0:
340,66,31643,1,0,0:0:0:0:
102,48,31802,1,0,0:0:0:0:
375,168,31962,6,0,L|473:150,2,90,4|0|0,0:0|0:0|0:0,0:0:0:0:
130,161,32441,2,0,L|114:259,1,90,0|8,0:0|0:0,0:0:0:0:
211,252,32760,1,0,0:0:0:0:
48,252,32919,1,0,0:0:0:0:
140,289,33079,1,0,0:0:0:0:
425,295,33238,5,8,0:0:0:0:
154,201,33558,2,0,L|126:96,1,90,0|0,0:0|0:0,0:0:0:0:
294,101,33877,1,0,0:0:0:0:
65,93,34036,1,0,0:0:0:0:
336,139,34196,1,8,0:0:0:0:
383,172,34276,1,0,0:0:0:0:
192,138,34355,1,0,0:0:0:0:
147,171,34435,1,0,0:0:0:0:
390,211,34515,6,0,L|480:211,1,90,6|0,0:0|0:0,0:0:0:0:
208,73,34834,2,0,L|331:69,2,90,10|0|0,0:0|0:0|0:0,0:0:0:0:
453,70,35313,2,0,L|356:69,1,90,0|10,0:0|0:0,0:0:0:0:
200,142,35632,1,0,0:0:0:0:
444,154,35792,6,0,L|459:266,1,90,0|0,0:0|0:0,0:0:0:0:
292,251,36111,2,0,L|176:245,1,90,10|0,0:0|0:0,0:0:0:0:
310,313,36430,1,0,0:0:0:0:
167,311,36589,1,0,0:0:0:0:
384,316,36749,2,0,P|391:253|366:243,1,90,10|0,0:0|0:0,0:0:0:0:
80,197,37068,6,0,L|179:185,1,90,0|0,0:0|0:0,0:0:0:0:
333,175,37387,2,0,L|226:194,2,90,10|0|0,0:0|0:0|0:0,0:0:0:0:
109,148,37866,1,0,0:0:0:0:
248,150,38026,2,0,L|327:86,1,90,10|0,0:0|0:0,0:0:0:0:
90,206,38345,6,0,P|72:252|109:257,1,90,0|0,0:0|0:0,0:0:0:0:
375,221,38664,2,0,L|479:209,1,90,10|0,0:0|0:0,0:0:0:0:
245,170,38983,1,0,0:0:0:0:
392,157,39143,1,0,0:0:0:0:
174,139,39302,2,0,L|73:126,1,90,10|0,0:0|0:0,0:0:0:0:
403,102,39621,6,0,L|418:6,1,90,4|0,0:0|0:0,0:0:0:0:
185,55,39941,2,0,L|286:44,2,90,10|0|0,0:0|0:0|0:0,0:0:0:0:
340,94,40419,1,0,0:0:0:0:
113,120,40579,2,0,L|1:108,1,90,10|0,0:0|0:0,0:0:0:0:
268,162,40898,6,0,L|281:267,1,90,0|0,0:0|0:0,0:0:0:0:
124,181,41217,2,0,L|110:290,1,90,10|0,0:0|0:0,0:0:0:0:
276,278,41536,1,0,0:0:0:0:
123,267,41696,1,0,0:0:0:0:
354,249,41855,2,0,L|373:160,1,90,10|0,0:0|0:0,0:0:0:0:
110,142,42175,5,0,0:0:0:0:
216,97,42334,2,0,L|305:104,2,90,0|10|0,0:0|0:0|0:0,0:0:0:0:
371,179,42813,2,0,L|378:272,1,90,0|0,0:0|0:0,0:0:0:0:
224,272,43132,2,0,L|116:282,1,90,10|0,0:0|0:0,0:0:0:0:
435,283,43451,6,0,P|483:261|418:179,1,180,2|10,0:0|0:0,0:0:0:0:
359,170,43930,1,0,0:0:0:0:
133,220,44089,1,2,0:0:0:0:
128,175,44169,1,0,0:0:0:0:
285,193,44249,1,0,0:0:0:0:
293,152,44329,1,0,0:0:0:0:
111,127,44409,1,10,0:0:0:0:
63,108,44488,1,0,0:0:0:0:
327,86,44568,1,0,0:0:0:0:
376,75,44648,1,0,0:0:0:0:
106,64,44728,6,0,L|205:71,1,90,6|0,0:0|0:0,0:0:0:0:
358,184,45047,2,0,L|255:190,2,90,10|0|0,0:0|0:0|0:0,0:0:0:0:
202,187,45526,1,0,0:0:0:0:
366,261,45685,2,0,L|482:254,1,90,10|0,0:0|0:0,0:0:0:0:
169,272,46004,6,0,L|142:169,1,90,0|0,0:0|0:0,0:0:0:0:
310,153,46324,2,0,L|422:145,1,90,10|0,0:0|0:0,0:0:0:0:
244,154,46643,1,0,0:0:0:0:
407,107,46802,1,0,0:0:0:0:
178,89,46962,2,0,L|149:207,1,90,10|0,0:0|0:0,0:0:0:0:
425,207,47281,6,0,L|326:214,1,90,0|0,0:0|0:0,0:0:0:0:
175,206,47600,2,0,L|294:223,2,90,10|0|0,0:0|0:0|0:0,0:0:0:0:
423,249,48079,1,0,0:0:0:0:
279,265,48238,1,10,0:0:0:0:
495,306,48398,1,0,0:0:0:0:
208,190,48558,6,0,L|183:93,1,90,0|0,0:0|0:0,0:0:0:0:
340,126,48877,2,0,L|462:115,1,90,10|0,0:0|0:0,0:0:0:0:
201,72,49196,1,0,0:0:0:0:
366,76,49355,1,0,0:0:0:0:
134,78,49515,2,0,L|35:69,1,90,10|0,0:0|0:0,0:0:0:0:
361,166,49834,6,0,L|386:286,1,90,4|0,0:0|0:0,0:0:0:0:
266,264,50153,2,0,L|159:270,1,90,0|0,0:0|0:0,0:0:0:0:
341,293,50472,2,0,L|444:307,1,90,8|0,0:0|0:0,0:0:0:0:
317,238,50792,2,0,L|426:253,1,90,0|0,0:0|0:0,0:0:0:0:
160,185,51111,6,0,L|56:194,1,90,0|0,0:0|0:0,0:0:0:0:
234,182,51430,2,0,L|246:292,1,90,0|0,0:0|0:0,0:0:0:0:
80,115,51749,2,0,L|182:121,1,90,8|0,0:0|0:0,0:0:0:0:
396,134,52068,2,0,L|411:240,1,90,4|0,0:0|0:0,0:0:0:0:
161,72,52387,6,0,L|276:84,2,90,0|0|0,0:0|0:0|0:0,0:0:0:0:
66,126,52866,1,0,0:0:0:0:
228,158,53026,1,8,0:0:0:0:
338,164,53185,1,0,0:0:0:0:
108,224,53345,2,0,L|86:326,1,90,0|0,0:0|0:0,0:0:0:0:
333,307,53664,6,0,L|444:286,1,90,0|0,0:0|0:0,0:0:0:0:
258,243,53983,2,0,L|373:219,1,90,0|0,0:0|0:0,0:0:0:0:
182,210,54302,2,0,L|161:103,1,90,8|0,0:0|0:0,0:0:0:0:
401,163,54621,2,0,L|419:64,1,90,4|0,0:0|0:0,0:0:0:0:
173,68,54941,6,0,L|66:86,1,90,0|0,0:0|0:0,0:0:0:0:
192,129,55260,2,0,L|90:146,1,90,0|0,0:0|0:0,0:0:0:0:
258,165,55579,2,0,L|380:170,1,90,8|0,0:0|0:0,0:0:0:0:
184,191,55898,2,0,L|173:297,1,90,0|0,0:0|0:0,0:0:0:0:
419,278,56217,6,0,L|302:283,1,90,0|0,0:0|0:0,0:0:0:0:
166,281,56536,2,0,L|266:284,1,90,0|0,0:0|0:0,0:0:0:0:
39,294,56855,2,0,L|32:163,1,90,8|0,0:0|0:0,0:0:0:0:
308,203,57175,5,4,0:0:0:0:
256,192,57334,12,0,59249,0:0:0:0:
301,120,59409,5,0,0:0:0:0:
349,136,59488,1,0,0:0:0:0:
358,195,59568,1,0,0:0:0:0:
313,222,59648,1,0,0:0:0:0:
133,216,59728,2,0,L|84:219,1,45,0|0,0:0|0:0,0:0:0:0:
318,274,59887,2,0,L|374:278,1,45,0|0,0:0|0:0,0:0:0:0:
69,278,60047,6,0,L|176:273,1,90,4|0,0:0|0:0,0:0:0:0:
424,270,60366,2,0,L|430:161,1,90,10|0,0:0|0:0,0:0:0:0:
276,126,60685,1,0,0:0:0:0:
440,121,60845,1,0,0:0:0:0:
207,86,61004,2,0,L|98:75,1,90,10|0,0:0|0:0,0:0:0:0:
371,198,61324,6,0,L|463:204,1,90,0|0,0:0|0:0,0:0:0:0:
234,261,61643,2,0,L|333:267,2,90,10|0|0,0:0|0:0|0:0,0:0:0:0:
72,253,62121,1,0,0:0:0:0:
289,197,62281,2,0,L|274:96,1,90,10|0,0:0|0:0,0:0:0:0:
27,71,62600,6,0,L|134:77,1,90,0|0,0:0|0:0,0:0:0:0:
370,128,62919,2,0,L|252:128,1,90,10|0,0:0|0:0,0:0:0:0:
126,184,63238,1,0,0:0:0:0:
352,200,63398,1,0,0:0:0:0:
107,237,63558,2,0,L|81:333,1,90,10|0,0:0|0:0,0:0:0:0:
356,318,63877,6,0,L|456:294,1,90,0|0,0:0|0:0,0:0:0:0:
280,249,64196,2,0,L|261:150,1,90,10|0,0:0|0:0,0:0:0:0:
425,174,64515,2,0,L|443:79,1,90,0|0,0:0|0:0,0:0:0:0:
213,75,64834,2,0,L|91:78,1,90,10|0,0:0|0:0,0:0:0:0:
451,269,65153,6,0,L|328:284,1,90,6|0,0:0|0:0,0:0:0:0:
197,277,65472,2,0,L|305:289,1,90,10|0,0:0|0:0,0:0:0:0:
395,214,65792,1,0,0:0:0:0:
233,198,65951,1,0,0:0:0:0:
461,179,66111,2,0,L|354:158,1,90,10|0,0:0|0:0,0:0:0:0:
101,154,66430,6,0,L|82:51,1,90,0|0,0:0|0:0,0:0:0:0:
249,124,66749,1,10,0:0:0:0:
359,173,66909,1,0,0:0:0:0:
307,186,66988,1,0,0:0:0:0:
264,197,67068,1,0,0:0:0:0:
417,225,67228,1,0,0:0:0:0:
178,228,67387,2,0,L|70:254,1,90,10|0,0:0|0:0,0:0:0:0:
364,160,67706,6,0,L|389:60,1,90,0|0,0:0|0:0,0:0:0:0:
112,67,68026,2,0,L|231:77,1,90,10|0,0:0|0:0,0:0:0:0:
39,114,68345,2,0,L|155:127,1,90,0|0,0:0|0:0,0:0:0:0:
358,139,68664,2,0,L|256:112,1,90,10|0,0:0|0:0,0:0:0:0:
25,288,68983,6,0,L|130:292,1,90,0|0,0:0|0:0,0:0:0:0:
351,322,69302,2,0,L|463:300,1,90,10|0,0:0|0:0,0:0:0:0:
190,167,69621,2,0,L|121:166,1,45,0|0,0:0|0:0,0:0:0:0:
327,174,69781,2,0,L|329:108,1,45,0|0,0:0|0:0,0:0:0:0:
142,105,69941,1,10,0:0:0:0:
89,101,70020,1,0,0:0:0:0:
81,48,70100,1,0,0:0:0:0:
135,32,70180,1,0,0:0:0:0:
366,77,70260,6,0,L|459:77,1,90,6|0,0:0|0:0,0:0:0:0:
230,96,70579,2,0,L|215:197,1,90,10|0,0:0|0:0,0:0:0:0:
329,200,70898,1,0,0:0:0:0:
167,207,71058,1,0,0:0:0:0:
398,272,71217,2,0,L|417:175,1,90,10|0,0:0|0:0,0:0:0:0:
169,293,71536,6,0,L|59:282,1,90,0|0,0:0|0:0,0:0:0:0:
243,284,71855,2,0,L|255:187,1,90,10|0,0:0|0:0,0:0:0:0:
144,178,72175,1,0,0:0:0:0:
308,178,72334,1,0,0:0:0:0:
79,126,72494,2,0,L|178:119,1,90,10|0,0:0|0:0,0:0:0:0:
413,117,72813,6,0,L|397:232,1,90,0|0,0:0|0:0,0:0:0:0:
177,204,73132,2,0,L|79:211,1,90,10|0,0:0|0:0,0:0:0:0:
309,212,73451,2,0,L|429:223,1,90,0|0,0:0|0:0,0:0:0:0:
181,299,73770,1,10,0:0:0:0:
352,279,73930,1,0,0:0:0:0:
83,97,74089,6,0,L|198:100,1,90,0|0,0:0|0:0,0:0:0:0:
339,114,74409,2,0,P|367:155|373:206,1,90,10|0,0:0|0:0,0:0:0:0:
216,207,74728,1,0,0:0:0:0:
379,239,74887,1,0,0:0:0:0:
154,258,75047,2,0,L|42:250,1,90,10|0,0:0|0:0,0:0:0:0:
373,130,75366,6,0,L|475:120,1,90,4|0,0:0|0:0,0:0:0:0:
299,158,75685,2,0,L|291:257,1,90,10|0,0:0|0:0,0:0:0:0:
455,251,76004,2,0,L|358:260,1,90,0|0,0:0|0:0,0:0:0:0:
138,251,76324,2,0,L|118:120,1,90,10|0,0:0|0:0,0:0:0:0:
379,139,76643,6,0,L|477:126,1,90,0|0,0:0|0:0,0:0:0:0:
243,148,76962,2,0,L|333:137,1,90,10|0,0:0|0:0,0:0:0:0:
57,151,77281,2,0,L|46:250,1,90,0|0,0:0|0:0,0:0:0:0:
414,272,77600,5,4,0:0:0:0:
256,192,77760,12,0,80153,0:0:0:0:
139,222,80472,5,4,0:0:0:0:
57,183,80632,1,0,0:0:0:0:
141,153,80792,1,0,0:0:0:0:
385,139,80951,1,0,0:0:0:0:
471,112,81111,1,0,0:0:0:0:
340,86,81270,1,0,0:0:0:0:
291,73,81350,1,0,0:0:0:0:
136,38,81430,6,0,P|88:65|159:143,1,161.999995056153,2|0,0:0|0:0,0:0:0:0:
206,159,81909,1,0,0:0:0:0:
302,201,82068,1,0,0:0:0:0:
219,216,82228,1,0,0:0:0:0:
366,224,82387,1,0,0:0:0:0:
447,199,82547,1,0,0:0:0:0:
349,156,82706,1,0,0:0:0:0:
267,134,82866,1,0,0:0:0:0:
218,110,82946,1,0,0:0:0:0:
416,71,83026,6,0,P|472:149|392:183,1,180,2|0,0:0|0:0,0:0:0:0:
225,198,83568,2,0,L|112:189,2,90,0|0|0,0:0|0:0|0:0,0:0:0:0:
486,210,84220,5,4,0:0:0:0:
256,192,84470,12,0,88220,0:0:0:0:
