osu file format v14

[General]
AudioFilename: audio.mp3
AudioLeadIn: 0
PreviewTime: 59967
Countdown: 0
SampleSet: Soft
StackLeniency: 0.7
Mode: 2
LetterboxInBreaks: 0
WidescreenStoryboard: 1

[Editor]
Bookmarks: 10807,21020,33786,43999,56446,70807,87491
DistanceSpacing: 1.8
BeatDivisor: 4
GridSize: 8
TimelineZoom: 2

[Metadata]
Title:Sleepless days
TitleUnicode:Sleepless days
Artist:Nekomata Master feat. Mayumi Morinaga
ArtistUnicode:猫叉Master feat. Mayumi Morinaga
Creator:Bastian
Version:Bastian & Greaper's Platter
Source:クイズマジックアカデミー THE WORLD EVOLVE
Tags:jorkseljund greaper SOUND VOLTEX IV HEAVENLY HAVEN THE WORLD EVOLVE 鍵龍討滅戦 beatmania IIDX 25 CANNON BALLERS senya quiz magic academy moimoi bemani konami opening
BeatmapID:2221224
BeatmapSetID:959574

[Difficulty]
HPDrainRate:5
CircleSize:3.5
OverallDifficulty:8
ApproachRate:8
SliderMultiplier:1.6
SliderTickRate:2

[Events]
//Background and Video events
0,0,"FateValkyrieServant.jpg",0,0
//Break Periods
//Storyboard Layer 0 (Background)
//Storyboard Layer 1 (Fail)
//Storyboard Layer 2 (Pass)
//Storyboard Layer 3 (Foreground)
//Storyboard Layer 4 (Overlay)
//Storyboard Sound Samples

[TimingPoints]
1324,319.148936170213,4,2,3,50,1,0
1324,-125,4,2,3,50,0,0
10898,-100,4,2,3,55,0,0
11536,-83.3333333333333,4,2,1,60,0,0
21749,-83.3333333333333,4,2,1,65,0,0
34515,-83.3333333333333,4,2,1,75,0,0
43451,-83.3333333333333,4,2,1,65,0,0
44089,-83.3333333333333,4,2,1,60,0,0
44728,-83.3333333333333,4,2,1,75,0,0
57175,-200,4,2,1,60,0,0
59249,-83.3333333333333,4,2,1,65,0,0
59409,-83.3333333333333,4,2,1,50,0,0
60047,-83.3333333333333,4,2,1,75,0,1
69941,-83.3333333333333,4,2,1,70,0,0
70260,-83.3333333333333,4,2,1,75,0,1
77600,-200,4,2,1,70,0,0
80153,-200,4,2,1,5,0,0
80393,-83.3333333333333,4,2,1,5,0,0
80472,-100,4,2,1,60,0,0
83026,361.44578313253,4,2,1,65,1,0
83568,454.545454545455,4,2,1,65,1,8
84220,500,4,2,1,65,1,0
84470,-100,4,2,1,50,0,0
84970,-100,4,2,1,45,0,0
85470,-100,4,2,1,40,0,0
85970,-100,4,2,1,35,0,0
86470,-100,4,2,1,30,0,0
86970,-100,4,2,1,25,0,0
87470,-100,4,2,1,20,0,0
87720,-100,4,2,1,15,0,0
87970,-100,4,2,1,10,0,0
88220,-100,4,2,1,5,0,0

[Colours]
Combo1 : 255,206,183
Combo2 : 255,128,255
Combo3 : 128,128,255
Combo4 : 0,58,166

[HitObjects]
357,331,1324,6,0,L|151:331,2,192,4|0|8,0:0|0:0|0:0,0:0:0:0:
126,325,3877,2,0,L|337:325,1,192,0|0,0:0|0:0,0:0:0:0:
89,335,4834,6,0,P|7:259|117:183,1,256,0|0,0:0|0:0,0:0:0:0:
269,176,5792,1,0,0:0:0:0:
90,176,6111,1,0,0:0:0:0:
370,176,6430,6,0,P|438:215|412:332,1,192,0|0,0:0|0:0,0:0:0:0:
30,278,7387,1,2,0:0:0:0:
340,315,8983,6,0,L|133:315,1,192,0|0,0:0|0:0,0:0:0:0:
417,315,9941,2,0,P|497:229|411:156,1,256,0|0,0:0|0:0,0:0:0:0:
207,155,10898,2,0,P|140:179|137:51,1,240,0|0,0:0|0:0,0:0:0:0:
365,68,11536,6,0,P|406:108|329:207,1,191.999994140625,4|0,0:0|0:0,0:0:0:0:
261,199,12015,1,0,0:0:0:0:
434,199,12175,2,0,L|441:304,1,95.9999970703126,8|0,0:0|0:0,0:0:0:0:
354,281,12494,2,0,L|459:288,1,95.9999970703126
271,225,12813,5,0,0:0:0:0:
183,221,12972,2,0,L|69:217,2,95.9999970703126,0|0|0,0:0|0:0|0:0,0:0:0:0:
356,221,13451,2,0,L|362:104,1,95.9999970703126,8|0,0:0|0:0,0:0:0:0:
271,120,13770,2,0,L|141:113,1,95.9999970703126,0|0,0:0|0:0,0:0:0:0:
338,114,14089,6,0,P|413:140|321:272,1,287.999991210938
162,276,14728,2,0,L|141:158,1,95.9999970703126,8|0,0:0|0:0,0:0:0:0:
229,170,15047,2,0,L|245:66,1,95.9999970703126
73,307,15366,6,0,P|23:248|151:103,1,287.999991210938,0|0,0:0|0:0,0:0:0:0:
297,100,16004,2,0,L|301:-4,1,95.9999970703126,8|0,0:0|0:0,0:0:0:0:
384,102,16324,2,0,L|391:-8,1,95.9999970703126,0|0,0:0|0:0,0:0:0:0:
153,28,16643,5,0,0:0:0:0:
325,28,16962,2,0,L|343:131,1,95.9999970703126
168,122,17281,2,0,L|128:222,1,95.9999970703126,8|0,0:0|0:0,0:0:0:0:
224,198,17600,2,0,L|342:214,1,95.9999970703126,0|0,0:0|0:0,0:0:0:0:
162,325,17919,6,0,P|106:279|145:181,1,191.999994140625
253,180,18398,1,0,0:0:0:0:
79,180,18558,2,0,L|68:280,1,95.9999970703126,8|0,0:0|0:0,0:0:0:0:
227,342,18877,2,0,L|332:334,1,95.9999970703126,0|0,0:0|0:0,0:0:0:0:
137,174,19196,6,0,P|57:149|69:42,1,191.999994140625,0|0,0:0|0:0,0:0:0:0:
158,47,19675,1,0,0:0:0:0:
330,47,19834,1,8,0:0:0:0:
172,116,20153,2,0,L|164:225,1,95.9999970703126
403,177,20472,5,0,0:0:0:0:
233,203,20792,2,0,L|214:320,1,95.9999970703126,0|0,0:0|0:0,0:0:0:0:
390,297,21111,1,8,0:0:0:0:
474,265,21270,1,0,0:0:0:0:
455,197,21430,1,0,0:0:0:0:
364,180,21589,1,0,0:0:0:0:
125,193,21749,6,0,P|73:146|143:61,1,191.999994140625,6|0,0:0|0:0,0:0:0:0:
228,61,22228,1,0,0:0:0:0:
400,61,22387,2,0,L|374:165,1,95.9999970703126,8|0,0:0|0:0,0:0:0:0:
280,154,22706,2,0,L|239:251,1,95.9999970703126,0|0,0:0|0:0,0:0:0:0:
68,242,23026,6,0,P|39:190|97:72,1,191.999994140625,2|0,0:0|0:0,0:0:0:0:
183,76,23504,1,0,0:0:0:0:
356,76,23664,2,0,L|373:196,1,95.9999970703126,8|0,0:0|0:0,0:0:0:0:
273,171,23983,2,0,L|166:231,1,95.9999970703126,0|0,0:0|0:0,0:0:0:0:
362,217,24302,6,0,P|396:168|332:64,1,191.999994140625,2|0,0:0|0:0,0:0:0:0:
240,65,24781,1,0,0:0:0:0:
66,65,24941,2,0,L|35:184,1,95.9999970703126,8|0,0:0|0:0,0:0:0:0:
138,157,25260,2,0,L|242:197,1,95.9999970703126,0|0,0:0|0:0,0:0:0:0:
54,191,25579,6,0,P|31:136|118:37,1,191.999994140625,2|0,0:0|0:0,0:0:0:0:
372,134,26217,2,0,L|246:85,1,95.9999970703126,8|0,0:0|0:0,0:0:0:0:
378,99,26536,2,0,L|401:211,1,95.9999970703126,0|0,0:0|0:0,0:0:0:0:
137,193,26855,6,0,L|14:26,1,191.999994140625,2|0,0:0|0:0,0:0:0:0:
119,38,27334,1,0,0:0:0:0:
292,38,27494,2,0,P|344:91|284:181,1,191.999994140625,8|0,0:0|0:0,0:0:0:0:
195,179,27972,1,0,0:0:0:0:
368,179,28132,6,0,P|406:224|367:346,1,191.999994140625,2|0,0:0|0:0,0:0:0:0:
276,341,28611,1,0,0:0:0:0:
84,341,28770,1,8,0:0:0:0:
2,299,28929,1,0,0:0:0:0:
3,208,29089,1,0,0:0:0:0:
86,169,29248,1,0,0:0:0:0:
316,333,29409,6,0,P|434:199|294:84,1,383.99998828125,0|8,0:0|0:0,0:0:0:0:
131,84,30366,1,0,0:0:0:0:
357,78,30685,6,0,P|412:126|338:217,1,191.999994140625,0|0,0:0|0:0,0:0:0:0:
265,215,31164,1,0,0:0:0:0:
91,215,31324,2,0,L|62:104,1,95.9999970703126,8|0,0:0|0:0,0:0:0:0:
162,122,31643,2,0,L|178:23,1,95.9999970703126,0|0,0:0|0:0,0:0:0:0:
418,27,31962,6,0,P|456:92|376:196,1,191.999994140625,4|0,0:0|0:0,0:0:0:0:
308,186,32441,1,0,0:0:0:0:
135,186,32600,2,0,L|135:285,1,95.9999970703126,8|0,0:0|0:0,0:0:0:0:
231,282,32919,2,0,L|270:191,1,95.9999970703126
95,193,33238,1,8,0:0:0:0:
284,283,33558,6,0,L|317:181,1,95.9999970703126,0|0,0:0|0:0,0:0:0:0:
217,191,33877,2,0,L|112:155,1,95.9999970703126,0|0,0:0|0:0,0:0:0:0:
289,159,34196,1,8,0:0:0:0:
311,115,34275,1,0,0:0:0:0:
333,72,34355,1,0,0:0:0:0:
61,73,34515,6,0,L|52:175,1,95.9999970703126,6|0,0:0|0:0,0:0:0:0:
248,192,34834,2,0,L|347:197,2,95.9999970703126,10|0|0,0:0|0:0|0:0,0:0:0:0:
150,256,35313,2,0,L|261:261,1,95.9999970703126,0|10,0:0|0:0,0:0:0:0:
442,256,35632,6,0,P|495:242|433:162,1,191.999994140625,0|0,0:0|0:0,0:0:0:0:
249,127,36111,2,0,L|146:117,1,95.9999970703126,10|0,0:0|0:0,0:0:0:0:
243,193,36430,2,0,L|232:299,1,95.9999970703126,0|0,0:0|0:0,0:0:0:0:
125,294,36749,2,0,L|120:397,1,95.9999970703126,10|0,0:0|0:0,0:0:0:0:
374,296,37068,5,0,0:0:0:0:
201,296,37387,2,0,L|196:184,1,95.9999970703126,10|0,0:0|0:0,0:0:0:0:
288,199,37706,2,0,L|387:193,1,95.9999970703126,0|0,0:0|0:0,0:0:0:0:
290,122,38026,1,10,0:0:0:0:
117,122,38185,6,0,P|70:146|152:225,1,191.999994140625
291,240,38664,2,0,L|393:235,1,95.9999970703126,10|0,0:0|0:0,0:0:0:0:
485,227,38983,2,0,L|479:119,1,95.9999970703126,0|0,0:0|0:0,0:0:0:0:
372,89,39302,2,0,L|467:95,1,95.9999970703126,10|0,0:0|0:0,0:0:0:0:
208,81,39621,5,4,0:0:0:0:
328,272,39941,2,0,L|440:265,2,95.9999970703126,10|0|0,0:0|0:0|0:0,0:0:0:0:
229,276,40419,1,0,0:0:0:0:
411,192,40579,2,0,L|420:87,1,95.9999970703126,10|0,0:0|0:0,0:0:0:0:
237,78,40898,6,0,P|182:86|199:202,1,191.999994140625,0|10,0:0|0:0,0:0:0:0:
283,166,41377,1,0,0:0:0:0:
197,204,41536,2,0,L|181:305,1,95.9999970703126,0|0,0:0|0:0,0:0:0:0:
376,299,41855,2,0,P|429:285|364:211,1,191.999994140625,10|0,0:0|0:0,0:0:0:0:
276,201,42334,1,0,0:0:0:0:
469,153,42494,6,0,L|483:38,1,95.9999970703126,10|0,0:0|0:0,0:0:0:0:
382,49,42813,2,0,P|307:47|208:142,1,191.999994140625,0|10,0:0|0:0,0:0:0:0:
306,111,43292,1,0,0:0:0:0:
76,111,43451,6,0,P|58:152|156:237,1,191.999994140625,2|10,0:0|0:0,0:0:0:0:
246,238,43930,1,0,0:0:0:0:
424,252,44089,2,0,L|437:147,1,95.9999970703126,2|0,0:0|0:0,0:0:0:0:
333,125,44409,2,0,L|451:118,1,95.9999970703126,10|0,0:0|0:0,0:0:0:0:
172,39,44728,6,0,P|86:86|106:180,1,191.999994140625,6|10,0:0|0:0,0:0:0:0:
192,169,45206,1,0,0:0:0:0:
95,169,45366,1,0,0:0:0:0:
287,169,45526,2,0,L|379:231,2,95.9999970703126,0|10|0,0:0|0:0|0:0,0:0:0:0:
95,169,46004,6,0,L|77:275,1,95.9999970703126,0|0,0:0|0:0,0:0:0:0:
175,263,46324,2,0,L|273:342,1,95.9999970703126,10|0,0:0|0:0,0:0:0:0:
345,323,46643,2,0,L|351:213,1,95.9999970703126,0|0,0:0|0:0,0:0:0:0:
186,227,46962,2,0,P|156:168|242:84,1,191.999994140625,10|0,0:0|0:0,0:0:0:0:
472,204,47600,6,0,L|449:106,1,95.9999970703126,10|0,0:0|0:0,0:0:0:0:
356,205,47919,6,0,L|259:248,2,95.9999970703126,0|0|10,0:0|0:0|0:0,0:0:0:0:
116,205,48398,2,0,P|78:160|138:51,1,191.999994140625,0|0,0:0|0:0,0:0:0:0:
304,53,48877,6,0,L|339:157,1,95.9999970703126,10|0,0:0|0:0,0:0:0:0:
238,143,49196,2,0,L|141:190,1,95.9999970703126,0|0,0:0|0:0,0:0:0:0:
249,184,49515,2,0,L|328:271,1,95.9999970703126,10|0,0:0|0:0,0:0:0:0:
54,255,49834,6,0,P|18:199|86:92,1,191.999994140625,4|0,0:0|0:0,0:0:0:0:
168,97,50313,1,0,0:0:0:0:
360,97,50472,2,0,P|409:139|355:234,1,191.999994140625,8|0,0:0|0:0,0:0:0:0:
134,222,51111,6,0,L|303:102,2,191.999994140625,0|0|8,0:0|0:0|0:0,0:0:0:0:
231,222,51909,1,0,0:0:0:0:
490,222,52068,2,0,P|498:157|414:75,1,191.999994140625,4|0,0:0|0:0,0:0:0:0:
222,74,52706,5,0,0:0:0:0:
415,74,53026,2,0,P|445:123|386:237,1,191.999994140625,8|0,0:0|0:0,0:0:0:0:
297,234,53504,1,0,0:0:0:0:
105,234,53664,2,0,L|56:45,1,191.999994140625,0|0,0:0|0:0,0:0:0:0:
334,318,54302,2,0,L|410:228,1,95.9999970703126,8|0,0:0|0:0,0:0:0:0:
166,236,54621,6,0,P|109:188|167:101,1,191.999994140625,4|0,0:0|0:0,0:0:0:0:
354,101,55260,1,0,0:0:0:0:
163,101,55579,2,0,P|125:161|109:296,1,191.999994140625,8|0,0:0|0:0,0:0:0:0:
203,278,56058,1,0,0:0:0:0:
395,278,56217,6,0,P|432:221|378:114,1,191.999994140625,0|0,0:0|0:0,0:0:0:0:
288,117,56696,1,0,0:0:0:0:
97,117,56855,2,0,L|68:222,1,95.9999970703126,8|0,0:0|0:0,0:0:0:0:
374,216,57175,1,4,0:0:0:0:
256,192,57494,12,0,59728,0:0:0:0:
171,308,60047,6,0,P|115:216|189:181,1,191.999994140625,4|10,0:0|0:0,0:0:0:0:
264,184,60526,1,0,0:0:0:0:
171,121,60685,2,0,L|164:23,1,95.9999970703126,0|0,0:0|0:0,0:0:0:0:
406,38,61004,6,0,P|474:55|391:85,1,191.999994140625,10|0,0:0|0:0,0:0:0:0:
313,113,61483,1,0,0:0:0:0:
484,191,61643,2,0,L|487:298,1,95.9999970703126,10|0,0:0|0:0,0:0:0:0:
387,280,61962,2,0,L|492:287,1,95.9999970703126,0|0,0:0|0:0,0:0:0:0:
229,276,62281,6,0,P|155:248|219:158,1,191.999994140625,10|0,0:0|0:0,0:0:0:0:
280,147,62760,1,0,0:0:0:0:
98,147,62919,2,0,L|5:214,1,95.9999970703126,10|0,0:0|0:0,0:0:0:0:
98,70,63238,2,0,L|2:132,1,95.9999970703126
279,26,63558,2,0,L|298:135,1,95.9999970703126,10|0,0:0|0:0,0:0:0:0:
112,120,63877,6,0,P|63:142|122:233,1,191.999994140625,0|10,0:0|0:0,0:0:0:0:
204,232,64355,1,0,0:0:0:0:
301,222,64515,2,0,L|316:110,1,95.9999970703126,0|0,0:0|0:0,0:0:0:0:
135,104,64834,2,0,L|19:97,1,95.9999970703126,10|0,0:0|0:0,0:0:0:0:
289,58,65153,6,0,P|356:72|300:167,1,191.999994140625,6|10,0:0|0:0,0:0:0:0:
234,177,65632,1,0,0:0:0:0:
324,211,65792,2,0,L|330:324,1,95.9999970703126,0|0,0:0|0:0,0:0:0:0:
146,306,66111,6,0,P|83:280|164:199,1,191.999994140625,10|0,0:0|0:0,0:0:0:0:
213,181,66589,1,0,0:0:0:0:
122,131,66749,2,0,L|249:115,1,95.9999970703126,10|0,0:0|0:0,0:0:0:0:
321,113,67068,2,0,L|326:9,1,95.9999970703126,0|0,0:0|0:0,0:0:0:0:
140,18,67387,6,0,P|82:35|142:128,1,191.999994140625,10|0,0:0|0:0,0:0:0:0:
210,132,67866,1,0,0:0:0:0:
104,186,68026,2,0,L|213:194,1,95.9999970703126,10|0,0:0|0:0,0:0:0:0:
382,193,68345,2,0,L|390:306,1,95.9999970703126,0|0,0:0|0:0,0:0:0:0:
159,318,68664,6,0,P|104:299|167:212,1,191.999994140625,10|0,0:0|0:0,0:0:0:0:
250,197,69143,1,0,0:0:0:0:
336,178,69302,1,10,0:0:0:0:
242,133,69462,1,0,0:0:0:0:
149,109,69621,2,0,L|143:7,1,95.9999970703126
255,16,69941,2,0,L|146:17,1,95.9999970703126,10|0,0:0|0:0,0:0:0:0:
382,39,70260,6,0,L|482:43,1,95.9999970703126,6|0,0:0|0:0,0:0:0:0:
315,39,70579,2,0,L|206:47,1,95.9999970703126,10|0,0:0|0:0,0:0:0:0:
319,81,70898,2,0,L|327:176,1,95.9999970703126
51,293,71217,6,0,P|6:257|92:177,1,191.999994140625,10|0,0:0|0:0,0:0:0:0:
167,170,71696,1,0,0:0:0:0:
348,170,71855,2,0,L|375:271,1,95.9999970703126,10|0,0:0|0:0,0:0:0:0:
275,262,72175,2,0,L|156:299,1,95.9999970703126,0|0,0:0|0:0,0:0:0:0:
385,290,72494,6,0,P|443:272|377:197,1,191.999994140625,10|0,0:0|0:0,0:0:0:0:
291,192,72972,1,0,0:0:0:0:
108,192,73132,2,0,L|91:77,1,95.9999970703126,10|0,0:0|0:0,0:0:0:0:
190,97,73451,2,0,L|70:44,1,95.9999970703126,0|0,0:0|0:0,0:0:0:0:
324,58,73770,6,0,P|379:123|316:204,1,191.999994140625,10|0,0:0|0:0,0:0:0:0:
232,201,74249,1,0,0:0:0:0:
414,201,74409,2,0,L|455:100,1,95.9999970703126,10|0,0:0|0:0,0:0:0:0:
354,112,74728,2,0,L|251:86,1,95.9999970703126,0|0,0:0|0:0,0:0:0:0:
358,88,75047,2,0,L|403:196,1,95.9999970703126,10|0,0:0|0:0,0:0:0:0:
164,182,75366,6,0,P|121:259|190:364,1,191.999994140625,4|10,0:0|0:0,0:0:0:0:
257,347,75845,1,0,0:0:0:0:
438,347,76004,2,0,L|458:230,1,95.9999970703126,0|0,0:0|0:0,0:0:0:0:
357,252,76324,2,0,L|239:213,1,95.9999970703126,10|0,0:0|0:0,0:0:0:0:
362,221,76643,6,0,L|380:113,1,95.9999970703126,0|0,0:0|0:0,0:0:0:0:
194,126,76962,2,0,L|130:224,1,95.9999970703126,10|0,0:0|0:0,0:0:0:0:
237,206,77281,2,0,L|359:230,1,95.9999970703126,0|0,0:0|0:0,0:0:0:0:
106,247,77600,5,4,0:0:0:0:
256,192,77919,12,0,80153,0:0:0:0:
319,324,80472,6,0,L|485:146,2,240,4|0|2,0:0|0:0|0:0,0:0:0:0:
103,323,83026,1,2,0:0:0:0:
404,323,83568,1,0,0:0:0:0:
38,329,84220,5,4,0:0:0:0:
256,192,84720,12,0,88220,0:0:0:0:
