osu file format v14

[General]
AudioFilename: audio.mp3
AudioLeadIn: 0
PreviewTime: 281687
Countdown: 1
SampleSet: None
StackLeniency: 0.7
Mode: 0
LetterboxInBreaks: 0
WidescreenStoryboard: 1

[Editor]
Bookmarks: 45103,55770,77103,82437,87770,93103,98437,119770,130353,163770,206437,238437,325103,346437
DistanceSpacing: 3
BeatDivisor: 8
GridSize: 16
TimelineZoom: 1.6

[Metadata]
Title:Titelnummer 8
TitleUnicode:Titelnummer 8
Artist:Nekomata Master feat. Maki Nagayama
ArtistUnicode:Nekomata Master feat. Maki Nagayama
Creator:Chriz
Version:testtest1212
Source:
Tags:
BeatmapID:2281666
BeatmapSetID:1091387

[Difficulty]
HPDrainRate:4
CircleSize:6
OverallDifficulty:9
ApproachRate:7
SliderMultiplier:1.4
SliderTickRate:2

[Events]
//Background and Video events
//Break Periods
2,28970,30870
//Storyboard Layer 0 (Background)
//Storyboard Layer 1 (Fail)
//Storyboard Layer 2 (Pass)
//Storyboard Layer 3 (Foreground)
//Storyboard Layer 4 (Overlay)
//Storyboard Sound Samples

[TimingPoints]
8937,666.666666666668,4,1,0,30,1,0
11603,-200,4,1,0,30,0,0
12103,-100,4,1,0,5,0,0
12270,-200,4,1,0,30,0,0
14103,-100,4,1,0,5,0,0
14270,-200,4,1,0,30,0,0
14770,-100,4,1,0,5,0,0
14937,-100,4,1,0,30,0,0
16937,-200,4,1,0,30,0,0
17437,-100,4,1,0,5,0,0
17603,-200,4,1,0,30,0,0
19437,-100,4,1,0,5,0,0
19603,-200,4,1,0,30,0,0
20103,-100,4,1,0,5,0,0
20270,-100,4,1,0,30,0,0
22270,-200,4,1,0,30,0,0
23103,-100,4,1,0,5,0,0
23270,-200,4,1,0,30,0,0
24270,-100,4,1,0,5,0,0
24437,-200,4,1,0,30,0,0
25603,-100,4,1,0,30,0,0
31770.6373626374,666.666666666668,4,1,0,30,1,0
36437,-200,4,1,0,30,0,0
36937,-100,4,1,0,30,0,0
41770,-200,4,1,0,30,0,0
42020,-100,4,1,0,5,0,0
42103,-200,4,1,0,30,0,0
42353,-100,4,1,0,5,0,0
42437,-100,4,1,0,30,0,0
45103,-200,4,1,0,30,0,0
45437,-100,4,1,0,30,0,0
45770,-200,4,1,0,30,0,0
46270,-100,4,1,0,5,0,0
46437,-100,4,1,0,30,0,0
46770,-100,4,1,0,5,0,0
46937,-100,4,1,0,30,0,0
47103,-200,4,1,0,30,0,0
47603,-100,4,1,0,5,0,0
47687,-100,4,1,0,30,0,0
47770,-200,4,1,0,30,0,0
48270,-100,4,1,0,30,0,0
48437,-200,4,1,0,30,0,0
48770,-100,4,1,0,30,0,0
49770,-200,4,1,0,30,0,0
50270,-100,4,1,0,30,0,0
53103,-200,4,1,0,30,0,0
53603,-100,4,1,0,30,0,0
53770,-200,4,1,0,30,0,0
54103,-100,4,1,0,30,0,0
54437,-200,4,1,0,30,0,0
54770,-100,4,1,0,5,0,0
54937,-100,4,1,0,30,0,0
55103,-200,4,1,0,30,0,0
55437,-100,4,1,0,5,0,0
55603,-100,4,1,0,30,0,0
56437,-200,4,1,0,30,0,0
57103,-100,4,1,0,30,0,0
58437,-200,4,1,0,30,0,0
59770,-100,4,1,0,30,0,0
60103,-200,4,1,0,30,0,0
60353,-100,4,1,0,5,0,0
60437,-200,4,1,0,30,0,0
60687,-100,4,1,0,5,0,0
60770,-200,4,1,0,30,0,0
61020,-100,4,1,0,5,0,0
61103,-200,4,1,0,30,0,0
61603,-100,4,1,0,30,0,0
61770,-200,4,1,0,30,0,0
62437,-100,4,1,0,30,0,0
63770,-200,4,1,0,30,0,0
64437,-100,4,1,0,30,0,0
65103,-200,4,1,0,30,0,0
65770,-100,4,1,0,30,0,0
65937,-200,4,1,0,30,0,0
66020,-100,4,1,0,5,0,0
66103,-100,4,1,0,30,0,0
66437,-200,4,1,0,30,0,0
66937,-100,4,1,0,30,0,0
67103,-200,4,1,0,30,0,0
67770,-100,4,1,0,30,0,0
69103,-200,4,1,0,30,0,0
69770,-100,4,1,0,30,0,0
70437,-200,4,1,0,30,0,0
70937,-100,4,1,0,30,0,0
71103,-200,4,1,0,30,0,0
71353,-100,4,1,0,5,0,0
71437,-200,4,1,0,30,0,0
71687,-100,4,1,0,5,0,0
71770,-200,4,1,0,30,0,0
72270,-100,4,1,0,30,0,0
72437,-200,4,1,0,30,0,0
73103,-100,4,1,0,30,0,0
74437,-200,4,1,0,30,0,0
74770,-100,4,1,0,30,0,0
75103,-200,4,1,0,30,0,0
76437,-100,4,1,0,30,0,0
82437,-200,4,1,0,30,0,0
82770,-100,4,1,0,16,0,0
82937,-66.6666666666667,4,1,0,30,0,0
83687,-100,4,1,0,5,0,0
83770,-66.6666666666667,4,1,0,30,0,0
84020,-100,4,1,0,5,0,0
84103,-66.6666666666667,4,1,0,30,0,0
84353,-100,4,1,0,5,0,0
84437,-66.6666666666667,4,1,0,30,0,0
84687,-100,4,1,0,5,0,0
84770,-66.6666666666667,4,1,0,30,0,0
84937,-100,4,1,0,5,0,0
85020,-66.6666666666667,4,1,0,30,0,0
85353,-100,4,1,0,5,0,0
85437,-58.8235294117647,4,1,0,30,0,0
85687,-100,4,1,0,5,0,0
85770,-52.6315789473684,4,1,0,30,0,0
86020,-100,4,1,0,5,0,0
86103,-47.6190476190476,4,1,0,30,0,0
86353,-100,4,1,0,5,0,0
86437,-41.6666666666667,4,1,0,30,0,0
86687,-100,4,1,0,5,0,0
86770,-100,4,1,0,30,0,0
93103,-200,4,1,0,30,0,0
93603,-100,4,1,0,15,0,0
93770,-100,4,1,0,30,0,0
95770,-200,4,1,0,30,0,0
96270,-100,4,1,0,30,0,0
96437,-200,4,1,0,30,0,0
96937,-100,4,1,0,30,0,0
100437,-200,4,1,0,30,0,0
101103,-100,4,1,0,30,0,0
102437,-200,4,1,0,30,0,0
103103,-100,4,1,0,30,0,0
103437,-200,4,1,0,30,0,0
103770,-100,4,1,0,30,0,0
105103,-200,4,1,0,30,0,0
105603,-100,4,1,0,30,0,0
107770,-200,4,1,0,30,0,0
108437,-100,4,1,0,30,0,0
111103,-200,4,1,0,30,0,0
111770,-100,4,1,0,30,0,0
114437,-200,4,1,0,30,0,0
114937,-100,4,1,0,30,0,0
115770,-200,4,1,0,30,0,0
116270,-100,4,1,0,30,0,0
116437,-200,4,1,0,30,0,0
116770,-100,4,1,0,30,0,0
117103,-200,4,1,0,30,0,0
117603,-100,4,1,0,30,0,0
125103,-200,4,1,0,30,0,0
125603,-100,4,1,0,30,0,0
126103,-66.6666666666667,4,1,0,30,0,0
126353,-100,4,1,0,5,0,0
126437,-66.6666666666667,4,1,0,30,0,0
126687,-100,4,1,0,5,0,0
126770,-66.6666666666667,4,1,0,30,0,0
127020,-100,4,1,0,5,0,0
127103,-66.6666666666667,4,1,0,30,0,0
127353,-100,4,1,0,5,0,0
127437,-66.6666666666667,4,1,0,30,0,0
127687,-50,4,1,0,30,0,0
128270,-100,4,1,0,15,0,0
128353,-100,4,1,0,30,0,0
128437,-43.4782608695652,4,1,0,30,0,0
129020,-100,4,1,0,30,0,0
129103,-66.6666666666667,4,1,0,30,0,0
129603,-100,4,1,0,30,0,0
129687,-100,4,1,0,30,0,0
135770,-200,4,1,0,30,0,0
136270,-100,4,1,0,30,0,0
136770,-66.6666666666667,4,1,0,30,0,0
137020,-66.6666666666667,4,1,0,5,0,0
137103,-66.6666666666667,4,1,0,30,0,0
137353,-66.6666666666667,4,1,0,5,0,0
137437,-66.6666666666667,4,1,0,30,0,0
137687,-66.6666666666667,4,1,0,5,0,0
137770,-66.6666666666667,4,1,0,30,0,0
138103,-66.6666666666667,4,1,0,30,0,0
138353,-100,4,1,0,5,0,0
138437,-200,4,1,0,30,0,0
138937,-100,4,1,0,30,0,0
139103,-200,4,1,0,30,0,0
139770,-100,4,1,0,30,0,0
141770,-200,4,1,0,30,0,0
142437,-100,4,1,0,30,0,0
142770,-200,4,1,0,30,0,0
144103,-100,4,1,0,30,0,0
145103,-37.037037037037,4,1,0,30,0,0
145353,-100,4,1,0,5,0,0
145437,-40,4,1,0,30,0,0
145687,-100,4,1,0,5,0,0
145770,-43.4782608695652,4,1,0,30,0,0
146020,-100,4,1,0,5,0,0
146103,-47.6190476190476,4,1,0,30,0,0
146353,-100,4,1,0,5,0,0
146437,-100,4,1,0,30,0,0
150437,-40,4,1,0,30,0,0
150687,-100,4,1,0,5,0,0
150770,-43.4782608695652,4,1,0,30,0,0
151020,-100,4,1,0,5,0,0
151103,-37.037037037037,4,1,0,30,0,0
151353,-100,4,1,0,5,0,0
151437,-43.4782608695652,4,1,0,30,0,0
151687,-100,4,1,0,5,0,0
151770,-100,4,1,0,30,0,0
155770,-200,4,1,0,30,0,0
156020,-100,4,1,0,5,0,0
156103,-100,4,1,0,30,0,0
156437,-200,4,1,0,30,0,0
156687,-100,4,1,0,5,0,0
156770,-100,4,1,0,30,0,0
159770,-66.6666666666667,4,1,0,30,0,0
160020,-100,4,1,0,5,0,0
160103,-66.6666666666667,4,1,0,30,0,0
160353,-100,4,1,0,5,0,0
160437,-66.6666666666667,4,1,0,30,0,0
160687,-100,4,1,0,5,0,0
160770,-66.6666666666667,4,1,0,30,0,0
161020,-100,4,1,0,5,0,0
161103,-66.6666666666667,4,1,0,30,0,0
161353,-100,4,1,0,5,0,0
161437,-66.6666666666667,4,1,0,30,0,0
161687,-100,4,1,0,5,0,0
161770,-66.6666666666667,4,1,0,30,0,0
162020,-100,4,1,0,5,0,0
162103,-100,4,1,0,30,0,0
163770,-1000,4,1,0,30,0,0
164187,-100,4,1,0,5,0,0
164270,-100,4,1,0,30,0,0
164437,-1000,4,1,0,30,0,0
164853,-100,4,1,0,5,0,0
164937,-100,4,1,0,30,0,0
165103,-1000,4,1,0,30,0,0
165770,-100,4,1,0,30,0,0
166437,-1000,4,1,0,30,0,0
166853,-100,4,1,0,5,0,0
166937,-100,4,1,0,30,0,0
167103,-1000,4,1,0,30,0,0
167520,-100,4,1,0,5,0,0
167603,-100,4,1,0,30,0,0
170437,-200,4,1,0,30,0,0
170853,-100,4,1,0,5,0,0
170937,-200,4,1,0,30,0,0
171103,-100,4,1,0,30,0,0
171770,-66.6666666666667,4,1,0,30,0,0
172270,-100,4,1,0,30,0,0
172437,-66.6666666666667,4,1,0,30,0,0
172937,-100,4,1,0,30,0,0
173103,-66.6666666666667,4,1,0,30,0,0
173353,-100,4,1,0,5,0,0
173437,-66.6666666666667,4,1,0,30,0,0
173687,-100,4,1,0,5,0,0
173770,-66.6666666666667,4,1,0,30,0,0
174020,-100,4,1,0,5,0,0
174103,-66.6666666666667,4,1,0,30,0,0
174353,-100,4,1,0,5,0,0
174437,-1000,4,1,0,30,0,0
174853,-100,4,1,0,5,0,0
174937,-100,4,1,0,30,0,0
175103,-1000,4,1,0,30,0,0
175520,-100,4,1,0,5,0,0
175603,-100,4,1,0,30,0,0
175770,-1000,4,1,0,30,0,0
176437,-100,4,1,0,30,0,0
177103,-1000,4,1,0,30,0,0
177520,-100,4,1,0,5,0,0
177603,-100,4,1,0,30,0,0
177770,-1000,4,1,0,30,0,0
178187,-100,4,1,0,5,0,0
178270,-100,4,1,0,30,0,0
179770,-66.6666666666667,4,1,0,30,0,0
180270,-100,4,1,0,30,0,0
180437,-66.6666666666667,4,1,0,30,0,0
180937,-100,4,1,0,30,0,0
181103,-66.6666666666667,4,1,0,30,0,0
181603,-100,4,1,0,30,0,0
182437,-66.6666666666667,4,1,0,30,0,0
183603,-100,4,1,0,30,0,0
183770,-66.6666666666667,4,1,0,30,0,0
184270,-100,4,1,0,30,0,0
185103,-1000,4,1,0,30,0,0
185520,-100,4,1,0,5,0,0
185603,-100,4,1,0,30,0,0
185770,-1000,4,1,0,30,0,0
186187,-100,4,1,0,5,0,0
186270,-100,4,1,0,30,0,0
186437,-1000,4,1,0,30,0,0
186881,-100,4,1,0,5,0,0
186992,-100,4,1,0,30,0,0
187770,-1000,4,1,0,30,0,0
188187,-100,4,1,0,5,0,0
188270,-100,4,1,0,30,0,0
188437,-1000,4,1,0,30,0,0
188853,-100,4,1,0,5,0,0
188937,-100,4,1,0,30,0,0
191770,-200,4,1,0,30,0,0
192187,-100,4,1,0,5,0,0
192270,-200,4,1,0,30,0,0
192353,-100,4,1,0,5,0,0
192437,-100,4,1,0,30,0,0
193103,-66.6666666666667,4,1,0,30,0,0
193603,-100,4,1,0,30,0,0
193770,-66.6666666666667,4,1,0,30,0,0
194270,-100,4,1,0,30,0,0
194437,-66.6666666666667,4,1,0,30,0,0
194687,-100,4,1,0,5,0,0
194770,-66.6666666666667,4,1,0,30,0,0
195020,-100,4,1,0,5,0,0
195103,-66.6666666666667,4,1,0,30,0,0
195353,-100,4,1,0,5,0,0
195437,-66.6666666666667,4,1,0,30,0,0
195687,-100,4,1,0,5,0,0
195770,-1000,4,1,0,5,0,0
196187,-100,4,1,0,5,0,0
196270,-100,4,1,0,30,0,0
196437,-1000,4,1,0,30,0,0
196853,-100,4,1,0,5,0,0
196937,-100,4,1,0,30,0,0
197103,-1000,4,1,0,30,0,0
197603,-100,4,1,0,30,0,0
198437,-1000,4,1,0,30,0,0
198853,-100,4,1,0,5,0,0
198937,-100,4,1,0,30,0,0
199103,-1000,4,1,0,30,0,0
199520,-100,4,1,0,5,0,0
199603,-100,4,1,0,30,0,0
201103,-66.6666666666667,4,1,0,30,0,0
201603,-100,4,1,0,30,0,0
201770,-66.6666666666667,4,1,0,30,0,0
202270,-100,4,1,0,30,0,0
202437,-66.6666666666667,4,1,0,30,0,0
202937,-100,4,1,0,30,0,0
203103,-66.6666666666667,4,1,0,30,0,0
203437,-100,4,1,0,30,0,0
203770,-66.6666666666667,4,1,0,30,0,0
204937,-100,4,1,0,30,0,0
205770,-200,4,1,0,30,0,0
206270,-100,4,1,0,30,0,0

[HitObjects]
144,128,8937,5,0,0:0:0:0:
368,256,11603,2,0,B|352:224|328:220|328:220,1,52.5
314,273,12270,2,0,B|413:189|490:206|490:206,1,192.5
458,256,14270,2,0,B|431:227|434:204|434:204,1,52.5
456,162,14937,1,0,0:0:0:0:
56,222,16937,6,0,B|75:254|73:274|73:274,1,52.5
16,263,17603,2,0,B|44:325|192:315|192:315,1,192.5
205,261,19603,2,0,B|234:267|250:297|250:297,1,52.5
238,346,20270,1,0,0:0:0:0:
274,38,22270,2,0,B|289:68|257:122|257:122,1,87.5
216,77,23270,2,0,B|179:60|108:68|108:68,1,105
79,25,24437,2,0,B|30:47|71:138|71:138,1,122.5
94,182,25770,1,0,0:0:0:0:
230,22,26437,1,0,0:0:0:0:
320,191,27047,1,0,0:0:0:0:
311,175,27103,1,0,0:0:0:0:
478,7,27853,1,0,0:0:0:0:
388,281,28770,5,0,0:0:0:0:
124,103,31770,5,0,0:0:0:0:
129,110,32437,1,0,0:0:0:0:
134,117,33103,1,0,0:0:0:0:
139,124,33770,1,0,0:0:0:0:
217,280,34326,1,0,0:0:0:0:
200,251,34437,1,0,0:0:0:0:
256,48,35103,1,0,0:0:0:0:
200,251,35770,1,0,0:0:0:0:
255,340,36103,1,0,0:0:0:0:
278,353,36187,1,0,0:0:0:0:
300,339,36270,1,0,0:0:0:0:
298,312,36353,1,0,0:0:0:0:
273,300,36437,2,0,B|246:315|218:301|218:301,1,52.5
200,251,37103,5,0,0:0:0:0:
251,161,37770,1,0,0:0:0:0:
340,108,38437,1,0,0:0:0:0:
367,207,39103,1,0,0:0:0:0:
394,108,39770,1,0,0:0:0:0:
484,158,40437,1,0,0:0:0:0:
484,260,41103,1,0,0:0:0:0:
484,365,41770,2,0,B|465:371|453:363|453:363,1,26.25
439,346,42103,2,0,B|420:340|408:348|408:348,1,26.25
394,364,42437,5,0,0:0:0:0:
366,262,43103,1,0,0:0:0:0:
290,187,43770,1,0,0:0:0:0:
187,160,44437,1,0,0:0:0:0:
85,188,45103,6,0,B|103:196|125:188|125:188,1,35
102,137,45603,1,0,0:0:0:0:
60,100,45770,2,0,B|93:75|112:84|112:84,1,52.5
189,157,46437,2,0,B|223:182|267:155|267:155,1,70
335,91,46937,1,0,0:0:0:0:
377,186,47103,2,0,B|382:194|377:241|377:241,1,52.5
353,226,47687,1,0,0:0:0:0:
358,251,47770,2,0,B|373:233|405:228|405:228,1,52.5
446,268,48437,2,0,B|463:245|458:229|458:229,1,35
445,131,49103,1,0,0:0:0:0:
391,40,49437,1,0,0:0:0:0:
368,27,49521,1,0,0:0:0:0:
346,41,49604,1,0,0:0:0:0:
348,68,49687,1,0,0:0:0:0:
373,80,49771,2,0,B|400:65|428:79|428:79,1,52.5
445,131,50437,5,0,0:0:0:0:
354,182,51103,1,0,0:0:0:0:
253,153,51770,1,0,0:0:0:0:
162,204,52437,1,0,0:0:0:0:
74,142,52992,1,0,0:0:0:0:
61,175,53103,2,0,B|53:212|64:232|64:232,1,52.5
108,263,53770,2,0,B|80:287|65:284|65:284,1,35
24,191,54437,6,0,B|43:162|36:146|36:146,1,35
36,106,54937,1,0,0:0:0:0:
58,92,55020,1,0,0:0:0:0:
81,105,55103,2,0,B|113:115|127:104|127:104,1,35
157,12,55603,1,0,0:0:0:0:
171,34,55686,1,0,0:0:0:0:
158,57,55770,5,0,0:0:0:0:
91,245,56437,2,0,B|71:194|94:175|94:175,1,70
160,83,57437,1,0,0:0:0:0:
181,124,57548,1,0,0:0:0:0:
202,83,57659,1,0,0:0:0:0:
223,124,57770,1,0,0:0:0:0:
261,221,58103,1,0,0:0:0:0:
274,243,58187,1,0,0:0:0:0:
300,242,58270,1,0,0:0:0:0:
312,218,58353,1,0,0:0:0:0:
296,195,58437,2,0,B|234:178|221:301|221:301,1,140
299,318,59992,5,0,0:0:0:0:
269,341,60103,2,0,B|245:337|243:329|243:329,1,26.25
237,305,60437,2,0,B|214:309|210:318|210:318,1,26.25
221,342,60770,2,0,B|197:338|195:330|195:330,1,26.25
191,311,61103,2,0,B|155:312|137:331|137:331,1,52.5
166,381,61770,2,0,B|125:391|95:370|95:370,1,70
10,313,62770,1,0,0:0:0:0:
10,271,62881,1,0,0:0:0:0:
51,292,62992,1,0,0:0:0:0:
51,250,63103,1,0,0:0:0:0:
51,144,63437,1,0,0:0:0:0:
64,121,63521,1,0,0:0:0:0:
50,99,63604,1,0,0:0:0:0:
23,101,63687,1,0,0:0:0:0:
11,126,63771,2,0,B|-1:153|19:198|19:198,1,70
98,371,64992,1,0,0:0:0:0:
85,338,65103,6,0,B|126:328|163:337|163:337,1,70
213,319,65937,2,0,L|215:308,1,8.75
203,377,66103,1,0,0:0:0:0:
271,297,66270,1,0,0:0:0:0:
299,341,66437,6,0,B|306:364|347:338|347:338,1,52.5
394,374,67103,2,0,B|421:361|408:311|408:311,1,70
386,207,68103,1,0,0:0:0:0:
374,166,68214,1,0,0:0:0:0:
409,135,68326,1,0,0:0:0:0:
419,175,68437,1,0,0:0:0:0:
446,277,68770,1,0,0:0:0:0:
452,300,68854,1,0,0:0:0:0:
432,317,68937,1,0,0:0:0:0:
407,310,69020,1,0,0:0:0:0:
402,282,69104,2,0,B|427:258|428:214|428:214,1,70
399,36,70353,1,0,0:0:0:0:
408,61,70437,6,0,B|407:91|361:73|361:73,1,52.5
342,22,71103,2,0,B|323:24|316:26|316:26,1,26.25
315,44,71437,2,0,B|296:51|286:44|286:44,1,26.25
281,30,71770,2,0,B|270:66|277:81|277:81,1,52.5
322,122,72437,2,0,B|266:153|253:129|253:129,1,70
159,90,73437,1,0,0:0:0:0:
159,43,73548,1,0,0:0:0:0:
124,24,73660,1,0,0:0:0:0:
121,68,73770,1,0,0:0:0:0:
121,172,74103,1,0,0:0:0:0:
127,195,74187,1,0,0:0:0:0:
107,212,74270,1,0,0:0:0:0:
82,205,74353,1,0,0:0:0:0:
77,177,74437,2,0,B|71:166|78:138|78:138,1,35
103,39,74937,1,0,0:0:0:0:
124,24,75020,1,0,0:0:0:0:
147,38,75103,2,0,B|264:47|278:89|278:89,1,140
256,192,76770,5,0,0:0:0:0:
346,244,77103,1,0,0:0:0:0:
398,49,78104,5,0,0:0:0:0:
346,140,78437,1,0,0:0:0:0:
371,327,79326,5,0,0:0:0:0:
312,225,79548,1,0,0:0:0:0:
228,141,79770,1,0,0:0:0:0:
37,380,80770,5,0,0:0:0:0:
127,327,81103,1,0,0:0:0:0:
37,4,82103,5,0,0:0:0:0:
161,57,82437,2,0,B|144:59|125:53|125:53,1,35
37,4,82937,1,0,0:0:0:0:
73,142,83103,1,0,0:0:0:0:
73,142,83437,6,0,B|150:129|100:203|100:203,1,78.7500030040742
46,211,83770,6,0,B|82:277|117:239|117:239,1,78.7500030040742
170,218,84103,2,0,B|142:199|182:145|182:145,1,78.7500030040742
232,195,84437,2,0,B|228:163|310:185|310:185,1,78.7500030040742
368,198,84770,2,0,B|375:220|334:238|334:238,1,52.5000020027161
274,246,85020,1,0,0:0:0:0:
300,182,85103,6,0,B|349:146|290:100|290:100,1,78.7500030040742
229,102,85437,2,0,B|268:33|304:51|304:51,1,89.2500017023087
366,75,85770,2,0,B|383:154|435:157|435:157,1,99.7499973363877
446,226,86103,2,0,B|460:293|355:303|355:303,1,110.249996635437
337,236,86437,2,0,B|328:140|295:99|295:99,1,125.999996154785
295,48,86770,1,0,0:0:0:0:
226,123,86992,1,0,0:0:0:0:
231,108,87047,1,0,0:0:0:0:
245,97,87103,1,0,0:0:0:0:
231,214,87326,1,0,0:0:0:0:
245,203,87382,1,0,0:0:0:0:
250,188,87437,1,0,0:0:0:0:
100,278,87770,5,0,0:0:0:0:
412,278,88770,5,0,0:0:0:0:
384,379,89103,1,0,0:0:0:0:
171,167,90103,5,0,0:0:0:0:
312,310,90436,1,0,0:0:0:0:
312,37,91437,1,0,0:0:0:0:
369,136,91603,1,0,0:0:0:0:
288,217,91770,1,0,0:0:0:0:
30,24,92770,5,0,0:0:0:0:
171,167,93103,2,0,B|199:182|186:218|186:218,1,52.5
231,118,93770,1,0,0:0:0:0:
231,118,94103,5,0,0:0:0:0:
275,212,94437,1,0,0:0:0:0:
231,306,94770,1,0,0:0:0:0:
129,278,95103,1,0,0:0:0:0:
53,352,95437,1,0,0:3:0:0:
26,249,95770,2,0,B|37:228|28:209|28:209,1,35
4,168,96270,1,0,0:0:0:0:
60,162,96437,2,0,B|89:166|103:155|103:155,1,35
146,146,96937,1,0,0:0:0:0:
130,249,97103,5,0,0:0:0:0:
225,204,97437,1,0,0:0:0:0:
225,99,97770,1,0,0:0:0:0:
130,54,98103,1,0,0:0:0:0:
307,153,98437,5,0,0:0:0:0:
188,359,99103,1,0,0:0:0:0:
344,104,99603,1,0,0:0:0:0:
372,155,99770,1,0,0:0:0:0:
316,331,100437,2,0,B|312:313|322:290|322:290,1,35
331,384,101103,5,0,0:0:0:0:
270,104,101770,1,0,0:0:0:0:
196,177,102103,1,0,0:0:0:0:
106,126,102437,2,0,B|95:110|112:76|112:76,1,52.5
132,183,103103,1,0,0:0:0:0:
173,86,103437,2,0,B|178:73|172:62|172:62,1,17.5
70,179,103770,5,0,0:0:0:0:
184,384,104270,1,0,0:0:0:0:
156,333,104437,1,0,0:0:0:0:
84,24,104937,1,0,0:0:0:0:
112,75,105103,2,0,B|121:91|145:96|145:96,1,35
55,76,105603,1,0,0:0:0:0:
126,153,105770,5,0,0:0:0:0:
197,76,106104,1,0,0:0:0:0:
296,44,106437,1,0,0:0:0:0:
485,225,106937,1,0,0:0:0:0:
443,185,107104,1,0,0:0:0:0:
366,113,107437,1,0,0:0:0:0:
296,44,107770,2,0,B|281:77|308:97|308:97,1,52.5
359,23,108437,5,0,0:0:0:0:
438,90,108770,1,0,0:0:0:0:
438,195,108937,1,0,0:0:0:0:
359,261,109103,1,0,0:0:0:0:
219,8,109603,1,0,0:0:0:0:
233,65,109770,1,0,0:0:0:0:
227,358,110270,1,0,0:0:0:0:
213,301,110437,1,0,0:0:0:0:
122,45,110937,1,0,0:0:0:0:
100,101,111103,2,0,B|102:122|116:133|116:133,1,35
180,214,111770,1,0,0:0:0:0:
328,65,112437,1,0,0:0:0:0:
346,370,113103,1,0,0:0:0:0:
236,159,113770,1,0,0:0:0:0:
438,276,114437,2,0,B|439:257|428:238|428:238,1,35
396,183,114937,1,0,0:0:0:0:
404,335,115103,5,0,0:0:0:0:
209,230,115770,2,0,B|200:247|208:268|208:268,1,35
264,247,116270,1,0,0:0:0:0:
321,230,116437,2,0,B|330:247|322:268|322:268,1,35
126,368,117103,2,0,B|123:350|131:331|131:331,1,35
151,286,117603,1,0,0:0:0:0:
202,378,117770,5,0,0:0:0:0:
253,286,118103,1,0,0:0:0:0:
348,329,118437,1,0,0:0:0:0:
333,335,118492,1,0,0:0:0:0:
317,334,118547,1,0,0:0:0:0:
300,324,118603,1,0,0:0:0:0:
395,281,118770,1,0,0:0:0:0:
352,185,119103,1,0,0:0:0:0:
346,200,119158,1,0,0:0:0:0:
347,216,119215,1,0,0:0:0:0:
357,233,119269,1,0,0:0:0:0:
400,138,119436,1,0,0:0:0:0:
437,324,119770,5,0,0:0:0:0:
91,376,120770,1,0,0:0:0:0:
142,285,121103,1,0,0:0:0:0:
301,38,121937,1,0,0:0:0:0:
361,158,122187,1,0,0:0:0:0:
301,278,122437,1,0,0:0:0:0:
46,38,123437,1,0,0:0:0:0:
119,110,123770,1,0,0:0:0:0:
38,287,124770,1,0,0:0:0:0:
111,215,125103,2,0,B|122:227|145:222|145:222,1,35
137,169,125603,1,0,0:0:0:0:
190,314,125770,5,0,0:0:0:0:
190,314,126103,2,0,B|221:356|257:287|257:287,1,78.7500030040742
297,240,126437,2,0,B|285:224|208:246|208:246,1,78.7500030040742
166,255,126770,2,0,B|147:234|194:181|194:181,1,78.7500030040742
119,186,127103,2,0,B|86:261|115:265|115:265,1,78.7500030040742
60,298,127437,2,0,B|131:337|138:308|138:308,1,78.7500030040742
166,255,127770,2,0,B|174:280|191:236|178:205|-1:308|13:137|13:137,1,210
43,111,128353,1,0,0:0:0:0:
79,157,128437,2,0,B|75:126|132:149|148:311|-19:391|-19:391,1,281.750005373955
0,308,129103,2,0,B|134:283|137:354|137:354,1,157.500006008148
88,378,129687,1,0,0:0:0:0:
88,322,129770,5,0,0:0:0:0:
36,118,130103,1,0,0:0:0:0:
81,143,130270,1,0,0:0:0:0:
36,16,130437,5,0,0:0:0:0:
403,296,131437,1,0,0:0:0:0:
323,237,131770,1,0,0:0:0:0:
243,21,132770,1,0,0:0:0:0:
323,80,133103,1,0,0:0:0:0:
483,355,134103,1,0,0:0:0:0:
483,249,134270,1,0,0:0:0:0:
402,181,134437,1,0,0:0:0:0:
256,355,135437,1,0,0:0:0:0:
256,250,135770,2,0,B|254:231|268:213|268:213,1,35
308,246,136270,1,0,0:0:0:0:
193,165,136437,5,0,0:0:0:0:
193,165,136770,2,0,B|170:140|223:97|223:97,1,78.7500030040742
277,54,137103,2,0,B|206:22|191:51|191:51,1,78.7500030040742
144,85,137437,2,0,B|229:123|230:85|230:85,1,78.7500030040742
277,54,137770,2,0,B|348:22|363:51|363:51,1,78.7500030040742
408,0,138103,2,0,B|434:9|415:85|415:85,1,78.7500030040742
359,116,138437,6,0,B|359:133|389:137|389:137,1,35
435,123,138937,1,0,0:0:0:0:
417,196,139103,2,0,L|422:174,1,17.5
402,265,139437,2,0,L|407:243,1,17.5
391,317,139770,5,0,0:0:0:0:
338,225,139937,1,0,0:0:0:0:
284,317,140103,1,0,0:0:0:0:
257,30,140437,5,0,0:0:0:0:
285,133,140603,1,0,0:0:0:0:
361,58,140770,1,0,0:0:0:0:
411,150,140937,1,0,0:0:0:0:
338,225,141103,1,0,0:0:0:0:
58,331,141770,2,0,B|58:325|80:323|80:323,1,17.5
125,331,142103,2,0,B|129:335|146:321|146:321,1,17.5
171,283,142437,5,0,0:0:0:0:
261,335,142603,1,0,0:0:0:0:
351,283,142770,2,0,B|351:277|373:275|373:275,1,17.5
383,326,143103,2,0,B|405:348|437:281|437:281,1,70
486,45,144103,1,0,0:0:0:0:
465,143,144437,1,0,0:0:0:0:
368,179,144770,1,0,0:0:0:0:
389,81,145103,2,0,B|393:55|356:76|354:167|492:141|492:141,1,141.750000540733
443,85,145437,2,0,B|474:92|435:216|435:216,1,131.25
383,238,145770,2,0,B|447:283|486:278|486:243|486:243,1,120.750002303124
499,193,146103,2,0,B|462:320|507:327|507:327,1,110.249996635437
506,354,146437,5,0,0:0:0:0:
256,192,147103,1,0,0:0:0:0:
168,248,147437,1,0,0:0:0:0:
106,52,147770,1,0,0:0:0:0:
180,121,147937,1,0,0:0:0:0:
92,177,148103,1,0,0:0:0:0:
229,29,148437,5,0,0:0:0:0:
347,245,149437,1,0,0:0:0:0:
256,192,149770,1,0,0:0:0:0:
154,163,150103,1,0,0:0:0:0:
47,161,150437,2,0,B|94:159|59:29|59:29,1,131.25
7,97,150770,2,0,B|-58:211|33:218|33:218,1,120.750002303124
27,288,151103,2,0,B|87:266|43:149|43:149,1,141.750000540733
3,206,151437,2,0,B|-33:327|15:334|15:334,1,120.750002303124
107,168,151770,5,0,0:0:0:0:
256,20,152437,1,0,0:0:0:0:
215,55,152603,1,0,0:0:0:0:
266,70,152770,1,0,0:0:0:0:
367,97,153103,1,0,0:0:0:0:
376,150,153269,1,0,0:0:0:0:
415,113,153436,1,0,0:0:0:0:
205,5,153770,1,0,0:0:0:0:
307,379,154770,5,0,0:0:0:0:
279,277,155103,1,0,0:0:0:0:
305,174,155437,1,0,0:0:0:0:
277,72,155770,2,0,B|264:68|279:46|279:46,1,26.25
329,64,156103,1,0,0:0:0:0:
357,182,156437,2,0,B|370:178|355:156|355:156,1,26.25
305,174,156770,1,0,0:0:0:0:
279,277,157103,1,0,0:0:0:0:
471,192,157770,5,0,0:0:0:0:
419,282,158103,1,0,0:0:0:0:
326,232,158437,1,0,0:0:0:0:
222,250,158603,1,0,0:0:0:0:
140,317,158770,1,0,0:0:0:0:
244,315,159103,1,0,0:0:0:0:
157,254,159437,1,0,0:0:0:0:
72,319,159770,2,0,B|76:357|155:309|155:309,1,78.7500030040742
192,298,160103,2,0,B|263:253|276:297|276:297,1,78.7500030040742
317,325,160437,2,0,B|250:346|235:302|235:302,1,78.7500030040742
183,274,160770,2,0,B|132:231|96:259|96:259,1,78.7500030040742
52,297,161103,2,0,B|30:291|53:208|53:208,1,78.7500030040742
93,180,161437,2,0,B|123:186|107:273|107:273,1,78.7500030040742
42,168,161770,2,0,B|-3:137|46:85|46:85,1,78.7500030040742
81,128,162103,1,0,0:0:0:0:
10,50,162437,5,0,0:0:0:0:
305,345,163103,1,0,0:0:0:0:
331,243,163437,1,0,0:0:0:0:
406,316,163770,2,0,L|413:322,1,8.75
331,243,164270,5,0,0:0:0:0:
432,268,164437,2,0,L|441:269,1,8.75
331,243,164937,5,0,0:0:0:0:
430,214,165104,2,0,L|441:212,1,10.5
331,243,165770,1,0,0:0:0:0:
383,152,166103,1,0,0:0:0:0:
473,99,166437,2,0,L|480:93,1,8.75
383,152,166937,5,0,0:0:0:0:
355,50,167103,2,0,L|352:42,1,8.75
383,152,167603,5,0,0:0:0:0:
279,125,167769,1,0,0:0:0:0:
175,153,168103,1,0,0:0:0:0:
146,47,168437,1,0,0:0:0:0:
70,124,168770,1,0,0:0:0:0:
98,229,169103,1,0,0:0:0:0:
175,153,169437,5,0,0:0:0:0:
203,258,169603,1,0,0:0:0:0:
262,171,169770,1,0,0:0:0:0:
290,276,169936,1,0,0:0:0:0:
349,189,170104,1,0,0:0:0:0:
377,294,170270,1,0,0:0:0:0:
436,207,170437,2,0,B|451:190|430:161|430:161,1,43.75
357,186,170937,6,0,L|344:190,1,8.75
383,125,171103,5,0,0:0:0:0:
460,282,171437,1,0,0:0:0:0:
318,348,171770,2,0,B|255:346|248:277|179:280|179:280,1,157.500006008148
161,357,172437,2,0,B|70:346|85:213|85:213,1,157.500006008148
159,212,173103,2,0,B|159:264|103:258|103:258,1,78.7500030040742
71,209,173437,2,0,B|39:209|68:129|68:129,1,78.7500030040742
114,80,173770,2,0,B|134:130|125:168|125:168,1,78.7500030040742
98,185,174103,2,0,B|104:208|181:177|181:177,1,78.7500030040742
185,126,174437,2,0,L|187:118,1,8.75
213,226,174937,5,0,0:0:0:0:
276,143,175103,2,0,L|281:137,1,8.75
316,239,175604,5,0,0:0:0:0:
412,198,175770,2,0,L|422:193,1,10.5
399,300,176437,1,0,0:0:0:0:
296,335,176770,1,0,0:0:0:0:
189,313,177103,2,0,L|180:311,1,8.75
261,231,177604,5,0,0:0:0:0:
154,209,177770,2,0,L|145:207,1,8.75
226,127,178270,5,0,0:0:0:0:
119,105,178437,1,0,0:0:0:0:
84,1,178770,1,0,0:0:0:0:
191,23,179103,1,0,0:0:0:0:
298,1,179437,1,0,0:0:0:0:
405,23,179770,2,0,B|504:24|432:206|401:133|401:133,1,157.500006008148
356,96,180437,2,0,B|328:166|347:258|347:258,1,157.500006008148
379,275,181020,1,0,0:0:0:0:
392,237,181103,2,0,B|298:216|228:233|228:233,1,157.500006008148
262,130,181770,5,0,0:0:0:0:
438,367,182437,2,0,B|563:325|225:163|470:-18|517:130|517:130,1,367.500014019013
480,213,183770,2,0,B|507:148|352:133|352:133,1,157.500006008148
262,130,184437,5,0,0:0:0:0:
315,220,184770,1,0,0:0:0:0:
315,324,185103,2,0,L|315:333,1,8.75
224,272,185603,5,0,0:0:0:0:
133,324,185770,2,0,L|125:328,1,8.75
132,219,186270,5,0,0:0:0:0:
42,166,186437,2,0,L|34:162,1,9.33333333333333
133,113,186992,5,0,0:0:0:0:
133,61,187103,1,0,0:0:0:0:
268,139,187437,1,0,0:0:0:0:
320,48,187770,2,0,L|324:40,1,8.75
381,139,188270,5,0,0:0:0:0:
275,139,188437,2,0,L|265:139,1,8.75
320,48,188937,5,0,0:0:0:0:
267,139,189103,1,0,0:0:0:0:
381,139,189437,1,0,0:0:0:0:
354,239,189770,1,0,0:0:0:0:
381,339,190103,1,0,0:0:0:0:
455,266,190437,1,0,0:0:0:0:
482,366,190770,5,0,0:0:0:0:
509,266,190937,1,0,0:0:0:0:
455,266,191103,1,0,0:0:0:0:
482,166,191270,1,0,0:0:0:0:
428,166,191437,1,0,0:0:0:0:
455,66,191604,1,0,0:0:0:0:
395,66,191770,2,0,B|395:36|403:21|403:21,1,43.75
454,11,192270,6,0,B|457:8|462:10|462:10,1,8.75
341,66,192437,5,0,0:0:0:0:
374,166,192770,1,0,0:0:0:0:
341,266,193103,2,0,B|248:365|202:331|202:331,1,157.500006008148
233,258,193770,2,0,B|324:375|381:335|381:335,1,157.500006008148
414,287,194437,2,0,B|437:243|487:250|487:250,1,78.7500030040742
478,192,194770,2,0,B|399:212|388:175|388:175,1,78.7500030040742
434,136,195103,2,0,B|467:207|430:221|430:221,1,78.7500030040742
372,168,195437,2,0,B|365:98|398:82|398:82,1,78.7500030040742
418,50,195770,2,0,L|423:44,1,8.75
285,41,196270,5,0,0:0:0:0:
386,92,196437,2,0,L|395:96,1,8.75
184,92,196937,5,0,0:0:0:0:
285,41,197104,2,0,L|294:36,1,10.5
278,153,197770,1,0,0:0:0:0:
178,203,198103,1,0,0:0:0:0:
84,141,198437,2,0,L|76:135,1,8.75
84,265,198937,5,0,0:0:0:0:
178,203,199104,2,0,L|185:197,1,8.75
178,327,199603,5,0,0:0:0:0:
84,265,199770,1,0,0:0:0:0:
78,378,200103,1,0,0:0:0:0:
178,327,200437,1,0,0:0:0:0:
278,378,200770,1,0,0:0:0:0:
378,327,201103,2,0,B|463:208|408:187|408:187,1,157.500006008148
344,233,201770,2,0,B|332:154|251:109|316:89|316:89,1,157.500006008148
334,109,202353,1,0,0:0:0:0:
355,131,202437,2,0,B|227:188|200:131|200:131,1,157.500006008148
164,71,203103,2,0,B|104:164|155:177|155:177,1,105.000004005432
292,215,203770,6,0,B|289:211|321:358|207:413|96:437|61:304|61:304,1,367.500014019013
130,294,205103,2,0,B|144:338|195:329|222:279|222:279,1,105
242,233,205770,2,0,B|194:223|191:239|191:239,1,52.5
213,291,206437,1,0,0:0:0:0:
