osu file format v14

[General]
AudioFilename: audio.mp3
AudioLeadIn: 0
PreviewTime: 80127
Countdown: 0
SampleSet: Soft
StackLeniency: 0.7
Mode: 2
LetterboxInBreaks: 0
WidescreenStoryboard: 0

[Editor]
Bookmarks: 35232,80818,112997,146517,192103,235008,253779,257131
DistanceSpacing: 1
BeatDivisor: 8
GridSize: 8
TimelineZoom: 2

[Metadata]
Title:Rainbow after snow
TitleUnicode:Rainbow after snow
Artist:Nekomata Master feat. Hayashi Momoko
ArtistUnicode:猫叉Master feat. 林ももこ
Creator:wonjae
Version:Collab Rain-bow
Source:beatmania IIDX 20 tricoro
Tags:electronic jpop j-pop video rhythm game japanese -[ Asuna ]- Nakano Ichika Crevice Naoyuki Sato dnb drum n bass jubeat saucer Collab
BeatmapID:3047014
BeatmapSetID:1485971

[Difficulty]
HPDrainRate:5
CircleSize:3.8
OverallDifficulty:9.1
ApproachRate:9.1
SliderMultiplier:1.85
SliderTickRate:2

[Events]
//Background and Video events
0,0,"noki.jpg",0,0
//Break Periods
//Storyboard Layer 0 (Background)
//Storyboard Layer 1 (Fail)
//Storyboard Layer 2 (Pass)
//Storyboard Layer 3 (Foreground)
//Storyboard Layer 4 (Overlay)
//Storyboard Sound Samples

[TimingPoints]
351,335.195530726257,4,2,1,60,1,0
40406,-100,4,2,0,60,0,0
40574,-100,4,2,1,60,0,0
43256,-100,4,2,0,60,0,0
43591,-100,4,2,1,60,0,0
43758,-100,4,2,0,60,0,0
44094,-100,4,2,1,60,0,0
44345,-100,4,2,0,60,0,0
44596,-100,4,2,1,60,0,0
44932,-100,4,2,0,20,0,0
45937,-100,4,2,1,60,0,0
55993,-100,4,2,0,60,0,0
56077,-100,4,2,1,60,0,0
56412,-100,4,2,0,40,0,0
56663,-100,4,2,1,60,0,0
57334,-100,4,2,1,40,0,0
64373,-100,4,2,2,40,0,0
64540,-100,4,2,1,40,0,0
65714,-100,4,2,2,40,0,0
66719,-100,4,2,1,40,0,0
76775,-100,4,2,1,60,0,0
80714,-100,4,2,1,5,0,0
80797,-100,4,2,1,70,0,1
88591,-100,4,2,2,70,0,1
89177,-100,4,2,1,70,0,1
89345,-100,4,2,2,70,0,1
89680,-100,4,2,1,70,0,1
90015,-100,4,2,2,70,0,1
90518,-100,4,2,1,70,0,1
96635,-100,4,2,2,70,0,1
96887,-100,4,2,1,70,0,1
102250,-100,4,2,1,70,0,1
112976,-100,4,2,1,50,0,0
113311,-100,4,2,2,50,0,0
113647,-100,4,2,1,50,0,0
116999,-100,4,2,2,50,0,0
117334,-100,4,2,1,50,0,0
123367,-100,4,2,2,50,0,0
123535,-100,4,2,1,50,0,0
133088,-100,4,3,1,60,0,0
143814,-100,4,3,1,70,0,0
144317,-100,4,3,1,40,0,0
144568,-100,4,3,1,20,0,0
146496,-100,4,2,1,60,0,0
155630,-100,4,2,0,60,0,0
155881,-100,4,2,1,60,0,0
156216,-100,4,2,0,20,0,0
157222,-100,4,2,1,60,0,0
162418,-100,4,2,0,60,0,0
162585,-100,4,2,1,60,0,0
165099,-100,4,2,0,60,0,0
165267,-100,4,2,1,60,0,0
165434,-100,4,2,0,60,0,0
165602,-100,4,2,1,60,0,0
165769,-100,4,2,0,60,0,0
166105,-100,4,2,1,60,0,0
166188,-100,4,2,0,60,0,0
166272,-100,4,2,1,60,0,0
166440,-100,4,2,0,60,0,0
166524,-100,4,2,1,60,0,0
168619,-100,4,2,1,40,0,0
168954,-100,4,2,2,40,0,0
169289,-100,4,2,1,40,0,0
170295,-100,4,2,0,40,0,0
170462,-100,4,2,1,40,0,0
172976,-100,4,2,2,40,0,0
173144,-100,4,2,1,40,0,0
174317,-100,4,2,2,40,0,0
174485,-100,4,2,1,40,0,0
175658,-100,4,2,2,40,0,0
175825,-100,4,2,1,40,0,0
176999,-100,4,2,2,40,0,0
177669,-100,4,2,1,40,0,0
179345,-100,4,2,0,40,0,0
179429,-100,4,2,1,40,0,0
181021,-100,4,2,0,40,0,0
181105,-100,4,2,1,40,0,0
182026,-100,4,2,0,40,0,0
182110,-100,4,2,1,40,0,0
183367,-100,4,2,0,40,0,0
183451,-100,4,2,1,40,0,0
191077,-100,4,2,3,80,0,0
191412,-100,4,2,1,40,0,0
192082,-100,4,2,1,70,0,1
202138,-100,4,2,2,70,0,1
202306,-100,4,2,1,70,0,1
202390,-100,4,2,2,70,0,1
202473,-100,4,2,1,70,0,1
206580,-100,4,2,0,70,0,1
206831,-100,4,2,1,70,0,1
211021,-100,4,2,2,70,0,1
211188,-100,4,2,1,70,0,1
211524,-100,4,2,2,70,0,1
211691,-100,4,2,1,70,0,1
211943,-100,4,2,2,70,0,1
212194,-100,4,2,1,70,0,1
216049,-100,4,2,2,70,0,1
216216,-100,4,2,1,70,0,1
218228,-100,4,2,2,70,0,0
218311,-100,4,2,1,70,0,1
224261,-100,4,2,0,50,0,0
234987,-100,4,2,0,40,0,0
238004,-100,4,2,2,40,0,0
238339,-100,4,2,0,40,0,0
241691,-100,4,2,2,40,0,0
241859,-100,4,2,0,40,0,0
243032,-100,4,2,2,40,0,0
246049,-100,4,2,0,30,0,0
251412,-100,4,2,0,25,0,0
253758,-100,4,2,0,20,0,0
255099,-100,4,2,0,10,0,0

[Colours]
Combo1 : 168,81,255
Combo2 : 255,128,128
Combo3 : 255,255,128
Combo4 : 128,255,128
Combo5 : 64,159,255
Combo6 : 255,128,64

[HitObjects]
241,284,351,5,2,0:0:0:0:
332,224,518,1,0,0:0:0:0:
361,158,686,1,0,0:0:0:0:
332,224,853,1,0,0:0:0:0:
241,284,1021,2,0,L|140:284,1,92.5,2|0,1:0|0:0,0:0:0:0:
224,238,1356,2,0,L|333:235,1,92.5,2|0,1:0|0:0,0:0:0:0:
241,197,1691,5,2,0:0:0:0:
206,127,1859,1,0,0:0:0:0:
246,57,2026,1,0,0:0:0:0:
325,42,2194,1,0,0:0:0:0:
403,40,2362,2,0,L|303:44,1,92.5,2|0,1:0|0:0,0:0:0:0:
226,84,2697,2,0,L|320:90,1,92.5,2|0,1:0|0:0,0:0:0:0:
233,89,3032,5,2,0:0:0:0:
189,153,3200,1,0,0:0:0:0:
214,218,3367,1,0,0:0:0:0:
295,245,3535,1,0,0:0:0:0:
214,218,3702,2,0,L|211:119,1,92.5,0|0,0:0|0:0,0:0:0:0:
290,61,4038,2,0,L|169:67,1,92.5,0|0,0:0|0:0,0:0:0:0:
285,69,4373,5,2,0:0:0:0:
360,95,4540,1,0,0:0:0:0:
390,169,4708,1,0,0:0:0:0:
372,233,4876,1,0,0:0:0:0:
293,273,5043,2,0,L|176:278,1,92.5
125,313,5378,2,0,L|226:320,1,92.5,0|0,0:0|0:0,0:0:0:0:
308,254,5714,5,2,0:0:0:0:
325,170,5881,1,0,0:0:0:0:
281,106,6049,1,0,0:0:0:0:
197,81,6216,1,0,0:0:0:0:
286,61,6384,2,0,L|381:63,1,92.5,2|0,1:0|0:0,0:0:0:0:
275,38,6719,2,0,L|161:40,1,92.5,2|0,1:0|0:0,0:0:0:0:
263,82,7054,5,2,0:0:0:0:
305,172,7222,1,0,0:0:0:0:
270,254,7390,1,0,0:0:0:0:
190,282,7557,1,0,0:0:0:0:
108,305,7725,2,0,L|215:313,1,92.5,2|0,1:0|0:0,0:0:0:0:
299,325,8060,2,0,L|188:335,1,92.5,2|0,1:0|0:0,0:0:0:0:
123,300,8395,5,2,0:0:0:0:
83,202,8563,1,0,0:0:0:0:
119,114,8730,1,0,0:0:0:0:
208,95,8898,1,0,0:0:0:0:
300,90,9066,2,0,L|305:188,1,92.5,0|0,0:0|0:0,0:0:0:0:
212,177,9401,2,0,L|194:269,1,92.5,0|0,0:0|0:0,0:0:0:0:
356,301,9736,6,0,L|472:311,1,92.5,2|0,1:0|0:0,0:0:0:0:
291,312,10071,2,0,L|191:319,1,92.5,2|0,1:0|0:0,0:0:0:0:
342,298,10406,1,2,0:0:0:0:
249,293,10574,1,0,0:0:0:0:
196,273,10658,1,0,0:0:0:0:
183,233,10742,1,0,0:0:0:0:
195,183,10825,1,0,0:0:0:0:
242,166,10909,1,0,0:0:0:0:
301,166,10993,1,0,0:0:0:0:
122,149,11077,6,0,L|10:145,1,92.5,2|0,1:0|0:0,0:0:0:0:
96,106,11412,2,0,L|199:111,1,92.5
338,113,11747,2,0,L|337:217,1,92.5,2|0,1:0|0:0,0:0:0:0:
244,216,12082,2,0,L|237:318,1,92.5,0|0,0:0|0:0,0:0:0:0:
404,326,12418,5,2,0:0:0:0:
438,229,12585,1,0,0:0:0:0:
408,133,12753,1,0,0:0:0:0:
322,91,12920,1,0,0:0:0:0:
163,71,13088,2,0,L|269:71,1,92.5,2|0,1:0|0:0,0:0:0:0:
173,122,13423,2,0,L|47:123,1,92.5,2|0,1:0|0:0,0:0:0:0:
221,295,13758,5,2,0:0:0:0:
320,251,13926,1,0,0:0:0:0:
344,200,14094,1,0,0:0:0:0:
320,251,14261,1,0,0:0:0:0:
221,295,14429,2,0,L|109:297,1,92.5,2|0,1:0|0:0,0:0:0:0:
204,317,14764,2,0,L|318:318,1,92.5,2|0,1:0|0:0,0:0:0:0:
465,231,15099,6,0,L|346:226,1,92.5,2|0,0:0|0:0,0:0:0:0:
436,174,15434,2,0,L|336:174,1,92.5,0|0,0:0|0:0,0:0:0:0:
180,149,15769,2,0,L|176:51,1,92.5,2|0,1:0|0:0,0:0:0:0:
264,141,16105,2,0,L|269:48,1,92.5,2|0,1:0|0:0,0:0:0:0:
105,72,16440,5,2,0:0:0:0:
37,130,16607,1,0,0:0:0:0:
24,199,16775,1,0,0:0:0:0:
54,258,16943,1,0,0:0:0:0:
141,278,17110,2,0,L|236:279,1,92.5,2|0,1:0|0:0,0:0:0:0:
168,326,17445,2,0,L|55:335,1,92.5,2|0,1:0|0:0,0:0:0:0:
241,229,17781,5,2,0:0:0:0:
334,216,17948,1,0,0:0:0:0:
401,160,18116,1,0,0:0:0:0:
423,74,18283,1,0,0:0:0:0:
262,215,18451,2,0,L|153:231,1,92.5,2|0,1:0|0:0,0:0:0:0:
249,263,18786,2,0,L|367:268,1,92.5,2|0,1:0|0:0,0:0:0:0:
164,296,19121,5,2,0:0:0:0:
142,208,19289,1,0,0:0:0:0:
172,128,19457,1,0,0:0:0:0:
258,79,19624,1,0,0:0:0:0:
414,106,19792,2,0,L|317:114,1,92.5,2|0,1:0|0:0,0:0:0:0:
407,167,20127,2,0,L|511:176,1,92.5,2|0,1:0|0:0,0:0:0:0:
260,298,20462,5,2,0:0:0:0:
213,281,20546,1,0,0:0:0:0:
198,233,20630,1,0,0:0:0:0:
213,181,20714,1,0,0:0:0:0:
262,164,20797,1,2,0:0:0:0:
315,142,20881,1,0,0:0:0:0:
340,88,20965,1,0,0:0:0:0:
315,142,21049,1,0,0:0:0:0:
262,164,21133,2,0,L|147:161,1,92.5,2|0,0:0|0:0,0:0:0:0:
330,241,21468,2,0,L|427:241,1,92.5,2|0,0:0|0:0,0:0:0:0:
109,280,21803,6,0,L|102:161,1,92.5,6|0,0:0|0:0,0:0:0:0:
190,146,22138,2,0,L|195:36,1,92.5,0|0,0:0|0:0,0:0:0:0:
300,113,22473,2,0,L|293:8,1,92.5,0|0,0:0|0:0,0:0:0:0:
394,84,22809,2,0,L|407:201,1,92.5,0|0,0:0|0:0,0:0:0:0:
250,234,23144,6,0,L|157:247,1,92.5,2|0,0:0|0:0,0:0:0:0:
315,291,23479,2,0,L|423:301,1,92.5,2|0,0:0|0:0,0:0:0:0:
251,229,23814,2,0,P|183:182|249:123,1,185,0|0,0:0|0:0,0:0:0:0:
321,116,24317,1,0,0:0:0:0:
168,175,24485,6,0,L|144:286,1,92.5,2|0,0:0|0:0,0:0:0:0:
302,226,24820,2,0,L|324:359,1,92.5,2|0,0:0|0:0,0:0:0:0:
161,173,25155,2,0,L|54:173,1,92.5,0|0,0:0|0:0,0:0:0:0:
315,111,25490,2,0,L|437:104,1,92.5,0|0,0:0|0:0,0:0:0:0:
156,200,25825,6,0,L|33:209,2,92.5,2|2|2,0:0|0:0|0:0,0:0:0:0:
242,193,26328,1,0,0:0:0:0:
395,206,26496,2,0,L|284:214,1,92.5,0|0,0:0|0:0,0:0:0:0:
148,286,26831,2,0,L|248:284,1,92.5,0|0,0:0|0:0,0:0:0:0:
496,55,27166,6,0,L|303:53,1,185,2|0,0:0|0:0,0:0:0:0:
224,51,27669,1,0,0:0:0:0:
453,142,27837,2,0,L|349:143,1,92.5,0|0,0:0|0:0,0:0:0:0:
114,161,28172,2,0,L|217:168,1,92.5,0|0,0:0|0:0,0:0:0:0:
469,150,28507,6,0,L|269:158,1,185,2|2,0:0|0:0,0:0:0:0:
44,265,29177,2,0,P|22:193|125:114,1,185,0|0,0:0|0:0,0:0:0:0:
169,107,29680,1,0,0:0:0:0:
310,51,29848,6,0,L|177:49,1,92.5,2|0,0:0|0:0,0:0:0:0:
362,167,30183,2,0,L|480:167,1,92.5,2|0,0:0|0:0,0:0:0:0:
309,192,30518,2,0,L|312:314,1,92.5,0|0,0:0|0:0,0:0:0:0:
160,200,30853,2,0,L|160:90,1,92.5,0|0,0:0|0:0,0:0:0:0:
428,95,31188,6,0,L|309:91,2,92.5,2|2|2,0:0|0:0|0:0,0:0:0:0:
165,154,31859,1,0,0:0:0:0:
82,160,32026,1,0,0:0:0:0:
82,160,32194,1,0,0:0:0:0:
165,154,32362,1,0,0:0:0:0:
438,246,32529,6,0,L|251:243,1,185,4|0,0:0|0:0,0:0:0:0:
253,243,33032,1,0,0:0:0:0:
89,253,33200,2,0,L|86:150,1,92.5,2|0,0:0|0:0,0:0:0:0:
242,124,33535,2,0,L|141:122,1,92.5,2|0,0:0|0:0,0:0:0:0:
313,69,33870,5,2,0:0:0:0:
151,66,34038,1,2,0:0:0:0:
313,69,34205,1,8,0:0:0:0:
476,62,34540,2,0,L|474:265,1,185,0|0,0:0|0:0,0:0:0:0:
57,272,35211,5,4,0:1:0:0:
13,190,35378,1,0,0:0:0:0:
38,100,35546,1,8,0:0:0:0:
123,65,35714,1,2,0:0:0:0:
283,133,35881,2,0,L|263:224,1,92.5,0|2,0:0|0:0,0:0:0:0:
103,293,36216,2,0,L|123:202,1,92.5,8|0,0:0|0:0,0:0:0:0:
355,283,36552,5,2,0:0:0:0:
434,236,36719,1,0,0:0:0:0:
454,145,36887,1,8,0:0:0:0:
402,68,37054,1,0,0:0:0:0:
244,55,37222,2,0,L|227:148,1,92.5,0|2,0:0|0:0,0:0:0:0:
386,316,37557,2,0,L|403:223,1,92.5,8|8,0:0|0:0,0:0:0:0:
167,244,37892,6,0,P|115:250|72:236,2,92.5,2|0|8,0:0|0:0|0:0,0:0:0:0:
255,217,38395,1,0,0:0:0:0:
410,162,38563,2,0,L|327:123,1,92.5,0|2,0:0|0:0,0:0:0:0:
171,92,38898,2,0,L|254:53,1,92.5,8|0,0:0|0:0,0:0:0:0:
488,79,39233,6,0,L|464:170,1,92.5,2|0,0:0|0:0,0:0:0:0:
310,254,39568,2,0,L|212:238,1,92.5,8|0,0:0|0:0,0:0:0:0:
334,197,39904,2,0,L|236:181,1,92.5,0|2,0:0|0:0,0:0:0:0:
400,325,40239,2,0,L|408:230,1,92.5,8|2,0:0|0:0,0:0:0:0:
177,17,40574,5,4,0:1:0:0:
92,55,40742,1,0,0:0:0:0:
55,139,40909,1,8,0:0:0:0:
92,223,41077,1,2,0:0:0:0:
248,278,41244,2,0,L|340:246,1,92.5,0|2,0:0|0:0,0:0:0:0:
178,185,41580,2,0,L|86:153,1,92.5,8|0,0:0|0:0,0:0:0:0:
90,154,41831,1,0,0:0:0:0:
323,49,41915,6,0,L|426:39,2,92.5,2|0|8,0:0|0:0|0:0,0:0:0:0:
232,67,42418,1,0,0:0:0:0:
391,111,42585,1,2,0:0:0:0:
464,167,42753,1,6,0:0:0:0:
479,257,42920,1,8,0:0:0:0:
437,339,43088,1,2,0:0:0:0:
179,338,43256,5,6,0:0:0:0:
100,289,43423,1,2,0:0:0:0:
81,198,43591,1,8,0:0:0:0:
135,123,43758,1,2,0:0:0:0:
225,101,43926,1,2,0:0:0:0:
310,137,44094,2,0,L|283:228,1,92.5,2|8,0:0|0:0,0:0:0:0:
190,225,44429,1,2,0:0:0:0:
424,289,44596,6,0,L|472:285,1,46.25,10|8,0:0|0:0,0:0:0:0:
468,238,44764,2,0,L|421:242,1,46.25,8|0,0:0|0:0,0:0:0:0:
211,166,44932,1,6,0:0:0:0:
447,42,45267,2,0,L|450:239,1,185,2|2,0:0|0:0,0:0:0:0:
34,108,45937,6,0,L|27:200,1,92.5,4|0,0:0|0:0,0:0:0:0:
117,219,46272,2,0,L|124:311,1,92.5,8|0,0:0|0:0,0:0:0:0:
281,203,46607,2,0,L|274:111,1,92.5,0|2,0:0|0:0,0:0:0:0:
116,341,46943,2,0,L|202:295,1,92.5,8|0,0:0|0:0,0:0:0:0:
433,259,47278,5,2,0:0:0:0:
350,219,47445,1,0,0:0:0:0:
313,134,47613,1,8,0:0:0:0:
348,47,47781,1,0,0:0:0:0:
504,118,47948,2,0,L|411:107,1,92.5,0|2,0:0|0:0,0:0:0:0:
255,180,48283,2,0,L|160:168,1,92.5,8|0,0:0|0:0,0:0:0:0:
397,329,48619,5,2,0:0:0:0:
467,268,48786,1,0,0:0:0:0:
459,175,48954,1,8,0:0:0:0:
380,128,49121,1,0,0:0:0:0:
224,123,49289,2,0,L|238:217,1,92.5,0|2,0:0|0:0,0:0:0:0:
393,291,49624,2,0,L|379:197,1,92.5,8|0,0:0|0:0,0:0:0:0:
146,287,49959,6,0,L|51:291,1,92.5,2|0,0:0|0:0,0:0:0:0:
211,254,50295,1,8,0:0:0:0:
270,183,50462,1,8,0:0:0:0:
233,97,50630,1,0,0:0:0:0:
144,71,50797,1,2,0:0:0:0:
298,55,50965,2,0,L|396:45,1,92.5,8|0,0:0|0:0,0:0:0:0:
158,194,51300,6,0,L|50:187,2,92.5,2|0|8,0:0|0:0|0:0,0:0:0:0:
250,138,51803,1,0,0:0:0:0:
20,23,51971,2,0,L|35:117,1,92.5,0|2,0:0|0:0,0:0:0:0:
200,320,52306,1,8,0:0:0:0:
103,287,52473,1,0,0:0:0:0:
339,157,52641,6,0,L|354:63,1,92.5,2|0,0:0|0:0,0:0:0:0:
198,74,52976,1,8,0:0:0:0:
347,176,53144,1,8,0:0:0:0:
200,240,53311,1,0,0:0:0:0:
347,319,53479,1,2,0:0:0:0:
112,326,53647,2,0,L|120:231,1,92.5,8|0,0:0|0:0,0:0:0:0:
353,65,53982,5,2,0:0:0:0:
267,100,54149,1,0,0:0:0:0:
228,184,54317,1,8,0:0:0:0:
250,274,54485,1,0,0:0:0:0:
319,334,54652,1,0,0:0:0:0:
410,345,54820,1,2,0:0:0:0:
495,310,54987,2,0,L|471:221,1,92.5,8|0,0:0|0:0,0:0:0:0:
237,214,55323,6,0,L|244:118,1,92.5,6|0,0:0|0:0,0:0:0:0:
336,120,55658,1,12,0:0:0:0:
59,83,55825,2,0,L|53:175,1,92.5,12|2,0:0|0:0,0:0:0:0:
289,289,56161,1,2,0:0:0:0:
57,36,56328,2,0,L|51:128,1,92.5,12|2,0:0|0:0,0:0:0:0:
282,53,56663,6,0,P|374:174|221:180,1,370,4|8,0:0|0:0,0:0:0:0:
37,288,57669,1,0,0:0:0:0:
311,306,58004,6,0,L|496:319,2,185,2|2|8,0:0|0:0|0:0,0:0:0:0:
122,298,59010,1,0,0:0:0:0:
432,213,59345,6,0,P|473:136|427:60,1,185,2|0,0:0|0:0,0:0:0:0:
150,70,60015,2,0,L|248:95,1,92.5,8|0,0:0|0:0,0:0:0:0:
333,285,60351,2,0,L|235:260,1,92.5,0|0,0:0|0:0,0:0:0:0:
12,284,60686,6,0,L|103:302,1,92.5,0|0,0:0|0:0,0:0:0:0:
256,186,61021,2,0,L|347:204,1,92.5,2|0,0:0|0:0,0:0:0:0:
114,244,61356,2,0,L|92:150,1,92.5,8|0,0:0|0:0,0:0:0:0:
83,108,61607,1,0,0:0:0:0:
291,109,61691,2,0,L|384:113,1,92.5,8|8,0:0|0:0,0:0:0:0:
151,245,62026,6,0,L|128:339,1,92.5,2|0,0:0|0:0,0:0:0:0:
287,320,62362,2,0,L|310:226,1,92.5,0|0,0:0|0:0,0:0:0:0:
75,137,62697,2,0,L|169:149,1,92.5,8|0,0:0|0:0,0:0:0:0:
267,80,63032,2,0,L|174:67,1,92.5,0|0,0:0|0:0,0:0:0:0:
410,172,63367,6,0,L|416:266,1,92.5,2|0,0:0|0:0,0:0:0:0:
259,347,63702,2,0,L|265:253,1,92.5,2|0,0:0|0:0,0:0:0:0:
496,99,64038,2,0,L|402:111,1,92.5,8|0,0:0|0:0,0:0:0:0:
304,43,64373,2,0,L|397:30,1,92.5,2|0,0:0|0:0,0:0:0:0:
161,135,64708,6,0,L|155:229,1,92.5,2|0,0:0|0:0,0:0:0:0:
312,310,65043,2,0,L|306:216,1,92.5,0|0,0:0|0:0,0:0:0:0:
73,316,65378,2,0,L|85:221,1,92.5,8|0,0:0|0:0,0:0:0:0:
240,193,65714,1,2,0:0:0:0:
95,104,65881,1,0,0:0:0:0:
370,89,66049,5,4,0:0:0:0:
409,112,66133,1,0,0:0:0:0:
425,154,66216,1,0,0:0:0:0:
416,199,66300,1,0,0:0:0:0:
332,274,66384,1,0,0:0:0:0:
285,265,66468,1,0,0:0:0:0:
236,251,66552,2,0,L|186:240,1,46.25
428,330,66719,5,8,0:0:0:0:
466,298,66803,1,0,0:0:0:0:
467,247,66887,1,0,0:0:0:0:
424,215,66971,1,0,0:0:0:0:
240,184,67054,5,2,0:0:0:0:
198,150,67138,1,0,0:0:0:0:
195,104,67222,1,0,0:0:0:0:
232,66,67306,1,0,0:0:0:0:
441,61,67390,5,4,0:1:0:0:
256,57,67725,1,0,0:0:0:0:
71,58,68060,1,0,0:0:0:0:
256,57,68395,1,0,0:0:0:0:
496,180,68730,5,2,0:0:0:0:
310,180,69066,1,0,0:0:0:0:
125,180,69401,1,0,0:0:0:0:
310,180,69736,1,0,0:0:0:0:
70,288,70071,5,2,0:0:0:0:
254,286,70406,1,0,0:0:0:0:
439,290,70742,2,0,L|444:197,1,92.5,0|0,0:0|0:0,0:0:0:0:
354,172,71077,2,0,L|349:265,1,92.5,0|0,0:0|0:0,0:0:0:0:
116,60,71412,6,0,L|111:153,1,92.5,2|0,0:0|0:0,0:0:0:0:
201,178,71747,2,0,L|206:85,1,92.5,0|0,0:0|0:0,0:0:0:0:
365,316,72082,2,0,L|273:323,1,92.5,0|0,0:0|0:0,0:0:0:0:
117,241,72418,2,0,L|209:234,1,92.5,0|0,0:0|0:0,0:0:0:0:
442,224,72753,6,0,L|450:129,1,92.5,2|0,0:0|0:0,0:0:0:0:
360,96,73088,2,0,L|265:85,1,92.5,0|0,0:0|0:0,0:0:0:0:
36,173,73423,6,0,L|28:268,1,92.5,2|0,0:0|0:0,0:0:0:0:
118,301,73758,2,0,L|213:312,1,92.5,0|0,0:0|0:0,0:0:0:0:
442,229,74094,2,0,L|341:216,1,92.5,2|0,0:0|0:0,0:0:0:0:
258,142,74429,2,0,L|353:133,1,92.5,0|0,0:0|0:0,0:0:0:0:
115,224,74764,2,0,L|216:237,1,92.5,2|0,0:0|0:0,0:0:0:0:
299,311,75099,2,0,L|204:320,1,92.5,0|0,0:0|0:0,0:0:0:0:
485,245,75434,6,0,L|491:147,1,92.5,2|0,0:0|0:0,0:0:0:0:
390,39,75769,2,0,L|395:131,1,92.5,2|0,0:0|0:0,0:0:0:0:
293,38,76105,6,0,L|287:130,1,92.5,2|0,0:0|0:0,0:0:0:0:
188,244,76440,2,0,L|271:204,1,92.5,2|0,0:0|0:0,0:0:0:0:
16,129,76775,6,0,L|10:227,1,92.5,2|0,0:0|0:0,0:0:0:0:
156,209,77110,2,0,L|150:307,1,92.5,2|0,0:0|0:0,0:0:0:0:
300,112,77445,2,0,L|306:210,1,92.5,2|0,0:0|0:0,0:0:0:0:
449,196,77781,2,0,L|455:294,1,92.5,2|0,0:0|0:0,0:0:0:0:
182,311,78116,5,2,0:0:0:0:
80,299,78283,1,0,0:0:0:0:
34,204,78451,1,2,0:0:0:0:
91,131,78619,1,0,0:0:0:0:
245,134,78786,1,2,0:0:0:0:
359,176,78954,1,2,0:0:0:0:
245,224,79121,1,2,0:0:0:0:
129,287,79289,1,2,0:0:0:0:
362,291,79457,5,2,0:0:0:0:
129,287,79624,1,2,0:0:0:0:
406,214,79792,1,8,0:0:0:0:
129,287,80127,6,0,L|123:190,1,92.5
208,158,80462,1,0,0:0:0:0:
111,118,80630,1,0,0:0:0:0:
362,213,80797,6,0,L|479:209,1,92.5,6|0,1:0|0:0,0:0:0:0:
185,288,81133,2,0,L|83:291,1,92.5,8|0,1:2|0:0,0:0:0:0:
242,186,81468,2,0,L|234:81,1,92.5,2|2,0:1|0:0,0:0:0:0:
93,68,81803,2,0,L|206:65,1,92.5,8|2,1:2|0:1,0:0:0:0:
469,264,82138,6,0,L|263:275,1,185,0|8,1:2|1:2,0:0:0:0:
284,273,82641,1,0,0:0:0:0:
436,224,82809,2,0,L|441:105,1,92.5,2|2,0:1|0:0,0:0:0:0:
285,99,83144,2,0,L|389:93,1,92.5,8|2,1:2|0:1,0:0:0:0:
136,79,83479,6,0,P|76:90|150:148,1,185,2|8,1:2|1:2,0:0:0:0:
217,159,83982,1,0,0:0:0:0:
466,234,84149,2,0,L|265:229,1,185,2|8,0:1|1:2,0:0:0:0:
194,226,84652,1,2,0:1:0:0:
439,323,84820,6,0,L|491:330,2,46.25,2|0|2,1:2|0:0|0:1,0:0:0:0:
314,288,85155,1,8,1:2:0:0:
261,257,85239,1,2,0:1:0:0:
251,206,85323,1,0,1:0:0:0:
282,153,85406,1,0,0:0:0:0:
460,165,85490,1,2,1:0:0:0:
482,119,85574,1,0,0:0:0:0:
461,59,85658,1,2,0:2:0:0:
407,41,85742,1,0,1:0:0:0:
250,79,85825,2,0,L|184:79,1,46.25,8|0,1:2|0:0,0:0:0:0:
132,105,85993,2,0,L|131:190,1,46.25,8|0,1:2|0:0,0:0:0:0:
333,228,86161,6,0,L|451:226,1,92.5,6|0,1:0|0:0,0:0:0:0:
79,175,86496,2,0,L|80:67,1,92.5,8|2,1:2|0:1,0:0:0:0:
226,51,86831,2,0,L|126:52,1,92.5,2|2,1:1|0:0,0:0:0:0:
282,119,87166,2,0,L|153:119,1,92.5,8|2,1:2|0:1,0:0:0:0:
146,120,87418,1,0,0:0:0:0:
328,294,87501,6,0,L|519:296,1,185,2|8,1:2|1:2,0:0:0:0:
424,293,88004,1,2,1:1:0:0:
261,229,88172,1,2,1:1:0:0:
144,204,88339,1,2,0:0:0:0:
93,109,88507,1,8,1:2:0:0:
88,36,88675,1,0,0:0:0:0:
355,50,88842,5,4,1:0:0:0:
411,55,88926,1,0,0:0:0:0:
432,95,89010,1,0,0:0:0:0:
420,140,89094,1,0,0:0:0:0:
373,161,89177,1,8,1:2:0:0:
333,181,89261,1,0,0:0:0:0:
319,228,89345,1,2,0:0:0:0:
334,282,89429,1,0,0:0:0:0:
385,300,89513,2,0,L|496:298,1,92.5,4|2,0:0|0:0,0:0:0:0:
347,333,89848,2,0,L|241:340,1,92.5,8|2,1:2|0:0,0:0:0:0:
16,160,90183,6,0,L|215:161,1,185,4|8,1:0|1:2,0:0:0:0:
99,146,90686,1,8,1:2:0:0:
343,121,90853,2,0,P|407:121|468:222,1,185,0|8,1:0|1:2,0:0:0:0:
377,245,91356,1,4,1:2:0:0:
120,300,91524,6,0,L|15:308,1,92.5,4|0,1:0|0:0,0:0:0:0:
331,179,91859,2,0,L|457:171,1,92.5,8|0,1:2|0:0,0:0:0:0:
279,121,92194,2,0,L|384:117,1,92.5,2|0,0:1|0:0,0:0:0:0:
233,65,92529,2,0,L|109:64,1,92.5,8|2,1:2|0:1,0:0:0:0:
377,119,92864,6,0,P|414:237|355:272,1,185,0|8,1:2|1:2,0:0:0:0:
280,270,93367,1,0,0:0:0:0:
128,307,93535,2,0,L|327:299,1,185,2|8,0:1|1:2,0:0:0:0:
410,296,94038,1,2,0:1:0:0:
116,189,94205,6,0,L|17:185,1,92.5,2|0,0:0|0:0,0:0:0:0:
168,107,94540,2,0,L|280:102,1,92.5,8|0,1:2|0:0,0:0:0:0:
407,54,94876,2,0,L|314:54,1,92.5,0|2,0:0|0:0,0:0:0:0:
156,118,95211,2,0,L|32:107,1,92.5,8|0,1:2|0:0,0:0:0:0:
334,177,95546,5,2,1:1:0:0:
376,218,95630,1,0,0:0:0:0:
337,254,95714,1,2,0:1:0:0:
168,311,95881,1,8,1:2:0:0:
111,289,95965,1,0,0:0:0:0:
72,234,96049,1,0,0:0:0:0:
82,174,96133,1,0,0:0:0:0:
258,133,96216,1,0,1:2:0:0:
343,143,96300,1,0,0:0:0:0:
384,205,96384,1,2,1:1:0:0:
384,290,96468,1,0,0:0:0:0:
192,281,96552,2,0,L|122:284,1,46.25,8|2,1:2|0:0,0:0:0:0:
78,304,96719,2,0,L|75:361,1,46.25,2|2,0:1|0:0,0:0:0:0:
295,171,96887,6,0,L|400:176,1,92.5,4|0,1:0|0:0,0:0:0:0:
91,169,97222,2,0,P|55:123|69:81,1,92.5,8|0,1:2|0:0,0:0:0:0:
152,33,97557,2,0,L|253:30,1,92.5,2|2,0:1|0:0,0:0:0:0:
400,104,97892,2,0,L|395:218,1,92.5,8|2,1:2|0:1,0:0:0:0:
153,160,98228,6,0,P|89:214|162:291,1,185,2|8,0:0|1:2,0:0:0:0:
222,291,98730,1,2,0:0:0:0:
376,276,98898,2,0,L|488:270,2,92.5,2|2|8,0:1|0:1|1:2,0:0:0:0:
287,285,99401,1,2,0:0:0:0:
29,283,99568,5,6,0:1:0:0:
37,234,99652,1,0,0:0:0:0:
63,197,99736,1,0,0:0:0:0:
113,183,99820,1,0,0:0:0:0:
167,176,99904,1,8,1:2:0:0:
159,127,99987,1,0,0:0:0:0:
133,90,100071,1,10,0:1:0:0:
83,76,100155,1,0,0:0:0:0:
21,73,100239,2,0,L|116:66,1,92.5,2|2,0:1|0:0,0:0:0:0:
276,163,100574,2,0,L|146:175,1,92.5,8|2,1:2|0:0,0:0:0:0:
460,161,100909,6,0,L|471:285,1,92.5,2|10,0:0|1:1,0:0:0:0:
169,250,101244,2,0,L|71:264,1,92.5,2|8,0:0|1:2,0:0:0:0:
347,146,101580,2,0,L|446:145,1,92.5,2|2,1:0|1:2,0:0:0:0:
148,156,101915,2,0,L|140:52,1,92.5,8|2,1:2|0:1,0:0:0:0:
407,56,102250,5,4,1:0:0:0:
490,125,102418,1,0,0:0:0:0:
459,224,102585,1,8,1:2:0:0:
362,247,102753,1,0,0:0:0:0:
115,313,102920,2,0,L|227:313,1,92.5,0|2,1:0|0:0,0:0:0:0:
361,262,103256,2,0,L|227:263,1,92.5,8|0,1:2|0:0,0:0:0:0:
42,238,103591,5,0,1:0:0:0:
31,142,103758,1,0,0:0:0:0:
78,66,103926,1,8,1:2:0:0:
180,48,104094,1,2,0:1:0:0:
463,149,104261,2,0,L|458:252,1,92.5,0|2,0:1|0:0,0:0:0:0:
217,245,104596,2,0,L|104:252,1,92.5,8|2,1:2|0:1,0:0:0:0:
445,37,104932,5,2,1:0:0:0:
483,136,105099,1,0,0:0:0:0:
437,234,105267,1,8,1:2:0:0:
338,254,105434,1,0,1:0:0:0:
298,251,105518,1,0,0:0:0:0:
90,246,105602,2,0,L|86:349,1,92.5,0|2,0:0|0:0,0:0:0:0:
367,342,105937,2,0,L|483:332,1,92.5,8|0,1:2|0:0,0:0:0:0:
166,238,106272,5,2,1:0:0:0:
108,222,106356,1,0,0:0:0:0:
96,170,106440,1,0,0:0:0:0:
116,107,106524,1,2,1:0:0:0:
167,97,106607,1,8,1:2:0:0:
220,96,106691,1,0,0:0:0:0:
242,64,106775,1,2,1:0:0:0:
220,96,106859,1,0,0:0:0:0:
27,215,106943,2,0,L|142:216,1,92.5,0|2,0:0|0:2,0:0:0:0:
390,301,107278,2,0,L|514:308,1,92.5,8|8,1:2|1:0,0:0:0:0:
215,261,107613,6,0,L|5:261,1,185,4|8,1:0|1:2,0:0:0:0:
122,235,108116,1,0,1:0:0:0:
387,193,108283,2,0,L|387:57,1,92.5,0|2,0:0|0:0,0:0:0:0:
127,94,108619,2,0,L|25:91,1,92.5,8|0,1:2|0:0,0:0:0:0:
320,196,108954,6,0,L|511:193,1,185,0|8,1:0|1:2,0:0:0:0:
417,198,109457,1,2,0:1:0:0:
125,262,109624,2,0,L|226:268,1,92.5,0|2,0:0|0:0,0:0:0:0:
474,175,109959,2,0,L|487:72,1,92.5,8|2,1:2|1:1,0:0:0:0:
200,184,110295,5,4,1:2:0:0:
141,192,110378,1,0,0:0:0:0:
97,228,110462,1,2,1:1:0:0:
90,283,110546,1,0,0:0:0:0:
97,228,110630,1,8,1:2:0:0:
141,192,110714,1,0,0:0:0:0:
200,184,110797,1,0,0:1:0:0:
257,186,110881,1,0,0:0:0:0:
462,247,110965,2,0,L|461:354,1,92.5,2|2,1:1|0:0,0:0:0:0:
314,342,111300,1,8,1:2:0:0:
460,344,111468,1,8,1:2:0:0:
171,234,111635,6,0,L|37:234,1,92.5,0|2,1:0|0:0,0:0:0:0:
232,169,111971,1,8,1:2:0:0:
81,168,112138,1,8,1:2:0:0:
344,116,112306,2,0,L|448:116,1,92.5,0|2,0:0|0:0,0:0:0:0:
168,169,112641,2,0,L|46:170,1,92.5,8|0,1:2|0:0,0:0:0:0:
377,173,112976,6,0,L|383:267,1,92.5,4|0,1:0|0:0,0:0:0:0:
226,338,113311,2,0,L|220:244,1,92.5,2|0,0:0|0:0,0:0:0:0:
451,175,113647,2,0,P|488:95|429:30,1,185,8|0,1:2|0:0,0:0:0:0:
337,31,114149,1,0,0:0:0:0:
102,99,114317,6,0,L|118:189,1,92.5,2|0,0:0|0:0,0:0:0:0:
275,176,114652,2,0,L|258:85,1,92.5,2|0,0:0|0:0,0:0:0:0:
24,333,114987,2,0,L|11:240,1,92.5,8|0,1:2|0:0,0:0:0:0:
166,230,115323,2,0,L|75:207,1,92.5,0|8,0:0|1:2,0:0:0:0:
311,182,115658,6,0,L|321:88,1,92.5,2|0,0:0|0:0,0:0:0:0:
165,54,115993,2,0,L|155:148,1,92.5,0|0,0:0|0:0,0:0:0:0:
392,159,116328,2,0,P|431:125|378:24,1,185,8|0,1:2|0:0,0:0:0:0:
286,27,116831,1,0,0:0:0:0:
51,89,116999,5,2,0:2:0:0:
16,118,117082,1,0,0:0:0:0:
61,125,117166,1,0,0:0:0:0:
107,129,117250,1,0,0:0:0:0:
61,125,117334,1,2,0:0:0:0:
29,159,117418,1,0,0:0:0:0:
25,204,117501,1,0,0:0:0:0:
59,235,117585,1,0,0:0:0:0:
256,335,117669,5,8,1:2:0:0:
163,335,117837,2,0,L|152:240,1,92.5,2|0,0:0|0:0,0:0:0:0:
244,238,118172,1,0,0:0:0:0:
477,241,118339,6,0,L|485:140,1,92.5,2|0,0:0|0:0,0:0:0:0:
329,182,118675,2,0,L|321:81,1,92.5,0|0,0:0|0:0,0:0:0:0:
44,143,119010,6,0,L|36:244,1,92.5,8|0,1:2|0:0,0:0:0:0:
192,202,119345,2,0,L|200:303,1,92.5,0|0,0:0|0:0,0:0:0:0:
431,69,119680,2,0,L|336:58,1,92.5,2|0,0:0|0:0,0:0:0:0:
104,72,120015,2,0,L|199:61,1,92.5,2|0,0:0|0:0,0:0:0:0:
430,70,120351,2,0,L|436:167,1,92.5,8|0,1:2|0:0,0:0:0:0:
280,172,120686,2,0,L|369:205,1,92.5,0|8,0:0|1:2,0:0:0:0:
88,303,121021,5,2,0:0:0:0:
46,281,121105,1,0,0:0:0:0:
30,237,121188,1,0,0:0:0:0:
40,191,121272,1,0,0:0:0:0:
67,153,121356,1,0,0:0:0:0:
111,140,121440,1,0,0:0:0:0:
157,143,121524,1,0,0:0:0:0:
196,166,121607,1,0,0:0:0:0:
382,288,121691,5,8,1:2:0:0:
273,250,121859,1,2,0:0:0:0:
365,233,122026,2,0,L|375:138,1,92.5,0|0,0:0|0:0,0:0:0:0:
95,51,122362,5,0,0:0:0:0:
62,83,122445,1,0,0:0:0:0:
67,129,122529,1,0,0:0:0:0:
104,156,122613,1,0,0:0:0:0:
291,137,122697,1,2,0:0:0:0:
324,169,122781,1,0,0:0:0:0:
319,215,122864,1,0,0:0:0:0:
282,242,122948,1,0,0:0:0:0:
72,322,123032,5,8,0:0:0:0:
117,315,123116,1,0,0:0:0:0:
307,322,123200,1,0,0:0:0:0:
263,315,123283,1,0,0:0:0:0:
75,270,123367,1,2,0:2:0:0:
31,247,123451,1,0,0:0:0:0:
28,198,123535,1,0,1:2:0:0:
65,152,123619,1,0,0:0:0:0:
307,56,123702,5,4,0:1:0:0:
399,95,123870,1,0,0:0:0:0:
438,178,124038,1,0,0:0:0:0:
422,268,124205,1,0,0:0:0:0:
370,345,124373,2,0,L|274:332,1,92.5,0|0,0:0|0:0,0:0:0:0:
189,241,124708,2,0,L|285:254,1,92.5,0|0,0:0|0:0,0:0:0:0:
125,168,125043,6,0,L|219:144,1,92.5,0|0,0:0|0:0,0:0:0:0:
371,117,125378,2,0,L|277:93,1,92.5,0|0,0:0|0:0,0:0:0:0:
192,122,125714,1,0,0:0:0:0:
147,202,125881,1,0,0:0:0:0:
174,290,126049,1,0,0:0:0:0:
255,333,126216,1,0,0:0:0:0:
418,312,126384,6,0,L|405:216,1,92.5,0|0,0:0|0:0,0:0:0:0:
312,224,126719,1,0,0:0:0:0:
236,170,126887,1,0,0:0:0:0:
209,81,127054,1,0,0:0:0:0:
244,18,127222,1,0,0:0:0:0:
301,90,127390,1,0,0:0:0:0:
386,125,127557,1,0,0:0:0:0:
476,106,127725,6,0,L|467:202,1,92.5,0|0,0:0|0:0,0:0:0:0:
306,204,128060,2,0,L|315:300,1,92.5,0|0,0:0|0:0,0:0:0:0:
407,298,128395,1,0,0:0:0:0:
247,137,128563,2,0,L|238:41,1,92.5,0|0,0:0|0:0,0:0:0:0:
331,43,128898,1,0,0:0:0:0:
95,45,129066,5,0,0:0:0:0:
174,91,129233,1,0,0:0:0:0:
210,176,129401,1,0,0:0:0:0:
184,264,129568,1,0,0:0:0:0:
117,328,129736,2,0,L|212:317,1,92.5,0|0,0:0|0:0,0:0:0:0:
109,293,130071,2,0,L|208:276,1,92.5,0|0,0:0|0:0,0:0:0:0:
357,256,130406,6,0,L|345:163,1,92.5,0|0,0:0|0:0,0:0:0:0:
188,147,130742,2,0,L|200:54,1,92.5,0|0,0:0|0:0,0:0:0:0:
356,72,131077,1,0,0:0:0:0:
406,149,131244,1,0,0:0:0:0:
387,239,131412,1,0,0:0:0:0:
303,276,131580,1,0,0:0:0:0:
72,279,131747,6,0,L|23:282,2,46.25,0|0|0,0:0|0:0|0:0,0:0:0:0:
176,279,132082,1,0,0:0:0:0:
222,279,132166,1,0,0:0:0:0:
268,278,132250,1,0,0:0:0:0:
157,131,132418,2,0,L|127:218,1,92.5
222,338,132753,2,0,L|252:251,1,92.5
406,72,133088,6,0,L|324:115,1,92.5,2|0,0:0|0:0,0:0:0:0:
167,94,133423,2,0,L|248:50,1,92.5,2|0,0:0|0:0,0:0:0:0:
408,188,133758,2,0,L|439:276,1,92.5,2|0,0:0|0:0,0:0:0:0:
439,311,134010,1,2,0:0:0:0:
229,307,134094,1,2,0:0:0:0:
334,306,134261,1,8,0:0:0:0:
91,247,134429,6,0,L|185:243,1,92.5,4|0,0:1|0:0,0:0:0:0:
276,143,134764,2,0,L|370:157,1,92.5,8|0,0:0|0:0,0:0:0:0:
459,102,135099,2,0,L|367:89,1,92.5,0|2,0:0|0:0,0:0:0:0:
320,82,135351,1,0,0:0:0:0:
136,77,135434,2,0,L|142:172,1,92.5,8|0,0:0|0:0,0:0:0:0:
376,328,135769,5,4,0:0:0:0:
456,281,135937,1,0,0:0:0:0:
476,190,136105,1,8,0:0:0:0:
440,104,136272,1,0,0:0:0:0:
340,84,136440,2,0,L|244:97,1,92.5,0|2,0:0|0:0,0:0:0:0:
202,103,136691,1,0,0:0:0:0:
388,141,136775,2,0,L|396:234,1,92.5,8|0,0:0|0:0,0:0:0:0:
161,322,137110,6,0,P|111:328|69:319,2,92.5,4|0|8,0:0|0:0|0:0,0:0:0:0:
253,290,137613,1,0,0:0:0:0:
148,236,137781,2,0,L|154:142,1,92.5,0|2,0:0|0:0,0:0:0:0:
157,97,138032,1,0,0:0:0:0:
344,59,138116,2,0,L|338:153,1,92.5,8|0,0:0|0:0,0:0:0:0:
104,284,138451,6,0,L|198:293,2,92.5,4|0|8,0:0|0:0|0:0,0:0:0:0:
13,229,138954,1,2,0:0:0:0:
167,204,139121,2,0,L|174:106,1,92.5,0|2,0:0|0:0,0:0:0:0:
127,104,139373,1,0,0:0:0:0:
312,61,139457,2,0,L|403:73,1,92.5,8|4,0:0|0:0,0:0:0:0:
170,59,139792,5,4,0:0:0:0:
96,112,139959,1,0,0:0:0:0:
76,202,140127,1,8,0:0:0:0:
104,290,140295,1,0,0:0:0:0:
198,301,140462,2,0,L|291:282,1,92.5,0|2,0:0|0:0,0:0:0:0:
244,267,140714,1,0,0:0:0:0:
60,43,140797,2,0,L|151:54,1,92.5,8|0,0:0|0:0,0:0:0:0:
391,62,141133,5,4,0:0:0:0:
302,108,141300,1,0,0:0:0:0:
391,153,141468,1,8,0:0:0:0:
302,199,141635,1,2,0:0:0:0:
212,269,141803,2,0,L|203:173,1,92.5,0|2,0:0|0:0,0:0:0:0:
249,176,142054,1,0,0:0:0:0:
436,230,142138,2,0,L|445:322,1,92.5,8|0,0:0|0:0,0:0:0:0:
210,338,142473,5,4,0:0:0:0:
124,302,142641,1,0,0:0:0:0:
96,213,142809,1,8,0:0:0:0:
125,125,142976,1,0,0:0:0:0:
221,66,143144,2,0,L|305:113,1,92.5,0|2,0:0|0:0,0:0:0:0:
340,136,143395,1,0,0:0:0:0:
153,197,143479,2,0,L|69:150,1,92.5,8|0,0:0|0:0,0:0:0:0:
306,221,143814,5,4,0:0:0:0:
149,276,143982,1,4,0:0:0:0:
308,306,144149,1,12,0:0:0:0:
468,300,145825,2,0,L|467:96,1,185,0|0,0:0|0:0,0:0:0:0:
68,113,146496,5,4,0:0:0:0:
43,201,146663,1,0,0:0:0:0:
83,304,146831,1,8,0:0:0:0:
186,306,146999,1,0,0:0:0:0:
348,238,147166,2,0,L|220:235,1,92.5,0|2,0:0|0:0,0:0:0:0:
110,180,147501,2,0,L|230:178,1,92.5,8|0,0:0|0:0,0:0:0:0:
468,74,147837,5,2,0:0:0:0:
355,102,148004,1,0,0:0:0:0:
303,184,148172,1,8,0:0:0:0:
295,261,148339,1,0,0:0:0:0:
440,335,148507,2,0,L|444:224,1,92.5,0|2,0:0|0:0,0:0:0:0:
290,206,148842,2,0,L|285:107,1,92.5,8|0,0:0|0:0,0:0:0:0:
39,74,149177,5,2,0:0:0:0:
139,120,149345,1,0,0:0:0:0:
57,187,149513,1,8,0:0:0:0:
30,295,149680,1,0,0:0:0:0:
180,303,149848,2,0,L|279:308,1,92.5,0|2,0:0|0:0,0:0:0:0:
139,252,150183,2,0,L|39:258,1,92.5,8|0,0:0|0:0,0:0:0:0:
361,228,150518,6,0,P|450:200|472:95,1,185,2|8,0:0|0:0,0:0:0:0:
403,82,151021,1,0,0:0:0:0:
266,118,151188,2,0,L|140:115,1,92.5,0|2,0:0|0:0,0:0:0:0:
310,67,151524,1,8,0:0:0:0:
171,58,151691,6,0,L|371:57,1,185,0|0,0:0|0:0,0:0:0:0:
211,124,152194,2,0,L|214:229,1,92.5,8|0,0:0|0:0,0:0:0:0:
481,256,152529,2,0,L|263:258,1,185,0|8,0:0|0:0,0:0:0:0:
213,255,153032,1,0,0:0:0:0:
369,242,153200,6,0,P|435:182|360:95,1,185,2|8,0:0|0:0,0:0:0:0:
312,95,153702,1,0,0:0:0:0:
30,78,153870,1,2,0:0:0:0:
129,113,154038,1,4,0:0:0:0:
166,200,154205,1,8,0:0:0:0:
136,286,154373,1,2,0:0:0:0:
40,305,154540,5,4,0:0:0:0:
136,286,154708,1,0,0:0:0:0:
40,305,154876,1,8,0:0:0:0:
136,286,155043,1,0,0:0:0:0:
40,305,155211,2,0,L|161:317,1,92.5,0|2,0:0|0:0,0:0:0:0:
275,226,155546,2,0,L|167:227,1,92.5,8|2,0:0|0:0,0:0:0:0:
135,227,155797,1,2,0:0:0:0:
348,208,155881,5,10,0:0:0:0:
403,190,155965,1,8,0:0:0:0:
453,177,156049,1,8,0:0:0:0:
328,130,156216,1,6,0:0:0:0:
290,99,156300,1,0,0:0:0:0:
252,69,156384,1,0,0:0:0:0:
99,224,156552,2,0,L|83:32,1,185,0|0,0:0|0:0,0:0:0:0:
499,159,157222,5,4,0:1:0:0:
481,260,157390,1,0,0:0:0:0:
414,335,157557,1,8,0:0:0:0:
317,345,157725,1,2,0:0:0:0:
175,241,157892,2,0,L|294:235,1,92.5,0|2,0:0|0:0,0:0:0:0:
397,176,158228,2,0,L|289:164,1,92.5,8|0,0:0|0:0,0:0:0:0:
61,226,158563,5,2,0:0:0:0:
45,135,158730,1,0,0:0:0:0:
81,55,158898,1,8,0:0:0:0:
174,26,159066,1,0,0:0:0:0:
301,94,159233,2,0,L|420:104,1,92.5,0|2,0:0|0:0,0:0:0:0:
259,154,159568,2,0,L|157:165,1,92.5,8|0,0:0|0:0,0:0:0:0:
454,167,159904,5,2,0:0:0:0:
356,198,160071,1,0,0:0:0:0:
432,236,160239,1,8,0:0:0:0:
464,319,160406,1,2,0:0:0:0:
331,337,160574,2,0,L|235:346,1,92.5,0|2,0:0|0:0,0:0:0:0:
370,282,160909,2,0,L|479:282,1,92.5,8|0,0:0|0:0,0:0:0:0:
207,241,161244,5,2,0:0:0:0:
108,231,161412,1,0,0:0:0:0:
46,143,161580,1,8,0:0:0:0:
35,63,161747,1,0,0:0:0:0:
172,164,161915,2,0,L|274:167,1,92.5,0|2,0:0|0:0,0:0:0:0:
408,209,162250,2,0,L|439:261,2,46.25,8|0|2,0:0|0:0|0:0,0:0:0:0:
350,205,162501,1,0,0:0:0:0:
173,216,162585,6,0,P|121:239|186:327,1,185,6|8,0:0|0:0,0:0:0:0:
266,335,163088,1,0,0:0:0:0:
407,259,163256,2,0,L|196:253,1,185,0|8,0:0|0:0,0:0:0:0:
137,247,163758,1,0,0:0:0:0:
280,199,163926,6,0,P|311:153|217:77,1,185,2|8,0:0|0:0,0:0:0:0:
143,69,164429,1,2,0:0:0:0:
283,168,164596,2,0,L|383:177,1,92.5,0|2,0:0|0:0,0:0:0:0:
225,216,164932,2,0,L|104:231,1,92.5,8|2,0:0|0:2,0:0:0:0:
392,172,165267,6,0,P|435:207|374:307,1,185,2|8,0:0|0:0,0:0:0:0:
300,308,165769,1,2,0:0:0:0:
67,313,165937,2,0,L|52:208,1,92.5,0|2,0:0|0:0,0:0:0:0:
304,152,166272,2,0,L|408:150,1,92.5,8|2,0:0|0:0,0:0:0:0:
157,103,166607,6,0,L|64:105,1,92.5,6|0,0:0|0:0,0:0:0:0:
189,48,166943,1,8,0:0:0:0:
54,49,167110,1,12,0:0:0:0:
308,208,167278,2,0,L|400:210,1,92.5,0|2,0:0|0:0,0:0:0:0:
122,235,167613,2,0,L|1:231,1,92.5,12|0,0:0|0:0,0:0:0:0:
342,107,167948,6,0,P|425:127|458:235,1,185,4|0,0:1|0:0,0:0:0:0:
186,296,168619,2,0,L|378:290,1,185,8|2,0:0|0:0,0:0:0:0:
370,290,169121,1,0,0:0:0:0:
228,237,169289,6,0,L|97:239,1,92.5,2|0,0:0|0:0,0:0:0:0:
269,184,169624,2,0,L|381:182,1,92.5,2|0,0:0|0:0,0:0:0:0:
129,170,169959,2,0,P|64:138|128:87,1,185,8|2,0:0|0:0,0:0:0:0:
212,81,170462,1,8,0:0:0:0:
454,106,170630,6,0,P|468:175|359:237,1,185,2|0,0:0|0:0,0:0:0:0:
151,313,171300,2,0,L|256:323,1,92.5,8|0,0:0|0:0,0:0:0:0:
385,244,171635,2,0,L|274:252,1,92.5,0|0,0:0|0:0,0:0:0:0:
155,207,171971,6,0,P|155:130|266:101,1,185,0|2,0:0|0:0,0:0:0:0:
328,102,172473,1,0,0:0:0:0:
184,198,172641,2,0,L|-6:204,1,185,8|2,0:0|0:0,0:0:0:0:
83,200,173144,1,0,0:0:0:0:
344,209,173311,6,0,L|469:211,1,92.5,2|0,0:0|0:0,0:0:0:0:
293,267,173647,2,0,L|171:270,1,92.5,0|0,0:0|0:0,0:0:0:0:
55,201,173982,2,0,L|261:203,1,185,8|2,0:0|0:0,0:0:0:0:
334,203,174485,1,0,0:0:0:0:
80,161,174652,6,0,L|75:55,1,92.5,2|0,0:0|0:0,0:0:0:0:
221,150,174987,2,0,L|221:54,1,92.5,2|0,0:0|0:0,0:0:0:0:
74,64,175323,2,0,L|288:65,1,185,8|2,0:0|0:0,0:0:0:0:
184,69,175825,1,8,0:0:0:0:
449,112,175993,6,0,L|459:216,1,92.5,2|0,0:0|0:0,0:0:0:0:
314,196,176328,2,0,P|235:229|220:329,1,185,0|8,0:0|0:0,0:0:0:0:
308,319,176831,1,0,0:0:0:0:
448,329,176999,6,0,L|328:330,1,92.5,2|0,0:0|0:0,0:0:0:0:
99,273,177334,2,0,P|41:231|106:155,1,185,4|2,0:0|0:0,0:0:0:0:
244,91,177837,2,0,L|40:84,1,185,0|0,0:0|0:0,0:0:0:0:
190,44,178339,2,0,L|300:42,1,92.5,2|0,0:0|0:0,0:0:0:0:
319,43,178591,1,0,0:0:0:0:
115,176,178675,5,4,0:0:0:0:
243,148,179010,1,0,0:0:0:0:
304,82,179345,1,2,0:0:0:0:
243,148,179680,1,0,0:0:0:0:
117,171,180015,5,0,0:0:0:0:
335,188,180351,1,0,0:0:0:0:
117,171,180686,1,0,0:0:0:0:
413,198,181021,1,2,0:0:0:0:
11,128,181356,5,2,0:0:0:0:
153,156,181691,1,0,0:0:0:0:
414,208,182026,1,2,0:0:0:0:
269,250,182362,1,0,0:0:0:0:
55,300,182697,5,2,0:0:0:0:
312,184,183032,1,0,0:0:0:0:
51,127,183367,1,2,0:0:0:0:
190,79,183702,1,0,0:0:0:0:
463,113,184038,6,0,L|270:127,1,185,2|0,0:0|0:0,0:0:0:0:
279,191,184540,1,0,0:0:0:0:
143,279,184708,2,0,L|263:280,1,92.5,2|0,0:0|0:0,0:0:0:0:
382,302,185043,2,0,L|252:302,1,92.5,0|0,0:0|0:0,0:0:0:0:
43,141,185378,6,0,L|251:143,1,185,2|0,0:0|0:0,0:0:0:0:
227,142,185881,1,0,0:0:0:0:
392,156,186049,1,2,0:0:0:0:
441,232,186216,1,0,0:0:0:0:
395,317,186384,1,0,0:0:0:0:
302,317,186552,1,0,0:0:0:0:
51,311,186719,6,0,L|41:214,1,92.5,2|0,0:0|0:0,0:0:0:0:
187,195,187054,2,0,L|198:84,1,92.5,2|0,0:0|0:0,0:0:0:0:
345,129,187390,2,0,L|333:27,1,92.5,2|0,0:0|0:0,0:0:0:0:
481,104,187725,2,0,L|492:-1,1,92.5,2|0,0:0|0:0,0:0:0:0:
230,140,188060,6,0,L|115:155,1,92.5,2|0,0:0|0:0,0:0:0:0:
284,184,188395,2,0,L|392:202,1,92.5,10|0,0:0|0:0,0:0:0:0:
232,214,188730,2,0,L|122:236,1,92.5,2|0,0:0|0:0,0:0:0:0:
289,255,189066,2,0,L|399:271,1,92.5,10|0,0:0|0:0,0:0:0:0:
25,288,189401,5,2,0:0:0:0:
105,229,189568,1,10,0:0:0:0:
19,197,189736,1,2,0:0:0:0:
102,169,189904,1,2,0:0:0:0:
14,118,190071,1,10,0:0:0:0:
101,102,190239,1,10,0:0:0:0:
249,76,190406,1,2,0:0:0:0:
156,88,190574,1,10,0:0:0:0:
406,174,190742,6,0,L|479:181,1,46.25,2|2,0:0|0:0,0:0:0:0:
400,206,190909,2,0,L|329:220,1,46.25,2|2,0:0|0:0,0:0:0:0:
145,259,191077,1,4,0:1:0:0:
277,194,191412,2,0,L|73:198,1,185,2|0,0:1|0:0,0:0:0:0:
92,197,191915,1,0,0:0:0:0:
369,200,192082,6,0,L|382:106,1,92.5,6|0,1:0|0:0,0:0:0:0:
146,89,192418,2,0,L|236:60,1,92.5,8|0,1:2|3:0,0:0:0:0:
77,48,192753,2,0,L|64:142,1,92.5,2|2,0:1|3:2,0:0:0:0:
219,199,193088,2,0,L|129:170,1,92.5,8|2,1:2|3:1,0:0:0:0:
367,175,193423,6,0,L|373:270,1,92.5,0|0,1:2|3:0,0:0:0:0:
225,262,193758,2,0,L|219:167,1,92.5,8|0,1:2|3:0,0:0:0:0:
361,151,194094,2,0,L|367:56,1,92.5,0|2,1:0|3:1,0:0:0:0:
213,75,194429,2,0,L|122:65,1,92.5,8|2,1:2|3:1,0:0:0:0:
356,272,194764,6,0,L|451:279,2,92.5,4|0|8,1:2|0:0|0:0,0:0:0:0:
246,190,195267,1,0,0:0:0:0:
400,137,195434,2,0,L|365:50,1,92.5,2|2,0:3|3:1,0:0:0:0:
130,72,195769,2,0,L|164:158,1,92.5,8|2,1:2|3:3,0:0:0:0:
399,136,196105,6,0,L|449:136,2,46.25,2|0|0,1:1|3:0|3:0,0:0:0:0:
242,142,196440,1,10,1:1:0:0:
204,169,196524,1,0,0:0:0:0:
196,214,196607,1,10,1:1:0:0:
213,257,196691,1,0,0:0:0:0:
424,293,196775,1,0,3:0:0:0:
462,266,196859,1,0,0:0:0:0:
470,221,196943,1,2,3:2:0:0:
453,178,197026,1,0,0:0:0:0:
243,37,197110,2,0,L|195:47,1,46.25,10|0,1:0|0:0,0:0:0:0:
409,166,197278,2,0,L|458:180,1,46.25,0|0,1:0|1:0,0:0:0:0:
221,316,197445,6,0,L|130:298,1,92.5,4|0,1:2|0:0,0:0:0:0:
287,256,197781,2,0,L|196:238,1,92.5,8|2,1:2|0:1,0:0:0:0:
350,200,198116,2,0,L|362:102,1,92.5,2|2,0:1|0:0,0:0:0:0:
204,125,198451,2,0,L|192:27,1,92.5,8|2,1:2|0:1,0:0:0:0:
427,47,198786,6,0,L|331:35,1,92.5,4|0,0:1|0:0,0:0:0:0:
177,116,199121,2,0,L|277:132,1,92.5,8|2,1:2|3:3,0:0:0:0:
112,179,199457,1,2,0:1:0:0:
345,213,199624,1,2,3:1:0:0:
112,179,199792,2,0,L|122:277,1,92.5,8|0,3:2|1:0,0:0:0:0:
401,291,200127,6,0,L|448:280,1,46.25,4|0,1:2|0:0,0:0:0:0:
451,210,200295,2,0,L|402:221,1,46.25,0|0,0:0|0:0,0:0:0:0:
352,218,200462,2,0,L|305:207,1,46.25,8|0,1:2|0:0,0:0:0:0:
302,137,200630,2,0,L|351:148,1,46.25,2|0,0:1|0:0,0:0:0:0:
401,129,200797,2,0,L|312:105,1,92.5,2|2,0:1|3:2,0:0:0:0:
157,92,201133,2,0,L|246:57,1,92.5,8|0,1:2|0:0,0:0:0:0:
477,59,201468,6,0,L|485:152,1,92.5,6|2,3:2|0:1,0:0:0:0:
329,199,201803,2,0,L|420:178,1,92.5,8|8,1:2|0:0,0:0:0:0:
183,221,202138,2,0,L|172:128,1,92.5,2|2,0:1|0:0,0:0:0:0:
329,199,202473,1,8,1:2:0:0:
192,221,202641,1,8,1:2:0:0:
423,85,202809,6,0,L|419:178,1,92.5,6|0,1:0|0:0,0:0:0:0:
185,233,203144,2,0,L|193:328,1,92.5,8|0,1:2|0:0,0:0:0:0:
347,319,203479,2,0,L|247:302,1,92.5,2|2,0:1|0:0,0:0:0:0:
411,247,203814,2,0,L|311:230,1,92.5,8|2,1:2|3:1,0:0:0:0:
85,80,204149,6,0,L|99:174,1,92.5,2|0,0:0|0:0,0:0:0:0:
239,160,204485,2,0,L|147:170,2,92.5,8|2|2,1:2|3:0|3:1,0:0:0:0:
346,133,204987,1,2,0:0:0:0:
189,110,205155,2,0,L|195:205,1,92.5,8|2,1:2|3:1,0:0:0:0:
431,274,205490,6,0,L|339:266,1,92.5,2|0,0:0|0:0,0:0:0:0:
182,317,205825,2,0,L|274:309,1,92.5,8|2,1:2|0:1,0:0:0:0:
430,273,206161,2,0,L|421:177,1,92.5,2|2,0:1|0:0,0:0:0:0:
186,171,206496,2,0,L|192:76,1,92.5,10|2,1:2|0:0,0:0:0:0:
426,48,206831,6,0,L|473:51,2,46.25,2|0|2,0:0|0:0|1:0,0:0:0:0:
273,55,207166,1,8,1:2:0:0:
224,81,207250,1,0,0:0:0:0:
206,133,207334,1,2,1:0:0:0:
216,187,207418,1,0,0:0:0:0:
424,320,207501,1,2,1:0:0:0:
434,266,207585,1,0,0:0:0:0:
416,214,207669,1,2,0:3:0:0:
367,188,207753,1,0,1:0:0:0:
156,232,207837,2,0,L|205:229,1,46.25,8|0,1:2|0:0,0:0:0:0:
410,260,208004,2,0,L|359:258,1,46.25,2|2,1:3|1:0,0:0:0:0:
130,326,208172,6,0,L|39:291,1,92.5,4|2,1:1|1:0,0:0:0:0:
202,229,208507,2,0,L|214:135,1,92.5,8|0,1:2|0:1,0:0:0:0:
369,76,208842,2,0,L|357:170,1,92.5,2|2,3:1|0:0,0:0:0:0:
202,229,209177,2,0,L|105:209,1,92.5,8|2,1:2|3:1,0:0:0:0:
348,312,209513,6,0,L|358:221,1,92.5,2|0,0:0|0:0,0:0:0:0:
202,229,209848,2,0,L|105:209,1,92.5,8|2,1:2|1:0,0:0:0:0:
267,158,210183,1,2,0:1:0:0:
37,118,210351,1,2,0:0:0:0:
267,158,210518,2,0,L|260:65,1,92.5,8|0,1:2|0:0,0:0:0:0:
28,60,210853,5,2,0:0:0:0:
4,99,210937,1,0,0:0:0:0:
9,144,211021,1,2,0:0:0:0:
47,169,211105,1,0,0:0:0:0:
254,203,211188,2,0,L|302:208,1,46.25,8|0,1:2|0:0,0:0:0:0:
88,334,211356,2,0,L|40:322,1,46.25,8|0,1:2|0:0,0:0:0:0:
23,280,211524,5,4,0:0:0:0:
36,236,211607,1,0,0:0:0:0:
72,206,211691,1,2,0:0:0:0:
118,210,211775,1,0,0:0:0:0:
328,284,211859,1,8,1:2:0:0:
358,250,211943,1,2,0:0:0:0:
361,205,212026,1,4,0:0:0:0:
335,168,212110,1,2,0:0:0:0:
103,125,212194,6,0,L|11:104,1,92.5,2|8,0:0|1:2,0:0:0:0:
246,67,212529,2,0,L|340:85,1,92.5,2|8,0:0|1:2,0:0:0:0:
57,296,212864,1,2,0:0:0:0:
94,269,212948,1,2,0:0:0:0:
131,241,213032,1,2,3:0:0:0:
411,287,213200,1,2,0:0:0:0:
374,260,213283,1,2,0:0:0:0:
337,232,213367,1,2,3:0:0:0:
53,104,213535,5,4,1:0:0:0:
138,138,213702,1,0,0:0:0:0:
187,216,213870,1,8,1:2:0:0:
170,307,214038,1,2,0:0:0:0:
16,333,214205,2,0,L|28:239,1,92.5,0|2,1:0|3:2,0:0:0:0:
187,216,214540,2,0,L|98:191,1,92.5,8|2,1:2|3:0,0:0:0:0:
337,87,214876,5,0,1:1:0:0:
418,130,215043,1,0,3:0:0:0:
442,219,215211,1,8,1:2:0:0:
406,304,215378,1,2,1:1:0:0:
173,325,215546,2,0,L|81:307,1,92.5,2|2,0:1|0:0,0:0:0:0:
315,244,215881,2,0,L|407:226,1,92.5,10|2,1:1|0:1,0:0:0:0:
170,243,216216,5,4,1:1:0:0:
91,193,216384,1,0,0:0:0:0:
69,102,216552,1,8,1:2:0:0:
120,25,216719,1,2,1:2:0:0:
353,29,216887,2,0,L|362:123,1,92.5,2|2,0:3|3:2,0:0:0:0:
129,211,217222,2,0,L|80:212,2,46.25,8|0|2,1:2|0:0|3:0,0:0:0:0:
365,296,217557,5,2,1:0:0:0:
409,286,217640,1,0,0:0:0:0:
445,257,217724,1,0,0:0:0:0:
465,216,217808,1,2,1:0:0:0:
465,170,217892,1,0,0:0:0:0:
445,129,217975,1,0,0:0:0:0:
409,100,218059,1,2,1:0:0:0:
365,90,218143,1,0,0:0:0:0:
177,152,218228,2,0,L|84:160,1,92.5,2|2,1:2|1:2,0:0:0:0:
316,38,218563,2,0,L|407:28,1,92.5,8|0,1:0|1:0,0:0:0:0:
175,336,218898,5,4,1:0:0:0:
103,277,219066,1,0,0:0:0:0:
84,186,219233,1,8,1:2:0:0:
124,102,219401,1,8,1:0:0:0:
356,109,219568,2,0,L|257:101,1,92.5,0|2,0:0|3:2,0:0:0:0:
31,94,219904,2,0,L|130:102,1,92.5,8|2,1:2|3:0,0:0:0:0:
355,300,220239,5,2,0:0:0:0:
266,275,220406,1,0,0:0:0:0:
226,191,220574,1,8,1:0:0:0:
251,101,220742,1,2,0:0:0:0:
483,89,220909,2,0,L|474:183,1,92.5,0|2,0:0|3:3,0:0:0:0:
240,309,221244,2,0,L|319:260,1,92.5,8|2,1:1|0:1,0:0:0:0:
82,241,221580,5,4,1:2:0:0:
44,215,221663,1,0,0:0:0:0:
34,171,221747,1,0,0:0:0:0:
55,131,221831,1,0,0:0:0:0:
99,114,221915,1,8,1:2:0:0:
138,91,221998,1,0,0:0:0:0:
149,48,222082,1,2,0:0:0:0:
126,9,222166,1,0,0:0:0:0:
57,56,222250,2,0,L|153:47,1,92.5,8|2,1:2|0:0,0:0:0:0:
305,202,222585,1,8,1:2:0:0:
163,188,222753,1,0,1:0:0:0:
396,121,222920,6,0,L|490:129,1,92.5,4|0,0:0|1:0,0:0:0:0:
332,233,223256,1,8,1:2:0:0:
472,232,223423,1,2,0:0:0:0:
191,311,223591,2,0,L|95:309,1,92.5,4|0,0:0|1:0,0:0:0:0:
379,233,223926,2,0,L|478:233,1,92.5,8|0,1:0|1:0,0:0:0:0:
135,173,224261,6,0,L|129:267,1,92.5,4|0,1:0|0:0,0:0:0:0:
286,338,224596,2,0,L|292:244,1,92.5,2|0,0:0|0:0,0:0:0:0:
61,175,224932,2,0,P|24:95|83:30,1,185,0|0,1:0|1:0,0:0:0:0:
175,31,225434,1,0,1:0:0:0:
410,99,225602,6,0,L|394:189,1,92.5,4|0,1:3|0:0,0:0:0:0:
237,176,225937,2,0,L|254:85,1,92.5,0|0,1:0|0:0,0:0:0:0:
488,333,226272,2,0,L|501:240,1,92.5,0|0,1:0|0:0,0:0:0:0:
346,230,226608,2,0,L|437:207,1,92.5,0|0,0:0|1:0,0:0:0:0:
201,182,226943,6,0,L|191:88,1,92.5,4|0,1:3|0:0,0:0:0:0:
347,54,227278,2,0,L|357:148,1,92.5,2|0,0:0|1:0,0:0:0:0:
120,159,227613,2,0,P|81:125|134:24,1,185,0|0,1:0|1:0,0:0:0:0:
226,27,228116,1,4,0:0:0:0:
461,89,228284,5,4,1:3:0:0:
497,115,228367,1,0,0:0:0:0:
452,128,228451,1,0,0:0:0:0:
406,136,228535,1,0,0:0:0:0:
452,128,228619,1,0,1:0:0:0:
484,161,228703,1,0,0:0:0:0:
488,206,228786,1,4,0:0:0:0:
454,237,228870,1,0,0:0:0:0:
256,335,228954,5,0,1:0:0:0:
349,335,229122,2,0,L|360:240,1,92.5,4|0,1:2|0:0,0:0:0:0:
268,238,229457,1,4,0:0:0:0:
35,241,229624,6,0,L|27:140,1,92.5,4|0,1:0|0:0,0:0:0:0:
183,182,229960,2,0,L|191:81,1,92.5,2|0,0:0|0:0,0:0:0:0:
468,143,230295,6,0,L|476:244,1,92.5,0|0,1:0|0:0,0:0:0:0:
320,202,230630,2,0,L|312:303,1,92.5,0|0,1:0|1:0,0:0:0:0:
81,69,230965,2,0,L|176:58,1,92.5,4|0,1:3|0:0,0:0:0:0:
408,72,231300,2,0,L|313:61,1,92.5,0|0,1:0|0:0,0:0:0:0:
82,70,231636,2,0,L|76:167,1,92.5,0|0,1:0|0:0,0:0:0:0:
232,172,231971,2,0,L|143:205,1,92.5,0|0,0:0|1:0,0:0:0:0:
424,303,232306,5,4,1:3:0:0:
466,281,232390,1,0,0:0:0:0:
482,237,232473,1,4,0:0:0:0:
472,191,232557,1,0,0:0:0:0:
445,153,232641,1,2,0:0:0:0:
401,140,232725,1,0,0:0:0:0:
355,143,232809,1,0,0:0:0:0:
316,166,232892,1,0,0:0:0:0:
130,289,232976,5,0,1:0:0:0:
241,237,233144,1,0,1:0:0:0:
149,204,233311,2,0,L|137:112,1,92.5,4|0,0:0|0:0,0:0:0:0:
417,51,233647,5,4,1:3:0:0:
450,83,233730,1,0,0:0:0:0:
445,129,233814,1,0,1:0:0:0:
408,156,233898,1,0,0:0:0:0:
220,117,233982,1,4,1:2:0:0:
187,149,234066,1,0,0:0:0:0:
192,195,234149,1,0,0:0:0:0:
229,222,234233,1,0,0:0:0:0:
421,334,234317,5,4,1:2:0:0:
376,327,234401,1,0,0:0:0:0:
193,321,234485,1,0,0:0:0:0:
237,314,234568,1,0,0:0:0:0:
435,273,234652,1,4,0:0:0:0:
480,246,234736,1,0,0:0:0:0:
487,193,234820,1,2,0:0:0:0:
457,156,234904,1,0,0:0:0:0:
205,59,234987,5,4,0:1:0:0:
89,114,235155,1,0,0:0:0:0:
89,178,235323,1,2,0:0:0:0:
173,210,235490,1,0,0:0:0:0:
323,246,235658,2,0,L|330:349,1,92.5,0|2,0:1|0:0,0:0:0:0:
191,217,235993,2,0,L|182:111,1,92.5,2|0,0:0|0:0,0:0:0:0:
333,97,236328,5,4,0:0:0:0:
414,92,236496,1,0,0:0:0:0:
333,97,236663,1,2,0:0:0:0:
414,92,236831,1,0,0:0:0:0:
333,97,236999,1,2,0:0:0:0:
414,92,237166,1,0,0:0:0:0:
333,97,237334,1,2,0:0:0:0:
414,92,237501,1,0,0:0:0:0:
125,188,237669,6,0,L|123:293,1,92.5,4|0,0:0|0:0,0:0:0:0:
283,279,238004,2,0,L|285:171,1,92.5,2|0,0:0|0:0,0:0:0:0:
131,178,238339,2,0,L|15:184,1,92.5,2|0,0:0|0:0,0:0:0:0:
187,126,238675,2,0,L|302:124,1,92.5,2|0,0:0|0:0,0:0:0:0:
432,113,239010,5,4,0:0:0:0:
336,140,239177,1,0,0:0:0:0:
302,223,239345,1,2,0:0:0:0:
298,301,239513,1,0,0:0:0:0:
151,327,239680,2,0,L|26:338,1,92.5,4|2,0:0|0:0,0:0:0:0:
206,260,240015,2,0,L|212:148,1,92.5,2|0,0:0|0:0,0:0:0:0:
472,44,240351,6,0,L|462:153,1,92.5,6|0,0:0|0:0,0:0:0:0:
325,216,240686,2,0,L|428:223,1,92.5,2|0,0:0|0:0,0:0:0:0:
286,271,241021,2,0,L|173:285,1,92.5,2|0,0:0|0:0,0:0:0:0:
62,232,241356,2,0,L|60:127,1,92.5,2|0,0:0|0:0,0:0:0:0:
218,161,241691,5,2,0:0:0:0:
218,161,241859,1,0,0:0:0:0:
316,192,242026,1,2,0:0:0:0:
384,137,242194,1,0,0:0:0:0:
405,54,242362,1,2,0:0:0:0:
384,137,242529,1,0,0:0:0:0:
316,192,242697,1,2,0:0:0:0:
218,161,242864,1,0,0:0:0:0:
483,222,243032,5,4,0:0:0:0:
479,278,243116,1,0,0:0:0:0:
472,333,243200,1,0,0:0:0:0:
341,85,243367,1,0,0:0:0:0:
345,141,243451,1,0,0:0:0:0:
352,196,243535,1,0,0:0:0:0:
212,100,243702,1,0,0:0:0:0:
248,94,243786,1,0,0:0:0:0:
286,87,243870,1,0,0:0:0:0:
133,179,244038,1,0,0:0:0:0:
97,173,244122,1,0,0:0:0:0:
59,166,244206,1,0,0:0:0:0:
316,49,244373,5,4,0:0:0:0:
409,113,244540,1,0,0:0:0:0:
440,213,244708,1,0,0:0:0:0:
409,294,244876,1,0,0:0:0:0:
329,311,245043,2,0,L|224:334,1,92.5,0|0,0:0|0:0,0:0:0:0:
302,272,245378,2,0,L|401:312,1,92.5,0|0,0:0|0:0,0:0:0:0:
118,243,245714,5,6,0:0:0:0:
107,170,245881,1,0,0:0:0:0:
152,115,246049,1,2,0:0:0:0:
231,104,246216,1,0,0:0:0:0:
369,143,246384,2,0,L|237:147,1,92.5,0|2,0:0|0:0,0:0:0:0:
142,230,246719,2,0,L|272:221,1,92.5,2|0,0:0|0:0,0:0:0:0:
388,142,247054,5,4,0:0:0:0:
295,157,247222,1,0,0:0:0:0:
379,143,247390,1,0,0:0:0:0:
311,154,247557,1,0,0:0:0:0:
357,149,247725,1,4,0:0:0:0:
328,154,247892,1,0,0:0:0:0:
336,148,248060,1,0,0:0:0:0:
336,148,248228,1,0,0:0:0:0:
187,163,248395,5,4,0:0:0:0:
137,206,248563,1,0,0:0:0:0:
208,223,248730,1,0,0:0:0:0:
247,258,248898,1,2,0:0:0:0:
175,278,249066,1,2,0:0:0:0:
123,311,249233,1,0,0:0:0:0:
216,313,249401,1,2,0:0:0:0:
268,334,249568,1,0,0:0:0:0:
424,346,249736,5,4,0:0:0:0:
424,346,249904,1,0,0:0:0:0:
424,346,250071,1,0,0:0:0:0:
424,346,250239,1,0,0:0:0:0:
353,321,250406,1,2,0:0:0:0:
322,245,250574,1,0,0:0:0:0:
357,179,250742,1,2,0:0:0:0:
437,157,250909,1,0,0:0:0:0:
138,80,251077,5,4,0:0:0:0:
138,80,251244,1,0,0:0:0:0:
62,104,251412,1,2,0:0:0:0:
62,104,251580,1,0,0:0:0:0:
138,151,251747,1,2,0:0:0:0:
138,151,251915,1,0,0:0:0:0:
66,200,252082,1,2,0:0:0:0:
66,200,252250,1,0,0:0:0:0:
214,203,252418,5,2,0:0:0:0:
285,245,252585,1,0,0:0:0:0:
285,245,252753,1,2,0:0:0:0:
212,279,252920,1,2,0:0:0:0:
132,296,253088,1,0,0:0:0:0:
80,304,253256,1,2,0:0:0:0:
80,304,253423,1,2,0:0:0:0:
132,296,253591,1,0,0:0:0:0:
386,328,253758,5,4,0:0:0:0:
256,192,253926,12,0,257110,0:0:0:0:
