osu file format v14

[General]
AudioFilename: audio.mp3
AudioLeadIn: 0
PreviewTime: 80123
Countdown: 0
SampleSet: Soft
StackLeniency: 0.7
Mode: 0
LetterboxInBreaks: 0
WidescreenStoryboard: 1

[Editor]
Bookmarks: 21799,35207,45933,56659,67386,80793,91520,102246,112972,123698,133084,146492,157218,167944,178671,192078,202805,213531,224257,234983,245710,255095
DistanceSpacing: 1.6
BeatDivisor: 4
GridSize: 4
TimelineZoom: 1.700006

[Metadata]
Title:Rainbow after snow
TitleUnicode:Rainbow after snow
Artist:Nekomata Master feat. Hayashi Momoko
ArtistUnicode:猫叉Master feat. 林ももこ
Creator:Yohanes
Version:Hard
Source:beatmania IIDX 20 tricoro
Tags:Crevice Naoyuki Sato dnb drum n bass jubeat saucer Collab Collaboration Mirash Mentai Laurier yaldo_27 Extra
BeatmapID:1856899
BeatmapSetID:849946

[Difficulty]
HPDrainRate:5
CircleSize:3.8
OverallDifficulty:6
ApproachRate:7.5
SliderMultiplier:1.4
SliderTickRate:1

[Events]
//Background and Video events
0,0,"hjghjh.jpg",0,0
//Break Periods
2,123898,130918
2,144345,145667
//Storyboard Layer 0 (Background)
//Storyboard Layer 1 (Fail)
//Storyboard Layer 2 (Pass)
//Storyboard Layer 3 (Foreground)
//Storyboard Sound Samples

[TimingPoints]
347,335.195530726257,4,2,1,60,1,0
21799,-125,4,2,1,60,0,0
40402,-125,4,2,0,60,0,0
40570,-125,4,2,1,60,0,0
43252,-125,4,2,0,60,0,0
43587,-125,4,2,1,60,0,0
43754,-125,4,2,0,60,0,0
44090,-125,4,2,1,60,0,0
44341,-125,4,2,0,60,0,0
44592,-125,4,2,1,60,0,0
44928,-125,4,2,0,20,0,0
45933,-125,4,2,1,60,0,0
56408,-125,4,2,0,40,0,0
56659,-125,4,2,1,60,0,0
57330,-250,4,2,1,40,0,0
64369,-250,4,2,2,40,0,0
64536,-250,4,2,1,40,0,0
65710,-250,4,2,2,40,0,0
66715,-250,4,2,1,40,0,0
76771,-166.666666666667,4,2,1,60,0,0
80123,-285.714285714286,4,2,1,60,0,0
80710,-285.714285714286,4,2,1,5,0,0
80793,-100,4,2,1,70,0,1
88587,-100,4,2,2,70,0,1
89173,-100,4,2,1,70,0,1
89341,-100,4,2,2,70,0,1
89676,-100,4,2,1,70,0,1
90011,-100,4,2,2,70,0,1
90514,-100,4,2,1,70,0,1
96631,-100,4,2,2,70,0,1
96883,-100,4,2,1,70,0,1
112972,-166.666666666667,4,2,1,50,0,0
113307,-166.666666666667,4,2,2,50,0,0
113643,-166.666666666667,4,2,1,50,0,0
116995,-166.666666666667,4,2,2,50,0,0
117330,-166.666666666667,4,2,1,50,0,0
123363,-166.666666666667,4,2,2,50,0,0
123531,-166.666666666667,4,2,1,50,0,0
133084,-125,4,3,1,60,0,0
143810,-125,4,3,1,70,0,0
144313,-125,4,3,1,40,0,0
144564,-125,4,3,1,20,0,0
146492,-125,4,2,1,60,0,0
155626,-125,4,2,0,60,0,0
155877,-125,4,2,1,60,0,0
156212,-250,4,2,0,20,0,0
157218,-125,4,2,1,60,0,0
162414,-125,4,2,0,60,0,0
162581,-125,4,2,1,60,0,0
165095,-125,4,2,0,60,0,0
165263,-125,4,2,1,60,0,0
165430,-125,4,2,0,60,0,0
165598,-125,4,2,1,60,0,0
165765,-125,4,2,0,60,0,0
166101,-125,4,2,1,60,0,0
166184,-125,4,2,0,60,0,0
166268,-125,4,2,1,60,0,0
166436,-125,4,2,0,60,0,0
166520,-125,4,2,1,60,0,0
168615,-250,4,2,1,40,0,0
168950,-250,4,2,2,40,0,0
169285,-250,4,2,1,40,0,0
170291,-250,4,2,0,40,0,0
170458,-250,4,2,1,40,0,0
172972,-250,4,2,2,40,0,0
173140,-250,4,2,1,40,0,0
174313,-250,4,2,2,40,0,0
174481,-250,4,2,1,40,0,0
175654,-250,4,2,2,40,0,0
175821,-250,4,2,1,40,0,0
176995,-250,4,2,2,40,0,0
177330,-250,4,2,2,40,0,0
177665,-250,4,2,1,40,0,0
179341,-250,4,2,0,40,0,0
179425,-250,4,2,1,40,0,0
181017,-250,4,2,0,40,0,0
181101,-250,4,2,1,40,0,0
182022,-250,4,2,0,40,0,0
182106,-250,4,2,1,40,0,0
183363,-250,4,2,0,40,0,0
183447,-250,4,2,1,40,0,0
186715,-250,4,2,1,40,0,0
191073,-125,4,2,3,80,0,0
191408,-285.714285714286,4,2,1,40,0,0
192078,-100,4,2,1,70,0,1
202134,-100,4,2,2,70,0,1
202302,-100,4,2,1,70,0,1
202386,-100,4,2,2,70,0,1
202469,-100,4,2,1,70,0,1
206576,-100,4,2,0,70,0,1
206827,-100,4,2,1,70,0,1
211017,-100,4,2,2,70,0,1
211184,-100,4,2,1,70,0,1
211520,-100,4,2,2,70,0,1
211687,-100,4,2,1,70,0,1
211939,-100,4,2,2,70,0,1
212190,-100,4,2,1,70,0,1
216045,-100,4,2,2,70,0,1
216212,-100,4,2,1,70,0,1
218224,-100,4,2,2,70,0,1
218307,-100,4,2,1,70,0,1
224257,-166.666666666667,4,2,0,50,0,0
234983,-200,4,2,0,40,0,0
238000,-200,4,2,2,40,0,0
238335,-200,4,2,0,40,0,0
241687,-200,4,2,2,40,0,0
241855,-200,4,2,0,40,0,0
243028,-200,4,2,2,40,0,0
245710,-200,4,2,2,40,0,0
246045,-200,4,2,0,30,0,0
251408,-200,4,2,0,25,0,0
253754,-200,4,2,0,20,0,0
255095,-200,4,2,0,10,0,0

[Colours]
Combo1 : 255,94,55
Combo2 : 173,255,95
Combo3 : 17,254,176
Combo4 : 255,88,100

[HitObjects]
256,192,20291,12,0,21464,0:0:0:0:
78,170,21799,6,0,P|168:152|208:152,1,112,6|0,0:0|0:0,0:0:0:0:
276,168,22302,1,0,0:0:0:0:
246,84,22469,2,0,P|244:42|247:14,2,56
404,156,23140,6,0,P|416:84|436:36,2,112,2|2|0,0:0|0:0|0:0,0:0:0:0:
452,236,23978,1,0,0:0:0:0:
452,236,24145,2,0,L|428:300,1,56,0|0,0:0|0:0,0:0:0:0:
364,352,24481,6,0,P|296:328|232:328,1,112,2|2,0:0|0:0,0:0:0:0:
172,332,24983,1,0,0:0:0:0:
86,341,25151,2,0,P|85:313|96:288,1,56
27,232,25486,2,0,P|46:213|72:202,1,56
171,232,25821,6,0,L|226:223,1,56,2|2,0:0|0:0,0:0:0:0:
312,251,26157,2,0,P|344:192|344:134,1,112,2|0,0:0|0:0,0:0:0:0:
400,72,26659,1,0,0:0:0:0:
308,72,26827,2,0,L|236:60,1,56,0|0,0:0|0:0,0:0:0:0:
156,16,27162,6,0,L|184:152,1,112,2|0,0:0|0:0,0:0:0:0:
140,204,27665,1,0,0:0:0:0:
68,156,27833,2,0,P|20:156|-4:168,2,56,0|0|0,0:0|0:0|0:0,0:0:0:0:
140,204,28335,1,0,0:0:0:0:
235,202,28503,6,0,L|260:328,1,112,2|2,0:0|0:0,0:0:0:0:
351,296,29006,2,0,P|352:324|345:351,2,56
409,218,29508,2,0,P|429:237|444:262,1,56
451,129,29843,6,0,P|411:121|336:152,1,112,2|2,0:0|0:0,0:0:0:0:
280,200,30347,1,0,0:0:0:0:
214,256,30514,2,0,P|174:264|99:233,1,112,0|0,0:0|0:0,0:0:0:0:
236,27,31184,5,2,0:0:0:0:
260,113,31352,1,2,0:0:0:0:
280,200,31520,1,2,0:0:0:0:
280,200,31855,6,0,L|264:320,2,112,0|0|4,0:0|0:0|0:0,0:0:0:0:
328,48,33196,5,2,0:0:0:0:
80,164,33531,1,2,0:0:0:0:
240,96,33866,5,2,0:0:0:0:
153,81,34034,1,2,0:0:0:0:
184,164,34202,1,8,0:0:0:0:
184,164,35207,6,0,L|168:284,1,112,4|8,0:1|0:0,0:0:0:0:
76,356,35710,1,2,0:0:0:0:
76,356,35877,2,0,L|140:348,1,56,0|2,0:0|0:0,0:0:0:0:
87,269,36212,2,0,L|32:276,1,56,8|0,0:0|0:0,0:0:0:0:
8,192,36548,6,0,P|36:140|92:120,1,112,2|8,0:0|0:0,0:0:0:0:
228,75,37050,1,0,0:0:0:0:
168,140,37218,1,0,0:0:0:0:
142,55,37386,1,2,0:0:0:0:
228,75,37553,2,0,L|294:90,1,56,8|8,0:0|0:0,0:0:0:0:
396,88,37888,6,0,P|352:132|340:192,1,112,2|8,0:0|0:0,0:0:0:0:
436,168,38391,1,8,0:0:0:0:
436,168,38559,2,0,P|428:220|432:240,1,56,0|2,0:0|0:0,0:0:0:0:
460,300,38894,2,0,P|501:332|520:339,1,56,8|0,0:0|0:0,0:0:0:0:
376,292,39229,6,0,P|304:304|264:344,1,112,2|8,0:0|0:0,0:0:0:0:
179,315,39732,2,0,P|203:265|249:234,1,112,0|2,0:0|0:0,0:0:0:0:
336,204,40235,2,0,L|348:144,1,56,8|2,0:0|0:0,0:0:0:0:
280,36,40570,6,0,L|258:145,1,112,4|8,0:1|0:0,0:0:0:0:
184,68,41073,1,2,0:0:0:0:
184,68,41240,2,0,L|104:80,1,56,0|2,0:0|0:0,0:0:0:0:
20,160,41576,2,0,L|75:151,1,56,8|0,0:0|0:0,0:0:0:0:
168,164,41911,6,0,P|184:220|172:276,2,112,2|8|2,0:0|0:0|0:0,0:0:0:0:
128,76,42749,2,0,L|136:20,2,56,6|8|2,0:0|0:0|0:0,0:0:0:0:
224,92,43252,5,6,0:0:0:0:
304,52,43419,1,2,0:0:0:0:
388,80,43587,1,8,0:0:0:0:
428,160,43754,1,2,0:0:0:0:
304,140,43922,6,0,L|312:200,1,56,2|2,0:0|0:0,0:0:0:0:
399,295,44257,2,0,L|392:240,1,56,8|2,0:0|0:0,0:0:0:0:
270,282,44592,5,10,0:0:0:0:
270,282,44676,1,8,0:0:0:0:
270,282,44760,2,0,L|274:315,2,28,8|0|6,0:0|0:0|0:0,0:0:0:0:
270,282,45933,6,0,P|223:246|149:229,1,112,4|8,0:0|0:0,0:0:0:0:
73,257,46436,1,0,0:0:0:0:
105,175,46603,2,0,L|100:116,1,56,0|2,0:0|0:0,0:0:0:0:
15,132,46939,2,0,L|20:188,1,56,8|0,0:0|0:0,0:0:0:0:
48,48,47274,6,0,L|158:65,1,112,2|8,0:0|0:0,0:0:0:0:
236,98,47777,1,0,0:0:0:0:
276,180,47944,1,0,0:0:0:0:
256,268,48112,2,0,L|248:308,2,28,2|0|8,0:0|0:0|0:0,0:0:0:0:
276,180,48447,1,0,0:0:0:0:
352,244,48615,6,0,L|480:232,1,112,2|8,0:0|0:0,0:0:0:0:
472,104,49117,1,0,0:0:0:0:
472,104,49285,2,0,P|492:136|500:176,1,56,0|2,0:0|0:0,0:0:0:0:
388,92,49620,2,0,P|379:128|356:162,1,56,8|0,0:0|0:0,0:0:0:0:
276,180,49955,6,0,P|230:151|174:140,1,112,2|8,0:0|0:0,0:0:0:0:
88,168,50458,1,8,0:0:0:0:
28,100,50626,2,0,P|20:60|28:36,1,56,0|0,0:0|0:0,0:0:0:0:
104,10,50961,2,0,P|112:37|109:65,1,56,8|0,0:0|0:0,0:0:0:0:
173,140,51296,6,0,P|200:76|200:24,2,112,2|8|0,0:0|0:0|0:0,0:0:0:0:
88,168,52134,1,2,0:0:0:0:
104,252,52302,2,0,L|116:316,1,56,8|0,0:0|0:0,0:0:0:0:
188,224,52637,6,0,L|212:352,1,112,2|8,0:0|0:0,0:0:0:0:
288,368,53140,1,8,0:0:0:0:
346,303,53307,1,0,0:0:0:0:
303,228,53474,1,2,0:0:0:0:
346,303,53643,2,0,P|400:312|420:312,1,56,8|0,0:0|0:0,0:0:0:0:
472,252,53978,6,0,L|464:188,1,56,2|0,0:0|0:0,0:0:0:0:
380,156,54313,2,0,L|372:92,1,56,8|0,0:0|0:0,0:0:0:0:
296,40,54648,6,0,L|232:48,1,56,0|2,0:0|0:0,0:0:0:0:
200,132,54983,2,0,L|136:140,1,56,8|0,0:0|0:0,0:0:0:0:
8,136,55319,6,0,P|64:168|84:232,1,112,6|12,0:0|0:0,0:0:0:0:
149,328,55821,2,0,P|148:263|194:214,1,112,12|2,0:0|0:0,0:0:0:0:
245,110,56324,2,0,P|189:142|123:127,1,112,12|4,0:0|0:0,0:0:0:0:
143,138,57330,6,0,L|255:154,1,112,8|2,0:0|0:0,0:0:0:0:
412,88,58335,1,2,0:0:0:0:
352,180,58671,2,0,L|368:244,1,56,8|0,0:0|0:0,0:0:0:0:
376,272,59173,1,2,0:0:0:0:
386,309,59341,1,2,0:0:0:0:
386,309,60011,6,0,L|402:373,2,56,8|0|0,0:0|0:0|0:0,0:0:0:0:
265,348,61017,1,2,0:0:0:0:
161,274,61352,2,0,L|120:302,2,42,8|0|8,0:0|0:0|0:0,0:0:0:0:
192,256,62022,5,2,0:0:0:0:
243,166,62358,1,0,0:0:0:0:
333,217,62693,1,8,0:0:0:0:
282,307,63029,1,0,0:0:0:0:
154,177,63363,6,0,L|146:113,1,56,2|2,0:0|0:0,0:0:0:0:
56,24,64034,2,0,P|96:8|144:20,1,84,8|0,0:0|0:0,0:0:0:0:
168,36,64704,1,2,0:0:0:0:
168,36,65374,6,0,L|280:24,1,112,8|4,0:0|0:0,0:0:0:0:
392,72,66380,1,0,0:0:0:0:
268,120,66715,2,0,L|261:182,1,56,8|2,0:0|0:0,0:0:0:0:
258,210,67218,1,0,0:0:0:0:
252,244,67386,1,4,0:1:0:0:
252,244,68726,6,0,P|256:184|248:124,1,112,2|0,0:0|0:0,0:0:0:0:
208,60,69732,1,0,0:0:0:0:
56,128,70067,2,0,P|112:124|176:136,1,112,2|0,0:0|0:0,0:0:0:0:
320,24,71073,1,0,0:0:0:0:
320,24,71408,6,0,L|312:84,1,56,2|0,0:0|0:0,0:0:0:0:
412,64,72078,2,0,L|405:124,1,56
324,184,72749,6,0,P|372:220|428:224,1,112,2|2,0:0|0:0,0:0:0:0:
89,158,74090,2,0,P|144:165|188:200,1,112,2|2,0:0|0:0,0:0:0:0:
334,328,75430,5,2,0:0:0:0:
177,328,75765,1,2,0:0:0:0:
256,192,76101,1,2,0:0:0:0:
334,56,76436,1,2,0:0:0:0:
177,56,76771,5,2,0:0:0:0:
98,191,77106,1,2,0:0:0:0:
177,328,77441,1,2,0:0:0:0:
334,328,77777,1,2,0:0:0:0:
413,191,78112,6,0,L|364:192,1,41.9999987182618,2|0,0:0|0:0,0:0:0:0:
316,110,78447,2,0,L|359:111,1,41.9999987182618,2|0,0:0|0:0,0:0:0:0:
290,192,78782,6,0,L|245:192,1,41.9999987182618,2|2,0:0|0:0,0:0:0:0:
194,111,79117,2,0,L|237:111,1,41.9999987182618,2|2,0:0|0:0,0:0:0:0:
160,200,79453,1,2,0:0:0:0:
160,200,79620,1,2,0:0:0:0:
160,200,79788,1,8,0:0:0:0:
160,200,80793,6,2,L|132:340,1,140,6|8,1:0|1:2,1:0:0:0:
216,376,81296,1,0,0:0:0:0:
292,328,81464,2,0,L|372:336,1,70,2|2,0:1|0:0,0:0:0:0:
464,356,81799,2,0,P|456:320|452:280,1,70,8|2,1:2|0:1,0:0:0:0:
364,248,82134,6,2,P|368:192|408:116,1,140,0|8,1:2|1:2,1:0:0:0:
484,76,82637,1,0,0:0:0:0:
431,6,82805,2,0,L|331:20,1,70,2|2,0:1|0:0,0:0:0:0:
272,32,83140,1,8,1:2:0:0:
332,100,83307,1,2,0:1:0:0:
256,148,83475,6,2,P|192:160|116:156,1,140,2|8,1:2|1:2,1:0:0:0:
36,112,83978,1,2,0:1:0:0:
4,196,84145,2,0,P|4:244|12:284,1,70,2|2,0:1|0:0,1:0:0:0:
109,302,84481,2,0,P|96:270|88:236,1,70,8|2,1:2|0:1,0:0:0:0:
204,188,84816,6,2,P|191:220|183:254,1,70,2|0,1:2|0:0,0:1:0:0:
236,328,85151,1,8,1:2:0:0:
324,352,85319,2,2,P|369:304|462:288,1,140,10|2,1:0|1:2,0:1:0:0:
512,208,85821,1,8,1:2:0:0:
420,188,85989,1,8,1:2:0:0:
328,168,86157,6,2,P|320:88|336:20,2,140,6|8|2,1:0|1:2|1:1,0:1:0:0:
360,256,86995,1,2,0:0:0:0:
268,236,87162,2,0,P|232:260|212:284,1,70,8|2,1:2|0:1,0:0:0:0:
144,212,87497,6,2,P|116:272|124:352,1,140,2|8,1:2|1:2,1:0:0:0:
24,336,88000,2,2,L|0:172,1,140,2|2,1:1|0:0,1:0:0:0:
116,80,88503,1,8,1:2:0:0:
76,160,88671,1,0,0:0:0:0:
26,85,88838,6,0,L|-12:4,1,70,4|0,1:0|0:0,0:0:0:0:
116,80,89173,2,0,L|205:87,1,70,8|2,1:2|0:0,0:0:0:0:
76,160,89509,2,0,L|24:233,1,70,4|2,0:0|0:0,0:0:0:0:
161,229,89844,2,0,L|212:155,1,70,8|2,1:2|0:0,0:0:0:0:
272,48,90179,6,0,P|279:98|268:132,1,70,4|4,1:0|0:0,0:0:0:0:
337,188,90514,2,0,P|358:161|369:127,1,70,8|8,1:2|1:2,0:0:0:0:
413,244,90849,2,0,P|387:268|355:281,1,70,0|2,1:0|0:0,0:0:0:0:
323,370,91184,2,0,P|358:375|392:367,1,70,8|4,1:2|1:2,0:0:0:0:
263,299,91520,6,2,L|112:316,2,140,4|8|2,1:0|1:2|0:1,1:0:0:0:
355,280,92358,1,0,0:0:0:0:
296,208,92525,2,0,L|308:136,1,70,8|2,1:2|0:1,0:0:0:0:
364,52,92860,6,2,P|320:92|232:88,1,140,0|8,1:2|1:2,0:1:0:0:
142,0,93363,1,0,0:0:0:0:
142,0,93531,2,0,L|158:84,1,70,2|2,0:1|0:0,0:0:0:0:
80,160,93866,2,0,L|66:91,1,70,8|2,1:2|0:1,0:0:0:0:
171,148,94201,6,2,L|197:285,2,140,4|8|0,0:0|1:2|0:0,0:1:0:0:
236,79,95039,1,2,0:0:0:0:
312,144,95207,2,0,P|356:140|390:126,1,70,8|0,1:2|0:0,0:0:0:0:
444,68,95542,6,0,P|452:8|440:-28,1,70,2|2,1:1|0:1,0:0:0:0:
360,48,95877,1,8,1:2:0:0:
464,152,96045,2,2,P|472:232|440:292,1,140,0|2,0:0|1:1,1:0:0:0:
352,288,96548,2,0,L|364:360,1,70,8|2,1:2|0:1,0:0:0:0:
264,264,96883,6,2,P|208:244|124:268,2,140,4|8|2,1:0|1:2|0:1,0:1:0:0:
332,204,97721,1,2,0:0:0:0:
248,104,97888,2,0,L|256:184,1,70,8|2,1:2|0:1,0:0:0:0:
344,112,98224,6,2,P|356:72|356:32,1,70,2|0,0:0|0:0,0:1:0:0:
504,108,98559,2,0,P|464:104|416:116,1,70,8|2,1:2|0:1,0:0:0:0:
332,204,98894,1,2,0:1:0:0:
424,192,99062,1,2,0:0:0:0:
500,244,99229,2,0,L|480:320,1,70,8|2,1:2|0:0,0:0:0:0:
392,356,99564,6,0,L|380:280,1,70,6|0,0:1|0:0,0:0:0:0:
332,204,99900,1,10,1:0:0:0:
332,204,100067,2,2,P|288:268|296:348,1,140,8|0,0:1|1:2,0:1:0:0:
204,278,100570,2,0,L|194:209,1,70,8|2,1:2|0:0,0:1:0:0:
270,153,100905,6,0,P|306:129|338:121,1,70,6|10,0:0|1:1,0:0:0:0:
190,111,101240,2,0,P|187:67|196:36,1,70,2|8,0:0|1:2,0:0:0:0:
113,159,101576,2,0,P|74:139|51:116,1,70,2|2,1:0|1:2,0:0:0:0:
194,209,101911,1,8,1:2:0:0:
136,292,102078,1,2,0:1:0:0:
136,292,102162,1,8,0:0:0:0:
136,292,102246,6,2,P|212:292|280:300,1,140,4|8,1:0|1:2,0:1:0:0:
364,316,102749,1,0,0:0:0:0:
452,340,102916,1,0,1:0:0:0:
428,253,103084,2,0,P|432:204|443:178,1,70,2|8,0:0|1:2,0:0:0:0:
480,100,103419,1,0,0:0:0:0:
388,116,103587,6,0,P|336:116|236:88,1,140,0|8,1:0|1:2,0:0:0:0:
168,144,104090,2,2,L|152:52,2,70,2|0|2,0:1|0:1|0:0,0:1:0:0:
184,260,104592,1,8,1:2:0:0:
184,260,104928,6,0,P|132:252|92:256,1,70,4|0,1:0|0:0,0:0:0:0:
160,348,105263,2,0,P|194:347|229:340,1,70,8|0,1:2|1:0,0:0:0:0:
337,273,105598,2,0,P|302:266|268:266,1,70,0|2,0:0|0:0,0:0:0:0:
313,361,105933,2,0,P|348:360|383:354,1,70,8|0,1:2|0:0,0:0:0:0:
480,356,106268,6,2,P|456:292|452:192,1,140,2|8,1:0|1:2,1:0:0:0:
337,273,106771,2,2,P|348:205|394:116,1,140,2|2,1:0|0:2,1:0:0:0:
254,129,107274,2,0,P|297:76|382:22,1,140,8|4,1:2|1:0,0:0:0:0:
448,76,107777,5,0,0:0:0:0:
376,140,107944,2,0,L|388:216,1,70,8|0,1:2|1:0,0:0:0:0:
292,200,108279,2,0,L|323:270,1,70,0|2,0:0|0:0,0:0:0:0:
226,279,108615,2,0,L|274:338,1,70,8|0,1:2|0:0,0:0:0:0:
182,372,108950,6,0,P|132:340|40:340,1,140,0|8,1:0|1:2,0:0:0:0:
132,196,109453,1,2,0:1:0:0:
132,196,109620,2,2,L|152:272,1,70,0|2,0:0|0:0,0:1:0:0:
56,248,109955,2,0,L|36:172,1,70,8|2,1:2|1:1,0:0:0:0:
160,100,110291,6,0,L|88:116,1,70,4|2,1:2|1:1,0:0:0:0:
160,12,110626,1,8,1:2:0:0:
252,112,110793,2,0,L|236:40,2,70,0|2|2,0:1|1:1|0:0,0:0:0:0:
160,100,111296,5,8,1:2:0:0:
240,203,111464,2,0,L|312:187,2,70,8|2|2,1:2|1:0|0:0,0:0:0:0:
252,112,111967,5,8,1:2:0:0:
149,191,112134,2,0,L|165:263,2,70,8|0|2,1:2|0:0|0:0,0:0:0:0:
288,304,112637,2,0,L|216:320,1,70,8|0,1:2|0:0,0:0:0:0:
344,372,112972,6,0,P|336:300|408:240,1,167.999994873047,4|8,1:0|1:2,0:0:0:0:
512,240,113978,1,0,0:0:0:0:
455,76,114313,2,0,L|444:160,1,83.9999974365235,2|2,0:0|0:0,0:0:0:0:
328,188,114983,2,0,L|316:52,1,125.999996154785,8|8,1:2|1:2,0:0:0:0:
313,20,115654,5,2,0:0:0:0:
313,20,116324,2,0,P|252:24|184:104,1,167.999994873047,8|2,1:2|0:2,0:0:0:0:
176,208,117330,1,2,0:0:0:0:
232,308,117665,2,0,P|192:292|148:288,1,83.9999974365235,8|0,1:2|0:0,0:0:0:0:
382,268,118335,6,0,P|338:252|258:152,1,167.999994873047,4|8,0:1|1:2,0:0:0:0:
152,168,119341,1,0,0:0:0:0:
272,60,119676,2,0,L|172:72,1,83.9999974365235,2|2,0:0|0:0,0:0:0:0:
387,173,120347,2,0,L|247:161,1,125.999996154785,8|8,1:2|1:2,0:0:0:0:
208,160,121017,5,2,0:0:0:0:
212,163,121687,1,8,1:2:0:0:
212,163,121855,2,0,L|232:303,1,125.999996154785,2|0,0:0|0:0,0:0:0:0:
320,356,122693,1,2,0:0:0:0:
428,316,123028,2,0,P|452:280|444:224,1,83.9999974365235,8|2,0:0|0:2,0:0:0:0:
370,217,123531,2,0,L|378:264,1,41.9999987182618,0|4,1:2|0:1,0:0:0:0:
256,192,131743,12,2,133084,0:0:0:0:
256,164,133419,5,2,0:0:0:0:
256,164,133754,2,0,P|196:148|160:152,1,84,2|2,0:0|0:0,0:0:0:0:
144,164,134090,2,0,L|104:224,1,56,2|8,0:0|0:0,0:0:0:0:
196,340,134425,6,0,P|188:292|202:231,1,112,4|8,0:1|0:0,0:0:0:0:
256,164,134928,1,0,0:0:0:0:
336,195,135095,1,0,0:0:0:0:
416,226,135263,2,0,P|445:224|474:206,1,56,2|8,0:0|0:0,0:0:0:0:
346,40,135765,6,0,L|276:32,1,56,4|0,0:0|0:0,0:0:0:0:
240,113,136101,2,0,L|296:120,1,56,8|0,0:0|0:0,0:0:0:0:
208,36,136436,1,0,0:0:0:0:
122,52,136603,1,2,0:0:0:0:
94,134,136771,1,8,0:0:0:0:
94,134,137106,6,0,L|76:248,1,112,4|8,0:0|0:0,0:0:0:0:
52,336,137609,2,0,P|32:319|0:304,2,56,0|0|2,0:0|0:0|0:0,0:0:0:0:
136,308,138112,2,0,L|208:300,1,56,8|0,0:0|0:0,0:0:0:0:
268,352,138447,6,0,L|292:228,1,112,4|8,0:0|0:0,0:0:0:0:
352,144,138950,2,0,L|361:199,1,56,2|0,0:0|0:0,0:0:0:0:
264,160,139285,2,0,L|254:104,1,56,2|8,0:0|0:0,0:0:0:0:
338,39,139620,1,0,0:0:0:0:
338,39,139788,6,0,B|456:52,2,112,4|8|0,0:0|0:0|0:0,0:0:0:0:
254,104,140626,1,2,0:0:0:0:
183,40,140793,1,8,0:0:0:0:
183,40,141129,6,0,P|152:36|110:51,1,56,4|0,0:0|0:0,0:0:0:0:
110,150,141464,2,0,P|130:130|156:119,1,56,0|2,0:0|0:0,0:0:0:0:
177,203,141799,2,0,P|157:227|149:271,1,56,0|2,0:0|0:0,0:0:0:0:
234,319,142134,2,0,P|228:291|232:264,1,56,8|0,0:0|0:0,0:0:0:0:
319,344,142469,6,0,P|312:295|323:229,1,112,4|8,0:0|0:0,0:0:0:0:
358,147,142972,1,0,0:0:0:0:
264,160,143140,2,0,P|216:131|177:91,1,112,0|8,0:0|0:0,0:0:0:0:
149,7,143643,1,0,0:0:0:0:
238,28,143810,5,4,0:0:0:0:
83,92,143978,1,4,0:0:0:0:
83,92,144145,1,12,0:0:0:0:
264,48,146492,6,0,P|262:112|275:173,1,112,4|8,0:0|0:0,0:0:0:0:
340,216,146995,1,0,0:0:0:0:
414,171,147162,2,0,P|426:208|422:247,1,56,0|2,0:0|0:0,0:0:0:0:
376,296,147497,2,0,L|388:360,1,56,8|0,0:0|0:0,0:0:0:0:
292,288,147833,6,0,P|228:300|180:344,1,112,2|8,0:0|0:0,0:0:0:0:
112,368,148335,1,0,0:0:0:0:
32,328,148503,2,0,L|-4:336,2,28,0|0|2,0:0|0:0|0:0,0:0:0:0:
108,280,148838,2,0,P|112:244|108:212,1,56,8|0,0:0|0:0,0:0:0:0:
97,129,149173,6,0,P|151:138|193:176,1,112,2|8,0:0|0:0,0:0:0:0:
244,248,149676,1,0,0:0:0:0:
264,112,149844,2,0,P|280:148|280:188,1,56,0|2,0:0|0:0,0:0:0:0:
376,151,150179,2,0,P|371:190|351:224,1,56,8|0,0:0|0:0,0:0:0:0:
256,264,150514,6,0,L|372:288,1,112,2|8,0:0|0:0,0:0:0:0:
464,328,151017,2,0,L|456:256,1,56,0|0,0:0|0:0,0:0:0:0:
452,176,151352,2,0,P|460:144|476:120,2,56,2|8|0,0:0|0:0|0:0,0:0:0:0:
365,205,151855,6,0,P|321:157|305:97,1,112,2|8,0:0|0:0,0:0:0:0:
314,19,152358,1,0,0:0:0:0:
228,56,152525,2,0,P|192:98|177:152,2,112,0|8|2,0:0|0:0|0:0,0:0:0:0:
306,113,153363,5,0,0:0:0:0:
260,188,153531,2,0,L|264:248,1,56,8|0,0:0|0:0,0:0:0:0:
328,308,153866,1,2,0:0:0:0:
328,308,154034,1,4,0:0:0:0:
240,332,154201,1,8,0:0:0:0:
240,332,154369,1,2,0:0:0:0:
152,356,154536,6,0,L|80:348,1,56,4|0,0:0|0:0,0:0:0:0:
68,264,154872,2,0,L|140:272,1,56,8|0,0:0|0:0,0:0:0:0:
186,155,155207,6,0,L|193:211,1,56,0|2,0:0|0:0,0:0:0:0:
107,181,155543,2,0,L|101:126,1,56,8|2,0:0|0:0,0:0:0:0:
200,56,155877,5,10,0:0:0:0:
200,56,155961,1,8,0:0:0:0:
200,56,156045,2,0,L|155:60,2,28,8|0|6,0:0|0:0|0:0,0:0:0:0:
200,56,157218,6,0,P|264:28|308:40,1,112,4|8,0:1|0:0,0:0:0:0:
388,16,157721,1,2,0:0:0:0:
366,100,157888,2,0,L|371:164,1,56,0|2,0:0|0:0,0:0:0:0:
296,236,158224,2,0,L|291:180,1,56,8|0,0:0|0:0,0:0:0:0:
396,240,158559,6,0,P|364:296|368:368,1,112,2|8,0:0|0:0,0:0:0:0:
448,368,159062,1,0,0:0:0:0:
504,300,159229,2,0,L|496:232,1,56,0|2,0:0|0:0,0:0:0:0:
508,151,159564,2,0,L|501:95,1,56,8|0,0:0|0:0,0:0:0:0:
420,184,159900,6,0,L|296:172,1,112,2|8,0:0|0:0,0:0:0:0:
224,200,160402,1,2,0:0:0:0:
152,252,160570,2,0,P|136:212|140:176,1,56,0|2,0:0|0:0,0:0:0:0:
192,76,160905,2,0,P|188:103|175:128,1,56,8|0,0:0|0:0,0:0:0:0:
0,160,161240,6,0,P|48:122|108:142,1,112,2|8,0:0|0:0,0:0:0:0:
60,228,161743,1,0,0:0:0:0:
60,228,161911,2,0,L|72:300,1,56,0|2,0:0|0:0,0:0:0:0:
16,376,162246,2,0,P|76:364|92:364,1,56,8|2,0:0|0:0,0:0:0:0:
244,340,162581,6,0,P|192:352|136:320,2,112,6|8|0,0:0|0:0|0:0,0:0:0:0:
304,280,163419,1,2,0:0:0:0:
352,208,163587,2,0,L|340:136,1,56,8|0,0:0|0:0,0:0:0:0:
389,70,163922,6,0,P|341:58|317:62,1,56,2|0,0:0|0:0,0:0:0:0:
208,96,164257,1,8,0:0:0:0:
208,96,164425,2,0,P|256:108|280:104,1,56,2|0,0:0|0:0,0:0:0:0:
248,20,164760,1,2,0:0:0:0:
124,68,164928,2,0,L|132:144,1,56,8|2,0:0|0:2,0:0:0:0:
156,214,165263,6,0,L|144:272,1,56,2|2,0:0|0:0,0:0:0:0:
216,328,165598,2,0,L|228:274,1,56,8|2,0:0|0:0,0:0:0:0:
391,241,165933,6,0,L|380:296,1,56,0|2,0:0|0:0,0:0:0:0:
308,236,166268,2,0,L|320:178,1,56,8|2,0:0|0:0,0:0:0:0:
408,160,166603,6,0,P|420:112|400:32,1,112,6|12,0:0|0:0,0:0:0:0:
264,8,167106,2,0,P|252:56|272:136,1,112,12|2,0:0|0:0,0:0:0:0:
391,241,167609,2,0,P|343:229|263:249,1,112,12|4,0:0|0:1,0:0:0:0:
290,247,168615,5,8,0:0:0:0:
290,247,168950,1,2,0:0:0:0:
290,247,169285,6,0,L|232:272,1,56,2|2,0:0|0:0,0:0:0:0:
152,304,169955,2,0,P|116:276|68:268,1,84,8|8,0:0|0:0,0:0:0:0:
32,276,170626,1,2,0:0:0:0:
32,276,171296,5,8,0:0:0:0:
60,164,171631,1,0,0:0:0:0:
168,120,171967,1,0,0:0:0:0:
280,152,172302,2,0,L|292:120,1,28,2|0,0:0|0:0,0:0:0:0:
308,92,172637,2,0,P|336:88|364:92,1,56,8|2,0:0|0:0,0:0:0:0:
400,108,173140,1,0,0:0:0:0:
472,40,173307,5,2,0:0:0:0:
472,40,173643,1,0,0:0:0:0:
512,176,173978,2,0,P|484:172|456:176,1,56,8|2,0:0|0:0,0:0:0:0:
420,192,174481,1,0,0:0:0:0:
364,96,174648,5,2,0:0:0:0:
364,96,174983,1,2,0:0:0:0:
248,224,175319,2,0,P|280:224|304:228,1,56,8|2,0:0|0:0,0:0:0:0:
336,244,175821,1,8,0:0:0:0:
324,332,175989,6,0,P|368:328|420:272,1,112,2|8,0:0|0:0,0:0:0:0:
364,96,176995,1,2,0:0:0:0:
364,96,177162,1,0,0:0:0:0:
364,96,177330,2,0,L|304:112,2,56,4|2|8,0:0|0:0|0:0,0:0:0:0:
256,220,178335,6,0,L|248:260,2,28,2|0|4,0:0|0:0|0:0,0:0:0:0:
256,220,180011,5,0,0:0:0:0:
250,211,181352,5,2,0:0:0:0:
244,202,182693,5,2,0:0:0:0:
238,193,184034,6,0,P|184:184|123:191,1,112,2|2,0:0|0:0,0:0:0:0:
442,227,185374,2,0,P|387:233|332:224,1,112,2|2,0:0|0:0,0:0:0:0:
276,40,186715,6,0,L|284:100,1,56,2|2,0:0|0:0,0:0:0:0:
296,172,187218,1,0,0:0:0:0:
202,90,187386,2,0,L|210:146,1,56,2|2,0:0|0:0,0:0:0:0:
223,223,187889,1,0,0:0:0:0:
99,175,188056,6,0,L|124:185,1,28,2|0,0:0|0:0,0:0:0:0:
156,284,188391,2,0,L|130:273,1,28,10|0,0:0|0:0,0:0:0:0:
223,223,188726,6,0,L|248:233,1,28,2|0,0:0|0:0,0:0:0:0:
280,332,189061,2,0,L|254:321,1,28,10|0,0:0|0:0,0:0:0:0:
340,260,189397,5,2,0:0:0:0:
408,336,189564,1,10,0:0:0:0:
340,260,189732,2,0,L|336:232,1,28,2|2,0:0|0:0,0:0:0:0:
424,192,190067,5,10,0:0:0:0:
492,268,190234,1,10,0:0:0:0:
424,192,190402,2,0,L|420:156,1,28,2|10,0:0|0:0,0:0:0:0:
324,100,190738,5,2,0:0:0:0:
324,100,190821,1,2,0:0:0:0:
324,100,190905,2,0,L|326:123,2,14,2|2|4,0:0|0:0|0:1,0:0:0:0:
324,100,192078,6,2,P|252:84|180:84,1,140,6|8,1:0|1:2,0:1:0:0:
108,40,192581,1,0,3:0:0:0:
40,100,192749,2,0,L|48:176,1,70,2|2,0:1|3:2,0:0:0:0:
140,224,193084,2,0,L|132:148,1,70,8|2,1:2|3:1,0:0:0:0:
53,264,193419,6,2,P|120:268|184:312,1,140,0|8,1:2|1:2,0:1:0:0:
252,368,193922,1,0,3:0:0:0:
316,300,194090,2,0,P|324:252|320:224,1,70,0|2,1:0|3:1,0:0:0:0:
252,140,194425,2,0,L|332:152,1,70,8|2,1:2|3:1,0:0:0:0:
437,82,194760,6,2,L|298:61,2,140,4|8|2,1:2|0:0|0:3,0:1:0:0:
512,140,195598,1,2,3:1:0:0:
456,216,195765,2,0,P|416:192|400:164,1,70,8|2,1:2|3:3,0:0:0:0:
280,164,196101,6,0,P|320:188|336:216,1,70,2|0,1:1|3:0,0:0:0:0:
256,250,196436,1,10,1:1:0:0:
164,179,196603,2,2,P|152:252|164:320,1,140,10|2,1:1|3:2,0:1:0:0:
72,248,197106,2,2,P|79:178|108:115,1,140,10|4,1:0|1:2,0:1:0:0:
242,35,197609,5,0,0:0:0:0:
198,115,197777,1,8,1:2:0:0:
150,36,197944,1,2,0:1:0:0:
242,35,198112,2,0,P|286:35|322:43,1,70,2|2,0:1|0:0,0:0:0:0:
404,8,198447,2,0,P|426:46|437:81,1,70,8|2,1:2|0:1,0:0:0:0:
509,135,198782,6,2,P|489:177|409:241,1,140,4|8,0:1|1:2,0:1:0:0:
333,210,199285,1,2,3:3:0:0:
272,276,199453,2,0,P|276:320|300:348,1,70,2|2,0:1|3:1,0:0:0:0:
333,210,199788,5,8,3:2:0:0:
268,144,199955,1,0,1:0:0:0:
192,216,200123,2,0,P|152:220|56:168,1,140,4|8,1:2|1:2,0:0:0:0:
36,28,200626,1,2,0:1:0:0:
36,28,200793,6,0,L|24:112,1,70,2|2,0:1|3:2,0:0:0:0:
128,112,201129,2,0,L|140:28,1,70,8|0,1:2|0:0,0:0:0:0:
64,178,201464,6,0,L|52:262,1,70,6|2,3:2|0:1,0:0:0:0:
156,262,201800,2,0,L|168:178,1,70,8|8,1:2|0:0,0:0:0:0:
288,124,202134,6,2,L|204:112,1,70,2|2,0:1|0:0,0:1:0:0:
260,220,202469,2,0,L|344:208,1,70,8|10,1:2|1:1,0:0:0:0:
394,125,202805,6,2,P|427:166|426:257,2,140,6|8|2,1:0|1:2|0:1,0:1:0:0:
344,44,203643,1,2,0:0:0:0:
288,124,203810,2,0,L|296:208,1,70,8|2,1:2|3:1,0:0:0:0:
211,254,204145,6,2,L|197:114,1,140,2|8,0:0|1:2,0:1:0:0:
212,15,204648,1,2,3:0:0:0:
212,15,204816,2,0,P|171:17|138:34,1,70,2|2,3:1|0:0,0:0:0:0:
9,73,205151,2,0,P|43:74|76:88,1,70,8|2,1:2|3:1,0:0:0:0:
120,232,205486,6,2,P|71:183|4:168,1,140,2|8,0:0|1:2,0:1:0:0:
24,271,205989,1,2,0:1:0:0:
107,341,206157,2,2,P|166:306|235:308,1,140,2|10,0:1|1:2,0:1:0:0:
316,352,206659,1,2,0:0:0:0:
396,304,206827,6,0,L|408:232,2,70,2|2|8,0:0|1:0|1:2,0:1:0:0:
312,260,207330,1,2,1:0:0:0:
268,176,207497,2,2,P|264:128|280:96,1,70,2|2,1:0|0:0,0:1:0:0:
406,115,207833,2,0,P|379:137|346:146,1,70,8|0,1:2|1:0,0:0:0:0:
285,26,208168,6,2,P|356:16|432:40,1,140,2|8,0:0|1:2,0:1:0:0:
500,88,208671,1,0,0:1:0:0:
464,176,208838,2,0,P|464:224|476:264,1,70,2|2,3:1|0:0,0:0:0:0:
376,216,209173,2,2,P|376:168|388:128,1,70,8|2,1:2|3:1,0:1:0:0:
288,176,209509,6,2,P|228:140|128:140,1,140,2|8,0:0|1:2,0:1:0:0:
80,176,210011,1,2,1:0:0:0:
88,84,210179,1,2,0:1:0:0:
159,133,210347,2,0,P|171:181|167:209,1,70,2|8,0:0|1:2,0:0:0:0:
102,268,210682,1,0,0:0:0:0:
224,344,210849,6,0,L|260:196,1,140,2|8,0:0|1:2,0:0:0:0:
380,88,211352,2,0,P|324:128|248:116,1,140,8|2,1:2|0:0,0:0:0:0:
360,236,211855,2,0,P|416:196|492:208,1,140,8|2,1:2|0:0,0:0:0:0:
452,352,212358,6,0,P|440:304|444:268,1,70,8|2,1:2|0:0,0:0:0:0:
360,236,212693,1,8,1:2:0:0:
292,304,212860,2,0,L|260:332,2,35,2|2|2,0:0|0:0|3:0,0:0:0:0:
276,208,213196,1,2,0:0:0:0:
360,120,213363,1,2,3:0:0:0:
360,120,213447,1,0,0:0:0:0:
360,120,213531,6,0,L|196:108,1,140,4|8,1:0|1:2,0:0:0:0:
140,64,214034,1,2,0:0:0:0:
64,116,214201,2,0,P|37:89|28:44,2,70,8|2|8,1:0|3:2|1:2,0:0:0:0:
147,155,214704,1,2,3:0:0:0:
52,224,214872,6,0,P|71:288|150:323,1,140,8|8,1:1|1:2,0:0:0:0:
232,344,215374,2,0,P|227:303|232:256,2,70,10|2|2,1:1|0:1|0:0,0:0:0:0:
335,304,215877,1,10,1:1:0:0:
335,304,216212,6,0,L|411:315,1,70,4|0,1:1|0:0,0:0:0:0:
500,344,216548,2,0,L|489:268,1,70,8|2,1:2|0:0,0:0:0:0:
348,152,216883,2,0,L|358:221,1,70,2|2,0:3|3:2,0:0:0:0:
512,191,217219,2,0,L|443:181,1,70,8|2,1:2|3:0,0:0:0:0:
291,48,217553,6,2,P|360:48|421:83,1,140,2|0,1:0|0:0,0:1:0:0:
328,168,218056,2,2,P|268:132|199:133,1,140,2|2,1:0|1:2,0:1:0:0:
128,256,218559,2,2,P|187:220|256:220,1,140,8|4,1:0|1:0,0:0:0:0:
312,296,219062,5,0,0:0:0:0:
404,268,219229,2,0,P|448:283|484:307,1,70,8|8,1:2|1:0,0:0:0:0:
512,171,219564,2,0,P|468:186|432:210,1,70,0|2,0:0|3:2,0:0:0:0:
404,74,219900,2,0,P|448:89|484:113,1,70,8|2,1:2|3:0,0:0:0:0:
347,164,220235,6,0,P|303:116|231:80,1,140,2|8,0:0|1:0,0:0:0:0:
128,147,220738,1,2,0:1:0:0:
128,147,220905,2,2,L|216:159,1,70,0|2,0:0|3:3,0:1:0:0:
148,63,221240,2,0,L|60:51,1,70,8|2,1:1|0:1,0:0:0:0:
48,201,221576,6,0,P|33:169|32:135,1,70,4|0,1:2|0:0,0:0:0:0:
160,206,221911,2,0,P|137:179|127:146,1,70,8|2,1:2|0:0,0:0:0:0:
248,76,222246,6,0,P|238:109|216:136,1,70,8|2,1:2|0:0,0:0:0:0:
344,64,222581,2,0,P|342:99|328:131,1,70,8|0,1:2|1:0,0:0:0:0:
248,231,222916,6,0,P|304:260|400:248,1,140,4|8,0:0|1:2,0:0:0:0:
260,339,223419,2,0,P|204:310|108:322,1,140,8|0,0:0|1:0,0:0:0:0:
44,347,223922,1,8,1:0:0:0:
44,347,224090,1,0,1:0:0:0:
100,223,224257,6,0,P|92:165|76:133,1,83.9999974365235,4|2,1:0|0:0,0:0:0:0:
200,255,224928,2,0,P|220:191|304:115,1,167.999994873047,0|4,1:0|1:3,0:0:0:0:
380,95,225933,1,0,1:0:0:0:
504,276,226268,2,0,L|376:256,1,125.999996154785,0|0,1:0|1:0,0:0:0:0:
348,252,226939,5,4,1:3:0:0:
348,252,227609,2,0,P|328:320|240:328,1,167.999994873047,0|4,1:0|1:3,0:0:0:0:
247,222,228615,1,0,1:0:0:0:
160,104,228950,2,0,P|152:160|160:200,1,83.9999974365235,0|0,1:0|0:0,0:0:0:0:
208,24,229620,6,0,P|144:77|64:99,1,167.999994873047,4|0,1:0|1:0,0:0:0:0:
0,188,230626,1,0,1:0:0:0:
150,274,230961,2,0,L|68:260,1,83.9999974365235,4|0,1:3|1:0,0:0:0:0:
293,278,231631,2,0,P|298:218|261:144,1,125.999996154785,0|0,1:0|1:0,0:0:0:0:
244,140,232302,5,4,1:3:0:0:
248,143,232972,1,0,1:0:0:0:
248,143,233140,2,0,L|232:19,1,125.999996154785,0|4,1:0|1:3,0:0:0:0:
416,96,233978,6,0,L|332:84,1,83.9999974365235,4|4,1:2|1:2,0:0:0:0:
154,66,234648,1,4,0:0:0:0:
154,66,234816,1,2,0:0:0:0:
154,66,234983,6,0,B|135:129|70:146|70:146|87:212|42:259,1,245,4|0,0:1|0:0,0:0:0:0:
262,234,236324,6,0,P|176:185|188:284,1,245,4|0,0:0|0:0,0:0:0:0:
362,231,237665,6,0,B|362:191|332:161|332:161|426:195|506:167,1,245,4|0,0:0|0:0,0:0:0:0:
384,36,239006,6,0,P|336:116|184:140,1,245,4|0,0:0|0:0,0:0:0:0:
80,72,240347,6,0,B|120:32|120:32|64:220,1,245,6|0,0:0|0:0,0:0:0:0:
28,308,241687,6,0,P|52:300|72:296,1,35,2|0,0:0|0:0,0:0:0:0:
136,336,242022,2,0,P|147:313|158:296,1,35,2|0,0:0|0:0,0:0:0:0:
232,279,242358,2,0,P|224:255|220:235,1,35,2|0,0:0|0:0,0:0:0:0:
259,170,242693,2,0,P|236:158|219:147,1,35,2|0,0:0|0:0,0:0:0:0:
167,83,243028,6,0,B|384:44|384:44|332:80,1,280,4|4,0:0|0:0,0:0:0:0:
256,192,244453,12,6,245710,0:0:0:0:
