osu file format v14

[General]
AudioFilename: audio.mp3
AudioLeadIn: 0
PreviewTime: 80123
Countdown: 0
SampleSet: Soft
StackLeniency: 0.7
Mode: 0
LetterboxInBreaks: 0
WidescreenStoryboard: 0

[Editor]
Bookmarks: 21799,35207,45933,56659,67386,80793,91520,102246,112972,123698,133084,146492,157218,167944,178671,192078,202805,213531,224257,234983,245710,255095
DistanceSpacing: 0.7
BeatDivisor: 4
GridSize: 4
TimelineZoom: 1.900006

[Metadata]
Title:Rainbow after snow
TitleUnicode:Rainbow after snow
Artist:Nekomata Master feat. Hayashi Momoko
ArtistUnicode:猫叉Master feat. 林ももこ
Creator:Yohanes
Version:Double Rainbow
Source:beatmania IIDX 20 tricoro
Tags:Crevice Naoyuki Sato dnb drum n bass jubeat saucer Collab Collaboration Mirash Mentai Laurier yaldo_27 Extra
BeatmapID:1777144
BeatmapSetID:849946

[Difficulty]
HPDrainRate:6
CircleSize:4.2
OverallDifficulty:8
ApproachRate:9.2
SliderMultiplier:1.8
SliderTickRate:1

[Events]
//Background and Video events
0,0,"asdf.jpg",0,0
//Break Periods
2,123898,131173
2,144848,145821
//Storyboard Layer 0 (Background)
//Storyboard Layer 1 (Fail)
//Storyboard Layer 2 (Pass)
//Storyboard Layer 3 (Foreground)
//Storyboard Sound Samples

[TimingPoints]
347,335.195530726257,4,2,1,60,1,0
347,-200,4,2,1,60,0,0
21799,-125,4,2,1,60,0,0
40402,-125,4,2,0,60,0,0
40570,-125,4,2,1,60,0,0
43252,-125,4,2,0,60,0,0
43587,-125,4,2,1,60,0,0
43754,-125,4,2,0,60,0,0
44090,-125,4,2,1,60,0,0
44341,-125,4,2,0,60,0,0
44592,-125,4,2,1,60,0,0
44928,-125,4,2,0,20,0,0
45933,-125,4,2,1,60,0,0
55989,-125,4,2,0,60,0,0
56073,-125,4,2,1,60,0,0
56324,-100,4,2,1,60,0,0
56408,-125,4,2,0,40,0,0
56659,-125,4,2,1,60,0,0
57330,-250,4,2,1,40,0,0
64369,-250,4,2,2,40,0,0
64536,-250,4,2,1,40,0,0
65710,-250,4,2,2,40,0,0
66715,-250,4,2,1,40,0,0
76771,-166.666666666667,4,2,1,60,0,0
80123,-285.714285714286,4,2,1,60,0,0
80710,-285.714285714286,4,2,1,5,0,0
80793,-100,4,2,1,70,0,1
88587,-100,4,2,2,70,0,1
89173,-100,4,2,1,70,0,1
89341,-100,4,2,2,70,0,1
89676,-100,4,2,1,70,0,1
90011,-100,4,2,2,70,0,1
90514,-100,4,2,1,70,0,1
96631,-100,4,2,2,70,0,1
96883,-100,4,2,1,70,0,1
112972,-125,4,2,1,50,0,0
113307,-125,4,2,2,50,0,0
113643,-125,4,2,1,50,0,0
116995,-125,4,2,2,50,0,0
117330,-125,4,2,1,50,0,0
123363,-125,4,2,2,50,0,0
123531,-125,4,2,1,50,0,0
133084,-125,4,3,1,60,0,0
143810,-125,4,3,1,70,0,0
144313,-125,4,3,1,40,0,0
144564,-125,4,3,1,20,0,0
146492,-125,4,2,1,60,0,0
155626,-125,4,2,0,60,0,0
155877,-125,4,2,1,60,0,0
156212,-250,4,2,0,20,0,0
157218,-125,4,2,1,60,0,0
162414,-125,4,2,0,60,0,0
162581,-125,4,2,1,60,0,0
165095,-125,4,2,0,60,0,0
165263,-125,4,2,1,60,0,0
165430,-125,4,2,0,60,0,0
165598,-125,4,2,1,60,0,0
165765,-125,4,2,0,60,0,0
166101,-125,4,2,1,60,0,0
166184,-125,4,2,0,60,0,0
166268,-125,4,2,1,60,0,0
166436,-125,4,2,0,60,0,0
166520,-125,4,2,1,60,0,0
168615,-250,4,2,1,40,0,0
168950,-250,4,2,2,40,0,0
169285,-250,4,2,1,40,0,0
170291,-250,4,2,0,40,0,0
170458,-250,4,2,1,40,0,0
172972,-250,4,2,2,40,0,0
173140,-250,4,2,1,40,0,0
174313,-250,4,2,2,40,0,0
174481,-250,4,2,1,40,0,0
175654,-250,4,2,2,40,0,0
175821,-250,4,2,1,40,0,0
176995,-250,4,2,2,40,0,0
177330,-250,4,2,2,40,0,0
177665,-250,4,2,1,40,0,0
179341,-250,4,2,0,40,0,0
179425,-250,4,2,1,40,0,0
181017,-250,4,2,0,40,0,0
181101,-250,4,2,1,40,0,0
182022,-250,4,2,0,40,0,0
182106,-250,4,2,1,40,0,0
183363,-250,4,2,0,40,0,0
183447,-250,4,2,1,40,0,0
186715,-125,4,2,1,40,0,0
191073,-125,4,2,3,80,0,0
191408,-285.714285714286,4,2,1,40,0,0
192078,-100,4,2,1,70,0,1
202134,-100,4,2,2,70,0,1
202302,-100,4,2,1,70,0,1
202386,-100,4,2,2,70,0,1
202469,-100,4,2,1,70,0,1
206576,-100,4,2,0,70,0,1
206827,-100,4,2,1,70,0,1
211017,-100,4,2,2,70,0,1
211184,-100,4,2,1,70,0,1
211520,-100,4,2,2,70,0,1
211687,-100,4,2,1,70,0,1
211939,-100,4,2,2,70,0,1
212190,-100,4,2,1,70,0,1
216045,-100,4,2,2,70,0,1
216212,-100,4,2,1,70,0,1
218224,-100,4,2,2,70,0,1
218307,-100,4,2,1,70,0,1
224257,-200,4,2,0,50,0,0
234983,-200,4,2,0,40,0,0
238000,-200,4,2,2,40,0,0
238335,-200,4,2,0,40,0,0
241687,-200,4,2,2,40,0,0
241855,-200,4,2,0,40,0,0
243028,-200,4,2,2,40,0,0
246045,-200,4,2,0,30,0,0
251408,-200,4,2,0,25,0,0
253754,-200,4,2,0,20,0,0
255095,-200,4,2,0,10,0,0

[Colours]
Combo1 : 255,94,55
Combo2 : 173,255,95
Combo3 : 17,254,176
Combo4 : 255,88,100

[HitObjects]
256,192,20291,12,0,21631,0:0:0:0:
152,104,21799,6,0,B|171:137|165:183,1,72,6|0,0:0|0:0,0:0:0:0:
240,296,22134,2,0,B|220:216|268:140,1,144
268,76,22637,1,0,0:0:0:0:
280,160,22805,1,0,0:0:0:0:
449,360,23140,5,2,0:0:0:0:
380,313,23307,1,0,0:0:0:0:
452,276,23475,2,0,B|368:292|396:260|308:276,1,144,2|0,0:0|0:0,0:0:0:0:
164,344,23978,1,0,0:0:0:0:
248,356,24145,2,0,L|340:368,1,72
200,224,24481,1,2,0:0:0:0:
200,224,24816,6,0,B|168:252|108:260,1,72,2|0,0:0|0:0,0:0:0:0:
68,140,25151,2,0,B|100:168|160:176,1,72
204,52,25486,2,0,B|171:54|139:82,1,72
352,144,25821,5,2,0:0:0:0:
280,184,25989,1,2,0:0:0:0:
212,136,26157,2,0,B|188:208|224:292,1,144,2|0,0:0|0:0,0:0:0:0:
218,277,26659,1,0,0:0:0:0:
296,360,26827,2,0,L|220:352,1,72
2,251,27162,1,2,0:0:0:0:
2,251,27497,6,0,L|16:321,1,72
18,231,27832,2,0,L|34:311,1,72
34,211,28168,2,0,L|48:281,1,72
50,191,28503,6,0,B|90:195|130:183,1,72,2|0,0:0|0:0,0:0:0:0:
256,28,28838,2,0,B|257:112|187:160,1,144,2|0,0:0|0:0,0:0:0:0:
128,104,29341,1,0,0:0:0:0:
192,164,29509,2,0,L|200:244,1,72
248,332,29844,6,0,B|208:316|160:324,1,72,2|0,0:0|0:0,0:0:0:0:
284,252,30179,2,0,B|314:257|354:241,1,72,2|0,0:0|0:0,0:0:0:0:
469,368,30514,2,0,B|408:328|332:336,1,144
428,40,31184,5,2,0:0:0:0:
448,124,31352,1,2,0:0:0:0:
400,52,31520,2,0,L|244:40,1,144,2|0,0:0|0:0,0:0:0:0:
112,96,32022,1,0,0:0:0:0:
153,27,32190,2,0,B|179:42|191:86,1,72
72,204,32525,6,0,P|179:203|218:305,1,216,4|0,0:0|0:0,0:0:0:0:
116,344,33196,2,0,L|129:272,1,72,2|0,0:0|0:0,0:0:0:0:
280,112,33531,2,0,L|266:183,1,72,2|0,0:0|0:0,0:0:0:0:
420,329,33866,5,2,0:0:0:0:
320,310,34034,1,2,0:0:0:0:
220,291,34201,1,8,0:0:0:0:
220,291,35207,6,0,P|225:215|234:130,1,144,4|8,0:1|0:0,0:0:0:0:
169,108,35710,1,2,0:0:0:0:
169,108,35793,1,0,0:0:0:0:
169,108,35877,1,0,0:0:0:0:
288,43,36045,1,2,0:0:0:0:
347,99,36212,2,0,P|384:98|422:96,1,72,8|0,0:0|0:0,0:0:0:0:
221,93,36548,6,0,P|145:88|60:79,1,144,2|8,0:0|0:0,0:0:0:0:
18,129,37050,1,0,0:0:0:0:
108,232,37218,2,0,P|101:287|98:317,1,72,0|2,0:0|0:0,0:0:0:0:
99,303,37469,1,0,0:0:0:0:
99,303,37553,1,8,0:0:0:0:
181,330,37721,1,8,0:0:0:0:
342,286,37888,6,0,P|396:292|472:309,2,108,2|8|8,0:0|0:0|0:0,0:0:0:0:
290,232,38559,1,0,0:0:0:0:
331,76,38726,1,2,0:0:0:0:
242,37,38894,2,0,P|248:97|250:126,1,72,8|0,0:0|0:0,0:0:0:0:
510,197,39229,5,2,0:0:0:0:
510,197,39564,2,0,L|429:191,1,72,8|0,0:0|0:0,0:0:0:0:
374,147,39900,1,0,0:0:0:0:
299,174,40067,1,2,0:0:0:0:
191,135,40235,1,8,0:0:0:0:
39,181,40402,1,2,0:0:0:0:
112,209,40570,6,0,P|172:222|201:297,1,144,4|8,0:1|0:0,0:0:0:0:
49,330,41073,1,2,0:0:0:0:
49,330,41240,2,0,P|50:285|49:251,1,72,0|2,0:0|0:0,0:0:0:0:
286,137,41576,2,0,P|279:190|281:247,1,108,8|0,0:0|0:0,0:0:0:0:
274,268,41911,6,0,L|421:258,2,144,2|8|2,0:0|0:0|0:0,0:0:0:0:
206,302,42749,1,6,0:0:0:0:
256,360,42916,1,8,0:0:0:0:
326,332,43084,1,2,0:0:0:0:
208,222,43252,5,6,0:0:0:0:
169,200,43419,1,2,0:0:0:0:
125,227,43587,1,8,0:0:0:0:
238,155,43754,5,2,0:0:0:0:
241,137,43922,1,2,0:0:0:0:
244,120,44090,1,2,0:0:0:0:
317,186,44257,5,8,0:0:0:0:
359,179,44341,1,2,0:0:0:0:
401,173,44425,1,2,0:0:0:0:
443,167,44509,1,2,0:0:0:0:
467,122,44592,5,10,0:0:0:0:
436,76,44676,1,8,0:0:0:0:
383,64,44760,2,0,L|333:73,1,36,8|0,0:0|0:0,0:0:0:0:
250,34,44928,5,6,0:0:0:0:
246,39,45011,1,2,0:0:0:0:
243,45,45095,1,2,0:0:0:0:
241,52,45179,1,0,0:0:0:0:
240,59,45263,1,2,0:0:0:0:
241,66,45347,1,0,0:0:0:0:
242,72,45430,1,2,0:0:0:0:
244,78,45514,1,0,0:0:0:0:
247,84,45598,1,2,0:0:0:0:
247,84,45933,6,0,B|269:172|249:260,1,144,4|8,0:0|0:0,0:0:0:0:
212,300,46436,1,0,0:0:0:0:
56,216,46603,2,0,L|140:220,1,72,0|2,0:0|0:0,0:0:0:0:
124,304,46939,2,0,L|40:300,1,72,8|0,0:0|0:0,0:0:0:0:
4,136,47274,5,2,0:0:0:0:
91,135,47441,1,0,0:0:0:0:
91,135,47525,1,0,0:0:0:0:
91,135,47609,1,8,0:0:0:0:
184,216,47777,1,0,0:0:0:0:
259,35,47944,1,0,0:0:0:0:
172,42,48112,1,2,0:0:0:0:
177,129,48279,1,8,0:0:0:0:
265,123,48447,1,0,0:0:0:0:
271,211,48615,6,0,L|371:223,1,72,2|0,0:0|0:0,0:0:0:0:
416,228,48866,1,0,0:0:0:0:
416,228,48950,2,0,B|444:196|503:205,1,72,8|0,0:0|0:0,0:0:0:0:
360,356,49285,2,0,B|378:323|370:287,1,72,0|2,0:0|0:0,0:0:0:0:
168,328,49620,1,8,0:0:0:0:
268,332,49788,1,0,0:0:0:0:
164,300,49955,6,0,L|152:220,1,72,2|0,0:0|0:0,0:0:0:0:
117,6,50291,1,8,0:0:0:0:
212,40,50458,2,0,B|240:73|236:122,1,72,8|0,0:0|0:0,0:0:0:0:
66,195,50793,1,2,0:0:0:0:
152,99,50961,1,8,0:0:0:0:
256,228,51129,1,0,0:0:0:0:
312,152,51296,6,0,B|384:140|476:156,1,144,2|8,0:0|0:0,0:0:0:0:
398,281,51799,2,0,B|355:289|314:277,1,72
256,228,52134,1,2,0:0:0:0:
348,72,52302,2,0,B|391:64|432:76,1,72,8|0,0:0|0:0,0:0:0:0:
260,83,52637,2,0,B|217:91|176:79,1,72,2|0,0:0|0:0,0:0:0:0:
8,45,52972,5,8,0:0:0:0:
153,3,53140,1,8,0:0:0:0:
25,47,53307,1,0,0:0:0:0:
96,270,53475,1,2,0:0:0:0:
14,217,53643,2,0,L|18:137,1,72,8|0,0:0|0:0,0:0:0:0:
188,156,53978,5,2,0:0:0:0:
108,172,54146,1,0,0:0:0:0:
269,162,54313,5,8,0:0:0:0:
223,229,54481,1,0,0:0:0:0:
330,108,54648,5,0,0:0:0:0:
345,188,54816,1,2,0:0:0:0:
156,328,54983,1,8,0:0:0:0:
141,248,55151,1,0,0:0:0:0:
156,328,55319,5,6,0:0:0:0:
263,339,55486,1,0,0:0:0:0:
388,313,55654,6,0,P|380:329|369:343,1,36,12|0,0:0|0:0,0:0:0:0:
226,257,55821,2,0,P|234:241|246:228,1,36,12|0,0:0|0:0,0:0:0:0:
422,112,55989,5,2,0:0:0:0:
419,139,56072,1,0,0:0:0:0:
407,163,56156,1,2,0:0:0:0:
388,181,56240,1,0,0:0:0:0:
363,192,56324,2,0,P|342:182|312:180,1,45,12|0,0:0|0:0,0:0:0:0:
44,196,56492,5,2,0:0:0:0:
40,200,56575,1,2,0:0:0:0:
37,205,56659,1,4,0:0:0:0:
37,205,57330,6,0,P|74:201|189:200,1,144,8|2,0:0|0:0,0:0:0:0:
242,241,58335,1,2,0:0:0:0:
296,189,58671,2,0,P|296:160|299:105,1,72,8|0,0:0|0:0,0:0:0:0:
298,117,59173,1,2,0:0:0:0:
219,44,59341,6,0,P|219:82|225:168,1,108,2|0,0:0|0:0,0:0:0:0:
155,177,60011,2,0,P|117:179|72:176,2,72,8|0|0,0:0|0:0|0:0,0:0:0:0:
139,250,61017,1,2,0:0:0:0:
254,373,61352,5,8,0:0:0:0:
267,213,61603,1,0,0:0:0:0:
253,228,61687,1,8,0:0:0:0:
259,301,61855,1,8,0:0:0:0:
335,263,62022,6,0,P|370:260|421:261,2,72,2|0|8,0:0|0:0|0:0,0:0:0:0:
269,222,63028,1,0,0:0:0:0:
211,168,63363,2,0,P|176:165|125:166,1,72,2|2,0:0|0:0,0:0:0:0:
139,165,63866,1,0,0:0:0:0:
68,171,64034,2,0,P|71:196|72:213,1,36,8|0,0:0|0:0,0:0:0:0:
106,103,64369,5,2,0:0:0:0:
106,103,64536,1,0,0:0:0:0:
106,103,64704,2,0,P|105:64|106:27,1,72,2|0,0:0|0:0,0:0:0:0:
294,15,65374,2,0,P|294:50|293:86,1,72,8|2,0:0|0:0,0:0:0:0:
227,120,65877,1,0,0:0:0:0:
276,225,66045,2,0,P|279:190|342:157,1,108,4|0,0:0|0:0,0:0:0:0:
400,207,66715,2,0,P|402:239|405:281,2,72,8|2|4,0:0|0:0|0:1,0:0:0:0:
400,208,68056,6,0,L|280:196,1,108
119,155,68726,2,0,B|200:179|189:271,1,144,2|0,0:0|0:0,0:0:0:0:
432,212,69732,5,0,0:0:0:0:
432,212,70067,2,0,L|396:322,1,108,2|0,0:0|0:0,0:0:0:0:
312,360,70738,5,0,0:0:0:0:
256,300,71073,1,0,0:0:0:0:
173,297,71408,1,2,0:0:0:0:
112,353,71743,5,0,0:0:0:0:
173,297,72078,1,0,0:0:0:0:
256,300,72414,1,0,0:0:0:0:
312,360,72749,5,2,0:0:0:0:
496,288,73419,1,2,0:0:0:0:
253,171,74090,5,2,0:0:0:0:
312,360,74760,1,2,0:0:0:0:
340,136,75430,6,0,L|332:84,1,36,2|0,0:0|0:0,0:0:0:0:
256,128,75765,2,0,L|248:76,1,36,2|0,0:0|0:0,0:0:0:0:
381,249,76101,2,0,L|376:214,1,36,2|0,0:0|0:0,0:0:0:0:
297,241,76436,2,0,L|292:206,1,36,2|0,0:0|0:0,0:0:0:0:
52,308,76771,6,0,B|108:308|160:324,1,107.999996704102,2|2,0:0|0:0,0:0:0:0:
216,380,77274,1,0,0:0:0:0:
108,232,77441,2,0,B|163:236|214:257,1,107.999996704102,2|2,0:0|0:0,0:0:0:0:
264,320,77944,1,0,0:0:0:0:
316,248,78112,5,2,0:0:0:0:
316,236,78279,1,0,0:0:0:0:
368,340,78447,1,2,0:0:0:0:
368,352,78614,1,0,0:0:0:0:
424,216,78782,5,2,0:0:0:0:
324,124,78950,1,2,0:0:0:0:
204,188,79117,1,2,0:0:0:0:
436,212,79285,5,2,0:0:0:0:
196,180,79453,1,2,0:0:0:0:
324,112,79620,5,2,0:0:0:0:
368,340,79788,1,8,0:0:0:0:
368,352,80123,6,2,B|304:340|324:356|248:340,1,110.249996635437,0|0,0:0|0:0,0:1:0:0:
258,342,80793,6,2,P|254:262|254:156,1,180,6|8,1:0|1:2,1:0:0:0:
335,119,81296,1,0,0:0:0:0:
335,119,81380,1,0,0:0:0:0:
335,119,81464,1,2,0:1:0:0:
387,191,81631,1,2,0:0:0:0:
433,113,81799,2,2,P|434:61|437:17,1,90,8|2,1:2|0:1,1:0:0:0:
242,79,82134,6,2,P|187:76|46:73,1,180,0|8,1:2|1:2,1:0:0:0:
10,146,82637,1,0,0:0:0:0:
166,212,82805,1,2,0:1:0:0:
82,245,82972,2,0,P|87:182|89:141,1,90,2|8,0:0|1:2,0:0:0:0:
275,149,83307,5,2,0:1:0:0:
349,156,83475,2,2,P|338:241|333:340,1,180,2|8,1:2|1:2,1:0:0:0:
419,362,83978,1,0,0:0:0:0:
419,362,84062,1,0,0:0:0:0:
419,362,84145,2,2,P|424:305|425:266,1,90,2|2,0:1|0:0,1:0:0:0:
232,276,84481,2,2,P|233:320|237:365,1,90,8|2,1:2|0:1,1:0:0:0:
403,131,84816,5,2,1:2:0:0:
409,114,84900,1,0,0:0:0:0:
411,96,84983,1,2,0:1:0:0:
405,78,85067,1,0,1:0:0:0:
394,63,85151,1,8,1:2:0:0:
377,55,85235,1,2,0:1:0:0:
350,53,85319,1,0,1:0:0:0:
330,70,85402,1,0,0:0:0:0:
303,87,85486,5,2,1:0:0:0:
262,67,85570,1,0,0:0:0:0:
217,59,85654,1,2,0:2:0:0:
173,70,85738,1,0,1:0:0:0:
128,64,85821,1,8,1:2:0:0:
93,92,85905,1,0,0:0:0:0:
102,136,85989,1,8,1:2:0:0:
95,180,86073,1,0,0:0:0:0:
73,226,86157,6,2,B|179:210|149:272|253:256,1,180,6|8,1:0|1:2,1:0:0:0:
328,291,86659,1,2,0:1:0:0:
460,209,86827,2,2,P|415:206|371:211,1,90,2|2,1:1|0:0,1:0:0:0:
261,333,87162,5,8,1:2:0:0:
292,179,87330,1,2,0:1:0:0:
421,308,87497,2,2,P|470:286|478:162,1,180,2|8,1:2|1:2,1:0:0:0:
331,95,88000,1,2,1:1:0:0:
331,95,88084,1,0,0:0:0:0:
331,95,88168,2,2,P|392:92|445:97,1,90,2|2,1:1|0:0,1:0:0:0:
231,175,88503,5,8,1:2:0:0:
225,153,88587,1,2,0:0:0:0:
220,130,88671,1,0,0:0:0:0:
215,108,88754,1,4,0:0:0:0:
208,86,88838,2,0,P|160:93|80:203,1,180,4|8,1:0|1:2,0:0:0:0:
257,335,89341,5,2,0:0:0:0:
252,312,89425,1,0,0:0:0:0:
246,290,89509,2,0,P|211:279|156:281,1,90,4|2,0:0|0:0,0:0:0:0:
336,163,89844,2,0,P|320:234|316:272,1,90,8|2,1:2|0:0,0:0:0:0:
476,107,90179,5,4,1:0:0:0:
459,91,90263,1,2,0:0:0:0:
438,80,90347,1,4,0:0:0:0:
416,75,90430,1,2,0:0:0:0:
393,75,90514,2,0,L|329:79,1,45,8|0,1:2|0:0,0:0:0:0:
281,47,90682,2,0,L|217:51,1,45,8|0,1:2|0:0,0:0:0:0:
93,135,90849,5,0,1:0:0:0:
96,143,90933,1,0,0:0:0:0:
98,151,91017,1,2,0:0:0:0:
100,159,91101,1,0,0:0:0:0:
101,167,91184,2,0,L|95:220,1,45,8|0,1:2|0:0,0:0:0:0:
207,328,91352,1,4,1:2:0:0:
207,328,91436,1,0,1:0:0:0:
207,328,91520,1,4,1:0:0:0:
320,251,91687,5,0,0:0:0:0:
232,147,91855,2,0,B|224:194|238:259,1,90,8|0,1:2|0:0,0:1:0:0:
300,337,92190,2,0,B|347:329|412:343,1,90,2|0,0:1|0:0,0:0:0:0:
147,264,92525,2,2,B|100:256|35:270,1,90,8|2,1:2|0:1,0:1:0:0:
232,147,92860,6,2,B|320:163|424:144,1,180,0|8,1:2|1:2,0:1:0:0:
472,76,93363,1,0,0:0:0:0:
455,230,93531,2,0,B|407:254|359:226,1,90,2|2,0:1|0:0,0:0:0:0:
240,40,93866,1,8,1:2:0:0:
320,80,94034,1,2,0:1:0:0:
232,147,94201,6,2,L|128:135,1,90,2|0,0:0|0:0,0:1:0:0:
284,220,94536,2,0,L|272:324,1,90,8|0,1:2|0:0,0:0:0:0:
97,303,94872,2,2,L|168:248,1,90,0|2,0:0|0:0,0:1:0:0:
304,48,95207,2,0,B|336:92|308:152,1,90,8|0,1:2|0:0,0:0:0:0:
142,136,95542,5,2,1:1:0:0:
284,220,95710,1,2,0:1:0:0:
200,40,95877,2,0,L|104:32,1,90,8|0,1:2|0:0,0:0:0:0:
315,133,96212,2,2,L|411:141,1,90,0|2,1:2|1:1,0:1:0:0:
330,312,96548,1,8,1:2:0:0:
329,285,96631,1,2,0:0:0:0:
320,259,96715,1,2,0:1:0:0:
305,237,96799,1,2,0:0:0:0:
284,220,96883,6,2,B|184:200|104:276,1,180,4|8,1:0|1:2,0:1:0:0:
80,352,97386,1,0,0:0:0:0:
80,352,97469,1,0,0:0:0:0:
80,352,97553,1,2,0:1:0:0:
22,278,97721,1,2,0:0:0:0:
116,80,97888,1,8,1:2:0:0:
284,220,98056,1,2,0:1:0:0:
190,265,98224,6,2,B|182:213|194:161,1,90,2|0,0:0|0:0,0:1:0:0:
99,53,98559,2,2,B|151:45|203:57,1,90,8|2,1:2|0:0,0:1:0:0:
468,85,98894,5,2,0:1:0:0:
374,117,99062,1,2,0:1:0:0:
293,62,99229,1,8,1:2:0:0:
372,253,99397,1,2,0:0:0:0:
468,221,99564,6,0,B|478:273|447:322,1,90,6|0,0:1|0:0,0:0:0:0:
279,219,99900,5,8,1:2:0:0:
321,342,100068,1,10,0:1:0:0:
215,143,100235,5,2,0:1:0:0:
189,319,100403,1,2,0:0:0:0:
372,253,100570,1,8,1:2:0:0:
124,101,100738,1,2,0:0:0:0:
203,47,100905,6,0,B|246:52|298:58,1,90,2|10,0:0|1:1,0:0:0:0:
132,192,101240,1,2,0:0:0:0:
42,181,101408,1,8,1:2:0:0:
215,143,101576,1,2,1:0:0:0:
215,143,101660,1,0,1:2:0:0:
215,143,101743,1,2,1:2:0:0:
256,352,101911,1,8,1:2:0:0:
384,276,102078,2,2,L|328:264,1,45,2|8,0:1|0:0,0:1:0:0:
232,248,102246,5,4,1:0:0:0:
145,204,102414,1,0,0:0:0:0:
146,297,102581,1,8,1:2:0:0:
241,236,102749,5,0,0:0:0:0:
231,135,102916,1,0,1:0:0:0:
343,183,103084,1,2,0:0:0:0:
247,252,103252,5,8,1:2:0:0:
247,357,103419,1,0,0:0:0:0:
417,302,103587,5,0,1:0:0:0:
417,197,103754,1,0,0:0:0:0:
320,171,103922,2,0,P|318:98|313:61,1,90,8|2,1:2|0:1,0:0:0:0:
316,81,104173,1,2,1:1:0:0:
316,81,104257,1,0,0:1:0:0:
226,93,104425,1,2,0:0:0:0:
60,57,104592,2,2,P|108:53|155:39,1,90,8|2,1:2|0:1,1:0:0:0:
81,128,104928,6,0,P|75:216|60:340,1,180,2|8,1:0|1:2,0:0:0:0:
137,359,105430,1,0,1:0:0:0:
224,336,105598,1,0,0:0:0:0:
239,247,105765,1,2,0:0:0:0:
157,105,105933,2,0,P|159:148|167:208,1,90,8|0,1:2|0:0,0:0:0:0:
304,307,106268,5,2,1:0:0:0:
326,310,106352,1,0,0:0:0:0:
348,309,106436,1,0,0:0:0:0:
370,304,106520,1,2,1:0:0:0:
390,295,106603,1,8,1:2:0:0:
408,281,106687,1,0,0:0:0:0:
422,263,106771,1,2,1:0:0:0:
431,242,106855,1,0,0:0:0:0:
408,203,106939,5,0,0:0:0:0:
395,160,107022,1,0,1:0:0:0:
395,114,107106,1,2,0:2:0:0:
407,70,107190,1,0,0:0:0:0:
445,47,107274,1,8,1:2:0:0:
482,72,107358,1,0,0:0:0:0:
495,114,107441,1,8,1:0:0:0:
490,158,107525,1,0,0:0:0:0:
510,194,107609,6,0,P|449:188|319:189,1,180,4|8,1:0|1:2,0:0:0:0:
251,231,108112,1,0,1:0:0:0:
73,216,108279,1,0,0:0:0:0:
167,178,108447,1,2,0:0:0:0:
159,267,108615,2,0,P|150:333|152:375,1,90,8|0,1:2|0:0,0:0:0:0:
46,82,108950,6,0,P|124:85|248:101,1,180,0|8,1:0|1:2,0:0:0:0:
387,161,109453,1,2,0:1:0:0:
387,161,109536,1,2,1:1:0:0:
387,161,109620,2,2,P|333:153|295:154,1,90,0|2,0:0|0:0,1:1:0:0:
195,274,109955,2,2,P|273:271|293:267,1,90,8|2,1:2|1:1,1:0:0:0:
117,189,110291,5,4,1:2:0:0:
68,264,110458,1,2,1:1:0:0:
114,341,110626,1,8,1:2:0:0:
203,343,110793,1,0,0:1:0:0:
257,219,110961,5,2,1:1:0:0:
257,219,111129,1,2,0:0:0:0:
509,202,111296,5,8,1:2:0:0:
433,181,111464,2,0,P|426:225|425:275,2,90,8|0|2,1:2|1:0|0:0,0:0:0:0:
215,155,111967,5,8,1:2:0:0:
291,134,112135,2,0,P|298:178|299:228,2,90,8|0|2,1:2|0:0|0:0,0:0:0:0:
41,210,112637,2,0,P|37:292|45:368,1,135,8|2,1:2|0:0,0:0:0:0:
64,358,112972,5,4,1:0:0:0:
164,328,113307,1,2,0:0:0:0:
0,124,113643,2,0,B|60:68|160:92,1,144,8|0,1:2|0:0,0:0:0:0:
472,224,114313,6,0,L|376:220,1,72,2|0,0:0|0:0,0:0:0:0:
316,244,114648,2,0,L|332:328,1,72,2|0,0:0|0:0,0:0:0:0:
416,140,114983,2,0,L|254:170,1,144,8|0,1:2|0:0,0:0:0:0:
140,80,115486,1,8,1:2:0:0:
208,20,115654,6,0,B|235:47|232:96,1,72,2|0,0:0|0:0,0:0:0:0:
157,168,115989,2,0,B|120:177|79:150,1,72
55,50,116324,2,0,B|76:208,1,144,8|0,1:2|0:0,0:0:0:0:
192,336,116995,6,0,B|284:352|340:264,1,144,2|2,0:2|0:0,0:1:0:0:
282,166,117497,1,0,0:0:0:0:
348,212,117665,1,8,1:2:0:0:
432,140,117833,2,0,B|456:216|436:304,1,144,2|0,0:0|0:0,0:0:0:0:
424,308,118335,5,2,0:0:0:0:
348,364,118671,1,0,0:0:0:0:
120,136,119006,2,0,B|64:188|84:272,1,144,8|0,1:2|0:0,0:0:0:0:
432,140,119676,6,0,L|344:132,1,72,2|0,0:0|0:0,0:0:0:0:
288,176,120011,2,0,L|250:256,1,72,2|0,0:0|0:0,0:0:0:0:
424,344,120347,2,0,L|351:192,1,144,8|0,1:2|0:0,0:0:0:0:
296,96,120849,1,8,1:2:0:0:
180,180,121017,5,2,0:0:0:0:
432,140,121687,1,8,1:2:0:0:
280,40,121855,6,0,P|330:144|238:103,1,288,2|0,0:0|0:0,0:0:0:0:
192,24,122693,5,2,0:0:0:0:
336,332,123028,1,8,0:0:0:0:
186,375,123363,5,2,0:2:0:0:
348,340,123531,1,0,1:2:0:0:
238,218,123698,1,4,0:1:0:0:
256,192,131743,12,0,132916,0:0:0:0:
6,196,133084,5,2,0:0:0:0:
6,196,133419,1,2,0:0:0:0:
6,196,133754,1,2,0:0:0:0:
6,196,134006,1,2,0:0:0:0:
6,196,134090,1,2,0:0:0:0:
75,180,134257,1,8,0:0:0:0:
215,251,134425,6,0,P|287:241|367:235,1,144,4|8,0:1|0:0,0:0:0:0:
411,186,134928,1,0,0:0:0:0:
411,186,135011,1,0,0:0:0:0:
411,186,135095,1,0,0:0:0:0:
298,77,135263,1,2,0:0:0:0:
218,89,135430,2,0,P|224:141|225:171,1,72,8|0,0:0|0:0,0:0:0:0:
93,340,135765,5,4,0:0:0:0:
51,281,135933,1,0,0:0:0:0:
126,272,136101,1,8,0:0:0:0:
211,355,136268,5,0,0:0:0:0:
236,351,136352,1,2,0:0:0:0:
295,299,136520,1,0,0:0:0:0:
323,310,136603,1,2,0:0:0:0:
462,316,136771,5,8,0:0:0:0:
472,281,136855,1,0,0:0:0:0:
472,244,136939,1,0,0:0:0:0:
461,209,137022,1,0,0:0:0:0:
440,179,137106,2,0,P|434:118|439:31,1,144,4|8,0:0|0:0,0:0:0:0:
316,141,137609,5,0,0:0:0:0:
306,239,137777,1,0,0:0:0:0:
194,225,137944,1,2,0:0:0:0:
204,128,138112,1,8,0:0:0:0:
256,183,138279,1,0,0:0:0:0:
6,193,138447,5,4,0:0:0:0:
6,193,138698,1,2,0:0:0:0:
6,193,138782,1,8,0:0:0:0:
68,157,138950,1,2,0:0:0:0:
148,304,139117,1,0,0:0:0:0:
217,285,139285,1,2,0:0:0:0:
311,178,139453,1,8,0:0:0:0:
243,161,139621,1,4,0:0:0:0:
506,190,139788,5,4,0:0:0:0:
455,140,139956,1,0,0:0:0:0:
455,140,140039,1,0,0:0:0:0:
455,140,140123,2,0,P|454:80|452:44,1,72,8|0,0:0|0:0,0:0:0:0:
410,204,140458,2,0,P|414:263|418:309,1,72,0|2,0:0|0:0,0:0:0:0:
415,275,140710,1,0,0:0:0:0:
415,275,140793,1,8,0:0:0:0:
343,285,140961,1,0,0:0:0:0:
163,361,141129,5,4,0:0:0:0:
245,323,141296,1,0,0:0:0:0:
245,323,141380,1,2,0:0:0:0:
151,258,141548,1,0,0:0:0:0:
151,258,141631,1,2,0:0:0:0:
256,200,141799,1,0,0:0:0:0:
252,164,141883,1,0,0:0:0:0:
249,128,141967,1,2,0:0:0:0:
246,92,142050,1,0,0:0:0:0:
241,56,142134,1,8,0:0:0:0:
174,29,142302,1,0,0:0:0:0:
414,95,142469,5,4,0:0:0:0:
454,154,142637,1,0,0:0:0:0:
382,159,142805,1,8,0:0:0:0:
317,257,142972,5,0,0:0:0:0:
298,262,143056,1,2,0:0:0:0:
210,292,143224,1,0,0:0:0:0:
192,280,143307,1,2,0:0:0:0:
76,107,143475,5,8,0:0:0:0:
13,170,143643,5,0,0:0:0:0:
13,170,143726,1,0,0:0:0:0:
13,170,143810,1,4,0:0:0:0:
155,188,143978,1,4,0:0:0:0:
60,298,144145,1,12,0:0:0:0:
82,222,144313,5,0,0:0:0:0:
82,222,144397,1,2,0:0:0:0:
82,222,144564,5,0,0:0:0:0:
82,222,144648,1,2,0:0:0:0:
82,222,146492,6,0,B|160:223|233:224,1,144,4|8,0:0|0:0,0:0:0:0:
374,278,146995,1,0,0:0:0:0:
374,278,147078,1,0,0:0:0:0:
374,278,147162,2,0,L|284:273,1,72,0|2,0:0|0:0,0:0:0:0:
232,116,147497,1,8,0:0:0:0:
304,184,147665,1,0,0:0:0:0:
141,344,147833,1,2,0:0:0:0:
141,344,148168,6,0,B|188:344|232:348,1,72,8|0,0:0|0:0,0:0:0:0:
353,342,148503,1,0,0:0:0:0:
349,346,148586,1,0,0:0:0:0:
346,351,148670,1,2,0:0:0:0:
304,184,148838,2,0,L|312:96,1,72,8|0,0:0|0:0,0:0:0:0:
152,168,149173,6,0,P|232:216|228:260,1,144,2|8,0:0|0:0,0:0:0:0:
56,213,149676,1,0,0:0:0:0:
56,213,149760,1,0,0:0:0:0:
56,213,149844,2,0,L|40:121,1,72,0|2,0:0|0:0,0:0:0:0:
144,264,150179,2,0,L|160:356,1,72,8|0,0:0|0:0,0:0:0:0:
227,181,150514,6,0,B|285:180|389:192,1,144,2|8,0:0|0:0,0:0:0:0:
441,298,151017,1,0,0:0:0:0:
460,208,151184,1,0,0:0:0:0:
351,279,151352,1,2,0:0:0:0:
389,99,151520,2,0,B|432:104|476:116,1,72,8|0,0:0|0:0,0:0:0:0:
324,8,151855,6,0,B|296:88|188:96,1,144,2|8,0:0|0:0,0:0:0:0:
136,52,152358,1,0,0:0:0:0:
64,104,152525,1,0,0:0:0:0:
64,104,152609,1,0,0:0:0:0:
64,104,152693,1,2,0:0:0:0:
227,181,152860,2,0,L|236:272,1,72,8|0,0:0|0:0,0:0:0:0:
12,280,153196,6,0,L|155:293,1,144,2|8,0:0|0:0,0:0:0:0:
234,252,153698,1,0,0:0:0:0:
332,348,153866,2,0,L|252:340,1,72,2|4,0:0|0:0,0:0:0:0:
376,208,154201,2,0,L|388:300,1,72,8|2,0:0|0:0,0:0:0:0:
227,181,154536,5,4,0:0:0:0:
295,237,154704,1,0,0:0:0:0:
310,151,154872,1,8,0:0:0:0:
159,125,155039,5,0,0:0:0:0:
242,95,155206,1,0,0:0:0:0:
227,181,155374,1,2,0:0:0:0:
50,148,155542,6,0,L|15:141,1,36,8|2,0:0|0:0,0:0:0:0:
91,69,155710,2,0,L|55:62,1,36,2|2,0:0|0:0,0:0:0:0:
143,205,155877,6,0,L|151:249,1,36,10|8,0:0|0:0,0:0:0:0:
64,246,156045,2,0,L|72:290,1,36,8|0,0:0|0:0,0:0:0:0:
205,318,156212,6,0,B|113:338|169:358|77:381,1,144,6|0,0:0|0:0,0:0:0:0:
78,380,157218,6,0,P|77:323|79:234,1,144,4|8,0:1|0:0,0:0:0:0:
153,156,157721,1,2,0:0:0:0:
153,156,157805,1,0,0:0:0:0:
153,156,157888,1,0,0:0:0:0:
217,189,158056,1,2,0:0:0:0:
363,119,158224,2,0,P|321:120|272:123,1,72,8|0,0:0|0:0,0:0:0:0:
304,268,158559,6,0,P|366:264|463:262,1,144,2|8,0:0|0:0,0:0:0:0:
491,319,159062,1,0,0:0:0:0:
269,353,159229,5,0,0:0:0:0:
207,262,159397,1,2,0:0:0:0:
280,168,159564,1,8,0:0:0:0:
336,270,159732,1,0,0:0:0:0:
210,249,159900,6,0,P|163:248|108:165,1,144,2|8,0:0|0:0,0:0:0:0:
174,57,160402,1,2,0:0:0:0:
174,57,160486,1,0,0:0:0:0:
174,57,160570,2,0,P|171:94|169:138,1,72,0|2,0:0|0:0,0:0:0:0:
362,198,160905,2,0,P|360:162|357:126,1,72,8|0,0:0|0:0,0:0:0:0:
280,17,161240,6,0,P|358:16|444:23,1,144,2|8,0:0|0:0,0:0:0:0:
477,68,161743,1,0,0:0:0:0:
436,168,161911,1,0,0:0:0:0:
310,145,162078,1,2,0:0:0:0:
156,194,162246,2,0,P|168:236|162:287,1,72,8|2,0:0|0:0,0:0:0:0:
19,168,162581,6,0,P|46:109|146:82,1,144,6|8,0:0|0:0,0:0:0:0:
254,253,163084,1,0,0:0:0:0:
306,302,163252,2,0,P|357:300|407:288,2,72,0|2|8,0:0|0:0|0:0,0:0:0:0:
413,170,163754,5,0,0:0:0:0:
341,177,163922,2,0,P|343:117|337:10,1,144,2|8,0:0|0:0,0:0:0:0:
161,133,164425,1,2,0:0:0:0:
161,133,164509,1,0,0:0:0:0:
161,133,164592,2,0,P|166:166|175:189,1,36
244,197,164760,2,0,P|239:164|230:141,1,36,2|0,0:0|0:0,0:0:0:0:
177,244,164928,5,8,0:0:0:0:
227,318,165095,1,2,0:2:0:0:
375,279,165263,5,2,0:0:0:0:
325,205,165430,1,2,0:0:0:0:
296,281,165598,1,8,0:0:0:0:
346,355,165765,1,2,0:0:0:0:
439,330,165933,6,0,L|442:281,1,36
492,241,166101,2,0,L|495:192,1,36,2|2,0:0|0:2,0:0:0:0:
467,132,166268,1,8,0:0:0:0:
443,104,166352,1,0,0:0:0:0:
411,87,166436,1,2,0:0:0:0:
375,84,166520,1,0,0:0:0:0:
342,97,166603,1,6,0:0:0:0:
314,120,166687,1,0,0:0:0:0:
279,128,166771,1,0,0:0:0:0:
243,125,166855,1,4,0:0:0:0:
209,111,166939,2,0,P|179:109|149:113,1,36,8|0,0:0|0:0,0:0:0:0:
94,212,167106,2,0,P|110:187|122:159,1,36,12|0,0:0|0:0,0:0:0:0:
88,27,167274,5,0,0:0:0:0:
77,46,167358,1,0,0:0:0:0:
72,67,167442,1,2,0:0:0:0:
77,88,167525,1,0,0:0:0:0:
90,106,167609,1,12,0:0:0:0:
511,192,167944,5,4,0:1:0:0:
511,192,168615,1,8,0:0:0:0:
511,192,168950,1,2,0:0:0:0:
511,192,169285,6,0,L|465:186,1,36,2|0,0:0|0:0,0:0:0:0:
408,151,169620,2,0,L|362:157,1,36,2|0,0:0|0:0,0:0:0:0:
302,195,169955,2,0,L|225:185,1,72,8|2,0:0|0:0,0:0:0:0:
153,211,170458,1,8,0:0:0:0:
164,25,170626,6,0,L|174:140,1,108,2|0,0:0|0:0,0:0:0:0:
153,211,171296,2,0,B|118:201|74:216,2,72,8|0|0,0:0|0:0|0:0,0:0:0:0:
218,257,172302,1,2,0:0:0:0:
392,152,172637,5,8,0:0:0:0:
392,152,172972,2,0,L|386:197,1,36,2|0,0:0|0:0,0:0:0:0:
284,296,173307,5,2,0:0:0:0:
284,296,173643,2,0,L|372:285,1,72,0|8,0:0|0:0,0:0:0:0:
387,187,174313,5,2,0:0:0:0:
387,187,174481,1,0,0:0:0:0:
512,231,174648,6,0,L|465:224,1,36,2|0,0:0|0:0,0:0:0:0:
448,88,174983,2,0,L|440:135,1,36,2|0,0:0|0:0,0:0:0:0:
390,342,175319,2,0,L|379:254,1,72,8|2,0:0|0:0,0:0:0:0:
356,108,175821,1,8,0:0:0:0:
316,192,175989,5,2,0:0:0:0:
316,192,176659,2,0,B|282:194|235:190,1,72,8|2,0:0|0:0,0:0:0:0:
165,183,177162,1,0,0:0:0:0:
251,280,177330,6,0,B|218:299|202:344,2,72,4|2|8,0:0|0:0|0:0,0:0:0:0:
483,321,178335,1,2,0:0:0:0:
470,244,178503,1,0,0:0:0:0:
483,321,178671,1,4,0:0:0:0:
483,321,179341,6,0,P|439:313|398:311,1,72,2|0,0:0|0:0,0:0:0:0:
346,341,180011,2,0,P|299:336|233:270,1,144
255,201,181017,1,2,0:0:0:0:
210,144,181352,2,0,P|214:94|209:29,1,108,2|0,0:0|0:0,0:0:0:0:
213,39,182022,2,0,P|169:40|140:44,1,72,2|0,0:0|0:0,0:0:0:0:
283,101,182693,5,2,0:0:0:0:
354,97,183028,1,0,0:0:0:0:
425,91,183363,1,2,0:0:0:0:
496,85,183698,1,0,0:0:0:0:
362,131,184034,6,0,P|369:181|372:215,1,72,2|0,0:0|0:0,0:0:0:0:
150,253,184704,2,0,P|143:203|140:169,1,72,2|0,0:0|0:0,0:0:0:0:
317,298,185374,2,0,P|267:305|233:308,1,72,2|0,0:0|0:0,0:0:0:0:
195,86,186044,2,0,P|245:79|279:76,1,72,2|0,0:0|0:0,0:0:0:0:
317,298,186715,6,0,P|267:305|233:308,1,72,2|0,0:0|0:0,0:0:0:0:
150,253,187050,2,0,P|143:203|140:169,1,72,2|0,0:0|0:0,0:0:0:0:
195,86,187386,2,0,P|245:79|279:76,1,72,2|0,0:0|0:0,0:0:0:0:
362,131,187721,2,0,P|369:181|372:215,1,72,2|0,0:0|0:0,0:0:0:0:
150,253,188056,6,0,P|143:203|140:169,1,72,2|0,0:0|0:0,0:0:0:0:
362,131,188391,2,0,P|369:181|372:215,1,72,10|0,0:0|0:0,0:0:0:0:
195,86,188726,2,0,P|245:79|279:76,1,72,2|0,0:0|0:0,0:0:0:0:
317,298,189062,2,0,P|267:305|233:308,1,72,10|0,0:0|0:0,0:0:0:0:
309,161,189397,5,2,0:0:0:0:
286,245,189564,1,10,0:0:0:0:
203,222,189732,1,2,0:0:0:0:
225,139,189900,1,2,0:0:0:0:
344,214,190067,5,10,0:0:0:0:
232,280,190235,1,10,0:0:0:0:
166,168,190402,1,2,0:0:0:0:
278,102,190570,1,10,0:0:0:0:
262,211,190738,5,2,0:0:0:0:
241,204,190821,1,2,0:0:0:0:
241,182,190905,1,2,0:0:0:0:
262,176,190989,1,2,0:0:0:0:
274,193,191073,1,4,0:1:0:0:
346,216,191408,6,2,P|390:213|443:206,1,94.499997116089,2|0,0:1|0:0,0:1:0:0:
473,237,192078,6,2,B|449:153|474:74,1,135,6|0,1:0|0:0,0:1:0:0:
486,31,192414,2,0,B|459:64|393:61,1,90,8|0,1:2|3:0,0:0:0:0:
287,21,192749,1,2,0:1:0:0:
163,108,192916,1,2,3:2:0:0:
168,103,192999,1,2,3:0:0:0:
173,101,193084,2,2,L|162:210,1,90,8|2,1:2|3:1,0:1:0:0:
381,145,193419,6,2,L|292:136,1,90,0|0,1:2|3:0,0:1:0:0:
122,293,193754,2,0,L|212:284,1,90,8|0,1:2|3:0,0:0:0:0:
340,229,194090,2,0,L|331:319,1,90,0|2,1:0|3:1,0:0:0:0:
90,61,194425,1,8,1:2:0:0:
109,33,194508,1,2,3:0:0:0:
137,15,194592,1,2,3:1:0:0:
170,7,194676,1,0,3:0:0:0:
203,12,194760,6,2,L|176:192,2,180,4|8|2,1:2|0:0|0:3,0:1:0:0:
340,229,195598,1,2,3:1:0:0:
340,229,195682,1,2,3:0:0:0:
340,229,195765,1,8,1:2:0:0:
195,292,195933,1,2,3:3:0:0:
318,143,196101,5,2,1:1:0:0:
314,132,196184,1,0,3:0:0:0:
310,121,196268,1,0,3:0:0:0:
306,111,196352,1,0,3:0:0:0:
303,100,196436,6,0,L|280:37,1,45,10|0,1:1|0:0,0:0:0:0:
405,229,196603,2,0,L|427:291,1,45,10|0,1:1|0:0,0:0:0:0:
385,88,196771,2,0,L|428:36,1,45,0|0,3:0|0:0,0:0:0:0:
323,240,196939,2,0,L|279:291,1,45,2|0,3:2|0:0,0:0:0:0:
436,153,197106,2,0,L|502:164,1,45,10|0,1:0|0:0,0:0:0:0:
272,174,197274,1,0,1:0:0:0:
272,174,197358,1,0,1:0:0:0:
272,174,197441,6,2,B|207:146|132:180|132:180|164:136,1,180,4|8,1:2|1:2,0:1:0:0:
204,260,197944,1,2,0:1:0:0:
303,100,198112,2,0,B|338:75|399:82,1,90,2|2,0:1|0:0,0:0:0:0:
389,266,198447,2,0,B|338:273|303:248,1,90,8|2,1:2|0:1,0:0:0:0:
112,360,198782,6,2,L|308:348,1,180,4|8,0:1|1:2,0:1:0:0:
364,296,199285,1,2,3:3:0:0:
444,340,199453,1,2,0:1:0:0:
500,196,199620,5,2,3:1:0:0:
468,176,199704,1,2,3:0:0:0:
432,184,199788,1,8,3:2:0:0:
336,216,199955,1,0,1:0:0:0:
431,76,200123,2,0,L|459:256,1,180,4|8,1:2|1:2,0:1:0:0:
336,112,200626,5,2,0:1:0:0:
336,112,200710,1,0,0:0:0:0:
336,112,200793,2,0,B|304:144|228:132,1,90,2|2,0:1|3:2,0:0:0:0:
92,88,201129,1,8,1:2:0:0:
180,60,201296,1,0,0:0:0:0:
104,272,201464,5,6,3:2:0:0:
16,244,201631,1,2,0:1:0:0:
104,272,201799,1,8,1:2:0:0:
180,60,201967,1,8,0:0:0:0:
304,208,202134,1,2,0:1:0:0:
278,200,202217,1,2,0:2:0:0:
252,193,202302,1,2,0:0:0:0:
226,186,202386,1,2,0:2:0:0:
200,178,202469,2,0,L|208:248,1,45,8|0,1:2|0:0,0:0:0:0:
220,360,202637,5,8,1:2:0:0:
220,360,202721,1,8,1:2:0:0:
220,360,202805,2,2,P|303:333|322:249,1,180,6|8,1:0|1:2,0:1:0:0:
441,105,203307,1,0,0:0:0:0:
293,41,203475,2,0,P|300:86|302:144,1,90,2|2,0:1|0:0,0:0:0:0:
458,260,203810,1,8,1:2:0:0:
389,214,203978,5,2,3:1:0:0:
389,214,204062,1,0,3:1:0:0:
389,214,204145,2,2,P|333:211|195:220,1,180,2|8,0:0|1:2,0:1:0:0:
43,164,204648,1,2,3:0:0:0:
126,96,204816,1,2,3:1:0:0:
134,198,204983,1,2,0:0:0:0:
41,142,205151,5,8,1:2:0:0:
150,93,205319,1,2,3:1:0:0:
119,203,205486,2,2,P|131:281|134:387,1,180,2|8,0:0|1:2,0:1:0:0:
255,190,205989,1,2,0:1:0:0:
275,117,206157,2,0,P|270:65|268:15,1,90,2|2,0:1|0:0,0:1:0:0:
394,175,206492,5,10,1:2:0:0:
391,184,206576,1,0,0:0:0:0:
396,195,206659,1,2,0:0:0:0:
393,204,206743,1,2,1:0:0:0:
411,246,206827,5,2,0:0:0:0:
367,232,206911,1,0,0:0:0:0:
324,247,206995,1,2,1:0:0:0:
295,281,207078,1,2,3:0:0:0:
262,311,207162,1,8,1:2:0:0:
219,327,207246,1,0,0:0:0:0:
173,325,207330,1,2,1:0:0:0:
133,303,207414,5,0,0:0:0:0:
134,292,207497,1,2,1:0:0:0:
145,291,207581,1,0,0:0:0:0:
150,303,207665,1,2,0:3:0:0:
139,310,207749,1,0,1:0:0:0:
95,297,207833,5,8,1:2:0:0:
58,271,207916,1,0,0:0:0:0:
37,230,208000,1,2,1:3:0:0:
43,185,208084,1,2,1:0:0:0:
73,151,208168,1,4,1:1:0:0:
167,183,208335,1,2,1:0:0:0:
304,107,208503,1,8,1:2:0:0:
398,139,208670,1,0,0:1:0:0:
393,291,208838,5,2,3:1:0:0:
314,315,209006,1,2,0:0:0:0:
271,240,209173,1,8,1:2:0:0:
354,222,209341,1,2,3:1:0:0:
498,206,209509,6,2,P|489:152|489:28,1,180,2|8,0:0|1:2,0:1:0:0:
258,7,210011,1,2,1:0:0:0:
184,26,210179,2,0,P|133:31|91:40,1,90,2|2,0:1|0:0,0:0:0:0:
10,191,210514,5,8,1:2:0:0:
101,228,210682,1,0,0:0:0:0:
185,149,210849,1,2,0:0:0:0:
85,107,211017,1,2,0:0:0:0:
209,254,211184,1,8,1:2:0:0:
287,188,211352,1,8,1:2:0:0:
333,279,211520,1,4,0:0:0:0:
412,251,211687,1,2,0:0:0:0:
494,309,211855,1,8,1:2:0:0:
490,317,211939,1,2,0:0:0:0:
486,325,212022,1,4,0:0:0:0:
482,333,212106,1,2,0:0:0:0:
478,341,212190,5,2,0:0:0:0:
488,240,212358,1,8,1:2:0:0:
309,197,212525,5,2,0:0:0:0:
320,329,212693,1,8,1:2:0:0:
94,313,212860,5,2,0:0:0:0:
138,304,212944,1,2,0:0:0:0:
182,296,213028,1,2,3:0:0:0:
150,148,213196,5,2,0:0:0:0:
97,138,213280,1,2,0:0:0:0:
44,128,213364,1,2,3:0:0:0:
220,216,213531,6,0,L|433:203,1,180,4|8,1:0|1:2,0:1:0:0:
494,190,214034,1,2,0:0:0:0:
481,94,214201,1,8,1:0:0:0:
384,108,214368,1,2,3:2:0:0:
384,108,214453,1,2,3:0:0:0:
384,108,214536,1,8,1:2:0:0:
436,352,214704,5,2,3:0:0:0:
243,255,214872,1,8,1:1:0:0:
219,330,215039,5,0,3:0:0:0:
430,176,215207,1,8,1:2:0:0:
454,251,215374,5,10,1:1:0:0:
233,111,215542,1,2,0:1:0:0:
209,186,215709,5,2,0:0:0:0:
445,73,215877,1,10,1:1:0:0:
354,196,216045,1,2,0:1:0:0:
354,196,216129,1,2,0:0:0:0:
354,196,216212,2,2,B|365:135|295:78|216:117,1,180,4|8,1:1|1:2,0:1:0:0:
344,328,216715,1,10,1:2:0:0:
252,360,216883,1,2,0:3:0:0:
168,208,217050,1,2,3:2:0:0:
168,208,217134,1,2,3:0:0:0:
168,208,217218,2,0,L|284:224,1,90,8|2,1:2|3:0,0:1:0:0:
68,288,217553,5,2,1:0:0:0:
63,265,217636,1,0,0:0:0:0:
58,243,217720,1,0,0:0:0:0:
54,221,217804,1,2,1:0:0:0:
49,199,217888,1,0,0:0:0:0:
45,177,217971,1,0,0:0:0:0:
40,155,218055,1,2,1:0:0:0:
36,133,218139,1,0,0:0:0:0:
32,112,218224,5,2,1:2:0:0:
59,130,218307,1,0,0:0:0:0:
74,160,218391,1,2,1:2:0:0:
72,193,218475,1,0,0:1:0:0:
54,221,218559,1,8,1:0:0:0:
30,256,218643,1,0,0:0:0:0:
27,297,218727,1,0,1:0:0:0:
46,334,218811,1,0,1:0:0:0:
81,357,218894,6,0,B|175:319|284:338,1,180,4|8,1:0|1:2,0:1:0:0:
352,376,219397,1,8,1:0:0:0:
257,220,219564,1,0,0:0:0:0:
413,307,219732,1,2,3:2:0:0:
424,312,219816,1,2,3:0:0:0:
435,317,219900,2,0,B|447:269|467:213,1,90,8|2,1:2|3:0,0:0:0:0:
311,15,220235,6,2,B|336:91|360:187,1,180,2|8,0:0|1:0,0:1:0:0:
260,360,220738,1,2,0:0:0:0:
170,238,220905,2,2,B|230:242|270:210,1,90,0|2,0:0|3:3,0:1:0:0:
428,368,221240,2,0,B|388:344|341:349,1,90,8|2,1:1|0:1,0:1:0:0:
112,364,221576,6,2,B|48:300|56:196,1,180,4|8,1:2|1:2,0:1:0:0:
63,62,222078,1,2,0:0:0:0:
141,178,222246,1,8,1:2:0:0:
10,128,222414,1,2,0:0:0:0:
142,91,222581,1,8,1:2:0:0:
241,260,222749,1,0,1:0:0:0:
246,268,222833,1,0,1:0:0:0:
252,280,222916,6,0,L|240:180,1,90,4|0,0:0|1:0,0:0:0:0:
328,8,223252,2,0,L|267:88,1,90,8|2,1:2|0:0,0:0:0:0:
441,262,223587,6,0,L|352:252,1,90,4|0,0:0|1:0,0:0:0:0:
52,80,223922,2,0,L|142:91,1,90,8|0,1:0|1:0,0:0:0:0:
24,304,224257,5,4,1:0:0:0:
95,340,224592,1,2,0:0:0:0:
209,304,224928,1,0,1:0:0:0:
361,349,225179,1,0,0:0:0:0:
361,349,225263,1,0,1:0:0:0:
437,316,225430,1,0,1:0:0:0:
386,258,225598,6,0,P|388:208|383:155,1,90,4|0,1:3|1:0,0:0:0:0:
258,11,226268,1,0,1:0:0:0:
258,11,226687,1,0,0:0:0:0:
258,11,226771,1,0,1:0:0:0:
267,83,226939,1,4,1:3:0:0:
59,207,227274,1,2,0:0:0:0:
47,132,227441,1,0,1:0:0:0:
121,120,227609,1,0,1:0:0:0:
325,240,227944,5,0,1:0:0:0:
309,315,228112,1,4,0:0:0:0:
301,246,228279,5,4,1:3:0:0:
390,231,228447,1,0,0:0:0:0:
320,138,228615,1,0,1:0:0:0:
231,153,228783,1,4,0:0:0:0:
95,105,228950,5,0,1:0:0:0:
16,129,229117,1,4,1:2:0:0:
16,129,229453,1,4,0:0:0:0:
95,105,229620,6,0,P|132:99|199:99,1,90,4|2,1:0|0:0,0:0:0:0:
301,49,230291,2,0,P|337:55|395:71,1,90,0|0,1:0|1:0,0:0:0:0:
366,139,230793,1,0,1:0:0:0:
421,237,230961,1,4,1:3:0:0:
421,237,231296,1,0,1:0:0:0:
260,353,231631,2,0,P|261:313|271:243,1,90,0|0,1:0|0:0,0:0:0:0:
193,288,232134,1,0,1:0:0:0:
322,197,232302,5,4,1:3:0:0:
310,123,232469,1,4,0:0:0:0:
333,191,232637,1,2,0:0:0:0:
321,118,232805,1,0,0:0:0:0:
253,169,232972,5,0,1:0:0:0:
393,147,233140,1,0,1:0:0:0:
250,145,233307,1,4,0:0:0:0:
392,126,233475,1,0,0:0:0:0:
392,126,233559,1,0,1:0:0:0:
392,126,233643,1,4,1:3:0:0:
468,151,233810,1,0,1:0:0:0:
411,205,233978,1,4,1:2:0:0:
398,108,234145,5,0,0:0:0:0:
484,169,234313,1,4,1:2:0:0:
407,228,234481,1,0,0:0:0:0:
323,171,234648,1,4,0:0:0:0:
251,215,234816,1,2,0:0:0:0:
9,193,234983,5,4,0:1:0:0:
90,184,235151,1,0,0:0:0:0:
171,175,235319,1,2,0:0:0:0:
252,166,235486,1,0,0:0:0:0:
333,157,235653,5,0,0:1:0:0:
252,148,235821,1,2,0:0:0:0:
171,139,235989,1,2,0:0:0:0:
90,130,236156,1,0,0:0:0:0:
236,228,236324,6,0,L|231:288,1,45,4|0,0:0|0:0,0:0:0:0:
90,130,236659,2,0,L|95:70,1,45,2|0,0:0|0:0,0:0:0:0:
218,237,236995,6,0,L|213:297,1,45,2|0,0:0|0:0,0:0:0:0:
72,139,237330,2,0,L|77:79,1,45,2|0,0:0|0:0,0:0:0:0:
294,14,237665,5,4,0:0:0:0:
214,35,237833,1,0,0:0:0:0:
161,97,238000,1,2,0:0:0:0:
154,179,238168,1,0,0:0:0:0:
236,176,238335,5,2,0:0:0:0:
239,135,238503,1,0,0:0:0:0:
266,103,238670,1,2,0:0:0:0:
306,93,238838,1,0,0:0:0:0:
353,202,239006,5,4,0:0:0:0:
345,195,239173,1,0,0:0:0:0:
337,189,239341,1,2,0:0:0:0:
330,183,239509,1,0,0:0:0:0:
205,320,239676,5,4,0:0:0:0:
443,221,239844,1,2,0:0:0:0:
418,296,240011,5,2,0:0:0:0:
230,245,240179,1,0,0:0:0:0:
324,270,240347,5,6,0:0:0:0:
324,270,240682,6,0,L|344:328,1,45,2|0,0:0|0:0,0:0:0:0:
230,245,241017,2,0,L|218:305,1,45,2|0,0:0|0:0,0:0:0:0:
161,176,241352,2,0,L|120:222,1,45,2|0,0:0|0:0,0:0:0:0:
46,76,241687,5,2,0:0:0:0:
122,40,241855,1,0,0:0:0:0:
202,52,242022,1,2,0:0:0:0:
250,112,242190,1,0,0:0:0:0:
466,224,242358,5,2,0:0:0:0:
390,260,242526,1,0,0:0:0:0:
310,248,242693,1,2,0:0:0:0:
262,188,242861,1,0,0:0:0:0:
256,344,243028,5,4,0:0:0:0:
256,192,243112,12,4,244369,0:0:0:0:
256,192,244453,12,6,245710,0:0:0:0:
361,136,246045,6,0,P|366:103|376:73,2,45,2|0|0,0:0|0:0|0:0,0:0:0:0:
301,181,246548,1,2,0:0:0:0:
232,157,246715,2,0,P|203:143|174:136,1,45,2|0,0:0|0:0,0:0:0:0:
117,151,247050,6,0,P|126:199|128:253,1,90,4|0,0:0|0:0,0:0:0:0:
201,263,247553,1,0,0:0:0:0:
248,323,247721,2,0,P|291:315|352:314,1,90,4|0,0:0|0:0,0:0:0:0:
399,357,248224,1,0,0:0:0:0:
465,317,248391,5,4,0:0:0:0:
465,317,248894,1,2,0:0:0:0:
506,255,249062,2,0,P|504:230|501:211,1,45,2|0,0:0|0:0,0:0:0:0:
493,140,249397,2,0,P|470:136|448:134,1,45,2|0,0:0|0:0,0:0:0:0:
381,101,249732,5,4,0:0:0:0:
381,101,249900,1,0,0:0:0:0:
381,101,250067,1,0,0:0:0:0:
381,101,250235,1,0,0:0:0:0:
314,132,250402,5,2,0:0:0:0:
282,134,250570,1,0,0:0:0:0:
250,136,250738,1,2,0:0:0:0:
218,139,250905,1,0,0:0:0:0:
9,194,251073,5,4,0:0:0:0:
9,194,251408,2,0,P|57:196|105:202,2,90,2|2|2,0:0|0:0|0:0,0:0:0:0:
155,253,252414,2,0,P|185:248|204:243,1,45,2|0,0:0|0:0,0:0:0:0:
247,189,252749,2,0,P|276:188|295:190,1,45,2|2,0:0|0:0,0:0:0:0:
341,248,253084,2,0,P|383:251|396:250,3,45,0|2|2|0,0:0|0:0|0:0|0:0,0:0:0:0:
180,342,253754,5,4,0:0:0:0:
180,342,254425,1,2,0:0:0:0:
104,363,254760,1,2,0:0:0:0:
8,325,255095,1,4,0:0:0:0:
