osu file format v14

[General]
AudioFilename: RaS.mp3
AudioLeadIn: 0
PreviewTime: 69550
Countdown: 0
SampleSet: Soft
StackLeniency: 0.7
Mode: 2
LetterboxInBreaks: 0
WidescreenStoryboard: 0

[Editor]
Bookmarks: 11226,24634,46086,56812,70220,73237,102399,113125,123684
DistanceSpacing: 1
BeatDivisor: 4
GridSize: 4
TimelineZoom: 1.4

[Metadata]
Title:Rainbow after snow
TitleUnicode:Rainbow after snow
Artist:Nekomata Master feat. Hayashi Momoko
ArtistUnicode:猫叉Master feat. 林ももこ
Creator:Nakano Ichika
Version:Rain
Source:beatmania IIDX 20 tricoro
Tags:Saucer Crevice Cafe de Tran dnb drum and bass GAMI naoyuki sato asuna jubeat electronic japanese SUBSTAC9
BeatmapID:839745
BeatmapSetID:273781

[Difficulty]
HPDrainRate:6
CircleSize:4
OverallDifficulty:9
ApproachRate:9
SliderMultiplier:1.8
SliderTickRate:2

[Events]
//Background and Video events
0,0,"BG.jpg",0,0
//Break Periods
//Storyboard Layer 0 (Background)
//Storyboard Layer 1 (Fail)
//Storyboard Layer 2 (Pass)
//Storyboard Layer 3 (Foreground)
//Storyboard Layer 4 (Overlay)
//Storyboard Sound Samples

[TimingPoints]
500,335.195530726257,4,2,3,25,1,0
583,-100,4,2,0,25,0,0
3516,-100,4,2,3,25,0,0
4522,-100,4,2,0,25,0,0
6198,-100,4,2,3,25,0,0
7203,-100,4,2,0,25,0,0
9215,-100,4,2,3,25,0,0
9885,-100,4,2,0,25,0,0
11226,-100,4,2,2,55,0,0
12567,-100,4,2,2,45,0,0
14243,-100,4,2,3,45,0,0
15248,-100,4,2,2,45,0,0
16924,-100,4,2,3,45,0,0
17930,-100,4,2,2,45,0,0
22622,-100,4,2,2,45,0,0
23293,-100,4,2,2,65,0,0
23628,-100,4,2,2,50,0,0
23963,-100,4,2,2,30,0,0
24634,-100,4,2,2,65,0,0
34689,-100,4,2,2,30,0,0
35360,-100,4,2,2,65,0,0
69550,-100,4,2,5,30,0,0
69885,-100,4,2,5,20,0,0
70053,-100,4,2,5,10,0,0
70220,-100,4,2,5,75,0,1
79941,-100,4,2,2,55,0,0
80946,-100,4,2,5,75,0,1
91589,-100,4,2,5,75,0,0
91673,-100,4,2,5,75,0,1
94354,-100,4,2,5,65,0,0
102399,-100,4,2,5,55,0,0
113125,-100,4,2,0,35,0,0
116142,-100,4,2,3,35,0,0
117148,-100,4,2,0,35,0,0
118824,-100,4,2,3,35,0,0
119829,-100,4,2,0,35,0,0
121170,-100,4,2,0,25,0,0
122511,-100,4,2,0,15,0,0
123684,-100,4,2,0,5,0,0

[Colours]
Combo1 : 0,128,255
Combo2 : 255,0,0
Combo3 : 252,245,12
Combo4 : 0,255,64

[HitObjects]
220,372,500,5,2,0:0:0:0:
124,320,667,1,0,0:0:0:0:
84,220,835,1,0,0:0:0:0:
116,116,1002,1,0,0:0:0:0:
208,56,1170,2,0,P|256:64|296:52,1,90,0|0,0:0|0:0,0:0:0:0:
404,136,1505,2,0,P|360:127|317:139,1,90,0|0,0:0|0:0,0:0:0:0:
500,184,1840,6,0,P|508:132|496:92,1,90,2|0,0:0|0:0,0:0:0:0:
360,192,2175,2,0,P|344:236|352:284,1,90,0|0,0:0|0:0,0:0:0:0:
508,344,2511,2,0,P|464:356|416:348,1,90,0|0,0:0|0:0,0:0:0:0:
284,308,2846,2,0,P|327:298|370:310,1,90,0|0,0:0|0:0,0:0:0:0:
56,84,3181,6,0,P|52:136|60:172,1,90,2|0,0:0|0:0,0:0:0:0:
196,172,3516,2,0,P|232:200|276:208,1,90,2|0,0:0|0:0,0:0:0:0:
132,224,3851,2,0,P|92:204|48:208,1,90,2|0,0:0|0:0,0:0:0:0:
276,136,4187,2,0,P|300:176|300:232,1,90,2|0,0:0|0:0,0:0:0:0:
27,308,4522,6,0,P|17:265|32:224,1,90,2|0,0:0|0:0,0:0:0:0:
136,76,4857,2,0,L|168:168,1,90,0|0,0:0|0:0,0:0:0:0:
304,160,5192,2,0,L|284:252,1,90,0|0,0:0|0:0,0:0:0:0:
420,244,5527,2,0,L|404:332,1,90,0|0,0:0|0:0,0:0:0:0:
88,328,5863,6,0,P|80:280|84:240,1,90,2|0,0:0|0:0,0:0:0:0:
220,240,6198,2,0,P|232:196|228:148,1,90,2|0,0:0|0:0,0:0:0:0:
92,148,6533,2,0,P|48:156|4:148,1,90,2|0,0:0|0:0,0:0:0:0:
236,112,6868,2,0,P|280:100|324:104,1,90,2|0,0:0|0:0,0:0:0:0:
52,224,7203,6,0,P|36:272|44:312,1,90,2|0,0:0|0:0,0:0:0:0:
152,324,7539,1,0,0:0:0:0:
244,272,7706,1,0,0:0:0:0:
128,244,7874,2,0,P|84:224|44:228,2,90,0|0|0,0:0|0:0|0:0,0:0:0:0:
224,292,8377,1,0,0:0:0:0:
452,260,8544,6,0,L|492:172,1,90,2|0,0:0|0:0,0:0:0:0:
380,152,8879,2,0,P|336:160|288:152,1,90,0|0,0:0|0:0,0:0:0:0:
64,156,9215,2,0,L|160:152,1,90,2|0,0:0|0:0,0:0:0:0:
384,208,9550,2,0,L|288:200,1,90,2|0,0:0|0:0,0:0:0:0:
132,204,9885,5,2,0:0:0:0:
92,220,9969,1,0,0:0:0:0:
80,264,10053,1,0,0:0:0:0:
100,304,10136,1,0,0:0:0:0:
136,332,10220,1,0,0:0:0:0:
180,340,10304,1,0,0:0:0:0:
224,328,10388,1,0,0:0:0:0:
256,192,10555,12,4,11226,0:0:0:0:
372,36,11393,6,0,L|352:128,1,90,0|0,0:0|0:0,0:0:0:0:
244,124,11729,2,0,L|228:212,1,90,0|0,0:0|0:0,0:0:0:0:
336,212,12064,1,0,0:0:0:0:
227,212,12231,2,0,L|128:216,1,90,0|0,0:0|0:0,0:0:0:0:
412,292,12567,6,0,L|464:212,1,90,2|0,0:0|0:0,0:0:0:0:
324,168,12902,2,0,L|336:72,1,90,2|0,0:0|0:0,0:0:0:0:
196,76,13237,2,0,L|106:76,2,90,0|0|0,0:0|0:0|0:0,0:0:0:0:
304,80,13740,1,0,0:0:0:0:
80,244,13907,6,0,P|76:288|84:332,1,90,2|0,0:0|0:0,0:0:0:0:
224,340,14243,2,0,P|268:328|316:332,1,90,10|0,0:0|0:0,0:0:0:0:
172,280,14578,2,0,P|124:296|80:296,1,90,2|0,0:0|0:0,0:0:0:0:
312,196,14913,2,0,P|332:240|332:288,1,90,2|0,0:0|0:0,0:0:0:0:
108,292,15248,6,0,L|16:292,2,90,2|2|2,0:0|0:0|0:0,0:0:0:0:
216,296,15751,1,0,0:0:0:0:
352,292,15918,2,0,P|372:252|372:208,1,90,0|0,0:0|0:0,0:0:0:0:
236,188,16254,2,0,P|220:144|224:96,1,90,0|0,0:0|0:0,0:0:0:0:
448,96,16589,6,0,L|496:184,1,90,2|0,0:0|0:0,0:0:0:0:
356,188,16924,2,0,L|300:264,1,90,2|0,0:0|0:0,0:0:0:0:
140,292,17259,2,0,L|132:192,1,90,2|0,0:0|0:0,0:0:0:0:
360,84,17594,2,0,L|452:96,1,90,2|0,0:0|0:0,0:0:0:0:
176,88,17930,6,0,L|80:112,1,90,2|0,0:0|0:0,0:0:0:0:
248,256,18265,2,0,L|291:177,1,90,2|0,0:0|0:0,0:0:0:0:
132,180,18600,2,0,P|120:132|124:84,1,90,0|0,0:0|0:0,0:0:0:0:
256,108,18935,2,0,L|208:24,1,90,0|0,0:0|0:0,0:0:0:0:
456,76,19270,6,0,P|468:128|460:176,1,90,2|0,0:0|0:0,0:0:0:0:
328,164,19606,2,0,L|396:224,1,90,2|0,0:0|0:0,0:0:0:0:
212,280,19941,2,0,P|132:256|116:160,1,180,0|0,0:0|0:0,0:0:0:0:
220,180,20444,1,0,0:0:0:0:
444,172,20611,6,0,L|352:172,2,90,2|2|2,0:0|0:0|0:0,0:0:0:0:
340,192,21114,1,0,0:0:0:0:
232,176,21282,2,0,L|152:124,1,90,0|0,0:0|0:0,0:0:0:0:
300,88,21617,2,0,L|376:136,1,90,0|0,0:0|0:0,0:0:0:0:
144,52,21952,5,6,0:0:0:0:
92,72,22036,1,0,0:0:0:0:
52,108,22120,1,0,0:0:0:0:
28,156,22203,1,0,0:0:0:0:
20,208,22287,1,0,0:0:0:0:
36,260,22371,1,0,0:0:0:0:
68,304,22455,1,0,0:0:0:0:
116,328,22539,1,0,0:0:0:0:
360,328,22622,5,2,0:0:0:0:
412,316,22706,1,0,0:0:0:0:
456,284,22790,1,0,0:0:0:0:
480,236,22874,1,0,0:0:0:0:
252,236,22958,5,2,0:0:0:0:
200,236,23041,1,0,0:0:0:0:
164,196,23125,1,0,0:0:0:0:
160,144,23209,1,0,0:0:0:0:
432,120,23293,6,0,P|456:160|460:212,1,90,2|2,0:0|0:0,0:0:0:0:
232,164,23628,1,8,0:0:0:0:
448,80,23963,1,0,0:0:0:0:
448,80,24298,1,0,0:0:0:0:
228,308,24634,6,0,P|216:260|224:216,1,90,6|0,0:0|0:0,0:0:0:0:
332,212,24969,1,8,0:0:0:0:
420,152,25136,1,0,0:0:0:0:
460,56,25304,2,0,L|368:56,1,90,0|2,0:0|0:0,0:0:0:0:
232,80,25639,2,0,L|324:80,1,90,8|0,0:0|0:0,0:0:0:0:
96,128,25974,6,0,P|84:176|92:220,1,90,2|0,0:0|0:0,0:0:0:0:
184,268,26310,1,8,0:0:0:0:
272,204,26477,1,0,0:0:0:0:
168,180,26645,2,0,L|92:124,1,90,0|2,0:0|0:0,0:0:0:0:
200,108,26980,2,0,L|272:48,1,90,8|0,0:0|0:0,0:0:0:0:
40,56,27315,6,0,P|24:100|32:148,1,90,2|0,0:0|0:0,0:0:0:0:
128,188,27650,2,0,L|220:204,1,90,8|0,0:0|0:0,0:0:0:0:
352,216,27986,2,0,L|264:236,1,90,0|2,0:0|0:0,0:0:0:0:
128,256,28321,2,0,L|216:272,1,90,8|0,0:0|0:0,0:0:0:0:
444,272,28656,6,0,P|436:228|408:192,1,90,2|0,0:0|0:0,0:0:0:0:
300,184,28991,2,0,L|200:184,2,90,8|0|0,0:0|0:0|0:0,0:0:0:0:
192,184,29494,1,2,0:0:0:0:
84,188,29662,2,0,P|72:140|80:96,1,90,8|0,0:0|0:0,0:0:0:0:
304,288,29997,6,0,L|394:288,1,90,2|0,0:0|0:0,0:0:0:0:
284,288,30332,1,8,0:0:0:0:
200,216,30500,1,0,0:0:0:0:
304,192,30667,2,0,L|396:176,1,90,0|2,0:0|0:0,0:0:0:0:
256,156,31002,2,0,L|160:140,1,90,8|0,0:0|0:0,0:0:0:0:
200,140,31254,1,0,0:0:0:0:
424,228,31337,6,0,L|456:328,1,90,2|0,0:0|0:0,0:0:0:0:
344,320,31673,2,0,L|248:320,1,90,8|0,0:0|0:0,0:0:0:0:
360,252,32008,2,0,L|264:252,1,90,0|2,0:0|0:0,0:0:0:0:
112,264,32343,2,0,P|88:220|92:164,1,90,8|0,0:0|0:0,0:0:0:0:
316,28,32678,5,2,0:0:0:0:
412,76,32846,1,0,0:0:0:0:
456,176,33013,1,8,0:0:0:0:
444,284,33181,1,0,0:0:0:0:
376,368,33349,1,0,0:0:0:0:
268,364,33516,1,2,0:0:0:0:
112,320,33684,2,0,L|176:248,1,90,8|0,0:0|0:0,0:0:0:0:
436,108,34019,5,2,0:0:0:0:
492,108,34103,1,0,0:0:0:0:
492,164,34187,1,2,0:0:0:0:
440,164,34270,1,0,0:0:0:0:
372,160,34354,1,8,0:0:0:0:
192,216,34689,1,0,0:0:0:0:
192,216,35025,1,0,0:0:0:0:
408,216,35360,6,0,P|412:164|400:112,1,90,6|0,0:0|0:0,0:0:0:0:
296,132,35695,2,0,L|204:140,1,90,8|0,0:0|0:0,0:0:0:0:
100,164,36030,1,0,0:0:0:0:
208,172,36198,2,0,L|304:176,2,90,2|8|0,0:0|0:0|0:0,0:0:0:0:
436,184,36701,6,0,L|504:248,1,90,2|0,0:0|0:0,0:0:0:0:
396,260,37036,2,0,L|300:256,1,90,8|0,0:0|0:0,0:0:0:0:
148,236,37371,2,0,L|244:240,1,90,0|2,0:0|0:0,0:0:0:0:
100,224,37706,2,0,L|0:216,1,90,8|0,0:0|0:0,0:0:0:0:
280,56,38041,6,0,L|376:48,1,90,2|0,0:0|0:0,0:0:0:0:
280,108,38377,1,8,0:0:0:0:
176,168,38544,1,0,0:0:0:0:
312,156,38712,1,0,0:0:0:0:
420,96,38879,1,2,0:0:0:0:
280,108,39047,2,0,L|184:108,1,90,8|0,0:0|0:0,0:0:0:0:
416,204,39382,6,0,L|506:204,1,90,2|0,0:0|0:0,0:0:0:0:
412,256,39717,2,0,L|316:256,1,90,8|0,0:0|0:0,0:0:0:0:
196,256,40053,1,0,0:0:0:0:
112,188,40220,1,2,0:0:0:0:
148,84,40388,1,8,0:0:0:0:
256,76,40555,1,0,0:0:0:0:
484,64,40723,6,0,P|492:112|484:152,1,90,2|0,0:0|0:0,0:0:0:0:
376,148,41058,2,0,P|368:192|376:236,1,90,8|0,0:0|0:0,0:0:0:0:
240,124,41393,2,0,P|212:80|168:64,1,90,0|2,0:0|0:0,0:0:0:0:
316,76,41729,2,0,P|352:108|400:116,1,90,8|0,0:0|0:0,0:0:0:0:
164,292,42064,6,0,P|120:288|80:260,1,90,2|0,0:0|0:0,0:0:0:0:
160,188,42399,1,8,0:0:0:0:
268,176,42567,1,0,0:0:0:0:
160,160,42734,1,0,0:0:0:0:
100,72,42902,1,2,0:0:0:0:
328,68,43069,2,0,L|420:68,1,90,8|0,0:0|0:0,0:0:0:0:
100,72,43405,6,0,P|96:124|108:160,1,90,2|0,0:0|0:0,0:0:0:0:
216,168,43740,2,0,L|312:184,1,90,8|0,0:0|0:0,0:0:0:0:
200,216,44075,2,0,P|144:228|104:224,2,90,0|2|8,0:0|0:0|0:0,0:0:0:0:
304,180,44578,1,0,0:0:0:0:
80,172,44745,6,0,P|68:216|76:268,1,90,2|0,0:0|0:0,0:0:0:0:
344,256,45081,2,0,L|344:164,1,90,8|8,0:0|0:0,0:0:0:0:
236,164,45416,1,0,0:0:0:0:
344,256,45583,1,2,0:0:0:0:
480,256,45751,2,0,P|484:208|476:168,1,90,8|0,0:0|0:0,0:0:0:0:
204,148,46086,6,0,P|180:180|280:140,1,360,6|8,0:0|0:0,0:0:0:0:
116,168,47092,1,0,0:0:0:0:
332,184,47427,2,0,P|440:184|460:124,2,180,2|2|8,0:0|0:0|0:0,0:0:0:0:
116,168,48432,1,0,0:0:0:0:
392,284,48768,2,0,P|472:224|308:116,1,360,2|8,0:0|0:0,0:0:0:0:
108,112,49773,1,0,0:0:0:0:
324,116,50108,6,0,P|352:176|296:268,1,180,0|2,0:0|0:0,0:0:0:0:
96,188,50779,2,0,L|80:280,1,90,8|0,0:0|0:0,0:0:0:0:
136,280,51030,2,0,L|136:184,1,90,0|0,0:0|0:0,0:0:0:0:
136,190,51282,1,8,0:0:0:0:
364,280,51449,6,0,L|460:284,1,90,2|0,0:0|0:0,0:0:0:0:
316,276,51784,2,0,L|220:272,1,90,0|0,0:0|0:0,0:0:0:0:
48,272,52120,2,0,P|44:224|56:180,1,90,8|0,0:0|0:0,0:0:0:0:
188,172,52455,2,0,P|236:180|276:176,1,90,0|0,0:0|0:0,0:0:0:0:
460,136,52790,6,0,P|408:128|364:132,1,90,2|0,0:0|0:0,0:0:0:0:
232,252,53125,2,0,P|184:252|144:240,1,90,2|0,0:0|0:0,0:0:0:0:
412,256,53460,2,0,P|448:224|460:184,1,90,8|0,0:0|0:0,0:0:0:0:
356,156,53796,2,0,L|404:76,1,90,0|8,0:0|0:0,0:0:0:0:
128,84,54131,6,0,L|64:148,1,90,2|0,0:0|0:0,0:0:0:0:
168,176,54466,1,0,0:0:0:0:
264,228,54634,1,0,0:0:0:0:
156,228,54801,2,0,L|236:172,1,90,8|0,0:0|0:0,0:0:0:0:
384,172,55136,2,0,L|400:76,1,90,0|0,0:0|0:0,0:0:0:0:
128,84,55472,6,0,L|72:84,2,45,2|0|0,0:0|0:0|0:0,0:0:0:0:
264,84,55807,1,2,0:0:0:0:
400,80,55974,2,0,L|400:136,2,45,0|0|8,0:0|0:0|0:0,0:0:0:0:
216,236,56310,2,0,L|312:240,2,90,0|8|8,0:0|0:0|0:0,0:0:0:0:
440,252,56812,6,0,P|492:220|332:232,1,630,6|0,0:0|0:0,0:0:0:0:
416,164,58153,6,0,P|440:204|208:156,1,630,2|0,0:0|0:0,0:0:0:0:
288,224,59494,6,0,P|348:232|216:144,1,630,2|0,0:0|0:0,0:0:0:0:
320,132,60835,6,0,L|408:152,1,90,2|0,0:0|0:0,0:0:0:0:
272,208,61170,2,0,L|184:236,1,90,0|0,0:0|0:0,0:0:0:0:
56,260,61505,2,0,L|144:280,1,90,0|0,0:0|0:0,0:0:0:0:
280,292,61840,2,0,L|368:320,1,90,0|0,0:0|0:0,0:0:0:0:
136,312,62175,5,2,0:0:0:0:
60,236,62343,1,0,0:0:0:0:
72,128,62511,1,0,0:0:0:0:
160,68,62678,1,0,0:0:0:0:
388,68,62846,1,2,0:0:0:0:
476,128,63013,1,0,0:0:0:0:
488,236,63181,1,0,0:0:0:0:
412,312,63349,1,0,0:0:0:0:
184,308,63516,5,2,0:0:0:0:
268,240,63684,1,0,0:0:0:0:
308,140,63851,1,0,0:0:0:0:
292,32,64019,1,0,0:0:0:0:
64,48,64187,1,2,0:0:0:0:
12,144,64354,1,0,0:0:0:0:
48,244,64522,1,0,0:0:0:0:
144,296,64689,1,0,0:0:0:0:
372,308,64857,5,2,0:0:0:0:
472,264,65025,1,0,0:0:0:0:
508,164,65192,1,2,0:0:0:0:
460,68,65360,1,0,0:0:0:0:
364,20,65527,1,2,0:0:0:0:
256,28,65695,1,0,0:0:0:0:
156,72,65863,1,2,0:0:0:0:
140,180,66030,1,0,0:0:0:0:
368,184,66198,6,0,L|460:184,1,90,2|0,0:0|0:0,0:0:0:0:
348,184,66533,2,0,L|252:184,1,90,2|0,0:0|0:0,0:0:0:0:
100,284,66868,2,0,L|192:280,1,90,2|0,0:0|0:0,0:0:0:0:
300,280,67203,2,0,L|392:272,1,90,2|0,0:0|0:0,0:0:0:0:
100,284,67539,5,0,0:0:0:0:
256,192,67706,12,8,69215,0:0:0:0:
436,288,69550,6,0,L|436:104,1,180,0|0,0:0|0:0,0:0:0:0:
328,108,70053,1,0,0:0:0:0:
104,116,70220,6,0,P|100:164|112:208,1,90,6|0,0:0|0:0,0:0:0:0:
336,248,70555,2,0,P|340:200|328:156,1,90,8|0,0:0|0:0,0:0:0:0:
220,160,70891,2,0,P|216:204|232:256,1,90,0|2,0:0|0:0,0:0:0:0:
368,320,71226,2,0,P|416:320|452:296,1,90,8|0,0:0|0:0,0:0:0:0:
180,304,71561,6,0,P|136:288|84:288,1,90,2|0,0:0|0:0,0:0:0:0:
332,304,71896,2,0,P|376:288|428:288,1,90,8|0,0:0|0:0,0:0:0:0:
312,280,72231,1,0,0:0:0:0:
279,177,72399,1,2,0:0:0:0:
418,169,72567,1,8,0:0:0:0:
386,66,72734,1,0,0:0:0:0:
160,108,72902,6,0,L|64:120,1,90,2|0,0:0|0:0,0:0:0:0:
200,196,73237,2,0,L|292:196,1,90,8|0,0:0|0:0,0:0:0:0:
432,192,73572,2,0,L|336:192,1,90,0|2,0:0|0:0,0:0:0:0:
200,192,73907,2,0,P|192:244|204:284,1,90,8|0,0:0|0:0,0:0:0:0:
476,280,74243,6,0,L|384:280,2,90,2|0|8,0:0|0:0|0:0,0:0:0:0:
368,296,74745,1,0,0:0:0:0:
204,292,74913,2,0,P|192:244|196:200,1,90,0|2,0:0|0:0,0:0:0:0:
330,190,75248,1,8,0:0:0:0:
417,166,75416,1,0,0:0:0:0:
172,168,75583,6,0,L|84:136,1,90,2|0,0:0|0:0,0:0:0:0:
216,100,75918,2,0,L|268:24,1,90,8|0,0:0|0:0,0:0:0:0:
404,32,76254,2,0,L|344:104,1,90,0|2,0:0|0:0,0:0:0:0:
208,256,76589,2,0,L|272:188,1,90,8|0,0:0|0:0,0:0:0:0:
269,190,76840,1,0,0:0:0:0:
64,192,76924,6,0,P|56:148|64:104,1,90,2|0,0:0|0:0,0:0:0:0:
200,100,77259,2,0,L|300:104,1,90,8|0,0:0|0:0,0:0:0:0:
108,196,77594,2,0,L|200:200,2,90,0|2|8,0:0|0:0|0:0,0:0:0:0:
216,200,78097,1,0,0:0:0:0:
472,216,78265,5,2,0:0:0:0:
428,200,78349,1,0,0:0:0:0:
404,164,78432,1,0,0:0:0:0:
392,120,78516,1,0,0:0:0:0:
396,76,78600,5,8,0:0:0:0:
420,36,78684,1,0,0:0:0:0:
456,8,78768,1,0,0:0:0:0:
500,4,78851,1,0,0:0:0:0:
160,116,78935,5,0,0:0:0:0:
116,116,79019,1,0,0:0:0:0:
112,160,79103,1,2,0:0:0:0:
156,160,79187,1,0,0:0:0:0:
192,188,79270,5,8,0:0:0:0:
192,232,79354,1,0,0:0:0:0:
152,256,79438,1,0,0:0:0:0:
108,256,79522,1,0,0:0:0:0:
300,172,79606,5,2,0:0:0:0:
340,192,79689,1,0,0:0:0:0:
384,200,79773,1,0,0:0:0:0:
428,192,79857,1,0,0:0:0:0:
200,40,79941,5,8,0:0:0:0:
160,116,80108,1,8,0:0:0:0:
296,140,80276,1,0,0:0:0:0:
320,228,80444,1,0,0:0:0:0:
140,176,80611,2,0,L|52:204,1,90,8|0,0:0|0:0,0:0:0:0:
384,200,80946,6,0,P|428:192|480:196,1,90,6|0,0:0|0:0,0:0:0:0:
332,332,81282,2,0,P|276:336|232:324,1,90,8|0,0:0|0:0,0:0:0:0:
380,308,81617,2,0,P|392:260|380:216,1,90,0|2,0:0|0:0,0:0:0:0:
252,220,81952,2,0,L|328:164,1,90,8|0,0:0|0:0,0:0:0:0:
168,144,82287,6,0,L|76:148,1,90,2|0,0:0|0:0,0:0:0:0:
216,140,82622,2,0,L|312:136,1,90,8|0,0:0|0:0,0:0:0:0:
168,68,82958,2,0,P|140:108|136:160,1,90,0|2,0:0|0:0,0:0:0:0:
288,168,83293,2,0,L|384:176,1,90,8|0,0:0|0:0,0:0:0:0:
104,176,83628,6,0,L|12:200,2,90,2|0|8,0:0|0:0|0:0,0:0:0:0:
212,180,84131,1,0,0:0:0:0:
356,216,84298,2,0,P|368:156|360:124,1,90,0|2,0:0|0:0,0:0:0:0:
252,124,84634,2,0,L|156:120,1,90,8|0,0:0|0:0,0:0:0:0:
396,240,84969,5,2,0:0:0:0:
308,240,85136,1,0,0:0:0:0:
488,288,85304,2,0,L|500:196,1,90,8|0,0:0|0:0,0:0:0:0:
268,180,85639,2,0,L|364:176,1,90,0|2,0:0|0:0,0:0:0:0:
492,148,85974,2,0,L|402:148,1,90,8|0,0:0|0:0,0:0:0:0:
128,144,86310,6,0,L|32:144,1,90,2|0,0:0|0:0,0:0:0:0:
264,208,86645,2,0,L|360:208,1,90,8|0,0:0|0:0,0:0:0:0:
488,236,86980,2,0,L|396:236,1,90,0|2,0:0|0:0,0:0:0:0:
264,240,87315,2,0,L|168:240,1,90,8|0,0:0|0:0,0:0:0:0:
400,280,87650,6,0,P|408:228|396:188,1,90,2|0,0:0|0:0,0:0:0:0:
256,196,87986,2,0,L|312:112,1,90,8|0,0:0|0:0,0:0:0:0:
164,100,88321,1,0,0:0:0:0:
256,112,88488,1,2,0:0:0:0:
76,120,88656,2,0,P|68:168|76:216,1,90,8|0,0:0|0:0,0:0:0:0:
304,320,88991,5,2,0:0:0:0:
336,288,89075,1,0,0:0:0:0:
380,272,89159,1,0,0:0:0:0:
424,272,89243,1,0,0:0:0:0:
244,264,89326,1,8,0:0:0:0:
156,272,89494,1,8,0:0:0:0:
291,264,89662,2,0,L|347:180,1,90,2|0,0:0|0:0,0:0:0:0:
207,176,89997,2,0,L|117:176,1,90,8|0,0:0|0:0,0:0:0:0:
391,172,90332,6,0,L|436:172,2,45,2|0|0,0:0|0:0|0:0,0:0:0:0:
255,172,90667,2,0,L|207:172,2,45,2|0|0,0:0|0:0|0:0,0:0:0:0:
119,168,91002,2,0,L|67:168,2,45,2|0|0,0:0|0:0|0:0,0:0:0:0:
355,164,91337,5,8,0:0:0:0:
399,164,91421,1,0,0:0:0:0:
439,184,91505,1,0,0:0:0:0:
459,224,91589,1,0,0:0:0:0:
187,268,91673,1,6,0:0:0:0:
256,192,91840,12,2,94354,0:0:0:0:
224,292,94689,5,8,0:0:0:0:
268,276,94773,1,0,0:0:0:0:
304,248,94857,1,0,0:0:0:0:
308,204,94941,1,0,0:0:0:0:
296,160,95025,5,0,0:0:0:0:
264,128,95108,1,0,0:0:0:0:
224,108,95192,1,2,0:0:0:0:
180,100,95276,1,0,0:0:0:0:
136,104,95360,5,8,0:0:0:0:
96,124,95444,1,0,0:0:0:0:
60,152,95527,1,0,0:0:0:0:
40,192,95611,1,0,0:0:0:0:
224,276,95695,5,2,0:0:0:0:
260,300,95779,1,0,0:0:0:0:
304,304,95863,1,0,0:0:0:0:
348,292,95946,1,0,0:0:0:0:
384,264,96030,5,8,0:0:0:0:
400,224,96114,1,0,0:0:0:0:
404,180,96198,1,0,0:0:0:0:
396,136,96282,1,0,0:0:0:0:
376,96,96365,5,0,0:0:0:0:
344,64,96449,1,0,0:0:0:0:
304,44,96533,1,2,0:0:0:0:
260,40,96617,1,0,0:0:0:0:
216,56,96701,5,8,0:0:0:0:
188,92,96784,1,0,0:0:0:0:
172,136,96868,1,0,0:0:0:0:
184,180,96952,1,0,0:0:0:0:
380,96,97036,5,2,0:0:0:0:
424,108,97120,1,0,0:0:0:0:
460,132,97203,1,0,0:0:0:0:
480,172,97287,1,0,0:0:0:0:
472,216,97371,5,8,0:0:0:0:
452,256,97455,1,0,0:0:0:0:
416,280,97539,1,0,0:0:0:0:
372,292,97622,1,0,0:0:0:0:
328,296,97706,5,0,0:0:0:0:
284,296,97790,1,0,0:0:0:0:
244,280,97874,1,2,0:0:0:0:
224,240,97958,1,0,0:0:0:0:
380,212,98041,5,8,0:0:0:0:
424,200,98125,1,0,0:0:0:0:
464,176,98209,1,0,0:0:0:0:
480,136,98293,1,0,0:0:0:0:
368,120,98377,5,2,0:0:0:0:
324,116,98460,1,0,0:0:0:0:
280,124,98544,1,0,0:0:0:0:
252,164,98628,1,0,0:0:0:0:
260,208,98712,5,8,0:0:0:0:
284,248,98796,1,0,0:0:0:0:
324,268,98879,1,0,0:0:0:0:
368,260,98963,1,0,0:0:0:0:
408,240,99047,5,0,0:0:0:0:
440,212,99131,1,0,0:0:0:0:
456,168,99215,1,2,0:0:0:0:
448,124,99298,1,0,0:0:0:0:
428,84,99382,5,8,0:0:0:0:
396,52,99466,1,0,0:0:0:0:
352,40,99550,1,0,0:0:0:0:
308,40,99634,1,0,0:0:0:0:
132,136,99717,5,2,0:0:0:0:
88,164,99801,1,0,0:0:0:0:
64,200,99885,1,0,0:0:0:0:
60,244,99969,1,0,0:0:0:0:
72,288,100053,5,8,0:0:0:0:
100,324,100136,1,0,0:0:0:0:
140,348,100220,1,0,0:0:0:0:
184,360,100304,1,0,0:0:0:0:
228,360,100388,5,0,0:0:0:0:
268,344,100472,1,0,0:0:0:0:
300,312,100555,1,2,0:0:0:0:
316,272,100639,1,0,0:0:0:0:
328,228,100723,6,0,P|332:180|320:132,1,90,8|0,0:0|0:0,0:0:0:0:
96,196,101058,1,2,0:0:0:0:
56,176,101142,1,0,0:0:0:0:
36,136,101226,1,2,0:0:0:0:
32,92,101310,1,0,0:0:0:0:
60,56,101393,6,0,L|156:56,1,90,8|0,0:0|0:0,0:0:0:0:
376,60,101729,1,2,0:0:0:0:
420,68,101812,1,0,0:0:0:0:
456,96,101896,1,2,0:0:0:0:
472,140,101980,1,0,0:0:0:0:
460,184,102064,5,8,0:0:0:0:
436,220,102148,1,0,0:0:0:0:
392,232,102231,1,0,0:0:0:0:
348,240,102315,1,0,0:0:0:0:
144,236,102399,6,0,L|96:156,1,90,6|0,0:0|0:0,0:0:0:0:
236,156,102734,2,0,L|280:72,1,90,2|0,0:0|0:0,0:0:0:0:
52,216,103069,5,8,0:0:0:0:
24,264,103153,1,0,0:0:0:0:
28,320,103237,1,0,0:0:0:0:
64,360,103321,1,0,0:0:0:0:
88,316,103405,1,0,0:0:0:0:
132,284,103488,1,0,0:0:0:0:
180,264,103572,1,0,0:0:0:0:
236,264,103656,1,0,0:0:0:0:
416,260,103740,6,0,P|448:228|460:180,1,90,2|0,0:0|0:0,0:0:0:0:
324,160,104075,2,0,L|244:96,1,90,2|0,0:0|0:0,0:0:0:0:
484,112,104410,5,8,0:0:0:0:
512,156,104494,1,0,0:0:0:0:
500,208,104578,1,0,0:0:0:0:
460,244,104662,1,0,0:0:0:0:
408,248,104745,1,0,0:0:0:0:
356,236,104829,1,0,0:0:0:0:
312,208,104913,1,8,0:0:0:0:
260,200,104997,1,0,0:0:0:0:
76,204,105081,6,0,L|108:120,1,90,2|0,0:0|0:0,0:0:0:0:
248,128,105416,2,0,L|284:40,1,90,2|0,0:0|0:0,0:0:0:0:
12,80,105751,5,8,0:0:0:0:
52,116,105835,1,0,0:0:0:0:
88,156,105918,1,0,0:0:0:0:
128,192,106002,1,0,0:0:0:0:
168,228,106086,1,0,0:0:0:0:
208,268,106170,1,0,0:0:0:0:
248,304,106254,1,0,0:0:0:0:
288,340,106337,1,0,0:0:0:0:
64,296,106421,6,0,P|40:248|36:208,1,90,2|0,0:0|0:0,0:0:0:0:
168,228,106756,2,0,L|256:204,1,90,2|0,0:0|0:0,0:0:0:0:
28,192,107092,6,0,L|8:148,1,45,8|0,0:0|0:0,0:0:0:0:
168,120,107259,1,2,0:0:0:0:
224,120,107343,1,0,0:0:0:0:
272,140,107427,1,0,0:0:0:0:
300,184,107511,1,0,0:0:0:0:
308,236,107594,1,0,0:0:0:0:
284,284,107678,1,0,0:0:0:0:
100,292,107762,6,0,L|188:256,1,90,2|0,0:0|0:0,0:0:0:0:
320,352,108097,2,0,L|216:340,1,90,2|0,0:0|0:0,0:0:0:0:
0,340,108432,5,8,0:0:0:0:
56,336,108516,1,0,0:0:0:0:
100,304,108600,1,0,0:0:0:0:
116,252,108684,1,0,0:0:0:0:
108,200,108768,1,0,0:0:0:0:
68,164,108851,1,0,0:0:0:0:
44,116,108935,1,0,0:0:0:0:
60,64,109019,1,0,0:0:0:0:
264,64,109103,6,0,L|280:152,1,90,2|0,0:0|0:0,0:0:0:0:
144,164,109438,2,0,P|128:216|140:264,1,90,2|0,0:0|0:0,0:0:0:0:
360,264,109773,5,8,0:0:0:0:
416,268,109857,1,0,0:0:0:0:
464,244,109941,1,0,0:0:0:0:
488,196,110025,1,0,0:0:0:0:
496,144,110108,1,0,0:0:0:0:
476,92,110192,1,0,0:0:0:0:
428,64,110276,1,8,0:0:0:0:
372,64,110360,1,0,0:0:0:0:
188,88,110444,6,0,P|180:132|188:176,1,90,2|0,0:0|0:0,0:0:0:0:
324,176,110779,2,0,L|396:240,1,90,2|0,0:0|0:0,0:0:0:0:
160,244,111114,5,8,0:0:0:0:
112,224,111198,1,0,0:0:0:0:
92,176,111282,1,2,0:0:0:0:
96,124,111365,1,0,0:0:0:0:
128,80,111449,1,0,0:0:0:0:
168,44,111533,1,0,0:0:0:0:
220,28,111617,1,0,0:0:0:0:
272,24,111701,1,0,0:0:0:0:
456,32,111784,5,2,0:0:0:0:
492,72,111868,1,0,0:0:0:0:
440,88,111952,1,2,0:0:0:0:
392,112,112036,1,0,0:0:0:0:
356,152,112120,5,2,0:0:0:0:
344,204,112203,1,0,0:0:0:0:
344,260,112287,1,0,0:0:0:0:
364,312,112371,1,0,0:0:0:0:
408,344,112455,5,8,0:0:0:0:
460,348,112539,1,0,0:0:0:0:
408,344,112622,1,0,0:0:0:0:
352,348,112706,1,0,0:0:0:0:
300,332,112790,5,2,0:0:0:0:
248,316,112874,1,0,0:0:0:0:
208,280,112958,1,0,0:0:0:0:
184,232,113041,1,0,0:0:0:0:
344,372,113125,5,6,0:0:0:0:
440,320,113293,1,0,0:0:0:0:
480,220,113460,1,0,0:0:0:0:
448,116,113628,1,0,0:0:0:0:
356,56,113796,2,0,P|308:64|268:52,1,90,0|0,0:0|0:0,0:0:0:0:
160,136,114131,2,0,P|204:127|247:139,1,90,0|0,0:0|0:0,0:0:0:0:
64,184,114466,6,0,P|56:132|68:92,1,90,2|0,0:0|0:0,0:0:0:0:
176,192,114801,2,0,P|192:236|184:284,1,90,0|0,0:0|0:0,0:0:0:0:
56,344,115136,2,0,P|100:356|148:348,1,90,0|0,0:0|0:0,0:0:0:0:
252,312,115472,2,0,P|296:300|344:312,1,90,0|0,0:0|0:0,0:0:0:0:
112,84,115807,6,0,P|108:136|116:172,1,90,2|0,0:0|0:0,0:0:0:0:
252,172,116142,2,0,P|288:200|332:208,1,90,2|0,0:0|0:0,0:0:0:0:
188,224,116477,2,0,P|148:204|104:208,1,90,2|0,0:0|0:0,0:0:0:0:
332,136,116812,2,0,P|356:176|356:232,1,90,2|0,0:0|0:0,0:0:0:0:
83,308,117148,6,0,P|73:265|88:224,1,90,2|0,0:0|0:0,0:0:0:0:
218,162,117483,2,0,L|192:76,1,90,0|0,0:0|0:0,0:0:0:0:
332,248,117818,2,0,L|308:161,1,90,0|0,0:0|0:0,0:0:0:0:
444,332,118153,2,0,L|420:245,1,90,0|0,0:0|0:0,0:0:0:0:
144,328,118488,6,0,P|136:280|140:240,1,90,2|0,0:0|0:0,0:0:0:0:
276,240,118824,2,0,P|288:196|284:148,1,90,2|0,0:0|0:0,0:0:0:0:
148,148,119159,2,0,P|104:156|60:148,1,90,2|0,0:0|0:0,0:0:0:0:
292,112,119494,2,0,P|336:100|380:104,1,90,2|0,0:0|0:0,0:0:0:0:
108,224,119829,6,0,P|92:272|100:312,1,90,2|0,0:0|0:0,0:0:0:0:
208,324,120164,1,0,0:0:0:0:
300,272,120332,1,0,0:0:0:0:
184,244,120500,2,0,P|140:224|100:228,3,90,0|0|0|0,0:0|0:0|0:0|0:0,0:0:0:0:
368,296,121170,5,2,0:0:0:0:
256,192,121337,12,0,123684,0:0:0:0:
