osu file format v14

[General]
AudioFilename: RaS.mp3
AudioLeadIn: 0
PreviewTime: 69550
Countdown: 0
SampleSet: Soft
StackLeniency: 0.7
Mode: 2
LetterboxInBreaks: 0
WidescreenStoryboard: 0

[Editor]
Bookmarks: 11226,24634,46086,56812,70220,73237,102399,113125,123684
DistanceSpacing: 1.2
BeatDivisor: 4
GridSize: 4
TimelineZoom: 1.3

[Metadata]
Title:Rainbow after snow
TitleUnicode:Rainbow after snow
Artist:Nekomata Master feat. Hayashi Momoko
ArtistUnicode:猫叉Master feat. 林ももこ
Creator:Nakano Ichika
Version:Platter
Source:beatmania IIDX 20 tricoro
Tags:Saucer Crevice Cafe de Tran dnb drum and bass GAMI naoyuki sato asuna jubeat electronic japanese SUBSTAC9
BeatmapID:818529
BeatmapSetID:273781

[Difficulty]
HPDrainRate:5
CircleSize:3.5
OverallDifficulty:8
ApproachRate:8
SliderMultiplier:1.6
SliderTickRate:2

[Events]
//Background and Video events
0,0,"BG.jpg",0,0
//Break Periods
//Storyboard Layer 0 (Background)
//Storyboard Layer 1 (Fail)
//Storyboard Layer 2 (Pass)
//Storyboard Layer 3 (Foreground)
//Storyboard Layer 4 (Overlay)
//Storyboard Sound Samples

[TimingPoints]
500,335.195530726257,4,2,3,25,1,0
583,-100,4,2,0,25,0,0
3516,-100,4,2,3,25,0,0
4522,-100,4,2,0,25,0,0
6198,-100,4,2,3,25,0,0
7203,-100,4,2,0,25,0,0
9215,-100,4,2,3,25,0,0
9885,-100,4,2,0,25,0,0
11226,-100,4,2,2,55,0,0
12567,-100,4,2,2,45,0,0
14243,-100,4,2,3,45,0,0
15248,-100,4,2,2,45,0,0
16924,-100,4,2,3,45,0,0
17930,-100,4,2,2,45,0,0
22622,-100,4,2,2,45,0,0
23293,-100,4,2,2,65,0,0
23628,-100,4,2,2,50,0,0
23963,-100,4,2,2,30,0,0
24634,-100,4,2,2,65,0,0
34689,-100,4,2,2,30,0,0
35360,-100,4,2,2,65,0,0
46086,-100,4,2,2,65,0,0
69215,-100,4,2,2,65,0,0
69550,-100,4,2,5,30,0,0
69885,-100,4,2,5,20,0,0
70053,-100,4,2,5,10,0,0
70220,-100,4,2,5,75,0,1
79941,-100,4,2,2,55,0,0
80946,-100,4,2,5,75,0,1
91589,-100,4,2,5,75,0,0
91673,-100,4,2,5,75,0,1
94354,-100,4,2,5,65,0,0
102399,-100,4,2,5,55,0,0
113125,-100,4,2,0,35,0,0
116142,-100,4,2,3,35,0,0
117148,-100,4,2,0,35,0,0
118824,-100,4,2,3,35,0,0
119829,-100,4,2,0,35,0,0
121170,-100,4,2,0,25,0,0
122511,-100,4,2,0,15,0,0
123684,-100,4,2,0,5,0,0

[Colours]
Combo1 : 0,128,255
Combo2 : 255,0,0
Combo3 : 252,245,12
Combo4 : 0,255,64

[HitObjects]
360,276,500,6,0,L|440:276,1,80,2|0,0:0|0:0,0:0:0:0:
344,276,835,2,0,L|264:276,1,80,0|0,0:0|0:0,0:0:0:0:
168,276,1170,2,0,L|252:276,1,80,0|0,0:0|0:0,0:0:0:0:
344,280,1505,2,0,L|432:280,1,80,0|0,0:0|0:0,0:0:0:0:
260,284,1840,6,0,L|180:284,1,80,2|0,0:0|0:0,0:0:0:0:
84,284,2175,2,0,L|156:244,1,80,0|0,0:0|0:0,0:0:0:0:
292,244,2511,2,0,L|208:240,2,80,0|0|0,0:0|0:0|0:0,0:0:0:0:
356,172,3013,1,0,0:0:0:0:
199,167,3181,6,0,L|127:215,1,80,2|0,0:0|0:0,0:0:0:0:
195,287,3516,1,2,0:0:0:0:
287,319,3684,1,0,0:0:0:0:
167,319,3851,2,0,P|155:279|163:239,1,80,2|0,0:0|0:0,0:0:0:0:
339,203,4187,2,0,P|351:243|343:283,1,80,2|0,0:0|0:0,0:0:0:0:
104,288,4522,6,0,P|64:216|112:172,1,160,2|0,0:0|0:0,0:0:0:0:
176,135,5025,1,0,0:0:0:0:
272,140,5192,2,0,L|296:64,1,80,0|0,0:0|0:0,0:0:0:0:
392,140,5527,2,0,L|417:64,1,80,0|0,0:0|0:0,0:0:0:0:
232,144,5863,6,0,L|300:192,1,80,2|0,0:0|0:0,0:0:0:0:
160,200,6198,2,0,L|180:288,1,80,2|0,0:0|0:0,0:0:0:0:
316,272,6533,2,0,L|296:352,1,80,2|0,0:0|0:0,0:0:0:0:
120,348,6868,2,0,L|140:264,1,80,2|0,0:0|0:0,0:0:0:0:
380,280,7203,6,0,P|400:208|336:168,1,160,2|0,0:0|0:0,0:0:0:0:
248,208,7706,1,0,0:0:0:0:
184,136,7874,1,0,0:0:0:0:
272,100,8041,1,0,0:0:0:0:
136,104,8209,2,0,P|96:128|80:168,1,80,0|0,0:0|0:0,0:0:0:0:
264,156,8544,6,0,P|300:192|304:228,1,80,2|0,0:0|0:0,0:0:0:0:
428,244,8879,2,0,P|400:292|368:296,1,80,0|0,0:0|0:0,0:0:0:0:
204,288,9215,2,0,L|264:228,1,80,2|0,0:0|0:0,0:0:0:0:
100,240,9550,2,0,L|76:164,1,80,2|0,0:0|0:0,0:0:0:0:
320,164,9885,5,2,0:0:0:0:
256,192,10053,12,4,11226,0:0:0:0:
136,124,11561,6,0,L|216:128,1,80,0|0,0:0|0:0,0:0:0:0:
312,120,11896,2,0,L|232:120,1,80,0|0,0:0|0:0,0:0:0:0:
328,120,12231,2,0,L|368:192,1,80,0|0,0:0|0:0,0:0:0:0:
188,208,12567,6,0,L|160:292,1,80,2|0,0:0|0:0,0:0:0:0:
304,304,12902,2,0,L|280:220,1,80,2|0,0:0|0:0,0:0:0:0:
144,232,13237,2,0,L|220:208,1,80,0|0,0:0|0:0,0:0:0:0:
348,208,13572,2,0,L|264:180,1,80,0|0,0:0|0:0,0:0:0:0:
412,184,13907,5,2,0:0:0:0:
472,260,14075,1,0,0:0:0:0:
376,264,14243,2,0,L|344:348,1,80,10|0,0:0|0:0,0:0:0:0:
208,340,14578,2,0,L|232:260,1,80,2|0,0:0|0:0,0:0:0:0:
92,260,14913,2,0,L|60:176,1,80,2|0,0:0|0:0,0:0:0:0:
304,192,15248,5,2,0:0:0:0:
400,192,15416,1,2,0:0:0:0:
304,192,15583,2,0,L|240:136,1,80,2|0,0:0|0:0,0:0:0:0:
380,136,15918,2,0,L|464:108,1,80,0|0,0:0|0:0,0:0:0:0:
360,104,16254,2,0,L|280:76,1,80,0|0,0:0|0:0,0:0:0:0:
108,92,16589,6,0,L|76:168,1,80,2|0,0:0|0:0,0:0:0:0:
200,172,16924,2,0,L|260:232,1,80,2|0,0:0|0:0,0:0:0:0:
396,228,17259,2,0,L|356:304,1,80,2|0,0:0|0:0,0:0:0:0:
220,312,17594,2,0,L|256:236,1,80,2|0,0:0|0:0,0:0:0:0:
484,356,17930,6,0,L|400:352,1,80,2|0,0:0|0:0,0:0:0:0:
160,348,18265,2,0,P|152:304|160:268,1,80,2|0,0:0|0:0,0:0:0:0:
256,260,18600,2,0,P|264:216|256:176,1,80,0|0,0:0|0:0,0:0:0:0:
160,348,18935,2,0,L|208:280,1,80,0|0,0:0|0:0,0:0:0:0:
448,312,19270,5,2,0:0:0:0:
352,312,19438,1,0,0:0:0:0:
256,308,19606,1,2,0:0:0:0:
352,312,19773,1,0,0:0:0:0:
360,216,19941,2,0,L|198:212,1,160,0|0,0:0|0:0,0:0:0:0:
120,192,20444,1,0,0:0:0:0:
368,224,20611,6,0,L|448:232,2,80,2|2|2,0:0|0:0|0:0,0:0:0:0:
276,200,21114,1,0,0:0:0:0:
372,184,21282,1,0,0:0:0:0:
452,128,21449,1,0,0:0:0:0:
364,168,21617,2,0,L|280:176,1,80,0|0,0:0|0:0,0:0:0:0:
44,244,21952,5,6,0:0:0:0:
16,204,22036,1,0,0:0:0:0:
20,156,22120,1,0,0:0:0:0:
48,120,22203,1,0,0:0:0:0:
88,96,22287,1,0,0:0:0:0:
136,96,22371,1,0,0:0:0:0:
184,108,22455,1,0,0:0:0:0:
220,144,22539,1,0,0:0:0:0:
280,188,22622,6,0,L|304:220,3,40,2|0|0|0,0:0|0:0|0:0|0:0,0:0:0:0:
220,188,22958,2,0,L|192:148,3,40,2|0|0|0,0:0|0:0|0:0|0:0,0:0:0:0:
128,176,23293,5,2,0:0:0:0:
32,168,23460,1,2,0:0:0:0:
192,180,23628,2,0,L|203:261,1,80,8|0,0:0|0:0,0:0:0:0:
108,260,23963,1,0,0:0:0:0:
300,260,24298,1,0,0:0:0:0:
60,252,24634,5,6,0:0:0:0:
156,240,24801,1,0,0:0:0:0:
252,236,24969,2,0,L|172:232,1,80,8|0,0:0|0:0,0:0:0:0:
268,228,25304,2,0,L|356:228,1,80,0|2,0:0|0:0,0:0:0:0:
252,216,25639,2,0,L|336:216,1,80,8|0,0:0|0:0,0:0:0:0:
512,212,25974,6,0,L|428:212,1,80,2|0,0:0|0:0,0:0:0:0:
268,208,26310,2,0,L|352:208,1,80,8|0,0:0|0:0,0:0:0:0:
252,208,26645,2,0,L|160:208,1,80,0|2,0:0|0:0,0:0:0:0:
292,176,26980,2,0,L|280:92,1,80,8|0,0:0|0:0,0:0:0:0:
460,120,27315,6,0,L|480:208,1,80,2|0,0:0|0:0,0:0:0:0:
384,212,27650,2,0,L|360:288,1,80,8|0,0:0|0:0,0:0:0:0:
264,284,27986,2,0,L|244:200,1,80,0|2,0:0|0:0,0:0:0:0:
88,200,28321,2,0,L|120:120,1,80,8|0,0:0|0:0,0:0:0:0:
296,120,28656,6,0,L|216:120,1,80,2|0,0:0|0:0,0:0:0:0:
284,188,28991,1,8,0:0:0:0:
380,196,29159,1,0,0:0:0:0:
464,148,29326,1,0,0:0:0:0:
372,124,29494,2,0,L|292:124,2,80,2|8|0,0:0|0:0|0:0,0:0:0:0:
192,120,29997,6,0,L|144:196,1,80,2|0,0:0|0:0,0:0:0:0:
52,192,30332,2,0,L|80:272,1,80,8|0,0:0|0:0,0:0:0:0:
176,264,30667,2,0,L|216:344,1,80,0|2,0:0|0:0,0:0:0:0:
380,332,31002,2,0,L|336:256,1,80,8|0,0:0|0:0,0:0:0:0:
96,272,31337,6,0,L|264:260,1,160,2|8,0:0|0:0,0:0:0:0:
164,232,31840,1,0,0:0:0:0:
72,208,32008,2,0,P|52:172|60:132,1,80,0|2,0:0|0:0,0:0:0:0:
220,128,32343,2,0,L|156:76,1,80,8|0,0:0|0:0,0:0:0:0:
324,60,32678,6,0,P|364:84|380:120,1,80,2|0,0:0|0:0,0:0:0:0:
288,148,33013,1,8,0:0:0:0:
384,164,33181,1,0,0:0:0:0:
288,184,33349,1,0,0:0:0:0:
196,160,33516,1,2,0:0:0:0:
336,160,33684,2,0,L|412:192,1,80,8|0,0:0|0:0,0:0:0:0:
168,244,34019,5,2,0:0:0:0:
120,244,34103,1,0,0:0:0:0:
72,248,34187,1,2,0:0:0:0:
168,244,34354,1,8,0:0:0:0:
360,248,34689,1,0,0:0:0:0:
360,248,35025,1,0,0:0:0:0:
168,244,35360,6,0,L|112:176,1,80,6|0,0:0|0:0,0:0:0:0:
212,172,35695,1,8,0:0:0:0:
308,172,35863,2,0,L|220:172,2,80,0|0|2,0:0|0:0|0:0,0:0:0:0:
440,172,36365,2,0,L|476:244,1,80,8|0,0:0|0:0,0:0:0:0:
300,252,36701,6,0,L|252:184,1,80,2|0,0:0|0:0,0:0:0:0:
376,176,37036,2,0,L|408:96,1,80,8|0,0:0|0:0,0:0:0:0:
500,108,37371,2,0,L|508:24,1,80,0|2,0:0|0:0,0:0:0:0:
328,40,37706,2,0,L|308:120,1,80,8|0,0:0|0:0,0:0:0:0:
488,112,38041,6,0,L|408:144,1,80,2|0,0:0|0:0,0:0:0:0:
316,152,38377,2,0,L|268:228,1,80,8|0,0:0|0:0,0:0:0:0:
368,224,38712,2,0,L|448:224,1,80,0|2,0:0|0:0,0:0:0:0:
312,224,39047,2,0,L|232:224,1,80,8|0,0:0|0:0,0:0:0:0:
408,224,39382,6,0,L|488:216,1,80,2|0,0:0|0:0,0:0:0:0:
396,180,39717,1,8,0:0:0:0:
300,180,39885,2,0,L|392:180,2,80,0|0|2,0:0|0:0|0:0,0:0:0:0:
160,184,40388,2,0,L|252:184,1,80,8|0,0:0|0:0,0:0:0:0:
60,184,40723,6,0,L|36:108,1,80,2|0,0:0|0:0,0:0:0:0:
176,188,41058,2,0,L|84:184,1,80,8|0,0:0|0:0,0:0:0:0:
192,188,41393,2,0,L|280:188,2,80,0|2|8,0:0|0:0|0:0,0:0:0:0:
288,188,41896,1,0,0:0:0:0:
44,192,42064,6,0,P|20:236|104:272,1,160,2|8,0:0|0:0,0:0:0:0:
196,264,42567,1,0,0:0:0:0:
100,264,42734,1,0,0:0:0:0:
196,264,42902,1,2,0:0:0:0:
292,268,43069,2,0,L|212:264,1,80,8|0,0:0|0:0,0:0:0:0:
456,264,43405,6,0,P|484:196|424:152,1,160,2|8,0:0|0:0,0:0:0:0:
328,180,43907,1,0,0:0:0:0:
416,220,44075,1,0,0:0:0:0:
328,180,44243,1,2,0:0:0:0:
192,208,44410,2,0,L|224:128,1,80,8|0,0:0|0:0,0:0:0:0:
400,128,44745,6,0,B|472:164|472:164|388:168,1,160,2|8,0:0|0:0,0:0:0:0:
212,184,45248,1,8,0:0:0:0:
308,180,45416,2,0,L|372:228,1,80,0|2,0:0|0:0,0:0:0:0:
132,188,45751,2,0,L|108:112,1,80,8|0,0:0|0:0,0:0:0:0:
408,108,46086,6,0,P|516:176|412:292,1,320,6|8,0:0|0:0,0:0:0:0:
224,280,47092,1,0,0:0:0:0:
32,276,47427,2,0,P|116:272|152:204,2,160,2|2|8,0:0|0:0|0:0,0:0:0:0:
204,188,48432,1,0,0:0:0:0:
448,184,48768,2,0,P|484:216|336:284,1,320,2|8,0:0|0:0,0:0:0:0:
496,180,49773,1,0,0:0:0:0:
304,180,50108,6,0,L|144:128,1,160,0|2,0:0|0:0,0:0:0:0:
344,104,50779,1,8,0:0:0:0:
156,140,51114,2,0,L|236:136,1,80,8|8,0:0|0:0,0:0:0:0:
140,140,51449,2,0,L|0:232,2,160,2|0|8,0:0|0:0|0:0,0:0:0:0:
332,136,52455,1,0,0:0:0:0:
140,140,52790,2,0,L|296:200,2,160,2|2|8,0:0|0:0|0:0,0:0:0:0:
332,136,53796,2,0,L|416:136,1,80,0|8,0:0|0:0,0:0:0:0:
316,136,54131,6,0,L|152:136,1,160,2|0,0:0|0:0,0:0:0:0:
348,136,54801,2,0,P|460:212|356:316,1,320,8|2,0:0|0:0,0:0:0:0:
168,312,55807,1,2,0:0:0:0:
356,272,56142,2,0,P|412:228|352:180,1,160,8|8,0:0|0:0,0:0:0:0:
84,232,56812,6,0,B|8:168|72:136|72:136|136:120|200:164|220:232|156:276|156:276|100:304|24:264|16:208|88:200|88:200|180:204,2,640,6|2|2,0:0|0:0|0:0,0:0:0:0:
260,312,59829,1,0,0:0:0:0:
448,272,60164,1,0,0:0:0:0:
256,252,60500,1,0,0:0:0:0:
496,244,60835,6,0,L|424:204,1,80,2|0,0:0|0:0,0:0:0:0:
284,208,61170,2,0,L|328:128,1,80,0|0,0:0|0:0,0:0:0:0:
420,124,61505,2,0,L|376:48,1,80,0|0,0:0|0:0,0:0:0:0:
236,96,61840,2,0,P|224:136|236:180,1,80,0|0,0:0|0:0,0:0:0:0:
400,168,62175,5,2,0:0:0:0:
184,168,62511,1,0,0:0:0:0:
4,236,62846,1,2,0:0:0:0:
196,260,63181,1,0,0:0:0:0:
468,260,63516,5,2,0:0:0:0:
276,264,63851,1,0,0:0:0:0:
128,140,64187,1,2,0:0:0:0:
312,196,64522,1,0,0:0:0:0:
40,196,64857,6,0,L|12:112,1,80,2|0,0:0|0:0,0:0:0:0:
108,104,65192,2,0,L|144:32,1,80,2|0,0:0|0:0,0:0:0:0:
240,32,65527,2,0,L|264:120,1,80,2|0,0:0|0:0,0:0:0:0:
384,108,65863,2,0,L|364:188,1,80,2|0,0:0|0:0,0:0:0:0:
188,184,66198,6,0,L|152:268,1,80,2|0,0:0|0:0,0:0:0:0:
28,260,66533,2,0,L|52:340,1,80,2|0,0:0|0:0,0:0:0:0:
148,340,66868,2,0,L|176:260,1,80,2|0,0:0|0:0,0:0:0:0:
312,264,67203,2,0,L|300:176,1,80,2|0,0:0|0:0,0:0:0:0:
52,196,67539,1,0,0:0:0:0:
256,192,67706,12,8,69215,0:0:0:0:
232,264,70220,6,0,L|168:208,1,80,6|0,0:0|0:0,0:0:0:0:
332,200,70555,2,0,L|416:200,1,80,8|0,0:0|0:0,0:0:0:0:
316,192,70891,2,0,L|232:188,1,80,0|2,0:0|0:0,0:0:0:0:
100,188,71226,2,0,L|168:140,1,80,8|0,0:0|0:0,0:0:0:0:
344,128,71561,6,0,L|372:44,1,80,2|0,0:0|0:0,0:0:0:0:
276,36,71896,2,0,L|248:120,1,80,8|0,0:0|0:0,0:0:0:0:
156,108,72231,2,0,L|120:184,1,80,0|2,0:0|0:0,0:0:0:0:
256,180,72567,2,0,L|288:260,1,80,8|0,0:0|0:0,0:0:0:0:
40,164,72902,6,0,L|124:152,2,80,2|0|8,0:0|0:0|0:0,0:0:0:0:
132,196,73405,1,0,0:0:0:0:
224,224,73572,2,0,L|148:184,1,80,0|2,0:0|0:0,0:0:0:0:
248,184,73907,2,0,L|336:180,1,80,8|0,0:0|0:0,0:0:0:0:
88,184,74243,6,0,L|32:120,1,80,2|0,0:0|0:0,0:0:0:0:
176,116,74578,1,8,0:0:0:0:
272,116,74745,1,0,0:0:0:0:
176,116,74913,2,0,L|264:120,1,80,0|2,0:0|0:0,0:0:0:0:
392,116,75248,2,0,L|312:120,1,80,8|0,0:0|0:0,0:0:0:0:
72,120,75583,6,0,L|12:172,1,80,2|0,0:0|0:0,0:0:0:0:
104,204,75918,1,8,0:0:0:0:
196,176,76086,1,0,0:0:0:0:
104,204,76254,1,0,0:0:0:0:
196,176,76421,1,2,0:0:0:0:
336,200,76589,2,0,L|368:280,1,80,8|0,0:0|0:0,0:0:0:0:
128,276,76924,6,0,L|104:200,1,80,2|0,0:0|0:0,0:0:0:0:
220,204,77259,2,0,L|260:128,1,80,8|0,0:0|0:0,0:0:0:0:
96,132,77594,2,0,L|176:132,2,80,0|2|8,0:0|0:0|0:0,0:0:0:0:
0,136,78097,1,0,0:0:0:0:
248,124,78265,5,2,0:0:0:0:
292,144,78349,1,0,0:0:0:0:
308,188,78432,1,0,0:0:0:0:
296,236,78516,1,0,0:0:0:0:
256,264,78600,1,8,0:0:0:0:
208,276,78684,1,0,0:0:0:0:
160,280,78768,1,0,0:0:0:0:
116,260,78851,1,0,0:0:0:0:
88,220,78935,5,0,0:0:0:0:
88,172,79019,1,0,0:0:0:0:
104,128,79103,1,2,0:0:0:0:
144,104,79187,1,0,0:0:0:0:
192,100,79270,2,0,L|104:96,1,80,8|0,0:0|0:0,0:0:0:0:
356,272,79606,6,0,L|420:224,1,80,2|0,0:0|0:0,0:0:0:0:
284,220,79941,1,8,0:0:0:0:
44,216,80108,1,8,0:0:0:0:
124,212,80276,1,0,0:0:0:0:
204,204,80444,1,0,0:0:0:0:
76,216,80611,2,0,L|160:208,1,80,8|0,0:0|0:0,0:0:0:0:
404,208,80946,6,0,L|324:188,1,80,6|0,0:0|0:0,0:0:0:0:
228,184,81282,2,0,L|312:156,1,80,8|0,0:0|0:0,0:0:0:0:
188,152,81617,2,0,L|164:72,1,80,0|2,0:0|0:0,0:0:0:0:
308,60,81952,2,0,L|348:132,1,80,8|0,0:0|0:0,0:0:0:0:
168,132,82287,6,0,L|144:208,1,80,2|0,0:0|0:0,0:0:0:0:
240,208,82622,2,0,L|276:288,1,80,8|0,0:0|0:0,0:0:0:0:
368,272,82958,2,0,L|404:352,1,80,0|2,0:0|0:0,0:0:0:0:
264,344,83293,2,0,L|240:268,1,80,8|0,0:0|0:0,0:0:0:0:
488,256,83628,6,0,L|504:176,1,80,2|0,0:0|0:0,0:0:0:0:
408,176,83963,2,0,L|376:96,1,80,8|0,0:0|0:0,0:0:0:0:
264,100,84298,2,0,L|172:80,2,80,0|2|8,0:0|0:0|0:0,0:0:0:0:
360,120,84801,1,0,0:0:0:0:
116,128,84969,6,0,L|32:132,2,80,2|0|8,0:0|0:0|0:0,0:0:0:0:
212,128,85472,1,0,0:0:0:0:
308,132,85639,2,0,L|224:132,1,80,0|2,0:0|0:0,0:0:0:0:
320,160,85974,2,0,L|404:164,1,80,8|0,0:0|0:0,0:0:0:0:
152,192,86310,6,0,L|72:192,1,80,2|0,0:0|0:0,0:0:0:0:
168,204,86645,2,0,L|256:204,1,80,8|0,0:0|0:0,0:0:0:0:
344,208,86980,2,0,L|432:208,1,80,0|2,0:0|0:0,0:0:0:0:
328,208,87315,2,0,L|244:208,1,80,8|0,0:0|0:0,0:0:0:0:
488,212,87650,6,0,L|400:212,2,80,2|0|8,0:0|0:0|0:0,0:0:0:0:
392,216,88153,1,0,0:0:0:0:
296,220,88321,2,0,L|212:224,1,80,0|2,0:0|0:0,0:0:0:0:
312,220,88656,2,0,L|348:144,1,80,8|0,0:0|0:0,0:0:0:0:
104,224,88991,5,2,0:0:0:0:
60,204,89075,1,0,0:0:0:0:
40,160,89159,1,0,0:0:0:0:
56,116,89243,1,0,0:0:0:0:
96,92,89326,5,8,0:0:0:0:
144,100,89410,1,0,0:0:0:0:
184,124,89494,1,8,0:0:0:0:
212,160,89578,1,0,0:0:0:0:
248,192,89662,5,2,0:0:0:0:
292,208,89745,1,0,0:0:0:0:
340,204,89829,1,0,0:0:0:0:
364,160,89913,1,0,0:0:0:0:
332,124,89997,2,0,L|248:124,1,80,8|0,0:0|0:0,0:0:0:0:
496,112,90332,6,0,L|408:112,1,80,2|0,0:0|0:0,0:0:0:0:
320,112,90667,2,0,L|240:112,2,80,2|0|2,0:0|0:0|0:0,0:0:0:0:
224,112,91170,1,0,0:0:0:0:
88,112,91337,2,0,L|48:184,1,80,8|0,0:0|0:0,0:0:0:0:
296,188,91673,1,6,0:0:0:0:
256,192,91840,12,2,94354,0:0:0:0:
356,256,94689,5,8,0:0:0:0:
260,252,94857,1,0,0:0:0:0:
124,256,95025,6,0,L|160:176,1,80,0|2,0:0|0:0,0:0:0:0:
280,184,95360,2,0,L|244:108,1,80,8|0,0:0|0:0,0:0:0:0:
424,108,95695,6,0,L|344:104,1,80,2|0,0:0|0:0,0:0:0:0:
224,104,96030,2,0,L|304:112,1,80,8|0,0:0|0:0,0:0:0:0:
184,128,96365,2,0,L|136:192,1,80,0|2,0:0|0:0,0:0:0:0:
16,224,96701,2,0,L|68:284,1,80,8|0,0:0|0:0,0:0:0:0:
308,272,97036,6,0,L|340:192,1,80,2|0,0:0|0:0,0:0:0:0:
430,193,97371,2,0,L|392:120,1,80,8|0,0:0|0:0,0:0:0:0:
300,140,97706,2,0,L|268:60,1,80,0|2,0:0|0:0,0:0:0:0:
144,72,98041,2,0,L|172:152,1,80,8|0,0:0|0:0,0:0:0:0:
348,152,98377,6,0,L|264:176,2,80,2|0|8,0:0|0:0|0:0,0:0:0:0:
444,164,98879,1,0,0:0:0:0:
348,180,99047,2,0,L|296:240,1,80,0|2,0:0|0:0,0:0:0:0:
172,244,99382,2,0,L|152:328,1,80,8|0,0:0|0:0,0:0:0:0:
396,324,99717,6,0,L|416:244,1,80,2|0,0:0|0:0,0:0:0:0:
320,236,100053,2,0,L|332:148,1,80,8|0,0:0|0:0,0:0:0:0:
236,156,100388,2,0,L|192:84,1,80,0|2,0:0|0:0,0:0:0:0:
100,88,100723,1,8,0:0:0:0:
196,80,100891,1,0,0:0:0:0:
436,88,101058,6,0,L|512:128,2,80,2|2|8,0:0|0:0|0:0,0:0:0:0:
340,80,101561,1,0,0:0:0:0:
100,88,101729,2,0,L|172:128,1,80,2|2,0:0|0:0,0:0:0:0:
312,132,102064,2,0,L|240:172,1,80,8|0,0:0|0:0,0:0:0:0:
0,172,102399,5,6,0:0:0:0:
96,184,102567,1,0,0:0:0:0:
192,200,102734,2,0,L|124:248,1,80,2|0,0:0|0:0,0:0:0:0:
264,256,103069,2,0,L|332:200,1,80,8|0,0:0|0:0,0:0:0:0:
420,220,103405,2,0,L|440:132,1,80,0|0,0:0|0:0,0:0:0:0:
256,144,103740,6,0,L|216:68,1,80,2|0,0:0|0:0,0:0:0:0:
316,68,104075,2,0,L|360:144,1,80,2|0,0:0|0:0,0:0:0:0:
260,144,104410,2,0,L|176:144,1,80,8|0,0:0|0:0,0:0:0:0:
84,148,104745,2,0,L|176:152,1,80,0|8,0:0|0:0,0:0:0:0:
408,160,105081,6,0,L|328:160,1,80,2|0,0:0|0:0,0:0:0:0:
188,168,105416,2,0,L|276:172,1,80,2|0,0:0|0:0,0:0:0:0:
408,212,105751,2,0,L|320:212,1,80,8|0,0:0|0:0,0:0:0:0:
228,208,106086,2,0,L|144:208,1,80,0|0,0:0|0:0,0:0:0:0:
328,216,106421,6,0,L|424:220,2,80,2|0|2,0:0|0:0|0:0,0:0:0:0:
232,212,106924,1,0,0:0:0:0:
96,204,107092,2,0,L|176:232,1,80,8|2,0:0|0:0,0:0:0:0:
268,240,107427,2,0,L|184:272,1,80,0|0,0:0|0:0,0:0:0:0:
432,288,107762,6,0,L|492:232,1,80,2|0,0:0|0:0,0:0:0:0:
368,212,108097,2,0,L|392:136,1,80,2|0,0:0|0:0,0:0:0:0:
268,132,108432,2,0,L|220:48,1,80,8|0,0:0|0:0,0:0:0:0:
88,80,108768,2,0,L|132:156,1,80,0|0,0:0|0:0,0:0:0:0:
308,148,109103,6,0,L|240:196,1,80,2|0,0:0|0:0,0:0:0:0:
156,236,109438,2,0,L|96:176,1,80,2|0,0:0|0:0,0:0:0:0:
4,172,109773,2,0,L|68:236,1,80,8|0,0:0|0:0,0:0:0:0:
156,236,110108,2,0,L|224:292,1,80,0|8,0:0|0:0,0:0:0:0:
424,296,110444,5,2,0:0:0:0:
468,284,110527,1,0,0:0:0:0:
500,248,110611,1,0,0:0:0:0:
496,200,110695,1,0,0:0:0:0:
472,160,110779,1,2,0:0:0:0:
432,132,110863,1,0,0:0:0:0:
384,124,110946,1,0,0:0:0:0:
336,128,111030,1,0,0:0:0:0:
296,152,111114,5,8,0:0:0:0:
268,192,111198,1,0,0:0:0:0:
264,240,111282,1,2,0:0:0:0:
284,284,111365,1,0,0:0:0:0:
316,320,111449,1,0,0:0:0:0:
364,328,111533,1,0,0:0:0:0:
408,312,111617,1,0,0:0:0:0:
432,272,111701,1,0,0:0:0:0:
312,244,111784,5,2,0:0:0:0:
268,232,111868,1,0,0:0:0:0:
236,196,111952,1,2,0:0:0:0:
240,148,112036,1,0,0:0:0:0:
264,108,112120,1,2,0:0:0:0:
304,80,112203,1,0,0:0:0:0:
352,72,112287,1,0,0:0:0:0:
400,76,112371,1,0,0:0:0:0:
440,100,112455,5,8,0:0:0:0:
468,140,112539,1,0,0:0:0:0:
472,188,112622,1,0,0:0:0:0:
452,232,112706,1,0,0:0:0:0:
420,268,112790,1,2,0:0:0:0:
372,276,112874,1,0,0:0:0:0:
324,272,112958,1,0,0:0:0:0:
276,276,113041,1,0,0:0:0:0:
156,108,113125,6,0,L|76:108,1,80,6|0,0:0|0:0,0:0:0:0:
172,108,113460,2,0,L|252:108,1,80,0|0,0:0|0:0,0:0:0:0:
348,108,113796,2,0,L|264:108,1,80,0|0,0:0|0:0,0:0:0:0:
172,104,114131,2,0,L|84:104,1,80,0|0,0:0|0:0,0:0:0:0:
256,100,114466,6,0,L|336:100,1,80,2|0,0:0|0:0,0:0:0:0:
432,100,114801,2,0,L|360:140,1,80,0|0,0:0|0:0,0:0:0:0:
224,140,115136,2,0,L|308:144,2,80,0|0|0,0:0|0:0|0:0,0:0:0:0:
160,212,115639,1,0,0:0:0:0:
317,217,115807,6,0,L|389:169,1,80,2|0,0:0|0:0,0:0:0:0:
321,97,116142,1,2,0:0:0:0:
229,65,116310,1,0,0:0:0:0:
349,65,116477,2,0,P|361:105|353:145,1,80,2|0,0:0|0:0,0:0:0:0:
177,181,116812,2,0,P|165:141|173:101,1,80,2|0,0:0|0:0,0:0:0:0:
412,96,117148,6,0,P|452:168|404:212,1,160,2|0,0:0|0:0,0:0:0:0:
340,249,117650,1,0,0:0:0:0:
244,244,117818,2,0,L|220:320,1,80,0|0,0:0|0:0,0:0:0:0:
80,320,118153,2,0,L|108:236,1,80,0|0,0:0|0:0,0:0:0:0:
284,240,118488,6,0,L|216:192,1,80,2|0,0:0|0:0,0:0:0:0:
356,184,118824,2,0,L|336:96,1,80,2|0,0:0|0:0,0:0:0:0:
200,112,119159,2,0,L|220:32,1,80,2|0,0:0|0:0,0:0:0:0:
396,36,119494,2,0,L|376:120,1,80,2|0,0:0|0:0,0:0:0:0:
136,104,119829,6,0,P|116:176|180:216,1,160,2|0,0:0|0:0,0:0:0:0:
268,176,120332,1,0,0:0:0:0:
332,248,120500,1,0,0:0:0:0:
244,284,120667,1,0,0:0:0:0:
380,280,120835,2,0,P|420:256|436:216,1,80,0|0,0:0|0:0,0:0:0:0:
196,240,121170,5,2,0:0:0:0:
256,192,121337,12,0,123684,0:0:0:0:
