osu file format v14

[General]
AudioFilename: audio.mp3
AudioLeadIn: 0
PreviewTime: 191383
Countdown: 0
SampleSet: Soft
StackLeniency: 0.7
Mode: 0
LetterboxInBreaks: 0
WidescreenStoryboard: 0

[Editor]
DistanceSpacing: 1.9
BeatDivisor: 4
GridSize: 8
TimelineZoom: 2

[Metadata]
Title:Rainbow after snow
TitleUnicode:Rainbow after snow
Artist:Nekomata Master feat. Hayashi Momoko
ArtistUnicode:猫叉Master feat. 林ももこ
Creator:Amandia
Version:prism
Source:beatmania IIDX 20 tricoro
Tags:naoyuki sato jubeat saucer gekidan
BeatmapID:1892773
BeatmapSetID:907073

[Difficulty]
HPDrainRate:5
CircleSize:4.5
OverallDifficulty:7
ApproachRate:9
SliderMultiplier:1.6
SliderTickRate:2

[Events]
//Background and Video events
0,0,"8c8dec3e65fb67c58deb71653d0ffc12.jpg",0,0
//Break Periods
//Storyboard Layer 0 (Background)
//Storyboard Layer 1 (Fail)
//Storyboard Layer 2 (Pass)
//Storyboard Layer 3 (Foreground)
//Storyboard Sound Samples

[TimingPoints]
442,335.195530726257,4,2,1,60,1,0
442,-166.666666666667,4,2,1,60,0,0
20351,335.195530726257,4,2,1,60,1,0
20518,335.195530726257,4,2,1,60,1,0
20518,-125,4,2,1,60,0,0
34596,-200,4,2,1,60,0,0
35266,-125,4,2,1,60,0,0
56719,-166.666666666667,4,2,1,60,0,0
78171,-125,4,2,1,60,0,0
80182,-166.666666666667,4,2,1,60,0,0
80853,-100,4,2,1,60,0,0
113031,-125,4,2,1,60,0,0
123758,-166.666666666667,4,2,1,60,0,0
134484,-125,4,2,1,60,0,0
168004,-166.666666666667,4,2,1,60,0,0
189456,-125,4,2,1,60,0,0
191467,-166.666666666667,4,2,1,60,0,0
192138,-100,4,2,1,60,0,0
224316,-125,4,2,1,60,0,0
235043,-166.666666666667,4,2,1,60,0,0
251132,-200,4,2,1,60,0,0
253814,-250.000000000001,4,2,1,60,0,0

[Colours]
Combo1 : 179,255,255
Combo2 : 114,184,184
Combo3 : 255,162,117
Combo4 : 255,255,128

[HitObjects]
38,235,442,6,0,P|72:220|92:215,1,47.9999985351563
159,210,777,2,0,P|125:225|105:230,1,47.9999985351563
121,150,1112,2,0,P|166:165|222:163,1,95.9999970703126
339,71,1782,6,0,L|361:172,1,95.9999970703126
359,164,2285,1,0,0:0:0:0:
428,229,2453,2,0,L|381:240,1,47.9999985351563
314,277,2788,2,0,L|360:265,1,47.9999985351563
316,353,3123,6,0,B|274:348|274:348|256:353|256:353|212:346,2,95.9999970703126
316,353,3961,1,0,0:0:0:0:
361,290,4129,2,0,P|384:271|408:261,1,47.9999985351563
310,163,4464,6,0,L|368:169,2,47.9999985351563
310,163,4967,1,0,0:0:0:0:
207,99,5134,1,0,0:0:0:0:
280,122,5302,1,0,0:0:0:0:
196,177,5469,1,0,0:0:0:0:
265,322,5637,1,0,0:0:0:0:
339,287,5805,6,0,P|386:282|450:295,1,95.9999970703126
508,322,6307,1,0,0:0:0:0:
434,290,6475,2,0,L|418:179,1,95.9999970703126
409,177,7145,6,0,L|513:191,1,95.9999970703126
504,189,7648,1,0,0:0:0:0:
468,54,7816,2,0,P|428:67|411:67,1,47.9999985351563
296,107,8151,2,0,P|309:67|309:50,1,47.9999985351563
376,130,8486,6,0,P|385:169|396:243,2,95.9999970703126
296,107,9324,1,0,0:0:0:0:
259,174,9492,2,0,P|263:204|274:242,1,47.9999985351563
296,292,9827,6,0,L|340:301,3,23.9999992675781
259,296,10162,2,0,L|236:292,3,23.9999992675781
267,221,10497,6,0,P|275:212|284:205,2,23.9999992675781
288,367,10833,2,0,P|279:375|270:382,3,23.9999992675781
198,359,11168,5,0,0:0:0:0:
198,359,11503,1,0,0:0:0:0:
75,266,11838,2,0,P|93:215|105:157,1,95.9999970703126
102,174,12341,1,0,0:0:0:0:
36,107,12509,6,0,P|83:102|131:100,1,95.9999970703126
102,174,13011,1,0,0:0:0:0:
210,97,13179,1,0,0:0:0:0:
269,146,13347,1,0,0:0:0:0:
163,227,13514,1,0,0:0:0:0:
239,219,13682,1,0,0:0:0:0:
119,293,13849,6,0,P|66:273|26:270,1,95.9999970703126
206,374,14520,1,0,0:0:0:0:
335,190,14855,1,0,0:0:0:0:
491,306,15190,6,0,B|471:318|471:318|391:310,1,95.9999970703126
312,267,15693,1,0,0:0:0:0:
383,295,15860,1,0,0:0:0:0:
455,216,16028,1,0,0:0:0:0:
389,175,16196,2,0,P|381:195|378:226,1,47.9999985351563
499,149,16531,5,0,0:0:0:0:
499,149,16866,2,0,B|508:114|496:86|496:86|503:47,2,95.9999970703126
370,248,17872,6,0,P|388:295|399:351,1,95.9999970703126
332,380,18374,1,0,0:0:0:0:
232,267,18542,1,0,0:0:0:0:
306,285,18710,1,0,0:0:0:0:
370,248,18877,2,0,P|405:239|420:240,1,47.9999985351563
290,180,19212,6,0,P|276:134|279:86,1,95.9999970703126
325,25,19715,1,0,0:0:0:0:
254,56,19883,2,0,L|146:45,1,95.9999970703126
32,154,20351,1,0,0:0:0:0:
32,154,20434,1,0,0:0:0:0:
32,154,20518,6,0,L|87:159,3,32
113,219,20853,2,0,L|168:224,3,32
58,280,21188,1,0,0:0:0:0:
236,361,21355,1,0,0:0:0:0:
239,350,21523,1,0,0:0:0:0:
242,339,21691,1,0,0:0:0:0:
430,264,21858,6,0,P|445:207|435:121,1,128
440,138,22361,1,0,0:0:0:0:
312,131,22529,2,0,P|341:144|367:164,1,64
245,220,22864,2,0,P|216:206|190:187,1,64
233,123,23199,5,0,0:0:0:0:
273,363,23534,1,0,0:0:0:0:
233,123,23869,2,0,B|297:129|297:129|336:113|377:119,1,128
198,291,24540,6,0,B|134:285|134:285|95:301|54:295,2,128
79,128,25545,1,0,0:0:0:0:
4,334,25881,5,0,0:0:0:0:
75,307,26048,1,0,0:0:0:0:
146,280,26216,2,0,P|217:291|269:333,1,128
326,362,26719,2,0,P|295:364|264:354,2,64
471,249,27221,6,0,P|408:250|356:285,1,128
291,169,27724,1,0,0:0:0:0:
347,116,27892,2,0,P|375:123|407:135,1,64
261,62,28227,2,0,P|231:73|200:81,1,64
337,14,28562,6,0,P|331:78|318:141,2,128
100,139,29568,2,0,P|90:184|85:211,1,64
122,269,29903,5,0,0:0:0:0:
122,269,30238,2,0,P|183:263|261:251,1,128
325,241,30741,1,0,0:0:0:0:
243,346,30909,2,0,P|277:341|321:335,1,64
401,228,31244,5,0,0:0:0:0:
431,298,31411,1,0,0:0:0:0:
461,368,31579,1,0,0:0:0:0:
461,88,31914,1,0,0:0:0:0:
431,158,32082,2,0,P|405:163|360:164,2,64
339,13,32585,6,0,P|307:13|275:19,1,64
224,77,32920,1,0,0:0:0:0:
224,77,33087,1,0,0:0:0:0:
98,120,33255,6,0,P|129:120|161:126,1,64
213,184,33590,1,0,0:0:0:0:
213,184,33757,1,0,0:0:0:0:
107,287,33925,5,0,0:0:0:0:
219,311,34093,1,0,0:0:0:0:
331,335,34261,1,0,0:0:0:0:
331,335,34596,6,0,P|281:337|235:349,1,80
323,138,35266,6,0,P|389:145|455:172,1,128
446,167,35769,1,0,0:0:0:0:
395,66,35936,2,0,P|430:48|453:29,1,64
373,228,36272,2,0,P|398:258|410:285,1,64
408,280,36523,1,0,0:0:0:0:
408,280,36607,6,0,L|271:300,1,128
281,298,37110,1,0,0:0:0:0:
158,215,37277,2,0,L|240:203,1,64
284,162,37612,2,0,L|220:171,1,64
87,32,37948,6,0,P|147:50|185:100,1,128
186,100,38450,1,0,0:0:0:0:
31,114,38618,1,0,0:0:0:0:
94,157,38786,1,0,0:0:0:0:
54,254,38953,2,0,P|50:291|51:318,1,64
136,230,39288,6,0,B|216:232|180:262|257:264,1,128
209,206,39791,1,0,0:0:0:0:
352,172,39959,1,0,0:0:0:0:
337,247,40126,1,0,0:0:0:0:
230,131,40295,1,0,0:0:0:0:
303,112,40462,1,0,0:0:0:0:
256,264,40629,6,0,P|341:254|410:265,1,128
383,259,41132,1,0,0:0:0:0:
210,332,41300,2,0,P|168:314|137:311,1,64
203,193,41635,2,0,P|234:186|262:172,1,64
141,239,41970,6,0,B|81:231|81:231|52:238|52:238|-9:228,1,128
48,158,42473,1,0,0:0:0:0:
152,253,42640,1,0,0:0:0:0:
214,207,42808,1,0,0:0:0:0:
163,267,42976,2,0,L|89:288,1,64
225,221,43311,6,0,L|299:200,1,64
218,326,43646,1,0,0:0:0:0:
292,301,43814,2,0,L|366:280,1,64
215,355,44149,1,0,0:0:0:0:
225,221,44316,1,0,0:0:0:0:
148,275,44484,1,0,0:0:0:0:
148,275,44568,1,0,0:0:0:0:
148,275,44652,6,0,L|88:291,1,32
108,202,44819,2,0,L|59:191,1,32
132,106,44987,2,0,P|69:112|-6:126,1,128
5,123,45657,1,0,0:0:0:0:
209,97,45992,6,0,P|272:91|347:77,1,128
335,79,46495,1,0,0:0:0:0:
175,172,46663,2,0,P|217:181|241:192,1,64
157,36,46998,2,0,P|195:16|215:0,1,64
113,112,47333,6,0,P|89:159|129:249,1,128
175,172,47836,1,0,0:0:0:0:
34,319,48004,2,0,B|44:309|44:309|99:317|169:299,1,128
295,284,48506,2,0,P|263:282|232:286,1,64
465,60,49009,6,0,P|433:58|402:63,1,64
351,164,49344,1,0,0:0:0:0:
422,192,49512,1,0,0:0:0:0:
280,136,49680,2,0,P|282:189|298:280,1,128
316,336,50182,1,0,0:0:0:0:
422,192,50350,6,0,P|428:238|429:268,1,64
234,375,50685,2,0,P|228:329|227:299,1,64
316,336,51020,2,0,L|382:347,1,64
131,295,51355,6,0,P|176:245|194:160,1,128
164,116,51858,1,0,0:0:0:0:
32,96,52026,2,0,P|56:116|86:125,1,64
289,104,52361,2,0,P|264:83|234:74,1,64
16,28,52696,6,0,P|0:130|0:179,1,128
0,154,53199,1,0,0:0:0:0:
216,224,53367,2,0,P|223:183|224:152,1,64
83,69,53702,2,0,P|76:110|75:141,1,64
110,200,54037,5,0,0:0:0:0:
219,65,54205,2,0,L|302:49,1,64
160,126,54540,5,0,0:0:0:0:
262,285,54708,2,0,L|345:301,1,64
179,268,55043,5,0,0:0:0:0:
268,121,55210,1,0,0:0:0:0:
383,198,55378,5,0,0:0:0:0:
429,129,55545,1,0,0:0:0:0:
377,63,55713,1,0,0:0:0:0:
299,91,55881,1,0,0:0:0:0:
302,175,56048,1,0,0:0:0:0:
229,134,56216,1,0,0:0:0:0:
383,198,56383,1,0,0:0:0:0:
429,129,56551,1,0,0:0:0:0:
461,227,56719,6,0,P|416:224|354:231,1,95.9999970703126
365,228,57221,1,0,0:0:0:0:
290,180,57389,2,0,P|292:223|292:282,1,95.9999970703126
174,115,58059,5,0,0:0:0:0:
63,165,58395,1,0,0:0:0:0:
24,285,58730,2,0,P|71:291|115:310,1,95.9999970703126
115,311,59233,1,0,0:0:0:0:
149,216,59400,6,0,P|196:209|240:190,1,95.9999970703126
361,0,60071,2,0,B|369:47|369:47|370:74|348:97,1,95.9999970703126
302,149,60573,1,0,0:0:0:0:
374,175,60741,6,0,P|423:169|485:167,1,95.9999970703126
272,264,61411,2,0,P|235:268|200:269,1,71.9999978027344
172,269,61747,2,0,P|166:245|162:222,1,47.9999985351563
144,56,62082,6,0,P|155:103|154:165,1,95.9999970703126
92,194,62585,1,0,0:0:0:0:
133,129,62752,2,0,B|214:138|214:138|229:148,1,95.9999970703126
399,286,63423,6,0,L|451:292,1,47.9999985351563
326,316,63758,2,0,L|278:310,1,47.9999985351563
334,242,64093,2,0,P|343:189|335:126,1,95.9999970703126
308,3,64596,1,0,0:0:0:0:
300,78,64763,6,0,P|323:74|346:67,1,47.9999985351563
233,117,65099,2,0,P|219:160|212:228,1,95.9999970703126
212,210,65601,1,0,0:0:0:0:
154,268,65769,2,0,P|131:261|108:258,1,47.9999985351563
208,331,66104,6,0,B|240:320|271:322|271:322|308:289,1,95.9999970703126
381,192,66607,1,0,0:0:0:0:
311,224,66774,2,0,L|259:216,1,47.9999985351563
457,205,67110,2,0,L|504:212,1,47.9999985351563
392,290,67445,6,0,P|382:205|383:88,1,191.999994140625
252,16,68450,1,0,0:0:0:0:
184,154,68786,6,0,P|144:171|-6:197,1,191.999994140625
7,105,69791,1,0,0:0:0:0:
33,272,70126,6,0,P|114:282|234:291,1,191.999994140625
377,296,71132,1,0,0:0:0:0:
439,155,71467,6,0,P|451:112|482:66,1,95.9999970703126
335,158,72138,2,0,P|347:201|378:247,1,95.9999970703126
391,56,72808,6,0,P|347:44|292:48,1,95.9999970703126
151,125,73478,2,0,L|199:133,1,47.9999985351563
92,188,73814,2,0,L|44:180,1,47.9999985351563
153,241,74149,6,0,P|196:229|251:233,1,95.9999970703126
323,272,74652,1,0,0:0:0:0:
323,272,74819,2,0,L|317:335,1,47.9999985351563
400,232,75154,2,0,L|404:184,1,47.9999985351563
320,97,75490,5,0,0:0:0:0:
170,133,75825,1,0,0:0:0:0:
163,338,76160,5,0,0:0:0:0:
313,302,76495,1,0,0:0:0:0:
182,142,76831,5,0,0:0:0:0:
332,106,77166,1,0,0:0:0:0:
475,275,77501,5,0,0:0:0:0:
325,311,77836,1,0,0:0:0:0:
344,115,78172,5,0,0:0:0:0:
404,162,78339,2,0,P|416:191|419:222,1,64
284,162,78675,1,0,0:0:0:0:
224,209,78842,2,0,P|211:238|208:269,1,64
344,115,79177,2,0,P|340:83|328:54,1,64
214,134,79512,5,0,0:0:0:0:
410,69,79680,1,0,0:0:0:0:
214,134,79847,1,0,0:0:0:0:
340,23,80182,6,0,P|328:69|343:114,1,95.9999970703126
405,159,80685,1,0,0:0:0:0:
294,299,80853,6,0,P|252:305|214:308,1,80
356,235,81188,2,0,P|425:247|495:167,1,160
370,84,81691,1,0,0:0:0:0:
438,36,81858,2,0,P|476:20|524:9,1,80
370,84,82193,6,0,B|305:116|286:64|212:101,1,160
214,99,82696,1,0,0:0:0:0:
264,2,82864,1,0,0:0:0:0:
370,84,83031,1,0,0:0:0:0:
263,171,83199,2,0,P|302:176|352:217,1,80
483,261,83534,6,0,B|424:252|376:290|376:290|331:291,1,160
183,235,84037,1,0,0:0:0:0:
250,291,84205,2,0,L|329:290,1,80
142,356,84540,2,0,L|62:356,1,80
49,225,84875,5,0,0:0:0:0:
111,281,85043,1,0,0:0:0:0:
183,235,85210,2,0,B|190:138,1,80
52,110,85545,2,0,P|89:97|129:101,1,80
265,123,85881,1,0,0:0:0:0:
227,43,86048,1,0,0:0:0:0:
340,11,86216,6,0,P|345:90|331:168,1,160
442,229,86719,1,0,0:0:0:0:
353,321,86886,2,0,L|259:336,1,80
228,195,87221,2,0,L|134:210,1,80
110,215,87473,1,0,0:0:0:0:
110,215,87557,6,0,P|70:215|32:204,1,80
18,121,87892,2,0,P|7:252|-2:286,1,160
66,336,88395,1,0,0:0:0:0:
206,257,88562,2,0,P|244:245|283:246,1,80
154,330,88897,5,0,0:0:0:0:
119,248,89065,1,0,0:0:0:0:
191,131,89233,1,0,0:0:0:0:
156,49,89401,1,0,0:0:0:0:
114,163,89568,1,0,0:0:0:0:
274,144,89735,1,0,0:0:0:0:
381,206,89903,1,0,0:0:0:0:
351,101,90071,1,0,0:0:0:0:
304,249,90238,6,0,P|306:304|317:343,1,80
465,229,90573,1,0,0:0:0:0:
447,315,90741,1,0,0:0:0:0:
381,206,90909,2,0,L|203:227,1,160
222,224,91411,1,0,0:0:0:0:
378,62,91579,6,0,L|473:50,1,80
334,133,91914,2,0,B|244:141|277:74|169:85,1,160
130,140,92417,1,0,0:0:0:0:
270,84,92585,2,0,P|280:26|279:-3,1,80
101,211,92920,6,0,P|91:269|113:369,1,160
186,217,93423,1,0,0:0:0:0:
252,269,93590,1,0,0:0:0:0:
172,300,93758,1,0,0:0:0:0:
344,240,93925,1,0,0:0:0:0:
344,240,94261,6,0,P|414:270|483:348,1,160
369,336,94763,1,0,0:0:0:0:
455,200,94931,2,0,P|477:168|486:129,1,80
355,49,95266,2,0,P|377:81|386:120,1,80
246,236,95601,5,0,0:0:0:0:
290,118,95769,1,0,0:0:0:0:
370,215,95936,2,0,B|397:258|396:297|396:297|386:333,1,120
368,364,96272,2,0,P|336:367|271:380,1,80
233,314,96607,1,0,0:0:0:0:
278,239,96774,1,0,0:0:0:0:
97,201,96942,6,0,L|-4:215,1,80
195,76,97277,2,0,B|310:62|310:62|265:93,1,160
133,24,97780,1,0,0:0:0:0:
144,138,97948,2,0,P|180:153|220:151,1,80
81,89,98283,6,0,P|41:87|4:102,1,80
39,328,98618,2,0,P|50:243|57:158,1,160
171,133,99121,1,0,0:0:0:0:
133,216,99288,2,0,P|127:263|125:305,1,80
379,168,99624,6,0,P|385:121|387:79,1,80
258,213,99959,1,0,0:0:0:0:
341,251,100126,1,0,0:0:0:0:
208,333,100294,1,0,0:0:0:0:
125,295,100461,1,0,0:0:0:0:
233,200,100629,1,0,0:0:0:0:
379,320,100797,1,0,0:0:0:0:
415,201,100965,5,0,0:0:0:0:
349,140,101132,1,0,0:0:0:0:
328,232,101300,2,0,P|409:219|496:202,1,160
291,313,101802,1,0,0:0:0:0:
258,173,101970,2,0,P|256:118|241:76,1,80
234,85,102221,1,0,0:0:0:0:
220,77,102305,6,0,L|120:96,1,80
15,211,102640,2,0,P|93:195|172:184,1,160
172,184,103143,1,0,0:0:0:0:
70,280,103311,2,0,P|101:313|133:345,1,80
238,295,103646,6,0,P|227:333|215:371,1,80
261,207,103981,2,0,P|339:222|418:233,1,160
501,165,104484,1,0,0:0:0:0:
430,203,104652,1,0,0:0:0:0:
368,152,104819,1,0,0:0:0:0:
438,114,104987,6,0,P|446:66|445:28,1,80
216,110,105322,2,0,P|208:158|209:196,1,80
224,226,105573,1,0,0:0:0:0:
224,226,105657,2,0,L|324:208,1,80
224,350,105992,1,0,0:0:0:0:
146,329,106160,1,0,0:0:0:0:
68,308,106328,6,0,L|-10:322,1,80
14,241,106579,1,0,0:0:0:0:
14,241,106663,2,0,L|59:232,3,40
92,224,106998,1,0,0:0:0:0:
130,86,107166,1,0,0:0:0:0:
94,14,107333,1,0,0:0:0:0:
232,52,107501,5,0,0:0:0:0:
232,52,107585,1,0,0:0:0:0:
232,52,107668,1,0,0:0:0:0:
250,71,108004,2,0,P|179:68|97:128,1,160
227,149,108506,1,0,0:0:0:0:
155,184,108674,2,0,P|145:223|140:277,1,80
297,240,109009,6,0,B|389:233|357:282|460:270,1,160
424,194,109512,1,0,0:0:0:0:
305,252,109680,2,0,P|266:261|202:263,1,80
273,137,110015,2,0,P|312:128|376:126,1,80
199,180,110350,5,0,0:0:0:0:
132,67,110518,2,0,P|124:123|132:174,1,80
76,209,110853,1,0,0:0:0:0:
195,261,111020,1,0,0:0:0:0:
117,276,111188,1,0,0:0:0:0:
276,201,111355,1,0,0:0:0:0:
244,28,111523,1,0,0:0:0:0:
198,94,111691,5,0,0:0:0:0:
277,100,111858,2,0,P|338:101|383:97,1,80
152,160,112193,1,0,0:0:0:0:
37,81,112361,1,0,0:0:0:0:
162,21,112529,1,0,0:0:0:0:
198,94,112696,1,0,0:0:0:0:
244,28,112864,1,0,0:0:0:0:
233,170,113031,6,0,P|222:239|227:310,1,128
421,268,113702,2,0,P|405:266|390:267,3,32
461,282,114037,1,0,0:0:0:0:
444,200,114205,1,0,0:0:0:0:
477,124,114372,6,0,L|463:39,1,64
346,198,114707,2,0,L|332:113,1,64
169,235,115043,2,0,L|189:90,1,128
266,86,115545,1,0,0:0:0:0:
123,60,115713,6,0,P|91:53|59:56,1,64
31,163,116048,2,0,P|62:169|94:166,1,64
180,330,116383,2,0,P|185:274|219:192,1,128
289,180,116886,1,0,0:0:0:0:
384,90,117054,6,0,P|378:121|368:152,1,64
432,204,117389,2,0,L|506:187,1,64
338,312,117724,2,0,L|306:319,3,32
250,275,118059,2,0,P|253:260|261:239,1,32
219,342,118227,2,0,P|222:357|230:377,1,32
160,298,118395,6,0,P|161:203|173:158,1,128
103,120,118897,1,0,0:0:0:0:
65,262,119065,2,0,P|79:313|78:350,1,64
168,171,119400,2,0,P|219:185|256:184,1,64
145,250,119735,6,0,L|241:356,1,128
230,344,120238,1,0,0:0:0:0:
403,271,120406,2,0,L|387:358,1,64
313,362,120741,1,0,0:0:0:0:
290,281,120909,1,0,0:0:0:0:
368,253,121076,6,0,L|379:190,1,64
354,66,121411,2,0,L|313:115,1,64
127,136,121747,1,0,0:0:0:0:
208,152,121914,2,0,P|237:163|263:182,1,64
82,205,122249,1,0,0:0:0:0:
127,136,122417,6,0,P|139:106|144:75,1,64
21,261,122752,2,0,P|8:290|3:321,1,64
82,205,123087,1,0,0:0:0:0:
159,235,123255,1,0,0:0:0:0:
142,350,123423,1,0,0:0:0:0:
224,338,123590,1,0,0:0:0:0:
306,326,123758,6,0,P|312:299|307:214,1,95.9999970703126
195,102,124428,2,0,P|143:107|129:111,1,47.9999985351563
107,178,124763,2,0,P|55:183|41:187,1,47.9999985351563
160,237,125099,5,0,0:0:0:0:
160,237,125434,1,0,0:0:0:0:
160,237,125769,2,0,L|155:285,1,47.9999985351563
230,329,126104,2,0,L|224:376,1,47.9999985351563
238,256,126439,6,0,P|281:237|309:188,1,95.9999970703126
310,59,127110,2,0,P|359:66|369:68,1,47.9999985351563
243,100,127445,2,0,P|194:107|184:109,1,47.9999985351563
309,139,127780,6,0,P|302:193|289:241,1,95.9999970703126
291,233,128450,1,0,0:0:0:0:
347,298,128618,2,0,L|400:294,1,47.9999985351563
222,339,129121,5,0,0:0:0:0:
173,188,129456,2,0,P|183:144|172:81,1,95.9999970703126
176,93,129959,1,0,0:0:0:0:
224,24,130126,2,0,P|236:44|254:60,1,47.9999985351563
331,38,130462,5,0,0:0:0:0:
331,38,130797,1,0,0:0:0:0:
331,38,131132,2,0,L|318:85,1,47.9999985351563
372,131,131467,2,0,L|359:178,1,47.9999985351563
296,231,131802,6,0,L|272:232,3,23.9999992675781
228,208,132138,2,0,L|204:209,3,23.9999992675781
165,240,132473,2,0,L|141:241,3,23.9999992675781
97,217,132809,2,0,L|73:218,3,23.9999992675781
29,283,133143,5,0,0:0:0:0:
29,283,133478,1,0,0:0:0:0:
29,283,133814,2,0,P|44:318|48:340,1,47.9999985351563
110,367,134065,1,0,0:0:0:0:
110,367,134149,2,0,L|171:363,1,47.9999985351563
251,219,134484,5,0,0:0:0:0:
251,219,134819,2,0,P|281:229|388:246,1,128
393,116,135322,1,0,0:0:0:0:
393,116,135406,1,0,0:0:0:0:
393,116,135490,2,0,P|361:110|330:102,1,64
473,92,135825,6,0,P|463:190|452:228,1,128
376,246,136328,1,0,0:0:0:0:
254,171,136495,2,0,P|285:177|316:187,1,64
330,102,136747,1,0,0:0:0:0:
330,102,136830,2,0,P|361:96|391:86,1,64
242,38,137166,5,0,0:0:0:0:
154,143,137501,2,0,P|98:122|14:125,1,128
45,206,138004,1,0,0:0:0:0:
45,206,138087,1,0,0:0:0:0:
45,206,138171,2,0,P|76:206|107:215,1,64
228,238,138506,6,0,B|188:231|188:231|131:245|105:212,1,128
272,168,139009,1,0,0:0:0:0:
320,307,139177,1,0,0:0:0:0:
370,242,139344,1,0,0:0:0:0:
370,242,139428,1,0,0:0:0:0:
370,242,139512,1,0,0:0:0:0:
272,168,139680,1,0,0:0:0:0:
227,238,139847,5,0,0:0:0:0:
227,238,140182,2,0,B|236:175|236:147|236:147|195:119,1,128
165,296,140685,2,0,L|179:340,2,32
102,240,141020,1,0,0:0:0:0:
0,360,141188,6,0,P|63:360|123:382,1,128
38,287,141691,1,0,0:0:0:0:
102,239,141858,2,0,P|104:208|101:176,1,64
95,152,142110,1,0,0:0:0:0:
95,152,142193,2,0,P|91:120|94:88,1,64
151,27,142529,5,0,0:0:0:0:
318,120,142864,2,0,B|330:163|330:163|320:203|320:203|338:224|338:253,1,128
251,262,143367,1,0,0:0:0:0:
251,262,143450,2,0,P|267:311|264:373,1,96
62,299,143869,5,0,0:0:0:0:
135,243,144037,1,0,0:0:0:0:
23,173,144205,1,0,0:0:0:0:
96,117,144372,1,0,0:0:0:0:
96,117,144456,2,0,L|92:148,1,32
255,154,146551,6,0,L|405:132,1,128
401,67,147054,1,0,0:0:0:0:
361,211,147221,2,0,P|351:253|351:297,1,64
244,327,147557,2,0,P|241:295|232:264,1,64
168,308,147892,6,0,L|325:325,1,128
129,376,148395,1,0,0:0:0:0:
75,235,148562,2,0,P|114:219|140:196,1,64
12,297,148897,2,0,P|51:313|77:336,1,64
70,160,149233,6,0,L|224:173,1,128
78,69,149735,1,0,0:0:0:0:
137,127,149903,1,0,0:0:0:0:
212,91,150071,1,0,0:0:0:0:
292,112,150238,2,0,P|323:113|354:105,1,64
471,13,150573,6,0,P|442:65|432:137,2,128
372,28,151411,1,0,0:0:0:0:
512,121,151579,1,0,0:0:0:0:
466,282,151747,1,0,0:0:0:0:
402,228,151914,6,0,B|373:217|373:217|315:209|277:262,1,128
222,196,152417,1,0,0:0:0:0:
319,118,152585,2,0,L|386:124,1,64
255,58,152920,2,0,L|191:52,1,64
323,1,153255,6,0,P|342:60|318:118,1,128
41,351,153925,1,0,0:0:0:0:
122,333,154093,1,0,0:0:0:0:
203,315,154261,2,0,P|216:273|225:247,1,64
100,156,154596,6,0,P|87:198|78:224,1,64
181,138,154931,1,0,0:0:0:0:
49,61,155099,1,0,0:0:0:0:
130,43,155267,1,0,0:0:0:0:
189,126,155434,1,0,0:0:0:0:
108,144,155602,1,0,0:0:0:0:
143,28,155769,1,0,0:0:0:0:
143,28,155853,1,0,0:0:0:0:
143,27,155936,6,0,L|203:18,1,32
247,61,156104,2,0,L|278:56,1,32
189,126,156272,2,0,P|164:179|157:254,1,128
193,312,156942,1,0,0:0:0:0:
266,336,157277,6,0,L|396:313,1,128
392,313,157780,1,0,0:0:0:0:
286,255,157948,2,0,P|297:219|296:182,1,64
142,58,158283,2,0,B|141:92|141:92|161:123,1,64
236,139,158618,6,0,P|198:188|137:198,1,128
137,198,159121,1,0,0:0:0:0:
250,256,159288,2,0,L|319:265,1,64
116,325,159624,2,0,L|52:316,1,64
171,267,159959,6,0,L|222:384,1,128
222,384,160462,1,0,0:0:0:0:
287,329,160629,2,0,P|318:328|349:338,1,64
426,368,160964,2,0,P|449:316|437:220,1,128
149,101,161635,5,0,0:0:0:0:
198,167,161802,1,0,0:0:0:0:
269,123,161970,2,0,P|299:114|331:117,1,64
166,285,162305,2,0,P|135:293|69:265,1,96
128,220,162640,6,0,L|144:372,1,128
141,347,163143,1,0,0:0:0:0:
256,242,163311,2,0,L|246:318,1,64
345,357,163646,2,0,L|405:335,1,64
453,162,163981,6,0,L|334:208,1,128
334,208,164484,1,0,0:0:0:0:
193,112,164652,1,0,0:0:0:0:
274,125,164819,1,0,0:0:0:0:
217,230,164987,1,0,0:0:0:0:
136,217,165154,1,0,0:0:0:0:
187,153,165322,5,0,0:0:0:0:
228,270,165490,1,0,0:0:0:0:
291,311,165657,1,0,0:0:0:0:
348,264,165825,1,0,0:0:0:0:
322,195,165992,1,0,0:0:0:0:
248,199,166160,1,0,0:0:0:0:
268,128,166327,1,0,0:0:0:0:
342,124,166495,1,0,0:0:0:0:
368,193,166662,5,0,0:0:0:0:
311,240,166830,1,0,0:0:0:0:
204,167,166998,1,0,0:0:0:0:
126,247,167166,1,0,0:0:0:0:
194,296,167333,1,0,0:0:0:0:
202,213,167501,1,0,0:0:0:0:
57,209,167668,2,0,L|-21:231,1,64
126,247,168004,6,0,P|130:199|133:132,1,95.9999970703126
298,69,168674,2,0,P|294:117|291:184,1,95.9999970703126
291,164,169177,1,0,0:0:0:0:
340,222,169344,6,0,B|385:205|385:205|433:214,2,95.9999970703126
409,173,170182,2,0,L|463:181,1,47.9999985351563
357,109,170518,1,0,0:0:0:0:
291,164,170685,6,0,P|285:116|265:73,1,95.9999970703126
109,146,171355,2,0,B|184:156|184:156|178:195,1,95.9999970703126
124,228,171858,1,0,0:0:0:0:
183,276,172026,6,0,P|192:309|200:389,2,95.9999970703126
182,276,173031,2,0,P|181:299|181:323,1,47.9999985351563
240,219,173367,6,0,L|358:210,1,95.9999970703126
450,313,174037,1,0,0:0:0:0:
450,313,174372,1,0,0:0:0:0:
450,313,174707,6,0,P|466:262|467:212,1,95.9999970703126
374,96,175378,1,0,0:0:0:0:
374,96,175713,1,0,0:0:0:0:
374,96,176048,6,0,L|267:110,1,95.9999970703126
273,296,176719,2,0,L|166:310,1,95.9999970703126
121,256,177221,1,0,0:0:0:0:
176,202,177389,6,0,P|199:205|223:206,1,47.9999985351563
125,90,177724,2,0,P|101:86|19:96,1,95.9999970703126
30,92,178227,1,0,0:0:0:0:
136,109,178395,2,0,P|143:131|146:155,1,47.9999985351563
35,247,178730,6,0,P|105:233|231:273,1,191.999994140625
353,338,179735,1,0,0:0:0:0:
477,137,180071,2,0,P|407:151|281:111,1,191.999994140625
159,46,181076,1,0,0:0:0:0:
144,198,181411,6,0,L|44:210,1,95.9999970703126
183,283,182082,2,0,L|248:298,1,47.9999985351563
264,224,182417,2,0,L|217:213,1,47.9999985351563
367,148,182752,6,0,P|414:147|453:120,1,95.9999970703126
145,236,183423,2,0,P|97:236|58:263,1,95.9999970703126
234,139,184093,6,0,P|261:177|273:223,1,95.9999970703126
439,296,184763,1,0,0:0:0:0:
439,296,185099,1,0,0:0:0:0:
439,296,185434,6,0,L|329:317,1,95.9999970703126
269,257,185936,1,0,0:0:0:0:
320,181,186104,2,0,L|378:169,1,47.9999985351563
166,119,186439,2,0,L|118:128,1,47.9999985351563
221,48,186774,5,0,0:0:0:0:
54,76,187110,1,0,0:0:0:0:
82,243,187445,1,0,0:0:0:0:
249,215,187780,1,0,0:0:0:0:
185,171,187948,1,0,0:0:0:0:
255,137,188115,5,0,0:0:0:0:
426,182,188450,1,0,0:0:0:0:
381,353,188786,1,0,0:0:0:0:
210,308,189121,1,0,0:0:0:0:
255,137,189456,5,0,0:0:0:0:
330,172,189624,2,0,L|391:155,1,64
257,247,189959,1,0,0:0:0:0:
182,212,190127,2,0,L|120:228,1,64
210,308,190462,5,0,0:0:0:0:
255,137,190629,1,0,0:0:0:0:
330,172,190797,2,0,L|334:203,1,32
257,247,190964,2,0,L|252:214,1,32
302,76,191132,1,0,0:0:0:0:
210,308,191467,2,0,P|165:320|68:284,1,143.999995605469
257,247,192138,6,0,L|398:260,1,120
334,186,192473,2,0,P|367:164|390:131,1,80
320,318,192808,2,0,P|346:347|360:384,1,80
360,384,193059,1,0,0:0:0:0:
360,384,193143,1,0,0:0:0:0:
452,358,193311,1,0,0:0:0:0:
390,254,193478,6,0,P|430:257|470:264,1,80
252,141,193814,2,0,P|213:143|123:164,1,120
117,177,194149,2,0,B|103:138|103:138|111:100,1,80
312,22,194484,2,0,B|325:60|325:60|317:98,1,80
209,214,194819,6,0,B|266:238|316:189|379:219,1,160
397,131,195322,1,0,0:0:0:0:
402,293,195490,2,0,P|461:276|491:277,1,80
512,211,195741,1,0,0:0:0:0:
512,211,195825,2,0,L|504:298,1,80
357,358,196160,5,0,0:0:0:0:
274,258,196328,1,0,0:0:0:0:
201,285,196495,2,0,P|279:296|354:270,1,160
322,150,196998,2,0,P|317:166|317:190,2,40
254,94,197333,1,0,0:0:0:0:
172,158,197501,6,0,B|84:148|84:148|132:193,1,120
156,228,197836,2,0,P|186:155|170:78,1,160
86,50,198339,1,0,0:0:0:0:
234,21,198506,2,0,L|329:2,1,80
172,158,198842,6,0,B|243:173|243:173|268:193|268:193|342:207,1,160
322,203,199344,1,0,0:0:0:0:
128,319,199512,1,0,0:0:0:0:
164,242,199680,2,0,L|212:253,1,40
225,353,199847,2,0,L|325:330,1,80
412,200,200182,6,0,P|382:273|389:353,1,160
389,353,200685,1,0,0:0:0:0:
473,329,200853,1,0,0:0:0:0:
412,200,201020,1,0,0:0:0:0:
328,224,201188,1,0,0:0:0:0:
390,284,201355,1,0,0:0:0:0:
475,143,201523,5,0,0:0:0:0:
360,25,201691,1,0,0:0:0:0:
444,1,201858,1,0,0:0:0:0:
353,109,202026,1,0,0:0:0:0:
172,100,202193,2,0,P|233:84|262:92,1,80
278,58,202445,1,0,0:0:0:0:
278,58,202529,2,0,L|291:171,1,80
56,146,202864,6,0,L|39:258,1,80
0,384,203199,2,0,P|62:361|128:357,1,120
128,323,203534,2,0,B|161:342|161:342|227:335,1,80
246,332,203786,1,0,0:0:0:0:
246,332,203869,1,0,0:0:0:0:
181,254,204037,1,0,0:0:0:0:
336,210,204205,6,0,P|320:288|315:368,1,160
246,332,204707,1,0,0:0:0:0:
410,240,204875,1,0,0:0:0:0:
435,324,205043,1,0,0:0:0:0:
466,175,205210,2,0,P|505:148|532:105,1,80
353,11,205545,6,0,P|386:32|411:63,1,80
335,201,205881,2,0,B|278:254|244:196|182:256,1,160
132,189,206383,1,0,0:0:0:0:
132,189,206467,1,0,0:0:0:0:
132,189,206551,2,0,L|172:89,1,80
42,211,206886,5,0,0:0:0:0:
104,272,207054,1,0,0:0:0:0:
189,252,207221,2,0,P|256:238|355:275,1,160
341,264,207724,1,0,0:0:0:0:
240,358,207892,1,0,0:0:0:0:
326,346,208059,1,0,0:0:0:0:
227,384,208227,6,0,L|93:357,1,120
89,378,208562,2,0,P|79:339|52:310,1,80
4,173,208897,1,0,0:0:0:0:
75,225,209065,1,0,0:0:0:0:
186,90,209233,2,0,P|223:81|276:74,1,80
209,241,209568,2,0,P|182:213|150:171,1,80
328,145,209903,2,0,P|317:181|296:230,1,80
177,319,210238,5,0,0:0:0:0:
209,241,210406,1,0,0:0:0:0:
328,305,210573,2,0,P|323:344|303:378,1,80
244,316,210909,5,0,0:0:0:0:
407,261,211076,1,0,0:0:0:0:
395,82,211244,1,0,0:0:0:0:
232,137,211411,1,0,0:0:0:0:
300,81,211579,1,0,0:0:0:0:
354,150,211747,1,0,0:0:0:0:
286,206,211914,1,0,0:0:0:0:
149,76,212082,1,0,0:0:0:0:
105,260,212249,5,0,0:0:0:0:
181,215,212417,1,0,0:0:0:0:
73,121,212585,1,0,0:0:0:0:
149,76,212753,1,0,0:0:0:0:
105,260,212920,6,0,L|89:320,1,40
197,346,213087,2,0,L|228:400,1,40
324,343,213255,2,0,L|384:359,1,40
410,250,213422,2,0,L|464:219,1,40
330,157,213590,6,0,P|262:195|182:194,1,160
128,74,214093,1,0,0:0:0:0:
211,46,214261,1,0,0:0:0:0:
182,194,214428,1,0,0:0:0:0:
182,194,214512,1,0,0:0:0:0:
182,194,214596,1,0,0:0:0:0:
101,155,214763,1,0,0:0:0:0:
70,248,214931,6,0,B|182:231|182:231|150:280,1,160
80,352,215434,2,0,L|1:343,1,80
157,347,215769,1,0,0:0:0:0:
225,308,215936,1,0,0:0:0:0:
301,318,216104,1,0,0:0:0:0:
363,362,216272,6,0,P|418:360|482:284,1,160
372,164,216774,2,0,P|326:189|289:224,1,80
227,163,217110,2,0,P|219:136|218:121,2,40
159,220,217445,1,0,0:0:0:0:
40,151,217612,6,0,P|59:89|52:24,1,120
42,13,217948,2,0,L|134:24,1,80
167,79,218199,1,0,0:0:0:0:
167,79,218283,2,0,L|234:65,1,40
279,12,218450,2,0,L|293:79,1,40
242,153,218618,2,0,L|309:167,1,40
362,180,218785,2,0,L|354:220,1,40
275,337,218953,6,0,B|210:346|210:346|183:341|183:341|95:357,1,160
117,352,219456,1,0,0:0:0:0:
220,261,219624,2,0,P|233:210|210:136,1,120
186,130,219959,2,0,L|80:143,1,80
309,44,220294,6,0,L|475:21,1,160
375,101,220797,1,0,0:0:0:0:
511,165,220964,1,0,0:0:0:0:
419,244,221132,1,0,0:0:0:0:
419,244,221216,1,0,0:0:0:0:
419,244,221300,1,0,0:0:0:0:
489,280,221467,1,0,0:0:0:0:
396,358,221635,5,0,0:0:0:0:
257,263,221802,1,0,0:0:0:0:
233,339,221970,1,0,0:0:0:0:
338,254,222138,1,0,0:0:0:0:
289,127,222305,1,0,0:0:0:0:
154,134,222473,1,0,0:0:0:0:
119,265,222640,1,0,0:0:0:0:
176,208,222808,1,0,0:0:0:0:
23,173,222976,5,0,0:0:0:0:
43,250,223144,1,0,0:0:0:0:
154,134,223311,1,0,0:0:0:0:
76,113,223479,1,0,0:0:0:0:
97,189,223646,1,0,0:0:0:0:
194,50,223814,1,0,0:0:0:0:
194,50,223897,1,0,0:0:0:0:
194,50,223981,1,0,0:0:0:0:
265,203,224149,1,0,0:0:0:0:
199,253,224316,6,0,P|184:185|230:127,1,128
421,289,224987,2,0,L|370:291,3,32
445,303,225322,2,0,P|459:275|465:244,1,64
435,166,225657,5,0,0:0:0:0:
435,166,225992,1,0,0:0:0:0:
266,105,226328,2,0,P|270:168|272:232,1,128
269,315,226830,1,0,0:0:0:0:
166,221,226998,6,0,P|167:253|171:285,2,64
314,74,227668,2,0,B|368:69|413:89|413:89|379:101,1,128
329,157,228171,1,0,0:0:0:0:
402,284,228339,6,0,P|433:284|462:270,1,64
462,162,228674,2,0,P|430:161|401:175,1,64
254,61,229009,2,0,P|285:60|314:74,1,64
341,106,229261,1,0,0:0:0:0:
341,106,229344,2,0,L|326:192,1,64
198,243,229680,6,0,B|270:235|270:235|296:250|278:298,1,128
208,323,230182,1,0,0:0:0:0:
125,209,230350,2,0,P|127:177|106:109,1,96
110,116,230685,2,0,L|32:127,1,64
153,50,231020,5,0,0:0:0:0:
153,50,231355,1,0,0:0:0:0:
313,101,231691,2,0,L|376:92,1,64
363,173,231942,1,0,0:0:0:0:
363,173,232026,2,0,L|448:186,1,64
297,228,232361,6,0,P|290:259|287:290,1,64
155,286,232696,2,0,P|185:278|215:265,1,64
277,382,233031,2,0,P|254:359|228:340,1,64
288,291,233367,1,0,0:0:0:0:
347,348,233534,1,0,0:0:0:0:
448,235,233702,5,0,0:0:0:0:
389,178,233869,1,0,0:0:0:0:
369,257,234037,1,0,0:0:0:0:
504,187,234205,1,0,0:0:0:0:
436,52,234372,1,0,0:0:0:0:
299,120,234540,1,0,0:0:0:0:
206,97,234707,1,0,0:0:0:0:
272,28,234875,1,0,0:0:0:0:
299,120,235043,6,0,P|301:167|285:212,1,95.9999970703126
284,212,235713,2,0,P|289:256|294:271,1,47.9999985351563
328,326,236048,2,0,P|323:370|318:385,1,47.9999985351563
249,346,236383,6,0,P|201:348|134:361,2,95.9999970703126
377,261,237389,2,0,P|419:262|440:269,1,47.9999985351563
337,340,237724,6,0,P|309:302|287:259,1,95.9999970703126
318,109,238395,1,0,0:0:0:0:
172,60,238730,1,0,0:0:0:0:
141,210,239065,6,0,P|141:265|147:327,1,95.9999970703126
284,196,239735,2,0,P|324:207|335:212,1,47.9999985351563
327,288,240071,2,0,P|367:277|378:272,1,47.9999985351563
372,274,240406,6,0,B|359:334|359:334|360:374,1,95.9999970703126
483,161,241076,2,0,B|484:130|484:130|476:108,1,47.9999985351563
412,74,241411,1,0,0:0:0:0:
347,115,241579,1,0,0:0:0:0:
273,90,241747,6,0,P|219:83|162:82,1,95.9999970703126
177,81,242249,1,0,0:0:0:0:
114,176,242417,2,0,L|62:180,1,47.9999985351563
171,235,242752,2,0,L|223:239,1,47.9999985351563
129,304,243087,6,0,P|126:319|126:333,3,23.9999992675781
150,357,243423,2,0,P|165:360|179:360,3,23.9999992675781
209,346,243758,2,0,P|224:343|238:343,3,23.9999992675781
269,354,244093,1,0,0:0:0:0:
358,298,244261,1,0,0:0:0:0:
358,298,244344,1,0,0:0:0:0:
358,298,244428,6,0,B|436:301|436:301|431:326,1,95.9999970703126
432,318,245099,2,0,P|426:252|435:210,1,95.9999970703126
302,139,245769,5,0,0:0:0:0:
302,139,246104,1,0,0:0:0:0:
302,139,246439,2,0,L|237:146,1,47.9999985351563
169,190,246774,2,0,L|104:197,1,47.9999985351563
241,223,247110,6,0,P|244:274|241:330,2,95.9999970703126
169,190,247948,2,0,P|162:154|162:125,1,47.9999985351563
200,76,248283,1,0,0:0:0:0:
273,53,248450,6,0,P|320:58|358:85,1,95.9999970703126
484,225,249121,2,0,P|436:229|398:256,1,95.9999970703126
398,256,249624,1,0,0:0:0:0:
315,222,249791,6,0,P|319:269|328:316,1,95.9999970703126
269,366,250294,1,0,0:0:0:0:
269,366,250462,2,0,P|235:366|205:364,1,47.9999985351563
122,305,250797,2,0,P|155:304|186:307,1,47.9999985351563
256,192,251132,12,0,256495,0:0:0:0:
