osu file format v14

[General]
AudioFilename: audio.mp3
AudioLeadIn: 0
PreviewTime: 73635
Countdown: 0
SampleSet: Soft
StackLeniency: 0.7
Mode: 3
LetterboxInBreaks: 0
SpecialStyle: 0
WidescreenStoryboard: 0

[Editor]
Bookmarks: 74090,85727
DistanceSpacing: 1.4
BeatDivisor: 4
GridSize: 4
TimelineZoom: 1

[Metadata]
Title:fallen leaves -IIDX edition-
TitleUnicode:fallen leaves -IIDX edition-
Artist:Nekomata Master
ArtistUnicode:猫叉Master
Creator:PurelyPorkChop
Version:Hard
Source:beatmania IIDX 22 PENDUAL
Tags:konami bemani iidx 22 pendual nekomata master fallen leaves
BeatmapID:1436714
BeatmapSetID:679417

[Difficulty]
HPDrainRate:8
CircleSize:4
OverallDifficulty:7
ApproachRate:5
SliderMultiplier:1.4
SliderTickRate:1

[Events]
//Background and Video events
0,0,"612566.jpg",0,0
//Break Periods
//Storyboard Layer 0 (Background)
//Storyboard Layer 1 (Fail)
//Storyboard Layer 2 (Pass)
//Storyboard Layer 3 (Foreground)
//Storyboard Sound Samples

[TimingPoints]
1024,363.636363636364,4,2,0,75,1,0
33363,-100,4,2,0,50,0,0
36372,-100,4,2,0,50,0,0
40636,-100,4,2,0,50,0,0
42090,-100,4,2,0,75,0,0
52272,-100,4,2,0,50,0,0
53727,-100,4,2,0,76,0,0
70818,-100,4,2,0,25,0,0
71500,-100,4,2,0,25,0,0
71909,-100,4,2,0,25,0,0
73727,-100,4,2,0,100,0,0
106181,-100,4,2,0,35,0,0

[HitObjects]
448,192,1024,5,0,0:0:0:0:
320,192,1114,1,0,0:0:0:0:
192,192,1205,1,0,0:0:0:0:
64,192,1296,1,0,0:0:0:0:
192,192,1387,1,0,0:0:0:0:
320,192,1387,128,0,2478:0:0:0:0:
64,192,1933,1,0,0:0:0:0:
192,192,2478,1,0,0:0:0:0:
320,192,2842,128,0,3933:0:0:0:0:
64,192,2842,128,0,3569:0:0:0:0:
192,192,3569,128,0,4296:0:0:0:0:
448,192,3933,128,0,4660:0:0:0:0:
64,192,4296,128,0,4660:0:0:0:0:
320,192,4660,128,0,5024:0:0:0:0:
192,192,5024,128,0,5387:0:0:0:0:
448,192,5387,128,0,6478:0:0:0:0:
64,192,5387,128,0,5751:0:0:0:0:
320,192,5751,128,0,6478:0:0:0:0:
192,192,6114,128,0,6478:0:0:0:0:
64,192,6478,1,0,0:0:0:0:
64,192,6842,1,0,0:0:0:0:
192,192,6933,1,0,0:0:0:0:
320,192,7024,1,0,0:0:0:0:
448,192,7114,1,0,0:0:0:0:
320,192,7205,1,0,0:0:0:0:
192,192,7205,128,0,8296:0:0:0:0:
64,192,7751,1,0,0:0:0:0:
320,192,8296,128,0,9024:0:0:0:0:
192,192,8660,128,0,9387:0:0:0:0:
448,192,9024,128,0,9751:0:0:0:0:
64,192,9387,128,0,10114:0:0:0:0:
320,192,9751,128,0,10114:0:0:0:0:
192,192,10114,128,0,12296:0:0:0:0:
448,192,10114,1,0,0:0:0:0:
320,192,10478,128,0,12296:0:0:0:0:
448,192,10842,128,0,12296:0:0:0:0:
64,192,12296,1,0,0:0:0:0:
64,192,12660,1,0,0:0:0:0:
192,192,12751,1,0,0:0:0:0:
320,192,12842,1,0,0:0:0:0:
448,192,12933,1,0,0:0:0:0:
64,192,13024,128,0,14114:0:0:0:0:
320,192,13024,1,0,0:0:0:0:
192,192,13569,1,0,0:0:0:0:
320,192,14114,1,0,0:0:0:0:
448,192,14478,128,0,15205:0:0:0:0:
192,192,14478,128,0,15569:0:0:0:0:
320,192,15205,128,0,15933:0:0:0:0:
64,192,15569,128,0,16296:0:0:0:0:
448,192,15933,128,0,16296:0:0:0:0:
192,192,16296,128,0,16660:0:0:0:0:
320,192,16660,128,0,17024:0:0:0:0:
64,192,17024,128,0,17751:0:0:0:0:
448,192,17024,128,0,17387:0:0:0:0:
192,192,17387,128,0,17751:0:0:0:0:
448,192,17751,128,0,18114:0:0:0:0:
320,192,17751,1,0,0:0:0:0:
64,192,18114,128,0,18842:0:0:0:0:
320,192,18478,1,0,0:0:0:0:
448,192,18842,128,0,23205:0:0:0:0:
320,192,19205,1,0,0:0:0:0:
192,192,19387,1,0,0:0:0:0:
64,192,19569,1,0,0:0:0:0:
192,192,19660,1,0,0:0:0:0:
320,192,19751,1,0,0:0:0:0:
64,192,19933,1,0,0:0:0:0:
192,192,20114,1,0,0:0:0:0:
320,192,20296,1,0,0:0:0:0:
192,192,20387,1,0,0:0:0:0:
64,192,20478,1,0,0:0:0:0:
320,192,20660,1,0,0:0:0:0:
192,192,20842,1,0,0:0:0:0:
64,192,21024,1,0,0:0:0:0:
192,192,21114,1,0,0:0:0:0:
320,192,21205,1,0,0:0:0:0:
64,192,21387,1,0,0:0:0:0:
192,192,21569,1,0,0:0:0:0:
64,192,21751,1,0,0:0:0:0:
192,192,21842,1,0,0:0:0:0:
320,192,21933,1,0,0:0:0:0:
192,192,22114,1,0,0:0:0:0:
64,192,22296,1,0,0:0:0:0:
320,192,22478,1,0,0:0:0:0:
192,192,22569,1,0,0:0:0:0:
64,192,22660,1,0,0:0:0:0:
192,192,22842,1,0,0:0:0:0:
64,192,23205,1,0,0:0:0:0:
192,192,23296,1,0,0:0:0:0:
320,192,23387,1,0,0:0:0:0:
192,192,23478,1,0,0:0:0:0:
320,192,23569,1,0,0:0:0:0:
448,192,23660,1,0,0:0:0:0:
64,192,23751,1,0,0:0:0:0:
320,192,23842,1,0,0:0:0:0:
64,192,23933,1,0,0:0:0:0:
320,192,24024,1,0,0:0:0:0:
192,192,24296,1,0,0:0:0:0:
448,192,24296,1,0,0:0:0:0:
448,192,24478,1,0,0:0:0:0:
192,192,24478,1,0,0:0:0:0:
64,192,24660,1,0,0:0:0:0:
320,192,24660,1,0,0:0:0:0:
192,192,24842,1,0,0:0:0:0:
64,192,25024,1,0,0:0:0:0:
448,192,25024,1,0,0:0:0:0:
320,192,25205,1,0,0:0:0:0:
192,192,25387,1,0,0:0:0:0:
448,192,25387,1,0,0:0:0:0:
320,192,25569,1,0,0:0:0:0:
192,192,25751,1,0,0:0:0:0:
64,192,25751,1,0,0:0:0:0:
320,192,25933,1,0,0:0:0:0:
64,192,26114,1,0,0:0:0:0:
448,192,26114,1,0,0:0:0:0:
192,192,26296,1,0,0:0:0:0:
64,192,26478,1,0,0:0:0:0:
320,192,26478,1,0,0:0:0:0:
448,192,26660,1,0,0:0:0:0:
320,192,26842,1,0,0:0:0:0:
192,192,26842,1,0,0:0:0:0:
64,192,27024,1,0,0:0:0:0:
192,192,27205,1,0,0:0:0:0:
448,192,27205,1,0,0:0:0:0:
320,192,27387,1,0,0:0:0:0:
64,192,27569,1,0,0:0:0:0:
192,192,27569,1,0,0:0:0:0:
448,192,27751,1,0,0:0:0:0:
192,192,27933,1,0,0:0:0:0:
320,192,27933,1,0,0:0:0:0:
448,192,28114,1,0,0:0:0:0:
64,192,28296,1,0,0:0:0:0:
320,192,28296,1,0,0:0:0:0:
192,192,28478,1,0,0:0:0:0:
320,192,28660,1,0,0:0:0:0:
448,192,28660,1,0,0:0:0:0:
64,192,28842,1,0,0:0:0:0:
448,192,29024,1,0,0:0:0:0:
192,192,29024,1,0,0:0:0:0:
320,192,29205,1,0,0:0:0:0:
64,192,29387,1,0,0:0:0:0:
448,192,29387,1,0,0:0:0:0:
192,192,29569,1,0,0:0:0:0:
320,192,29751,1,0,0:0:0:0:
448,192,29751,128,0,30114:0:0:0:0:
320,192,29933,1,0,0:0:0:0:
192,192,30114,1,0,0:0:0:0:
64,192,30114,128,0,30478:0:0:0:0:
192,192,30296,1,0,0:0:0:0:
320,192,30478,1,0,0:0:0:0:
448,192,30660,1,0,0:0:0:0:
192,192,30842,1,0,0:0:0:0:
320,192,30842,1,0,0:0:0:0:
192,192,31024,1,0,0:0:0:0:
64,192,31205,1,0,0:0:0:0:
320,192,31205,1,0,0:0:0:0:
320,192,31387,1,0,0:0:0:0:
448,192,31569,1,0,0:0:0:0:
192,192,31569,1,0,0:0:0:0:
320,192,31751,1,0,0:0:0:0:
64,192,31933,1,0,0:0:0:0:
192,192,31933,1,0,0:0:0:0:
320,192,32114,1,0,0:0:0:0:
192,192,32296,1,0,0:0:0:0:
448,192,32296,1,0,0:0:0:0:
192,192,32478,1,0,0:0:0:0:
64,192,32660,1,0,0:0:0:0:
320,192,32660,1,0,0:0:0:0:
192,192,32842,1,0,0:0:0:0:
320,192,33024,1,0,0:0:0:0:
64,192,33024,1,0,0:0:0:0:
192,192,33205,1,0,0:0:0:0:
448,192,33205,1,0,0:0:0:0:
64,192,33387,1,8,0:0:0:0:
320,192,33478,1,8,0:0:0:0:
64,192,33569,1,8,0:0:0:0:
320,192,33660,1,8,0:0:0:0:
64,192,33751,1,8,0:0:0:0:
448,192,33933,1,8,0:0:0:0:
192,192,34114,1,8,0:0:0:0:
448,192,34296,1,8,0:0:0:0:
192,192,34478,1,8,0:0:0:0:
448,192,34660,1,8,0:0:0:0:
64,192,34842,1,8,0:0:0:0:
320,192,35024,1,8,0:0:0:0:
64,192,35205,1,8,0:0:0:0:
64,192,35387,1,8,0:0:0:0:
192,192,35569,1,8,0:0:0:0:
448,192,35660,1,8,0:0:0:0:
192,192,35751,1,8,0:0:0:0:
448,192,35842,1,8,0:0:0:0:
64,192,35933,1,8,0:0:0:0:
320,192,36024,1,8,0:0:0:0:
64,192,36114,1,8,0:0:0:0:
320,192,36205,1,8,0:0:0:0:
64,192,36296,128,0,36660:0:0:0:0:
448,192,36660,1,0,0:0:0:0:
64,192,36842,128,0,37387:0:0:0:0:
320,192,37024,1,8,0:0:0:0:
448,192,37387,1,8,0:0:0:0:
320,192,37478,1,0,0:0:0:0:
192,192,37569,1,0,0:0:0:0:
64,192,37660,1,0,0:0:0:0:
448,192,37751,128,0,38114:0:0:0:0:
192,192,37751,1,0,0:0:0:0:
64,192,38114,1,0,0:0:0:0:
448,192,38296,128,0,38842:0:0:0:0:
192,192,38478,1,8,0:0:0:0:
64,192,38842,1,8,0:0:0:0:
192,192,38933,1,0,0:0:0:0:
320,192,39024,1,0,0:0:0:0:
448,192,39114,1,0,0:0:0:0:
320,192,39205,1,0,0:0:0:0:
64,192,39205,128,0,40660:0:0:0:0:
448,192,39569,1,0,0:0:0:0:
320,192,39933,1,8,0:0:0:0:
448,192,40296,1,8,0:0:0:0:
320,192,40660,1,8,0:0:0:0:
64,192,40751,1,8,0:0:0:0:
320,192,40842,1,8,0:0:0:0:
64,192,40933,1,8,0:0:0:0:
448,192,41024,1,8,0:0:0:0:
64,192,41114,1,8,0:0:0:0:
448,192,41205,1,8,0:0:0:0:
64,192,41296,1,8,0:0:0:0:
320,192,41387,1,8,0:0:0:0:
64,192,41569,1,8,0:0:0:0:
448,192,41751,1,8,0:0:0:0:
192,192,41933,1,8,0:0:0:0:
320,192,42114,128,0,42478:0:0:0:0:
64,192,42478,1,0,0:0:0:0:
320,192,42660,128,0,43205:0:0:0:0:
192,192,42842,1,0,0:0:0:0:
64,192,43205,1,0,0:0:0:0:
192,192,43296,1,0,0:0:0:0:
320,192,43387,1,0,0:0:0:0:
448,192,43478,1,0,0:0:0:0:
192,192,43569,128,0,43933:0:0:0:0:
320,192,43569,1,0,0:0:0:0:
448,192,43933,1,0,0:0:0:0:
192,192,44114,128,0,44660:0:0:0:0:
320,192,44296,1,0,0:0:0:0:
448,192,44660,1,0,0:0:0:0:
320,192,44751,1,0,0:0:0:0:
192,192,44842,1,0,0:0:0:0:
64,192,44933,1,0,0:0:0:0:
192,192,45024,1,0,0:0:0:0:
448,192,45024,128,0,45387:0:0:0:0:
64,192,45387,1,0,0:0:0:0:
448,192,45569,128,0,46478:0:0:0:0:
320,192,45751,1,0,0:0:0:0:
64,192,46114,1,0,0:0:0:0:
320,192,46478,1,0,0:0:0:0:
192,192,46660,1,0,0:0:0:0:
64,192,46842,1,0,0:0:0:0:
192,192,47024,1,0,0:0:0:0:
320,192,47205,1,0,0:0:0:0:
64,192,47387,1,0,0:0:0:0:
192,192,47478,1,0,0:0:0:0:
448,192,47478,1,0,0:0:0:0:
64,192,47569,1,0,0:0:0:0:
192,192,47660,1,0,0:0:0:0:
448,192,47660,1,0,0:0:0:0:
64,192,47751,1,0,0:0:0:0:
192,192,47842,1,0,0:0:0:0:
448,192,47842,1,0,0:0:0:0:
64,192,47933,128,0,48296:0:0:0:0:
448,192,48296,1,0,0:0:0:0:
64,192,48478,128,0,49024:0:0:0:0:
320,192,48660,1,8,0:0:0:0:
448,192,49024,1,8,0:0:0:0:
320,192,49114,1,0,0:0:0:0:
192,192,49205,1,0,0:0:0:0:
64,192,49296,1,0,0:0:0:0:
192,192,49387,128,0,49751:0:0:0:0:
320,192,49751,1,0,0:0:0:0:
192,192,49933,128,0,50478:0:0:0:0:
448,192,50114,1,8,0:0:0:0:
448,192,50478,1,0,0:0:0:0:
320,192,50569,1,0,0:0:0:0:
192,192,50660,1,0,0:0:0:0:
64,192,50751,1,0,0:0:0:0:
192,192,50842,1,0,0:0:0:0:
320,192,50842,128,0,52296:0:0:0:0:
192,192,51205,1,0,0:0:0:0:
64,192,51569,1,8,0:0:0:0:
192,192,51933,1,8,0:0:0:0:
64,192,52296,1,8,0:0:0:0:
448,192,52387,1,8,0:0:0:0:
64,192,52478,1,8,0:0:0:0:
448,192,52569,1,8,0:0:0:0:
192,192,52660,1,8,0:0:0:0:
448,192,52751,1,8,0:0:0:0:
192,192,52842,1,8,0:0:0:0:
448,192,52933,1,8,0:0:0:0:
64,192,53024,1,8,0:0:0:0:
320,192,53205,1,8,0:0:0:0:
192,192,53387,1,8,0:0:0:0:
448,192,53569,1,8,0:0:0:0:
64,192,53751,128,0,54114:0:0:0:0:
448,192,54114,1,0,0:0:0:0:
64,192,54296,128,0,54842:0:0:0:0:
320,192,54478,1,8,0:0:0:0:
448,192,54842,1,0,0:0:0:0:
320,192,54933,1,0,0:0:0:0:
192,192,55024,1,0,0:0:0:0:
64,192,55114,1,0,0:0:0:0:
192,192,55205,1,0,0:0:0:0:
320,192,55205,128,0,55933:0:0:0:0:
64,192,55569,1,0,0:0:0:0:
448,192,55933,128,0,56114:0:0:0:0:
192,192,55933,1,0,0:0:0:0:
320,192,56114,128,0,56296:0:0:0:0:
192,192,56296,128,0,56478:0:0:0:0:
64,192,56478,128,0,56660:0:0:0:0:
320,192,56660,128,0,57024:0:0:0:0:
192,192,57024,128,0,57205:0:0:0:0:
64,192,57205,128,0,58114:0:0:0:0:
448,192,57387,1,0,0:0:0:0:
320,192,57751,1,0,0:0:0:0:
448,192,58205,1,0,0:0:0:0:
320,192,58296,1,0,0:0:0:0:
192,192,58387,1,0,0:0:0:0:
64,192,58478,1,0,0:0:0:0:
448,192,58569,1,0,0:0:0:0:
320,192,58660,1,0,0:0:0:0:
192,192,58751,1,0,0:0:0:0:
64,192,58842,1,0,0:0:0:0:
320,192,59024,1,0,0:0:0:0:
448,192,59024,1,0,0:0:0:0:
64,192,59205,1,0,0:0:0:0:
192,192,59205,1,0,0:0:0:0:
64,192,59569,1,0,0:0:0:0:
320,192,59569,1,0,0:0:0:0:
448,192,59569,1,0,0:0:0:0:
64,192,59842,1,0,0:0:0:0:
192,192,59842,1,0,0:0:0:0:
448,192,59842,1,0,0:0:0:0:
192,192,60114,1,0,0:0:0:0:
320,192,60114,1,0,0:0:0:0:
64,192,60114,1,0,0:0:0:0:
448,192,60660,1,0,0:0:0:0:
320,192,60660,1,0,0:0:0:0:
192,192,60660,1,0,0:0:0:0:
64,192,60933,1,0,0:0:0:0:
320,192,60933,1,0,0:0:0:0:
448,192,60933,1,0,0:0:0:0:
64,192,61205,1,0,0:0:0:0:
192,192,61205,1,0,0:0:0:0:
448,192,61205,1,0,0:0:0:0:
320,192,61569,1,0,0:0:0:0:
192,192,61751,1,0,0:0:0:0:
64,192,61933,1,0,0:0:0:0:
320,192,62114,1,0,0:0:0:0:
448,192,62296,1,0,0:0:0:0:
64,192,62478,1,0,0:0:0:0:
192,192,62478,1,0,0:0:0:0:
320,192,62478,1,0,0:0:0:0:
192,192,62751,1,0,0:0:0:0:
320,192,62751,1,0,0:0:0:0:
448,192,62751,1,0,0:0:0:0:
448,192,63024,1,0,0:0:0:0:
64,192,63024,1,0,0:0:0:0:
320,192,63024,1,0,0:0:0:0:
64,192,63569,1,0,0:0:0:0:
192,192,63569,1,0,0:0:0:0:
448,192,63569,1,0,0:0:0:0:
64,192,63842,1,0,0:0:0:0:
192,192,63842,1,0,0:0:0:0:
320,192,63842,1,0,0:0:0:0:
192,192,64114,1,0,0:0:0:0:
448,192,64114,1,0,0:0:0:0:
320,192,64114,1,0,0:0:0:0:
320,192,64660,1,0,0:0:0:0:
192,192,64842,1,0,0:0:0:0:
64,192,65024,1,0,0:0:0:0:
192,192,65205,1,0,0:0:0:0:
64,192,65387,1,0,0:0:0:0:
320,192,65387,1,0,0:0:0:0:
448,192,65387,1,0,0:0:0:0:
64,192,65660,1,0,0:0:0:0:
192,192,65660,1,0,0:0:0:0:
448,192,65660,1,0,0:0:0:0:
64,192,65933,1,0,0:0:0:0:
192,192,65933,1,0,0:0:0:0:
320,192,65933,1,0,0:0:0:0:
192,192,66478,1,0,0:0:0:0:
320,192,66478,1,0,0:0:0:0:
448,192,66478,1,0,0:0:0:0:
64,192,66751,1,0,0:0:0:0:
448,192,66751,1,0,0:0:0:0:
320,192,66751,1,0,0:0:0:0:
64,192,67024,1,0,0:0:0:0:
192,192,67024,1,0,0:0:0:0:
448,192,67024,1,0,0:0:0:0:
320,192,67387,1,0,0:0:0:0:
448,192,67569,1,0,0:0:0:0:
320,192,67751,1,0,0:0:0:0:
192,192,67933,1,0,0:0:0:0:
64,192,68114,1,0,0:0:0:0:
192,192,68296,1,0,0:0:0:0:
320,192,68296,1,0,0:0:0:0:
448,192,68296,1,0,0:0:0:0:
64,192,68569,1,0,0:0:0:0:
320,192,68569,1,0,0:0:0:0:
448,192,68569,1,0,0:0:0:0:
64,192,68842,1,0,0:0:0:0:
192,192,68842,1,0,0:0:0:0:
448,192,68842,1,0,0:0:0:0:
64,192,69387,1,0,0:0:0:0:
192,192,69387,1,0,0:0:0:0:
320,192,69387,1,0,0:0:0:0:
192,192,69660,5,0,0:0:0:0:
320,192,69660,1,0,0:0:0:0:
448,192,69660,1,0,0:0:0:0:
64,192,69933,1,0,0:0:0:0:
320,192,69933,1,0,0:0:0:0:
448,192,69933,1,0,0:0:0:0:
64,192,70478,1,0,0:0:0:0:
320,192,70478,1,0,0:0:0:0:
448,192,70478,1,0,0:0:0:0:
448,192,70751,1,0,0:0:0:0:
192,192,70751,1,0,0:0:0:0:
64,192,70933,1,0,0:0:0:0:
320,192,71024,1,0,0:0:0:0:
64,192,71205,1,0,0:0:0:0:
320,192,71387,1,0,0:0:0:0:
64,192,71569,1,0,0:0:0:0:
320,192,71842,1,0,0:0:0:0:
64,192,72114,1,0,0:0:0:0:
320,192,72387,1,0,0:0:0:0:
64,192,72751,5,0,0:0:0:0:
320,192,73205,1,0,0:0:0:0:
448,192,74114,128,0,74842:0:0:0:0:
320,192,74296,1,0,0:0:0:0:
192,192,74387,1,0,0:0:0:0:
320,192,74478,1,0,0:0:0:0:
320,192,74660,1,0,0:0:0:0:
64,192,74751,1,0,0:0:0:0:
320,192,74842,1,0,0:0:0:0:
192,192,74842,128,0,75205:0:0:0:0:
64,192,75024,1,0,0:0:0:0:
448,192,75114,1,0,0:0:0:0:
320,192,75205,128,0,75569:0:0:0:0:
64,192,75205,1,0,0:0:0:0:
448,192,75387,1,0,0:0:0:0:
192,192,75478,1,0,0:0:0:0:
64,192,75569,128,0,76296:0:0:0:0:
448,192,75569,1,0,0:0:0:0:
192,192,75751,1,0,0:0:0:0:
320,192,75842,1,0,0:0:0:0:
192,192,75933,1,0,0:0:0:0:
192,192,76114,1,0,0:0:0:0:
448,192,76205,1,0,0:0:0:0:
192,192,76296,1,0,0:0:0:0:
448,192,76478,1,0,0:0:0:0:
192,192,76569,1,0,0:0:0:0:
64,192,76660,128,0,77024:0:0:0:0:
448,192,76660,1,0,0:0:0:0:
192,192,76842,1,0,0:0:0:0:
320,192,76933,1,0,0:0:0:0:
448,192,77024,128,0,77751:0:0:0:0:
192,192,77024,1,0,0:0:0:0:
320,192,77205,1,0,0:0:0:0:
192,192,77296,1,0,0:0:0:0:
320,192,77387,1,0,0:0:0:0:
320,192,77569,1,0,0:0:0:0:
64,192,77660,1,0,0:0:0:0:
192,192,77751,128,0,78114:0:0:0:0:
320,192,77751,1,0,0:0:0:0:
64,192,77933,1,0,0:0:0:0:
448,192,78024,1,0,0:0:0:0:
320,192,78114,128,0,78478:0:0:0:0:
64,192,78114,1,0,0:0:0:0:
448,192,78296,1,0,0:0:0:0:
192,192,78387,1,0,0:0:0:0:
64,192,78478,128,0,79205:0:0:0:0:
448,192,78478,1,0,0:0:0:0:
192,192,78660,1,0,0:0:0:0:
320,192,78751,1,0,0:0:0:0:
192,192,78842,1,0,0:0:0:0:
192,192,79024,1,0,0:0:0:0:
448,192,79114,1,0,0:0:0:0:
192,192,79205,1,0,0:0:0:0:
448,192,79387,1,0,0:0:0:0:
320,192,79478,1,0,0:0:0:0:
192,192,79569,1,0,0:0:0:0:
64,192,79660,1,0,0:0:0:0:
448,192,79751,1,0,0:0:0:0:
320,192,79842,1,0,0:0:0:0:
192,192,79933,1,0,0:0:0:0:
64,192,79933,128,0,80296:0:0:0:0:
320,192,80114,1,0,0:0:0:0:
192,192,80205,1,0,0:0:0:0:
448,192,80296,128,0,82478:0:0:0:0:
320,192,80296,1,0,0:0:0:0:
320,192,80478,1,0,0:0:0:0:
64,192,80569,1,0,0:0:0:0:
320,192,80660,1,0,0:0:0:0:
192,192,80842,1,0,0:0:0:0:
320,192,80933,1,0,0:0:0:0:
192,192,81024,1,0,0:0:0:0:
320,192,81205,1,0,0:0:0:0:
192,192,81296,1,0,0:0:0:0:
320,192,81387,1,0,0:0:0:0:
64,192,81569,1,0,0:0:0:0:
320,192,81660,1,0,0:0:0:0:
64,192,81751,1,0,0:0:0:0:
192,192,81933,1,0,0:0:0:0:
320,192,82024,1,0,0:0:0:0:
192,192,82114,1,0,0:0:0:0:
192,192,82478,128,0,82842:0:0:0:0:
64,192,82478,1,0,0:0:0:0:
320,192,82842,128,0,83205:0:0:0:0:
448,192,82842,1,0,0:0:0:0:
448,192,83205,128,0,85024:0:0:0:0:
64,192,83205,1,0,0:0:0:0:
320,192,83569,1,0,0:0:0:0:
192,192,83569,1,0,0:0:0:0:
64,192,83933,1,0,0:0:0:0:
192,192,84296,1,0,0:0:0:0:
320,192,84478,1,0,0:0:0:0:
64,192,84660,1,0,0:0:0:0:
192,192,84842,1,0,0:0:0:0:
320,192,85024,1,0,0:0:0:0:
192,192,85387,1,0,0:0:0:0:
320,192,85387,1,0,0:0:0:0:
64,192,85751,128,0,86478:0:0:0:0:
192,192,85751,1,0,0:0:0:0:
448,192,85842,1,0,0:0:0:0:
192,192,85933,1,0,0:0:0:0:
192,192,86114,1,0,0:0:0:0:
320,192,86205,1,0,0:0:0:0:
192,192,86296,1,0,0:0:0:0:
320,192,86478,128,0,86842:0:0:0:0:
448,192,86478,1,0,0:0:0:0:
192,192,86569,1,0,0:0:0:0:
448,192,86660,5,0,0:0:0:0:
192,192,86842,128,0,87205:0:0:0:0:
64,192,86842,1,0,0:0:0:0:
448,192,86933,1,0,0:0:0:0:
64,192,87024,1,0,0:0:0:0:
448,192,87205,128,0,87933:0:0:0:0:
320,192,87205,1,0,0:0:0:0:
64,192,87296,1,0,0:0:0:0:
320,192,87387,1,0,0:0:0:0:
320,192,87569,1,0,0:0:0:0:
192,192,87660,1,0,0:0:0:0:
320,192,87751,1,0,0:0:0:0:
64,192,87933,128,0,88296:0:0:0:0:
192,192,87933,1,0,0:0:0:0:
320,192,88024,1,0,0:0:0:0:
192,192,88114,1,0,0:0:0:0:
448,192,88296,1,0,0:0:0:0:
192,192,88387,1,0,0:0:0:0:
448,192,88478,1,0,0:0:0:0:
64,192,88660,128,0,89387:0:0:0:0:
192,192,88660,1,0,0:0:0:0:
448,192,88751,1,0,0:0:0:0:
192,192,88842,1,0,0:0:0:0:
192,192,89024,1,0,0:0:0:0:
320,192,89114,1,0,0:0:0:0:
192,192,89205,1,0,0:0:0:0:
320,192,89387,128,0,89751:0:0:0:0:
448,192,89387,1,0,0:0:0:0:
192,192,89478,1,0,0:0:0:0:
448,192,89569,1,0,0:0:0:0:
192,192,89751,128,0,90114:0:0:0:0:
64,192,89751,1,0,0:0:0:0:
448,192,89842,1,0,0:0:0:0:
64,192,89933,5,0,0:0:0:0:
448,192,90114,128,0,90842:0:0:0:0:
320,192,90114,1,0,0:0:0:0:
64,192,90205,1,0,0:0:0:0:
320,192,90296,1,0,0:0:0:0:
320,192,90478,1,0,0:0:0:0:
192,192,90569,1,0,0:0:0:0:
320,192,90660,1,0,0:0:0:0:
448,192,91114,5,0,0:0:0:0:
320,192,91205,1,0,0:0:0:0:
192,192,91296,1,0,0:0:0:0:
64,192,91387,1,0,0:0:0:0:
192,192,91478,1,0,0:0:0:0:
320,192,91569,128,0,91933:0:0:0:0:
448,192,91569,128,0,91933:0:0:0:0:
64,192,91933,128,0,94114:0:0:0:0:
192,192,91933,128,0,94114:0:0:0:0:
448,192,92296,1,0,0:0:0:0:
320,192,92296,1,0,0:0:0:0:
448,192,92660,1,0,0:0:0:0:
320,192,92660,1,0,0:0:0:0:
320,192,92842,1,0,0:0:0:0:
448,192,92842,1,0,0:0:0:0:
320,192,93024,1,0,0:0:0:0:
448,192,93024,1,0,0:0:0:0:
320,192,93387,1,0,0:0:0:0:
448,192,93387,1,0,0:0:0:0:
320,192,93751,1,0,0:0:0:0:
448,192,93751,1,0,0:0:0:0:
320,192,94114,1,0,0:0:0:0:
448,192,94114,1,0,0:0:0:0:
192,192,94478,1,0,0:0:0:0:
320,192,94478,1,0,0:0:0:0:
192,192,94751,1,0,0:0:0:0:
320,192,94751,1,0,0:0:0:0:
64,192,95024,128,0,96660:0:0:0:0:
448,192,95024,128,0,96660:0:0:0:0:
192,192,95205,1,0,0:0:0:0:
320,192,95205,1,0,0:0:0:0:
192,192,95478,1,0,0:0:0:0:
320,192,95478,1,0,0:0:0:0:
192,192,95751,1,0,0:0:0:0:
320,192,95751,1,0,0:0:0:0:
192,192,96114,1,0,0:0:0:0:
320,192,96114,1,0,0:0:0:0:
192,192,96296,1,0,0:0:0:0:
320,192,96296,1,0,0:0:0:0:
320,192,96660,128,0,97024:0:0:0:0:
192,192,96660,128,0,97024:0:0:0:0:
64,192,97024,128,0,99569:0:0:0:0:
448,192,97024,128,0,99569:0:0:0:0:
320,192,97387,1,0,0:0:0:0:
192,192,97751,1,0,0:0:0:0:
320,192,98114,1,0,0:0:0:0:
192,192,98205,1,0,0:0:0:0:
192,192,98387,1,0,0:0:0:0:
320,192,98478,1,0,0:0:0:0:
320,192,98842,1,0,0:0:0:0:
192,192,98933,1,0,0:0:0:0:
192,192,99114,1,0,0:0:0:0:
320,192,99205,1,0,0:0:0:0:
192,192,99569,128,0,101751:0:0:0:0:
320,192,99933,128,0,101751:0:0:0:0:
448,192,99933,1,0,0:0:0:0:
64,192,100296,1,0,0:0:0:0:
448,192,100387,1,0,0:0:0:0:
448,192,100569,1,0,0:0:0:0:
64,192,100660,1,0,0:0:0:0:
64,192,101024,1,0,0:0:0:0:
448,192,101114,1,0,0:0:0:0:
448,192,101296,1,0,0:0:0:0:
64,192,101387,1,0,0:0:0:0:
448,192,101751,1,0,0:0:0:0:
192,192,102114,1,0,0:0:0:0:
320,192,102205,1,0,0:0:0:0:
448,192,102296,1,0,0:0:0:0:
64,192,102387,1,0,0:0:0:0:
192,192,102478,1,0,0:0:0:0:
320,192,102569,1,0,0:0:0:0:
192,192,102660,1,0,0:0:0:0:
320,192,102751,1,0,0:0:0:0:
448,192,102842,1,0,0:0:0:0:
64,192,102933,1,0,0:0:0:0:
192,192,103024,1,0,0:0:0:0:
320,192,103114,1,0,0:0:0:0:
448,192,103205,1,0,0:0:0:0:
64,192,103205,128,0,104296:0:0:0:0:
192,192,103387,1,0,0:0:0:0:
448,192,103569,1,0,0:0:0:0:
192,192,103751,1,0,0:0:0:0:
448,192,103933,1,0,0:0:0:0:
192,192,104114,1,0,0:0:0:0:
448,192,104296,1,0,0:0:0:0:
320,192,104478,1,0,0:0:0:0:
192,192,104478,1,0,0:0:0:0:
448,192,104660,128,0,106114:0:0:0:0:
64,192,104660,1,0,0:0:0:0:
192,192,104842,1,0,0:0:0:0:
64,192,105024,1,0,0:0:0:0:
192,192,105205,1,0,0:0:0:0:
64,192,105387,1,0,0:0:0:0:
320,192,105569,1,0,0:0:0:0:
64,192,105751,1,0,0:0:0:0:
320,192,105933,1,0,0:0:0:0:
64,192,106114,1,0,0:0:0:0:
192,192,106205,1,8,0:0:0:0:
448,192,106296,1,8,0:0:0:0:
192,192,106387,1,8,0:0:0:0:
448,192,106478,1,8,0:0:0:0:
192,192,106569,1,8,0:0:0:0:
320,192,106751,1,8,0:0:0:0:
64,192,106933,1,8,0:0:0:0:
320,192,107114,1,8,0:0:0:0:
64,192,107296,1,8,0:0:0:0:
320,192,107478,1,8,0:0:0:0:
64,192,107569,1,8,0:0:0:0:
192,192,107569,1,8,0:0:0:0:
448,192,107660,1,8,0:0:0:0:
64,192,107751,1,8,0:0:0:0:
192,192,107751,1,8,0:0:0:0:
448,192,107842,1,8,0:0:0:0:
64,192,107933,1,8,0:0:0:0:
192,192,107933,1,8,0:0:0:0:
448,192,108024,1,8,0:0:0:0:
192,192,108114,128,8,108387:0:0:0:0:
64,192,108114,128,8,108387:0:0:0:0:
