osu file format v14

[General]
AudioFilename: audio.mp3
AudioLeadIn: 0
PreviewTime: 159882
Countdown: 0
SampleSet: Soft
StackLeniency: 0.7
Mode: 0
LetterboxInBreaks: 0
WidescreenStoryboard: 0

[Editor]
Bookmarks: 15936,43364,49364,77650,118793,132454,146222,159936,166793,187364,194222,201079,255936,257650
DistanceSpacing: 0.7
BeatDivisor: 4
GridSize: 16
TimelineZoom: 4.000001

[Metadata]
Title:dahaca
TitleUnicode:dahaca
Artist:Nekomata Master
ArtistUnicode:猫叉Master
Creator:Icekalt
Version:vibing
Source:幻想水滸伝V
Tags:naoyuki sato raindrops Gensou Suikoden 5 the dahak's departure 水上の提督 suijou no teitoku Konami Hudson Soft owc ro16 dt3 instrumental electronic
BeatmapID:2680273
BeatmapSetID:1291261

[Difficulty]
HPDrainRate:5.5
CircleSize:4.2
OverallDifficulty:8
ApproachRate:8.3
SliderMultiplier:2
SliderTickRate:1

[Events]
//Background and Video events
0,0,"comfy.jpg",0,0
//Break Periods
2,132707,145518
//Storyboard Layer 0 (Background)
//Storyboard Layer 1 (Fail)
//Storyboard Layer 2 (Pass)
//Storyboard Layer 3 (Foreground)
//Storyboard Layer 4 (Overlay)
//Storyboard Sound Samples

[TimingPoints]
2222,428.571428571429,4,2,1,50,1,0
8222,-285.714285714284,4,2,1,50,0,0
9079,-100,4,2,1,50,0,0
15936,-83.3333333333333,4,2,1,65,0,1
43364,-83.3333333333333,4,2,1,45,0,0
50222,-71.4285714285714,4,2,1,60,0,0
52150,-100,4,2,1,60,0,0
53650,-71.4285714285714,4,2,1,60,0,0
53972,-100,4,2,1,60,0,0
61793,-71.4285714285714,4,2,1,60,0,0
63936,-83.3333333333333,4,2,1,60,0,0
77650,-83.3333333333333,4,2,1,70,0,1
101650,-71.4285714285714,4,2,1,70,0,1
105079,-83.3333333333333,4,2,1,70,0,1
118793,-76.9230769230769,4,2,1,70,0,1
132507,-83.3333333333333,4,2,1,60,0,0
146222,-125,4,2,1,55,0,0
156507,-100,4,2,1,65,0,0
166257,-66.6666666666667,4,2,1,60,0,0
166793,-76.9230769230769,4,2,1,70,0,1
183936,-71.4285714285714,4,2,1,70,0,1
187364,-71.4285714285714,4,2,1,50,0,0
193793,-133.333333333333,4,2,1,40,0,0
214793,-100,4,2,1,40,0,0
228507,-100,4,2,1,50,0,0
242222,-83.3333333333333,4,2,1,60,0,0
257222,-222.222222222221,4,2,1,40,0,0
257650,-76.9230769230769,4,2,1,70,0,1
285079,-76.9230769230769,4,2,1,70,0,0

[Colours]
Combo1 : 196,104,60
Combo2 : 254,158,29
Combo3 : 175,97,97

[HitObjects]
25,247,2222,6,0,L|138:224,1,100,0|0,1:2|0:0,0:0:0:0:
165,163,2543,1,2,0:0:0:0:
159,155,2650,1,2,0:0:0:0:
102,103,2864,1,2,0:0:0:0:
212,40,3079,1,8,2:1:0:0:
212,40,3186,1,2,0:0:0:0:
304,56,3400,1,2,0:0:0:0:
304,56,3507,1,2,0:0:0:0:
396,72,3722,1,2,0:0:0:0:
355,174,3936,5,8,2:1:0:0:
287,213,4150,2,0,L|209:197,1,50
362,186,4364,1,2,0:0:0:0:
426,238,4579,1,2,0:0:0:0:
422,251,4686,1,2,0:0:0:0:
419,265,4793,1,8,2:1:0:0:
498,122,5114,1,2,0:0:0:0:
495,112,5222,1,2,0:0:0:0:
418,106,5436,1,2,0:0:0:0:
315,182,5650,6,0,L|202:205,1,100,8|0,2:1|0:0,0:0:0:0:
173,142,5971,1,2,0:0:0:0:
179,134,6078,1,2,0:0:0:0:
138,214,6292,1,2,0:0:0:0:
230,312,6507,1,8,2:1:0:0:
230,312,6614,1,2,0:0:0:0:
322,328,6828,1,2,0:0:0:0:
322,328,6935,1,2,0:0:0:0:
393,272,7150,1,2,0:0:0:0:
323,150,7364,6,0,L|333:27,1,100,8|0,2:1|0:0,0:0:0:0:
253,201,7792,1,2,0:0:0:0:
172,173,8007,1,2,0:0:0:0:
168,158,8114,1,2,0:0:0:0:
165,143,8222,6,0,B|148:176|148:176|168:244,1,104.999996795654,8|0,2:1|0:0,0:0:0:0:
42,364,9079,6,0,L|-8:373,5,33.3333333333333,8|0|0|0|0|0,0:1|3:0|3:0|3:0|3:0|3:0,0:0:0:0:
65,375,9507,6,0,P|104:346|152:356,1,100,8|2,0:0|0:0,0:0:0:0:
213,316,9829,1,2,0:0:0:0:
208,301,9936,1,8,2:1:0:0:
202,286,10043,1,2,0:0:0:0:
313,329,10257,1,2,0:0:0:0:
307,314,10364,1,8,0:0:0:0:
413,350,10579,6,0,L|406:387,2,33.3333333333333,2|0|0,0:0|3:0|3:0,0:0:0:0:
432,344,10793,2,0,P|409:285|424:239,1,100,8|0,2:1|0:0,0:0:0:0:
491,200,11222,1,8,0:0:0:0:
377,114,11436,1,2,0:0:0:0:
380,128,11543,1,2,0:0:0:0:
383,142,11650,2,0,L|376:200,1,50,8|2,2:1|0:0,0:0:0:0:
262,266,11972,1,2,0:0:0:0:
276,268,12079,1,8,0:0:0:0:
147,234,12293,1,10,0:0:0:0:
161,232,12400,1,2,0:0:0:0:
175,230,12507,5,8,2:1:0:0:
148,337,12722,1,0,3:0:0:0:
41,308,12936,1,8,0:0:0:0:
68,201,13151,1,0,3:0:0:0:
255,94,13364,5,8,2:1:0:0:
148,123,13578,1,0,3:0:0:0:
175,230,13793,1,8,0:0:0:0:
282,201,14007,2,0,L|343:216,1,50,2|2,0:0|0:0,0:0:0:0:
399,170,14222,5,2,3:0:0:0:
400,150,14329,1,0,3:0:0:0:
402,130,14436,1,0,3:0:0:0:
404,110,14543,1,0,3:0:0:0:
388,94,14650,5,2,3:0:0:0:
385,78,14757,1,0,3:0:0:0:
381,63,14864,1,0,3:0:0:0:
379,48,14971,1,0,3:0:0:0:
394,32,15079,5,2,3:0:0:0:
394,32,15186,1,2,3:0:0:0:
394,32,15293,1,2,3:0:0:0:
405,50,15400,5,2,1:2:0:0:
0,91,15722,1,2,1:2:0:0:
62,154,15936,6,0,P|136:124|194:115,1,119.999996337891,4|0,0:0|0:0,0:0:0:0:
240,158,16257,1,2,0:0:0:0:
243,175,16364,1,8,1:2:0:0:
346,227,16579,1,2,0:0:0:0:
347,209,16686,1,2,0:0:0:0:
348,191,16793,2,0,P|338:104|325:54,1,119.999996337891,8|2,2:1|0:0,0:0:0:0:
360,66,17114,1,2,0:0:0:0:
407,77,17222,1,8,1:2:0:0:
470,29,17436,1,0,3:0:0:0:
466,191,17650,6,0,B|509:213|509:213|488:305,2,119.999996337891,0|2|8,1:2|0:0|1:2,0:0:0:0:
420,254,18293,1,0,0:0:0:0:
304,210,18507,1,8,2:1:0:0:
307,192,18614,1,2,0:0:0:0:
204,246,18829,1,2,0:0:0:0:
207,264,18936,2,0,P|209:295|203:343,1,59.9999981689454,8|0,1:2|0:0,0:0:0:0:
195,337,19150,1,8,2:1:0:0:
150,354,19257,1,2,0:0:0:0:
103,342,19364,6,0,P|89:281|93:197,1,119.999996337891,0|0,1:2|0:0,0:0:0:0:
61,211,19686,1,2,0:0:0:0:
20,217,19793,2,0,B|-3:138|-3:138|29:88,1,119.999996337891,8|0,1:2|0:0,0:0:0:0:
186,17,20222,2,0,P|256:58|374:60,1,179.999994506836,8|2,2:1|0:0,0:0:0:0:
359,51,20650,2,0,L|429:42,1,59.9999981689454,8|0,1:2|0:0,0:0:0:0:
445,57,20864,1,2,0:0:0:0:
468,100,20972,1,2,0:0:0:0:
457,147,21079,1,0,3:0:0:0:
507,220,21293,1,0,0:0:0:0:
329,341,21507,6,0,L|402:326,1,59.9999981689454,2|0,3:0|0:0,0:0:0:0:
260,247,21722,2,0,L|333:232,1,59.9999981689454,2|0,3:0|0:0,0:0:0:0:
165,344,21936,1,2,3:0:0:0:
144,342,22043,1,2,3:0:0:0:
96,244,22257,1,2,3:0:0:0:
163,224,22364,1,2,1:2:0:0:
172,233,22579,1,2,3:0:0:0:
74,114,22793,6,0,P|148:84|206:75,1,119.999996337891,4|0,0:0|0:0,0:0:0:0:
245,26,23114,1,2,0:0:0:0:
242,9,23221,1,8,1:2:0:0:
327,99,23436,1,2,0:0:0:0:
324,116,23543,1,2,0:0:0:0:
321,133,23650,1,8,2:1:0:0:
418,55,23864,1,2,0:0:0:0:
423,52,23972,2,0,L|462:56,2,29.9999990844727,2|0|8,0:0|0:0|1:2,0:0:0:0:
463,140,24293,1,8,2:1:0:0:
396,277,24507,6,0,P|431:334|494:313,2,119.999996337891,0|2|8,1:2|0:0|1:2,0:0:0:0:
328,330,25150,1,2,0:0:0:0:
250,218,25364,1,8,2:1:0:0:
253,200,25471,1,2,0:0:0:0:
230,313,25686,1,2,0:0:0:0:
222,354,25793,1,8,1:2:0:0:
233,368,26007,1,8,2:1:0:0:
157,219,26221,6,0,P|167:159|210:89,1,119.999996337891,0|0,1:2|0:0,0:0:0:0:
185,78,26543,1,2,0:0:0:0:
160,37,26650,2,0,B|104:17|104:17|65:67,1,119.999996337891,8|2,1:2|0:0,0:0:0:0:
251,24,27079,2,0,P|327:42|415:109,1,179.999994506836,8|2,2:1|0:0,0:0:0:0:
418,118,27507,2,0,L|411:179,1,59.9999981689454,8|0,1:2|0:0,0:0:0:0:
388,197,27721,1,2,0:0:0:0:
341,211,27829,1,2,0:0:0:0:
304,180,27936,1,0,3:0:0:0:
393,300,28150,6,0,L|385:376,1,59.9999981689454,2|0,3:0|0:0,0:0:0:0:
277,265,28364,2,0,L|269:341,1,59.9999981689454,2|0,3:0|0:0,0:0:0:0:
161,230,28579,2,0,L|153:306,1,59.9999981689454,2|0,3:0|0:0,0:0:0:0:
101,169,28793,1,2,3:0:0:0:
129,139,28900,1,2,3:0:0:0:
25,80,29114,1,2,3:0:0:0:
62,21,29221,1,2,3:0:0:0:
77,26,29436,1,2,3:0:0:0:
223,110,29650,6,0,P|295:98|355:71,1,119.999996337891,4|0,0:0|0:0,0:0:0:0:
408,146,30078,1,8,1:2:0:0:
466,35,30293,1,2,0:0:0:0:
470,52,30400,1,2,0:0:0:0:
475,70,30507,1,8,2:1:0:0:
392,231,30828,1,2,0:0:0:0:
440,222,30936,1,8,1:2:0:0:
334,286,31150,5,8,2:1:0:0:
330,304,31257,1,2,0:0:0:0:
355,335,31364,2,0,L|425:342,1,59.9999981689454,0|0,1:2|0:0,0:0:0:0:
160,254,31686,1,2,0:0:0:0:
197,228,31793,2,0,L|260:258,1,59.9999981689454,8|0,1:2|0:0,0:0:0:0:
163,32,32115,1,2,0:0:0:0:
138,71,32222,2,0,L|166:135,2,59.9999981689454,8|2|0,2:1|0:0|0:0,0:0:0:0:
262,113,32543,2,0,L|273:55,1,59.9999981689454,2|0,0:0|1:2,0:0:0:0:
322,172,32864,1,8,2:1:0:0:
484,311,33078,6,0,P|457:247|388:253,1,119.999996337891,0|0,1:2|0:0,0:0:0:0:
392,266,33400,1,2,0:0:0:0:
376,311,33507,2,0,B|311:310|242:349,1,119.999996337891,8|0,1:2|0:0,0:0:0:0:
41,295,33936,2,0,P|122:291|222:228,1,179.999994506836,8|2,2:1|0:0,0:0:0:0:
210,222,34364,2,0,L|186:160,1,59.9999981689454,8|0,1:2|0:0,0:0:0:0:
209,145,34578,1,0,0:0:0:0:
215,96,34686,1,2,0:0:0:0:
252,64,34793,1,0,3:0:0:0:
164,29,35007,1,0,0:0:0:0:
338,133,35221,6,0,L|354:193,1,59.9999981689454,2|0,3:0|0:0,0:0:0:0:
458,104,35436,2,0,L|474:164,1,59.9999981689454,2|0,3:0|0:0,0:0:0:0:
425,255,35650,1,2,3:0:0:0:
446,257,35757,1,2,3:0:0:0:
478,349,35971,1,2,3:0:0:0:
411,369,36078,1,2,3:0:0:0:
406,382,36293,1,2,3:0:0:0:
265,272,36507,6,0,P|276:201|322:148,1,119.999996337891,0|0,1:2|0:0,0:0:0:0:
245,114,36828,1,2,0:0:0:0:
228,120,36935,1,8,1:2:0:0:
317,43,37150,1,2,0:0:0:0:
300,38,37257,1,2,0:0:0:0:
283,32,37364,1,8,2:1:0:0:
343,238,37686,1,2,0:0:0:0:
413,225,37793,1,8,1:2:0:0:
286,321,38007,5,8,2:1:0:0:
290,303,38114,1,2,0:0:0:0:
265,272,38221,2,0,L|195:265,1,59.9999981689454,0|0,1:2|0:0,0:0:0:0:
75,197,38543,1,2,0:0:0:0:
105,162,38650,2,0,L|175:155,1,59.9999981689454,8|0,1:2|0:0,0:0:0:0:
300,97,38972,1,2,0:0:0:0:
263,50,39079,2,0,L|193:43,2,59.9999981689454,8|2|0,2:1|0:0|0:0,0:0:0:0:
180,170,39400,2,0,L|267:156,1,59.9999981689454,2|8,0:0|1:2,0:0:0:0:
327,189,39721,1,8,2:1:0:0:
384,364,39935,6,0,P|394:304|437:234,1,119.999996337891,0|0,1:2|0:0,0:0:0:0:
453,255,40257,1,2,0:0:0:0:
496,235,40364,2,0,B|513:192|513:192|472:126,1,119.999996337891,8|0,1:2|0:0,0:0:0:0:
240,108,40793,2,0,P|300:58|406:28,1,179.999994506836,8|2,2:1|0:0,0:0:0:0:
366,65,41221,2,0,P|353:93|354:129,1,59.9999981689454,8|0,1:2|0:0,0:0:0:0:
367,147,41435,1,2,0:0:0:0:
374,194,41543,1,2,0:0:0:0:
342,229,41650,1,0,3:0:0:0:
199,370,41864,6,0,L|170:299,1,59.9999981689454,2|0,3:0|0:0,0:0:0:0:
317,346,42078,2,0,L|288:275,1,59.9999981689454,2|0,3:0|0:0,0:0:0:0:
436,322,42293,2,0,L|407:251,1,59.9999981689454,2|0,3:0|0:0,0:0:0:0:
457,182,42507,5,0,3:0:0:0:
463,152,42614,1,0,3:0:0:0:
469,122,42722,1,0,3:0:0:0:
476,92,42829,1,0,3:0:0:0:
465,60,42936,5,0,3:0:0:0:
464,54,43043,1,0,3:0:0:0:
463,48,43150,1,0,3:0:0:0:
462,42,43257,1,0,3:0:0:0:
440,23,43364,5,0,1:0:0:0:
360,36,43579,1,0,0:0:0:0:
286,126,43793,5,2,0:0:0:0:
239,115,44008,1,0,0:0:0:0:
166,168,44222,5,2,0:0:0:0:
232,231,44436,1,2,0:0:0:0:
239,222,44543,2,0,L|270:227,2,29.9999990844727,2|0|2,0:0|0:0|0:0,0:0:0:0:
180,162,44864,1,2,0:0:0:0:
130,283,45079,5,2,0:0:0:0:
245,372,45364,1,2,0:0:0:0:
251,339,45507,1,2,0:0:0:0:
318,273,45793,1,2,0:0:0:0:
324,240,45936,1,2,0:0:0:0:
19,6,46793,5,2,0:0:0:0:
145,58,47079,1,2,0:0:0:0:
188,43,47222,1,2,0:0:0:0:
111,158,47507,1,2,0:0:0:0:
147,168,47650,1,2,0:0:0:0:
54,248,47936,1,2,0:0:0:0:
69,268,48079,1,2,0:0:0:0:
173,333,48364,5,2,0:0:0:0:
167,313,48507,1,2,0:0:0:0:
293,280,48793,1,2,0:0:0:0:
286,270,48936,1,2,0:0:0:0:
352,195,49222,1,2,0:0:0:0:
348,190,49364,5,2,0:0:0:0:
329,118,49472,1,0,3:2:0:0:
440,232,49686,1,0,3:2:0:0:
455,248,49793,2,0,L|445:319,1,59.9999981689454,2|0,3:0|0:0,0:0:0:0:
320,101,50007,2,0,L|328:41,1,59.9999981689454,2|0,3:0|0:0,0:0:0:0:
226,201,50222,6,0,B|193:224|193:224|91:217,1,139.999995727539,0|0,1:0|0:0,0:0:0:0:
86,197,50543,1,2,0:0:0:0:
101,158,50650,1,8,1:2:0:0:
176,320,50864,1,2,0:0:0:0:
189,317,50972,1,2,0:0:0:0:
202,314,51079,1,8,2:1:0:0:
318,367,51293,1,2,0:0:0:0:
325,316,51400,1,2,0:0:0:0:
318,299,51507,2,0,L|325:219,1,69.9999978637696,8|0,1:2|0:0,0:0:0:0:
333,127,51722,1,8,0:0:0:0:
333,127,51936,1,0,1:0:0:0:
160,49,52150,5,2,0:0:0:0:
157,62,52257,1,2,0:0:0:0:
140,70,52364,1,8,1:2:0:0:
137,83,52471,1,2,0:0:0:0:
121,97,52579,1,2,0:0:0:0:
118,110,52686,1,2,0:0:0:0:
105,137,52793,6,0,P|111:167|136:199,1,50,8|2,2:1|0:0,0:0:0:0:
130,270,53007,2,0,P|153:289|193:297,1,50,2|2,0:0|0:0,0:0:0:0:
273,230,53222,6,0,L|283:168,1,50,8|0,1:2|0:0,0:0:0:0:
353,248,53436,2,0,L|363:186,1,50,8|0,0:0|0:0,0:0:0:0:
391,65,53650,6,0,B|367:36|367:36|233:67,1,139.999995727539,0|2,1:0|0:0,0:0:0:0:
209,159,53972,1,2,0:0:0:0:
189,151,54079,2,0,P|174:125|179:81,1,50,8|2,1:2|0:0,0:0:0:0:
142,229,54293,2,0,P|113:218|89:181,1,50,2|2,0:0|0:0,0:0:0:0:
236,287,54507,5,8,2:1:0:0:
245,277,54614,1,0,0:0:0:0:
264,280,54721,1,2,0:0:0:0:
274,271,54828,1,0,0:0:0:0:
293,271,54936,2,0,P|301:237|294:191,1,50,8|0,1:2|0:0,0:0:0:0:
232,152,55150,6,0,L|216:25,1,100,2|0,0:0|1:0,0:0:0:0:
321,110,55472,2,0,L|337:-17,1,100,2|0,0:0|0:0,0:0:0:0:
416,195,55793,2,0,P|365:197|365:244,1,100,10|8,1:2|0:0,0:0:0:0:
482,302,56114,2,0,P|454:345|414:321,1,100,2|0,0:0|0:0,0:0:0:0:
325,323,56436,5,2,0:0:0:0:
76,212,56757,1,2,0:0:0:0:
354,106,57079,1,0,1:0:0:0:
255,71,57293,6,0,B|248:45|248:45|257:14,1,50,2|2,0:0|0:0,0:0:0:0:
179,129,57614,2,0,B|126:136|126:136|65:106,2,100,2|2|2,0:0|0:0|0:0,0:0:0:0:
278,209,58257,1,2,0:0:0:0:
198,243,58472,1,2,0:0:0:0:
188,240,58579,1,2,0:0:0:0:
383,314,58793,5,2,0:0:0:0:
407,235,59007,1,2,0:0:0:0:
439,158,59222,1,10,0:0:0:0:
448,157,59329,1,2,0:0:0:0:
283,88,59543,1,2,0:0:0:0:
322,16,59757,1,2,0:0:0:0:
331,15,59864,1,2,0:0:0:0:
230,150,60079,1,10,0:0:0:0:
221,149,60186,1,2,0:0:0:0:
283,88,60400,1,2,0:0:0:0:
300,103,60507,2,0,L|371:108,1,50,2|0,0:0|0:0,0:0:0:0:
401,186,60722,5,2,0:0:0:0:
392,196,60829,1,2,0:0:0:0:
397,214,60936,1,8,1:2:0:0:
389,225,61043,1,2,0:0:0:0:
389,246,61151,1,2,0:0:0:0:
381,257,61258,1,2,0:0:0:0:
383,274,61364,2,0,P|350:274|325:267,1,50,8|0,2:1|0:0,0:0:0:0:
239,307,61579,2,0,P|217:281|207:258,1,50,2|0,0:0|0:0,0:0:0:0:
236,130,61793,6,0,L|346:101,1,69.9999978637696,8|0,1:2|0:0,0:0:0:0:
386,91,62007,1,8,0:0:0:0:
181,19,62222,1,0,1:0:0:0:
60,149,62436,6,0,L|46:65,1,69.9999978637696,2|0,3:0|0:0,0:0:0:0:
165,170,62650,2,0,L|151:86,1,69.9999978637696,2|0,3:0|0:0,0:0:0:0:
270,191,62864,2,0,L|256:107,1,69.9999978637696,2|0,3:0|0:0,0:0:0:0:
336,255,63079,1,2,3:0:0:0:
333,280,63186,1,0,3:0:0:0:
423,224,63400,1,2,3:0:0:0:
412,182,63507,1,0,3:0:0:0:
417,169,63722,1,0,3:0:0:0:
501,82,63936,6,0,P|391:79|273:19,1,239.999992675781,0|8,1:0|1:2,0:0:0:0:
170,122,64579,1,2,0:0:0:0:
151,96,64686,2,0,L|170:30,1,59.9999981689454,2|8,0:0|2:1,0:0:0:0:
46,140,65007,1,0,0:0:0:0:
109,229,65222,2,0,L|252:246,2,119.999996337891,8|2|0,1:2|0:0|1:0,0:0:0:0:
184,103,65864,1,2,0:0:0:0:
192,110,65972,1,2,0:0:0:0:
200,117,66079,2,0,L|322:145,2,119.999996337891,8|2|8,1:2|0:0|2:1,0:0:0:0:
409,328,66829,5,0,0:0:0:0:
409,328,66936,2,0,P|423:258|447:206,1,119.999996337891,8|0,1:2|0:0,0:0:0:0:
511,260,67364,1,0,1:0:0:0:
329,252,67686,1,2,0:0:0:0:
329,252,67793,2,0,P|306:185|300:127,1,119.999996337891,8|0,1:2|0:0,0:0:0:0:
383,142,68222,1,8,2:1:0:0:
221,226,68543,1,2,0:0:0:0:
221,226,68650,2,0,P|168:179|134:132,1,119.999996337891,8|0,1:2|0:0,0:0:0:0:
213,103,69078,1,0,1:0:0:0:
60,356,69507,6,0,L|38:291,1,59.9999981689454,8|0,1:2|0:0,0:0:0:0:
176,347,69722,2,0,L|154:282,1,59.9999981689454,8|0,0:0|0:0,0:0:0:0:
222,218,69936,1,8,2:1:0:0:
253,226,70043,1,8,0:0:0:0:
329,325,70257,1,0,0:0:0:0:
376,338,70364,1,0,1:2:0:0:
193,212,70793,1,0,1:0:0:0:
412,39,71114,5,2,0:0:0:0:
412,39,71221,2,0,P|388:105|381:163,1,119.999996337891,8|0,1:2|0:0,0:0:0:0:
464,149,71649,1,8,2:1:0:0:
304,62,71971,1,2,0:0:0:0:
304,62,72078,2,0,P|250:107|215:154,1,119.999996337891,8|0,1:2|0:0,0:0:0:0:
293,185,72506,1,0,1:0:0:0:
198,29,72828,5,0,0:0:0:0:
198,29,72935,2,0,P|128:41|75:64,1,119.999996337891,8|0,1:2|0:0,0:0:0:0:
128,130,73363,1,8,2:1:0:0:
27,8,73793,1,8,1:2:0:0:
59,309,74007,5,2,0:0:0:0:
79,287,74114,1,2,0:0:0:0:
107,276,74222,1,0,3:0:0:0:
49,193,74436,1,2,0:0:0:0:
65,185,74543,1,2,0:0:0:0:
82,185,74650,1,8,1:2:0:0:
49,89,74864,1,2,0:0:0:0:
60,88,74972,1,2,0:0:0:0:
71,90,75079,6,0,P|110:102|139:102,3,59.9999981689454,8|2|2|2,2:1|0:0|0:0|0:0,0:0:0:0:
202,154,75507,2,0,P|236:131|254:109,1,59.9999981689454,8|0,1:2|0:0,0:0:0:0:
337,96,75722,2,0,P|342:55|337:26,1,59.9999981689454,2|0,0:0|0:0,0:0:0:0:
410,163,75936,1,2,3:0:0:0:
451,170,76043,1,2,3:0:0:0:
355,256,76257,1,2,3:0:0:0:
314,263,76364,1,2,3:0:0:0:
414,349,76579,1,2,3:0:0:0:
414,349,76793,1,8,2:1:0:0:
127,250,77114,5,2,0:0:0:0:
113,248,77222,2,0,B|107:201|107:201|171:271|171:271|164:317,1,179.999994506836,10|0,0:0|0:0,0:0:0:0:
179,324,77650,6,0,P|236:338|264:250,1,119.999996337891,4|0,0:0|0:0,0:0:0:0:
238,225,77971,1,2,0:0:0:0:
235,208,78078,1,8,1:2:0:0:
353,303,78293,1,2,0:0:0:0:
372,289,78400,1,2,0:0:0:0:
382,267,78507,2,0,P|380:200|412:141,1,119.999996337891,8|2,2:1|0:0,0:0:0:0:
431,150,78828,1,2,0:0:0:0:
472,176,78936,1,8,1:2:0:0:
512,97,79150,1,8,2:1:0:0:
377,35,79364,6,8,B|331:72|331:72|256:52,2,119.999996337891,8|10|8,1:2|1:2|1:2,1:2:0:0:
348,149,80007,1,0,0:0:0:0:
185,177,80221,1,8,2:1:0:0:
202,171,80328,1,0,0:0:0:0:
236,267,80543,1,2,0:0:0:0:
271,274,80650,1,8,1:2:0:0:
202,359,80864,1,8,2:1:0:0:
157,376,80971,1,2,0:0:0:0:
110,364,81078,6,0,P|96:303|100:219,1,119.999996337891,0|0,1:2|0:0,0:0:0:0:
40,197,81400,1,2,0:0:0:0:
18,154,81507,2,0,B|45:122|45:122|127:151,1,119.999996337891,8|0,1:2|0:0,0:0:0:0:
309,23,81936,2,0,P|268:52|262:195,1,179.999994506836,8|2,2:1|0:0,0:0:0:0:
263,184,82364,2,0,L|333:197,1,59.9999981689454,8|0,1:2|0:0,0:0:0:0:
336,223,82578,1,0,0:0:0:0:
331,271,82686,1,2,0:0:0:0:
286,289,82793,1,8,0:1:0:0:
307,380,83007,1,0,0:0:0:0:
160,303,83221,6,0,L|139:231,1,59.9999981689454,2|0,3:0|0:0,0:0:0:0:
33,334,83436,2,0,L|12:262,1,59.9999981689454,2|0,3:0|0:0,0:0:0:0:
62,177,83650,1,2,3:0:0:0:
44,174,83757,1,2,3:0:0:0:
148,110,83971,1,2,3:0:0:0:
222,121,84078,1,2,3:0:0:0:
235,104,84293,1,2,3:0:0:0:
283,235,84507,6,0,P|363:238|385:182,1,119.999996337891,4|0,0:0|0:0,0:0:0:0:
448,171,84828,1,2,0:0:0:0:
466,178,84935,1,8,1:2:0:0:
467,309,85150,1,2,0:0:0:0:
481,289,85257,1,2,0:0:0:0:
488,266,85364,1,8,2:1:0:0:
381,328,85578,1,2,0:0:0:0:
376,334,85686,2,0,L|390:377,2,29.9999990844727,2|0|8,0:0|0:0|1:2,0:0:0:0:
294,316,86007,1,8,2:1:0:0:
136,384,86222,5,0,1:2:0:0:
117,294,86436,1,2,0:0:0:0:
117,294,86543,1,2,0:0:0:0:
117,294,86650,1,8,1:2:0:0:
206,276,86864,1,0,0:0:0:0:
278,204,87078,1,8,2:1:0:0:
295,212,87185,1,2,0:0:0:0:
185,140,87400,1,2,0:0:0:0:
149,154,87507,1,8,1:2:0:0:
83,98,87721,1,8,2:1:0:0:
236,3,87935,6,0,P|229:63|301:87,1,119.999996337891,0|0,1:2|0:0,0:0:0:0:
341,133,88257,1,2,0:0:0:0:
387,122,88364,2,0,B|418:157|418:157|385:232,1,119.999996337891,8|0,1:2|0:0,0:0:0:0:
477,377,88793,2,0,P|406:322|319:299,1,179.999994506836,8|2,2:1|0:0,0:0:0:0:
348,343,89221,2,0,L|277:371,1,59.9999981689454,8|0,0:0|0:0,0:0:0:0:
263,359,89435,1,2,0:0:0:0:
224,330,89543,1,2,0:0:0:0:
222,282,89650,1,8,0:1:0:0:
375,165,89864,6,0,L|397:91,1,59.9999981689454,2|0,3:0|0:0,0:0:0:0:
254,151,90078,2,0,L|276:77,1,59.9999981689454,2|0,3:0|0:0,0:0:0:0:
134,138,90293,2,0,L|156:64,1,59.9999981689454,2|0,3:0|0:0,0:0:0:0:
58,195,90507,1,2,3:0:0:0:
86,225,90614,1,2,3:0:0:0:
0,285,90828,1,2,3:0:0:0:
65,319,90935,1,2,3:0:0:0:
82,309,91150,1,2,3:0:0:0:
215,369,91364,6,0,P|206:308|245:244,1,119.999996337891,4|0,0:0|0:0,0:0:0:0:
155,193,91792,1,8,1:2:0:0:
308,211,92007,1,2,0:0:0:0:
324,204,92114,1,2,0:0:0:0:
341,204,92221,1,8,2:1:0:0:
159,56,92542,1,2,0:0:0:0:
115,72,92650,1,8,1:2:0:0:
231,11,92864,5,8,2:1:0:0:
246,21,92971,1,2,0:0:0:0:
261,49,93078,2,0,L|249:107,1,59.9999981689454,0|0,1:2|0:0,0:0:0:0:
108,240,93400,1,2,0:0:0:0:
127,203,93507,2,0,L|183:184,1,59.9999981689454,8|0,1:2|0:0,0:0:0:0:
385,243,93829,1,2,0:0:0:0:
331,245,93936,2,0,L|286:205,2,59.9999981689454,8|2|0,2:1|0:0|0:0,0:0:0:0:
254,346,94257,2,0,L|239:289,1,59.9999981689454,2|0,0:0|1:2,0:0:0:0:
161,365,94578,1,8,2:1:0:0:
20,258,94792,6,0,P|39:210|118:213,1,119.999996337891,0|0,1:2|0:0,0:0:0:0:
174,251,95114,1,2,0:0:0:0:
218,233,95221,2,0,B|236:212|236:212|199:119,1,119.999996337891,8|0,1:2|0:0,0:0:0:0:
331,248,95650,2,0,P|333:167|397:87,1,179.999994506836,8|2,2:1|0:0,0:0:0:0:
350,81,96078,2,0,L|291:74,1,59.9999981689454,8|0,1:2|0:0,0:0:0:0:
276,48,96292,1,0,0:0:0:0:
230,30,96400,1,2,0:0:0:0:
191,58,96507,1,2,0:0:0:0:
105,37,96721,1,0,0:0:0:0:
11,153,96935,6,0,L|27:213,1,59.9999981689454,8|0,1:2|0:0,0:0:0:0:
131,124,97150,2,0,L|147:184,1,59.9999981689454,2|0,3:0|0:0,0:0:0:0:
107,284,97364,1,2,3:0:0:0:
130,289,97471,1,2,3:0:0:0:
259,352,97685,1,2,3:0:0:0:
191,377,97792,1,2,3:0:0:0:
177,368,98007,1,2,3:0:0:0:
297,239,98221,6,0,P|359:251|389:309,1,119.999996337891,4|0,0:0|0:0,0:0:0:0:
355,364,98542,1,2,0:0:0:0:
338,370,98649,1,8,1:2:0:0:
458,334,98864,1,2,0:0:0:0:
475,339,98971,1,2,0:0:0:0:
492,345,99078,1,8,2:1:0:0:
401,158,99400,1,2,0:0:0:0:
409,88,99507,1,8,1:2:0:0:
298,136,99721,5,8,2:1:0:0:
293,118,99828,1,2,0:0:0:0:
262,94,99935,2,0,L|189:107,1,59.9999981689454,0|0,1:2|0:0,0:0:0:0:
246,262,100257,1,2,0:0:0:0:
229,218,100364,2,0,L|159:192,1,59.9999981689454,8|0,1:2|0:0,0:0:0:0:
122,357,100686,1,2,0:0:0:0:
133,307,100793,2,0,L|85:250,2,59.9999981689454,8|2|0,2:1|0:0|0:0,0:0:0:0:
247,346,101114,1,2,0:0:0:0:
247,346,101222,2,0,L|327:323,1,59.9999981689454,8|0,1:2|0:0,0:0:0:0:
206,275,101436,1,8,2:1:0:0:
341,159,101650,6,0,L|266:146,1,69.9999978637696,0|0,1:2|0:0,0:0:0:0:
414,111,101864,2,0,L|357:65,1,69.9999978637696,0|0,3:0|0:0,0:0:0:0:
190,112,102079,2,0,L|265:125,1,69.9999978637696,8|0,1:2|0:0,0:0:0:0:
117,160,102293,2,0,L|174:206,1,69.9999978637696,0|0,3:0|0:0,0:0:0:0:
22,139,102507,5,8,2:1:0:0:
53,235,102722,1,0,3:0:0:0:
99,52,102936,1,8,1:2:0:0:
175,0,103150,1,0,3:0:0:0:
207,37,103257,1,2,0:0:0:0:
256,40,103364,1,0,1:2:0:0:
365,150,103578,6,0,L|345:82,1,69.9999978637696,2|0,3:0|0:0,0:0:0:0:
255,205,103793,2,0,L|235:137,1,69.9999978637696,2|0,3:0|0:0,0:0:0:0:
148,259,104007,2,0,L|128:191,1,69.9999978637696,2|0,3:0|0:0,0:0:0:0:
251,316,104221,5,0,3:0:0:0:
280,323,104328,1,0,3:0:0:0:
310,330,104436,1,0,3:0:0:0:
340,338,104543,1,0,3:0:0:0:
354,353,104650,2,0,L|391:362,6,34.9999989318848,0|0|0|0|0|0|0,3:0|3:0|3:0|3:0|3:0|3:0|3:0,0:0:0:0:
460,328,105079,6,0,P|496:294|457:218,1,119.999996337891,4|0,0:0|0:0,0:0:0:0:
418,181,105400,1,2,0:0:0:0:
402,186,105507,1,8,1:2:0:0:
492,111,105722,1,2,0:0:0:0:
483,89,105829,1,2,0:0:0:0:
464,73,105936,2,0,P|398:57|315:65,1,119.999996337891,8|2,2:1|0:0,0:0:0:0:
329,84,106257,1,2,0:0:0:0:
281,92,106365,1,8,1:2:0:0:
223,27,106579,1,8,2:1:0:0:
107,100,106793,5,0,1:2:0:0:
77,207,107007,1,2,0:0:0:0:
77,207,107114,1,2,0:0:0:0:
77,207,107222,1,8,1:2:0:0:
174,235,107436,1,0,0:0:0:0:
251,172,107650,1,8,2:1:0:0:
269,176,107757,1,2,0:0:0:0:
259,290,107972,1,2,0:0:0:0:
287,283,108079,1,8,1:2:0:0:
114,352,108293,1,8,2:1:0:0:
96,307,108400,1,2,0:0:0:0:
128,272,108507,6,0,P|177:280|265:323,1,119.999996337891,0|0,1:2|0:0,0:0:0:0:
294,364,108829,1,2,0:0:0:0:
333,337,108936,2,0,B|351:299|351:299|293:235,1,119.999996337891,8|0,1:2|0:0,0:0:0:0:
374,69,109365,2,0,P|333:98|327:241,1,179.999994506836,8|2,2:1|0:0,0:0:0:0:
299,242,109793,2,0,L|240:231,1,59.9999981689454,8|0,1:2|0:0,0:0:0:0:
219,210,110007,1,2,0:0:0:0:
206,163,110115,1,2,0:0:0:0:
229,121,110222,1,2,0:0:0:0:
173,48,110436,1,0,0:0:0:0:
89,193,110650,6,0,L|22:179,1,59.9999981689454,8|0,1:2|0:0,0:0:0:0:
101,311,110864,2,0,L|34:297,1,59.9999981689454,2|0,3:0|0:0,0:0:0:0:
187,366,111079,1,2,3:0:0:0:
205,363,111186,1,2,3:0:0:0:
182,263,111400,1,2,3:0:0:0:
256,252,111507,1,2,3:0:0:0:
269,269,111722,1,2,3:0:0:0:
185,124,111936,6,0,P|222:78|313:113,1,119.999996337891,4|0,0:0|0:0,0:0:0:0:
344,129,112257,1,2,0:0:0:0:
362,122,112364,1,8,1:2:0:0:
407,14,112579,1,2,0:0:0:0:
383,19,112686,1,2,0:0:0:0:
362,32,112793,1,8,2:1:0:0:
453,104,113007,1,2,0:0:0:0:
459,109,113115,2,0,L|473:152,2,29.9999990844727,2|0|8,0:0|0:0|1:2,0:0:0:0:
512,54,113436,1,8,2:1:0:0:
420,195,113650,5,0,1:2:0:0:
326,223,113864,1,2,0:0:0:0:
326,223,113972,1,0,0:0:0:0:
326,223,114079,1,8,1:2:0:0:
347,315,114293,1,2,0:0:0:0:
249,365,114507,1,8,2:1:0:0:
269,370,114614,1,2,0:0:0:0:
187,287,114829,1,2,0:0:0:0:
151,301,114936,1,8,1:2:0:0:
60,269,115150,1,8,2:1:0:0:
38,109,115364,6,0,P|75:153|132:133,1,119.999996337891,0|0,1:2|0:0,0:0:0:0:
173,71,115686,1,2,0:0:0:0:
219,86,115793,2,0,B|250:121|250:121|344:93,1,119.999996337891,8|0,1:2|0:0,0:0:0:0:
486,273,116222,2,0,P|415:218|328:195,1,179.999994506836,8|0,2:1|0:0,0:0:0:0:
326,174,116650,2,0,L|255:202,1,59.9999981689454,8|0,1:2|0:0,0:0:0:0:
255,222,116864,1,2,0:0:0:0:
252,270,116972,1,2,0:0:0:0:
287,302,117079,1,0,3:0:0:0:
286,90,117293,6,0,L|308:164,1,59.9999981689454,2|0,3:0|0:0,0:0:0:0:
156,131,117507,2,0,L|178:205,1,59.9999981689454,2|0,3:0|0:0,0:0:0:0:
26,172,117722,2,0,L|48:246,1,59.9999981689454,2|0,3:0|0:0,0:0:0:0:
49,90,117936,1,2,3:0:0:0:
36,70,118043,1,2,3:0:0:0:
160,117,118257,1,2,3:0:0:0:
143,43,118364,1,2,3:0:0:0:
151,32,118579,1,2,3:0:0:0:
246,169,118793,6,0,P|348:197|457:200,1,194.999991073609,4|0,0:0|0:0,0:0:0:0:
446,190,119222,2,0,P|457:129|418:70,1,129.999994049073,8|2,1:2|0:0,0:0:0:0:
397,71,119543,1,2,0:0:0:0:
356,98,119650,1,8,2:1:0:0:
281,52,119864,1,2,0:0:0:0:
200,193,120079,6,0,P|203:96|171:4,1,194.999991073609,8|2,1:2|0:0,0:0:0:0:
154,3,120507,2,0,P|133:31|120:62,1,64.9999970245363,0|0,1:2|0:0,0:0:0:0:
72,133,120722,1,2,0:0:0:0:
78,164,120829,1,2,0:0:0:0:
103,183,120936,1,8,1:2:0:0:
111,293,121150,1,2,0:0:0:0:
108,304,121257,1,2,0:0:0:0:
105,316,121364,1,8,2:1:0:0:
103,327,121472,1,2,0:0:0:0:
34,380,121686,2,0,L|226:341,1,194.999991073609,2|2,0:0|0:0,0:0:0:0:
307,357,122114,5,2,0:0:0:0:
322,374,122222,2,0,P|359:300|377:160,1,194.999991073609,4|0,0:0|0:0,0:0:0:0:
364,178,122650,2,0,P|338:110|392:74,1,129.999994049073,8|2,1:2|0:0,0:0:0:0:
388,50,122972,1,2,0:0:0:0:
356,5,123079,1,8,2:1:0:0:
276,44,123293,1,2,0:0:0:0:
148,4,123507,2,0,P|221:55|300:138,1,194.999991073609,8|2,1:2|0:0,0:0:0:0:
283,157,123936,6,0,P|210:177|202:119,1,129.999994049073,0|2,1:2|0:0,0:0:0:0:
122,115,124257,1,2,0:0:0:0:
122,115,124364,2,0,P|173:206|145:318,1,194.999991073609,8|2,1:2|0:0,0:0:0:0:
185,304,124793,1,8,2:1:0:0:
200,354,124900,1,2,0:0:0:0:
358,289,125114,1,2,0:0:0:0:
454,354,125436,1,2,0:0:0:0:
507,164,125650,6,0,P|493:97|461:21,1,129.999994049073,0|0,1:2|0:0,0:0:0:0:
443,34,125972,1,2,0:0:0:0:
399,54,126079,2,0,P|333:32|252:22,1,129.999994049073,8|0,1:2|0:0,0:0:0:0:
254,44,126400,1,2,0:0:0:0:
249,92,126507,2,0,P|192:130|133:188,1,129.999994049073,8|0,2:1|0:0,0:0:0:0:
153,197,126829,1,2,0:0:0:0:
188,232,126936,2,0,P|182:300|192:382,1,129.999994049073,8|0,1:2|0:0,0:0:0:0:
213,369,127257,5,2,0:0:0:0:
219,359,127364,2,0,P|183:307|106:327,1,129.999994049073,0|0,1:2|0:0,0:0:0:0:
97,310,127686,1,2,0:0:0:0:
89,300,127793,2,0,P|95:237|172:217,1,129.999994049073,8|2,1:2|0:0,0:0:0:0:
210,155,128114,1,2,0:0:0:0:
217,145,128222,1,8,2:1:0:0:
213,116,128329,1,2,0:0:0:0:
287,196,128543,1,2,0:0:0:0:
283,225,128650,1,8,1:2:0:0:
421,86,128864,1,2,0:0:0:0:
421,86,128972,1,2,0:0:0:0:
421,86,129078,6,0,P|367:42|295:3,1,129.999994049073,0|0,1:2|0:0,0:0:0:0:
283,20,129400,1,2,0:0:0:0:
261,63,129507,2,0,P|197:87|126:130,1,129.999994049073,8|0,1:2|0:0,0:0:0:0:
134,149,129828,1,2,0:0:0:0:
161,190,129936,2,0,P|150:257|152:339,1,129.999994049073,8|0,2:1|0:0,0:0:0:0:
170,340,130257,1,2,0:0:0:0:
176,348,130364,2,0,P|238:334|209:276,1,129.999994049073,8|0,1:2|0:0,0:0:0:0:
275,186,130793,5,2,3:0:0:0:
300,183,130900,1,0,3:0:0:0:
325,179,131007,1,0,3:0:0:0:
349,176,131114,1,0,3:0:0:0:
368,192,131222,5,2,3:0:0:0:
381,194,131329,1,0,3:0:0:0:
395,196,131436,1,0,3:0:0:0:
409,198,131543,1,0,3:0:0:0:
446,176,131650,5,2,3:0:0:0:
455,151,131757,1,2,3:0:0:0:
446,126,131864,1,2,3:0:0:0:
413,148,131972,5,0,1:2:0:0:
54,77,132293,1,0,1:2:0:0:
111,159,132507,1,0,3:0:0:0:
200,175,146222,6,0,P|275:154|321:148,1,120,0|0,1:2|0:0,0:0:0:0:
332,160,146650,1,8,1:2:0:0:
281,75,146864,1,2,0:0:0:0:
285,63,146972,1,2,0:0:0:0:
293,54,147079,1,8,2:1:0:0:
119,165,147507,5,8,1:2:0:0:
148,235,147722,1,2,0:0:0:0:
100,317,147936,1,8,2:1:0:0:
293,368,148257,5,0,0:0:0:0:
301,351,148364,2,0,L|288:300,1,40,8|0,1:2|0:0,0:0:0:0:
386,331,148579,2,0,L|373:280,1,40,8|0,0:0|0:0,0:0:0:0:
449,239,148793,1,8,2:1:0:0:
441,222,148900,2,0,L|454:171,1,40,8|0,1:2|0:0,0:0:0:0:
301,351,149222,6,0,L|288:300,1,40,8|0,1:2|0:0,0:0:0:0:
332,187,149650,1,8,2:1:0:0:
301,351,150079,6,0,L|288:300,1,40,8|0,1:2|0:0,0:0:0:0:
228,266,150293,1,0,0:0:0:0:
332,187,150507,1,8,2:1:0:0:
301,351,150936,6,0,L|288:300,1,40,8|0,1:2|0:0,0:0:0:0:
228,266,151150,1,2,0:0:0:0:
125,320,151364,1,8,2:1:0:0:
301,351,151792,6,0,L|288:300,1,40,8|0,1:2|0:0,0:0:0:0:
386,331,152007,2,0,L|373:280,1,40,8|0,0:0|0:0,0:0:0:0:
449,239,152221,1,8,2:1:0:0:
441,222,152328,2,0,L|454:171,1,40,8|0,1:2|0:0,0:0:0:0:
301,351,152650,2,0,L|288:300,1,40,8|0,1:2|0:0,0:0:0:0:
228,266,152864,2,0,L|197:271,3,26.6666666666667,2|2|2|8,0:0|0:0|0:0|2:1,0:0:0:0:
93,120,153507,6,0,L|155:126,1,40,8|0,1:2|0:0,0:0:0:0:
275,44,153936,1,8,2:1:0:0:
93,120,154364,6,0,L|155:126,1,40,8|0,1:2|0:0,0:0:0:0:
194,187,154579,1,2,0:0:0:0:
275,44,154793,1,8,2:1:0:0:
196,26,155007,1,0,0:0:0:0:
93,120,155222,6,0,L|155:126,1,40,8|0,1:2|0:0,0:0:0:0:
67,204,155436,2,0,L|129:210,1,40,8|0,0:0|0:0,0:0:0:0:
28,277,155650,1,8,2:1:0:0:
41,288,155757,2,0,L|103:294,1,40,8|0,1:2|0:0,0:0:0:0:
93,120,156079,2,0,L|155:126,1,40,8|0,1:2|0:0,0:0:0:0:
41,288,156507,6,0,L|116:297,1,50,0|0,3:0|0:0,0:0:0:0:
147,352,156722,2,0,L|222:361,1,50,2|0,0:0|0:0,0:0:0:0:
384,262,156936,2,0,L|309:271,1,50,8|0,1:2|0:0,0:0:0:0:
278,326,157151,2,0,L|203:335,1,50,2|0,0:0|0:0,0:0:0:0:
41,288,157364,6,0,L|116:297,1,50,8|0,2:1|0:0,0:0:0:0:
147,352,157579,2,0,L|222:361,1,50,2|0,0:0|0:0,0:0:0:0:
384,262,157793,2,0,L|309:271,1,50,8|0,1:2|0:0,0:0:0:0:
238,217,158007,1,2,0:0:0:0:
215,190,158114,1,2,0:0:0:0:
217,154,158222,5,2,3:0:0:0:
236,152,158329,1,0,3:0:0:0:
255,150,158436,1,0,3:0:0:0:
274,148,158543,1,0,3:0:0:0:
296,128,158650,5,2,3:0:0:0:
310,129,158757,1,0,3:0:0:0:
324,131,158864,1,0,3:0:0:0:
338,132,158971,1,0,3:0:0:0:
373,148,159079,5,2,3:0:0:0:
374,157,159186,1,2,3:0:0:0:
369,165,159293,1,2,3:0:0:0:
330,164,159400,5,2,1:2:0:0:
53,302,159722,1,2,1:2:0:0:
135,344,159936,1,0,1:3:0:0:
50,274,161114,6,0,L|61:239,2,25,2|0|2,0:0|0:0|0:0,0:0:0:0:
158,300,161436,1,2,0:0:0:0:
90,379,161650,1,2,3:0:0:0:
90,379,162936,5,2,0:0:0:0:
155,255,163150,1,2,0:0:0:0:
153,262,163257,1,2,0:0:0:0:
150,269,163364,2,0,P|174:261|205:231,3,50,0|0|0|0,3:0|3:0|3:0|3:0,0:0:0:0:
278,235,163793,2,0,P|287:210|283:168,3,50,2|0|0|0,3:0|3:0|3:0|3:0,0:0:0:0:
219,126,164222,5,2,3:0:0:0:
215,106,164329,1,0,3:0:0:0:
212,86,164436,1,0,3:0:0:0:
208,66,164543,1,0,3:0:0:0:
229,46,164650,5,2,3:0:0:0:
232,30,164757,1,0,3:0:0:0:
234,15,164864,1,0,3:0:0:0:
237,0,164971,1,0,3:0:0:0:
268,12,165079,5,2,3:2:0:0:
268,16,165186,1,2,3:2:0:0:
269,20,165293,1,2,3:2:0:0:
270,24,165400,1,2,3:2:0:0:
271,28,165507,1,2,3:2:0:0:
272,32,165614,1,2,3:2:0:0:
273,36,165722,1,2,3:2:0:0:
273,40,165829,1,2,3:2:0:0:
299,57,165936,5,0,3:2:0:0:
299,57,166043,1,0,3:2:0:0:
360,295,166257,6,0,L|174:266,1,150.000005722046,2|0,1:2|0:0,0:0:0:0:
377,276,166579,2,0,L|337:212,1,75.0000028610231,0|0,1:2|0:0,0:0:0:0:
482,239,166793,6,0,P|498:184|505:102,1,129.999994049073,4|0,0:0|0:0,0:0:0:0:
436,64,167114,1,2,0:0:0:0:
425,66,167221,1,8,1:2:0:0:
328,25,167436,1,0,0:0:0:0:
316,48,167543,1,2,0:0:0:0:
318,73,167650,2,0,P|294:127|220:105,1,129.999994049073,8|2,2:1|0:0,0:0:0:0:
204,119,167971,1,2,0:0:0:0:
162,146,168079,1,8,1:2:0:0:
83,95,168293,1,8,2:1:0:0:
15,238,168507,6,0,B|67:277|67:277|129:258,2,129.999994049073,0|2|8,1:2|0:0|1:2,0:0:0:0:
54,357,169150,1,0,0:0:0:0:
170,328,169364,1,8,2:1:0:0:
187,334,169471,1,2,0:0:0:0:
270,229,169686,1,2,0:0:0:0:
231,236,169793,1,8,1:2:0:0:
304,346,170007,1,8,2:1:0:0:
421,223,170221,6,0,P|413:158|378:77,1,129.999994049073,0|0,1:2|0:0,0:0:0:0:
310,82,170543,1,2,0:0:0:0:
286,55,170650,2,0,B|259:23|259:23|156:49,1,129.999994049073,8|0,1:2|0:0,0:0:0:0:
0,0,171079,2,0,P|41:29|103:170,1,194.999991073609,8|2,2:1|0:0,0:0:0:0:
114,179,171507,2,0,L|194:194,1,64.9999970245363,8|0,1:2|0:0,0:0:0:0:
193,213,171721,1,0,0:0:0:0:
193,265,171829,1,2,0:0:0:0:
145,286,171936,1,2,0:0:0:0:
269,350,172150,6,0,L|341:362,1,64.9999970245363,2|0,3:2|0:0,0:0:0:0:
274,233,172364,2,0,L|346:245,1,64.9999970245363,2|0,3:0|0:0,0:0:0:0:
279,116,172579,2,0,L|351:128,1,64.9999970245363,2|0,3:0|0:0,0:0:0:0:
423,177,172793,1,2,3:0:0:0:
441,174,172900,1,2,3:0:0:0:
503,59,173114,1,2,3:0:0:0:
431,45,173221,1,2,3:0:0:0:
420,58,173436,1,2,3:0:0:0:
259,10,173650,6,0,P|203:20|198:107,1,129.999994049073,4|0,0:0|0:0,0:0:0:0:
245,131,173971,1,2,0:0:0:0:
265,127,174078,1,8,1:2:0:0:
119,177,174293,1,2,0:0:0:0:
143,184,174400,1,2,0:0:0:0:
167,192,174507,2,0,P|195:221|173:331,1,129.999994049073,8|2,2:1|0:0,0:0:0:0:
137,362,174829,1,2,0:0:0:0:
144,380,174936,1,8,1:2:0:0:
296,283,175150,1,8,2:1:0:0:
346,296,175257,1,2,0:0:0:0:
370,341,175364,6,0,P|388:260|420:200,1,129.999994049073,0|2,1:2|0:0,0:0:0:0:
397,125,175686,1,2,0:0:0:0:
346,123,175793,2,0,P|407:179|443:236,1,129.999994049073,8|2,1:2|0:0,0:0:0:0:
504,181,176114,1,2,0:0:0:0:
511,168,176222,2,0,P|511:127|503:86,2,64.9999970245363,8|2|0,2:1|0:0|0:0,0:0:0:0:
512,268,176543,1,2,0:0:0:0:
503,281,176650,1,8,1:2:0:0:
395,297,176864,1,8,2:1:0:0:
194,384,177078,6,0,P|204:321|183:248,1,129.999994049073,0|0,1:2|0:0,0:0:0:0:
233,194,177400,1,2,0:0:0:0:
279,205,177507,2,0,B|310:170|310:170|271:85,1,129.999994049073,8|0,1:2|0:0,0:0:0:0:
506,31,177936,2,0,P|410:51|406:164,1,194.999991073609,8|2,2:1|0:0,0:0:0:0:
420,141,178364,2,0,L|404:224,1,64.9999970245363,8|0,1:2|0:0,0:0:0:0:
424,227,178578,1,2,0:0:0:0:
426,275,178685,1,2,0:0:0:0:
465,304,178793,1,8,0:1:0:0:
404,371,179007,1,2,3:2:0:0:
301,272,179222,6,0,L|290:207,1,64.9999970245363,2|0,3:0|0:0,0:0:0:0:
171,303,179436,2,0,L|160:238,1,64.9999970245363,2|0,3:0|0:0,0:0:0:0:
83,282,179650,1,2,3:0:0:0:
60,277,179757,1,2,3:0:0:0:
12,185,179971,1,2,3:0:0:0:
83,158,180078,1,2,3:0:0:0:
102,170,180293,1,2,3:0:0:0:
236,39,180507,6,0,P|203:68|206:168,1,129.999994049073,4|0,0:0|0:0,0:0:0:0:
102,57,180935,1,8,1:2:0:0:
274,136,181150,1,8,2:1:0:0:
283,122,181257,1,2,0:0:0:0:
286,105,181364,1,2,0:0:0:0:
345,283,181685,1,2,0:0:0:0:
389,299,181793,1,8,1:2:0:0:
247,312,182007,1,8,2:1:0:0:
197,325,182114,1,2,0:0:0:0:
173,370,182221,6,0,P|155:289|123:229,1,129.999994049073,0|2,1:2|0:0,0:0:0:0:
146,154,182543,1,2,0:0:0:0:
197,152,182650,2,0,P|135:208|99:265,1,129.999994049073,8|2,1:2|1:2,1:2:0:0:
28,274,182971,1,2,0:0:0:0:
21,287,183079,2,0,P|21:328|29:369,2,64.9999970245363,8|2|0,2:1|0:0|0:0,0:0:0:0:
44,189,183400,1,2,0:0:0:0:
32,175,183507,1,8,1:2:0:0:
74,95,183722,1,8,2:1:0:0:
180,202,183936,6,0,L|272:217,1,69.9999978637696,0|0,1:2|0:0,0:0:0:0:
214,286,184150,2,0,L|292:320,1,69.9999978637696,8|0,0:1|0:0,0:0:0:0:
382,220,184364,2,0,L|458:273,1,69.9999978637696,8|0,1:2|0:0,0:0:0:0:
375,310,184578,2,0,L|430:374,1,69.9999978637696,8|0,0:1|0:0,0:0:0:0:
290,333,184793,1,8,2:1:0:0:
294,241,185007,1,8,0:1:0:0:
409,136,185222,1,8,1:2:0:0:
363,54,185436,1,8,0:1:0:0:
314,48,185543,1,2,0:0:0:0:
277,80,185650,1,8,0:1:0:0:
65,193,185864,6,0,L|49:111,1,69.9999978637696,2|0,3:0|0:0,0:0:0:0:
214,227,186079,2,0,L|198:145,1,69.9999978637696,2|0,3:0|0:0,0:0:0:0:
363,261,186293,2,0,L|347:179,1,69.9999978637696,2|0,3:0|0:0,0:0:0:0:
281,336,186507,1,0,3:0:0:0:
239,342,186614,1,0,3:0:0:0:
197,349,186722,1,0,3:0:0:0:
155,356,186829,1,0,3:0:0:0:
115,333,186936,2,0,L|128:283,5,46.6666652425131,2|2|2|2|2|2,3:0|3:0|3:0|3:0|3:0|3:0,3:0:0:0:
71,231,187364,5,4,0:0:0:0:
224,201,187579,1,2,0:0:0:0:
64,106,187793,5,0,3:0:0:0:
149,68,188007,1,2,0:0:0:0:
31,11,188222,5,0,3:0:0:0:
52,118,188436,1,2,0:0:0:0:
38,116,188543,1,2,0:0:0:0:
24,114,188650,1,0,3:0:0:0:
19,13,188864,1,2,0:0:0:0:
186,194,189079,5,0,3:0:0:0:
283,140,189364,1,2,0:0:0:0:
269,97,189507,1,0,3:0:0:0:
265,250,189793,1,2,0:0:0:0:
270,228,189936,1,0,3:0:0:0:
378,355,190257,5,0,0:0:0:0:
378,355,190364,1,0,3:0:0:0:
457,326,190579,1,0,3:0:0:0:
186,194,190793,5,0,3:0:0:0:
54,321,191079,1,2,0:0:0:0:
107,293,191222,1,0,3:0:0:0:
15,172,191507,1,2,0:0:0:0:
64,161,191650,1,0,3:0:0:0:
18,29,191936,1,2,0:0:0:0:
57,36,192079,1,0,3:0:0:0:
231,121,192364,5,2,0:0:0:0:
224,94,192507,1,0,3:0:0:0:
336,164,192793,1,2,0:0:0:0:
338,141,192936,1,0,3:0:0:0:
414,238,193222,1,2,0:0:0:0:
423,227,193364,1,0,3:0:0:0:
298,354,193793,6,0,P|297:326|306:301,1,37.5000014305115,0|0,3:0|0:0,0:0:0:0:
210,339,194007,2,0,P|209:311|218:286,1,37.5000014305115,0|0,3:0|0:0,0:0:0:0:
146,242,194222,5,4,0:0:0:0:
64,274,194436,1,2,0:0:0:0:
156,246,194650,1,2,0:0:0:0:
74,278,194864,1,2,0:0:0:0:
18,211,195079,1,2,0:0:0:0:
99,173,195293,1,2,0:0:0:0:
103,158,195400,1,2,0:0:0:0:
101,143,195507,1,2,0:0:0:0:
13,198,195722,1,2,0:0:0:0:
156,246,195936,6,0,L|267:264,1,100.000003814697,2|2,0:0|0:0,0:0:0:0:
266,278,196364,2,0,L|377:296,1,100.000003814697,2|2,0:0|0:0,0:0:0:0:
379,307,196793,1,2,0:0:0:0:
346,14,197650,5,2,0:0:0:0:
414,144,197936,1,2,0:0:0:0:
418,108,198079,1,2,0:0:0:0:
288,161,198364,1,2,0:0:0:0:
284,132,198507,1,2,0:0:0:0:
174,201,198793,1,2,0:0:0:0:
169,180,198936,1,2,0:0:0:0:
107,288,199222,5,2,0:0:0:0:
105,302,199364,1,2,0:0:0:0:
198,309,199650,1,2,0:0:0:0:
197,318,199793,1,2,0:0:0:0:
289,330,200079,1,2,0:0:0:0:
288,336,200222,1,2,0:0:0:0:
370,346,201079,6,0,P|367:280|388:184,1,150.000005722046,0|8,3:0|0:0,0:0:0:0:
465,167,201722,1,0,0:0:0:0:
319,128,201936,1,0,3:0:0:0:
315,113,202043,1,2,0:0:0:0:
311,98,202150,1,2,0:0:0:0:
241,159,202364,1,8,0:0:0:0:
239,173,202472,1,2,0:0:0:0:
155,147,202685,1,2,0:0:0:0:
153,161,202793,1,0,3:0:0:0:
69,135,203007,1,0,0:0:0:0:
69,135,203222,1,8,0:0:0:0:
141,249,203436,5,2,0:0:0:0:
137,274,203543,1,2,0:0:0:0:
132,299,203650,1,0,3:0:0:0:
229,266,204079,1,8,0:0:0:0:
317,283,204507,1,0,3:0:0:0:
317,283,204722,2,0,P|350:284|385:323,2,75.0000028610231,0|8|2,0:0|0:0|0:0,0:0:0:0:
437,217,205364,2,0,P|461:238|463:291,1,75.0000028610231,0|0,3:0|0:0,0:0:0:0:
429,384,205793,1,8,0:0:0:0:
429,384,206007,1,0,0:0:0:0:
305,271,206222,6,0,L|216:281,2,75.0000028610231,0|0|8,3:0|0:0|0:0,0:0:0:0:
366,209,206864,1,2,0:0:0:0:
369,194,206972,1,2,0:0:0:0:
383,112,207186,1,2,0:0:0:0:
386,97,207294,1,2,0:0:0:0:
266,140,207507,1,8,0:0:0:0:
269,155,207614,1,2,0:0:0:0:
272,170,207722,1,2,0:0:0:0:
258,299,207936,6,0,P|213:282|96:266,1,150.000005722046,0|8,3:0|0:0,0:0:0:0:
35,174,208579,2,0,L|10:180,2,18.7500007152558,2|0|2,0:0|0:0|0:0,0:0:0:0:
101,132,208793,1,0,3:0:0:0:
114,137,208900,1,2,0:0:0:0:
127,142,209007,1,2,0:0:0:0:
246,138,209222,1,8,0:0:0:0:
259,155,209329,1,2,0:0:0:0:
272,172,209436,1,2,0:0:0:0:
376,301,209650,5,0,3:0:0:0:
378,286,209757,1,2,0:0:0:0:
278,286,209972,1,2,0:0:0:0:
280,271,210079,1,8,0:0:0:0:
176,320,210293,5,2,0:0:0:0:
180,345,210400,1,2,0:0:0:0:
185,370,210507,1,0,3:0:0:0:
88,337,210936,1,8,0:0:0:0:
0,354,211364,1,0,3:0:0:0:
65,253,211579,6,0,P|53:216|21:176,2,75.0000028610231,0|8|2,0:0|0:0|0:0,0:0:0:0:
138,276,212114,1,2,0:0:0:0:
147,268,212222,1,0,3:0:0:0:
270,361,212650,1,8,0:0:0:0:
334,309,212864,1,0,0:0:0:0:
484,356,213079,5,0,3:0:0:0:
484,356,213186,1,2,0:0:0:0:
484,356,213293,1,2,0:0:0:0:
475,277,213507,5,8,0:0:0:0:
466,198,213722,5,2,0:0:0:0:
466,198,213829,1,2,0:0:0:0:
457,120,214043,5,2,0:0:0:0:
457,120,214150,1,2,0:0:0:0:
448,41,214364,5,8,0:0:0:0:
448,41,214578,1,0,0:0:0:0:
322,155,214793,6,0,P|280:124|169:90,1,150,0|0,3:0|0:0,0:0:0:0:
111,123,215222,2,0,L|98:62,1,50,8|0,1:2|0:0,0:0:0:0:
166,184,215436,1,2,0:0:0:0:
185,187,215543,1,2,0:0:0:0:
204,191,215650,1,0,3:0:0:0:
223,195,215757,1,2,0:0:0:0:
111,123,215972,1,0,0:0:0:0:
111,123,216079,2,0,L|100:63,1,50,8|0,1:2|0:0,0:0:0:0:
94,273,216507,5,0,3:0:0:0:
111,123,216936,2,0,L|100:63,1,50,8|0,1:2|0:0,0:0:0:0:
185,169,217150,1,2,0:0:0:0:
204,171,217257,1,2,0:0:0:0:
314,178,217472,1,2,0:0:0:0:
295,176,217579,1,2,0:0:0:0:
111,123,217793,2,0,L|100:63,1,50,8|0,1:2|0:0,0:0:0:0:
94,273,218222,5,0,3:0:0:0:
189,354,218436,1,2,0:0:0:0:
264,330,218650,1,8,1:2:0:0:
339,306,218864,1,2,0:0:0:0:
358,309,218972,1,2,0:0:0:0:
432,213,219186,1,2,0:0:0:0:
413,216,219294,1,2,0:0:0:0:
334,202,219507,1,8,1:2:0:0:
254,185,219722,1,0,0:0:0:0:
355,97,219936,5,0,3:0:0:0:
248,202,220364,2,0,L|266:258,1,50,8|0,1:2|0:0,0:0:0:0:
178,154,220579,1,2,0:0:0:0:
180,134,220686,1,2,0:0:0:0:
292,319,221007,1,0,0:0:0:0:
248,202,221222,2,0,L|266:258,1,50,8|0,1:2|0:0,0:0:0:0:
489,88,221650,6,0,P|420:82|341:36,1,150,0|0,3:0|0:0,0:0:0:0:
273,66,222079,2,0,L|261:128,1,50,8|0,1:2|0:0,0:0:0:0:
161,82,222293,2,0,L|169:114,1,25,2|0,0:0|0:0,0:0:0:0:
144,130,222400,1,2,0:0:0:0:
124,127,222507,1,0,3:0:0:0:
104,124,222614,1,2,0:0:0:0:
83,121,222722,1,2,0:0:0:0:
0,247,222936,6,0,L|152:217,1,150,8|0,1:2|0:0,0:0:0:0:
147,217,223364,2,0,P|202:249|197:289,1,100,0|0,3:0|0:0,0:0:0:0:
301,146,223793,2,0,L|358:162,1,50,8|0,1:2|0:0,0:0:0:0:
250,79,224007,1,2,0:0:0:0:
255,59,224114,1,0,0:0:0:0:
155,59,224329,1,2,0:0:0:0:
160,39,224436,1,2,0:0:0:0:
301,146,224650,2,0,L|358:162,1,50,8|0,1:2|0:0,0:0:0:0:
204,290,225079,5,0,3:0:0:0:
301,146,225507,2,0,L|358:162,1,50,8|0,1:2|0:0,0:0:0:0:
231,191,225722,1,2,0:0:0:0:
234,210,225829,1,2,0:0:0:0:
301,146,226364,2,0,L|358:162,1,50,8|0,1:2|0:0,0:0:0:0:
82,47,226793,5,0,3:0:0:0:
82,47,227222,1,8,0:0:0:0:
82,47,227436,1,8,0:0:0:0:
82,47,228079,1,8,0:0:0:0:
203,208,228507,6,0,P|265:184|369:189,1,150,0|0,3:0|0:0,0:0:0:0:
429,167,228936,2,0,L|453:110,1,50,8|0,1:2|0:0,0:0:0:0:
463,238,229150,1,2,0:0:0:0:
467,257,229257,1,2,0:0:0:0:
471,276,229364,1,0,3:0:0:0:
475,295,229472,1,2,0:0:0:0:
379,366,229686,1,2,0:0:0:0:
379,366,229793,2,0,P|365:302|299:349,1,150,8|2,1:2|0:0,0:0:0:0:
218,285,230222,1,0,3:0:0:0:
214,265,230329,1,2,0:0:0:0:
211,245,230436,1,2,0:0:0:0:
89,173,230650,6,0,L|25:158,1,50,8|0,1:2|0:0,0:0:0:0:
145,105,230864,1,2,0:0:0:0:
164,101,230972,1,2,0:0:0:0:
183,97,231079,1,0,3:0:0:0:
202,93,231186,1,2,0:0:0:0:
89,173,231507,2,0,P|91:237|122:322,1,150,8|2,1:2|0:0,0:0:0:0:
119,317,231936,6,0,P|171:304|197:338,1,100,0|0,3:0|0:0,0:0:0:0:
265,375,232257,1,2,0:0:0:0:
277,366,232364,1,8,1:2:0:0:
325,269,232579,1,2,0:0:0:0:
343,286,232686,1,2,0:0:0:0:
365,296,232793,1,0,3:0:0:0:
389,301,232900,1,2,0:0:0:0:
457,374,233114,1,2,0:0:0:0:
457,374,233222,2,0,P|430:289|440:205,1,150,8|2,1:2|0:0,0:0:0:0:
499,187,233650,5,0,3:0:0:0:
413,141,233864,1,2,0:0:0:0:
286,207,234079,2,0,L|297:268,1,50,8|0,1:2|0:0,0:0:0:0:
220,158,234293,1,2,0:0:0:0:
222,138,234400,1,2,0:0:0:0:
224,118,234507,1,0,3:0:0:0:
227,98,234614,1,2,0:0:0:0:
286,207,234936,2,0,L|297:268,1,50,8|0,1:2|0:0,0:0:0:0:
220,158,235150,1,2,0:0:0:0:
31,276,235364,6,0,P|110:280|167:344,1,150,0|0,3:0|0:0,0:0:0:0:
240,310,235793,2,0,L|297:330,1,50,8|0,1:2|0:0,0:0:0:0:
212,232,236007,1,2,0:0:0:0:
209,207,236114,1,2,0:0:0:0:
212,182,236222,1,0,3:0:0:0:
220,158,236329,1,2,0:0:0:0:
328,89,236543,1,2,0:0:0:0:
328,89,236650,2,0,P|288:127|206:35,1,200,8|0,1:2|3:0,0:0:0:0:
100,139,237293,5,2,0:0:0:0:
85,135,237400,1,2,0:0:0:0:
70,131,237507,2,0,L|64:66,1,50,8|0,1:2|0:0,0:0:0:0:
4,195,237722,1,2,0:0:0:0:
7,219,237829,1,2,0:0:0:0:
17,241,237936,1,0,3:0:0:0:
32,260,238043,1,2,0:0:0:0:
2,369,238257,1,2,0:0:0:0:
2,369,238364,2,0,P|30:308|108:318,1,150,8|2,1:2|0:0,0:0:0:0:
103,313,238793,6,0,L|212:295,1,100,0|0,3:0|0:0,0:0:0:0:
306,335,239114,1,2,0:0:0:0:
306,335,239222,2,0,L|289:385,1,50,8|0,1:2|0:0,0:0:0:0:
383,294,239436,1,2,0:0:0:0:
391,270,239543,1,2,0:0:0:0:
391,245,239650,1,0,3:0:0:0:
383,221,239757,1,2,0:0:0:0:
491,189,239972,1,2,0:0:0:0:
491,189,240079,2,0,P|455:134|365:113,1,150,8|2,1:2|0:0,0:0:0:0:
309,164,240507,1,0,3:0:0:0:
289,168,240614,1,2,0:0:0:0:
269,172,240722,1,2,0:0:0:0:
141,109,240936,6,0,L|154:37,1,50,8|0,1:1|0:0,0:0:0:0:
19,110,241150,2,0,L|32:38,1,50,2|2,0:0|0:0,0:0:0:0:
63,182,241364,1,0,3:0:0:0:
82,187,241472,1,2,0:0:0:0:
101,192,241579,1,2,0:0:0:0:
141,305,241793,1,8,1:2:0:0:
23,279,242007,1,2,0:0:0:0:
199,215,242222,6,0,P|280:235|380:193,1,179.999994506836,0|0,3:0|0:0,0:0:0:0:
407,129,242650,2,0,L|391:70,1,59.9999981689454,8|0,1:2|0:0,0:0:0:0:
480,189,242864,1,2,0:0:0:0:
480,189,242972,1,2,0:0:0:0:
480,189,243079,2,0,P|497:266|410:299,1,179.999994506836,0|0,3:0|0:0,0:0:0:0:
417,301,243507,2,0,P|331:343|228:344,1,179.999994506836,8|2,1:2|0:0,0:0:0:0:
200,284,243936,5,0,3:0:0:0:
100,330,244150,1,2,0:0:0:0:
89,333,244257,1,2,0:0:0:0:
77,335,244364,1,8,1:2:0:0:
50,214,244579,1,2,0:0:0:0:
85,220,244686,1,2,0:0:0:0:
120,226,244793,2,0,B|87:131|173:143|141:42,1,179.999994506836,0|0,3:0|0:0,0:0:0:0:
144,55,245222,2,0,P|214:78|243:34,1,119.999996337891,8|2,1:2|1:2,1:2:0:0:
296,182,245650,6,0,P|368:156|479:162,1,179.999994506836,0|0,3:0|0:0,0:0:0:0:
478,244,246079,2,0,L|417:281,1,59.9999981689454,8|0,1:2|0:0,0:0:0:0:
492,356,246293,1,2,0:0:0:0:
492,356,246400,1,2,0:0:0:0:
492,356,246507,2,0,P|401:363|299:340,1,179.999994506836,0|0,3:0|0:0,0:0:0:0:
253,289,246936,1,8,1:2:0:0:
256,271,247043,1,2,0:0:0:0:
259,253,247150,1,2,0:0:0:0:
154,346,247364,5,0,3:0:0:0:
87,274,247579,1,2,0:0:0:0:
4,324,247793,1,8,1:2:0:0:
84,269,248007,1,2,0:0:0:0:
23,193,248222,1,0,3:0:0:0:
26,175,248329,1,2,0:0:0:0:
29,157,248436,1,2,0:0:0:0:
84,269,248650,2,0,P|138:212|189:94,1,179.999994506836,8|2,1:2|0:0,0:0:0:0:
115,70,249079,6,0,B|157:98|157:98|291:48,1,179.999994506836,0|0,3:0|0:0,0:0:0:0:
344,110,249507,2,0,L|407:125,1,59.9999981689454,8|0,1:2|0:0,0:0:0:0:
282,168,249721,1,2,0:0:0:0:
282,168,249829,1,2,0:0:0:0:
282,168,249936,2,0,P|265:245|352:278,1,179.999994506836,0|0,3:0|0:0,0:0:0:0:
400,336,250364,1,8,1:2:0:0:
417,339,250472,1,2,0:0:0:0:
434,342,250579,1,2,0:0:0:0:
311,384,250793,5,0,3:0:0:0:
212,312,251007,1,2,0:0:0:0:
212,312,251114,1,2,0:0:0:0:
212,312,251222,2,0,B|102:292|145:371|27:368,1,179.999994506836,8|2,1:2|0:0,0:0:0:0:
0,308,251650,1,0,3:0:0:0:
45,233,251864,1,0,0:0:0:0:
0,117,252079,2,0,B|-11:75|15:38|99:40|168:73,1,179.999994506836,8|2,1:2|0:0,0:0:0:0:
196,123,252507,5,0,3:0:0:0:
335,67,252722,1,0,3:0:0:0:
329,43,252829,1,2,0:0:0:0:
323,19,252936,1,8,1:2:0:0:
296,174,253150,1,0,3:0:0:0:
335,67,253364,1,2,3:0:0:0:
329,43,253471,1,2,0:0:0:0:
323,19,253578,1,2,3:0:0:0:
447,109,253793,1,8,1:2:0:0:
423,201,254007,1,0,3:0:0:0:
494,312,254222,5,2,3:0:0:0:
476,314,254329,1,0,3:0:0:0:
458,316,254436,1,0,3:0:0:0:
440,319,254543,1,0,3:0:0:0:
426,334,254650,5,2,3:0:0:0:
408,336,254757,1,0,3:0:0:0:
390,338,254864,1,0,3:0:0:0:
372,341,254971,1,0,3:0:0:0:
358,356,255079,5,2,3:0:0:0:
328,352,255186,1,0,3:0:0:0:
307,330,255293,1,0,3:0:0:0:
303,300,255400,1,0,3:0:0:0:
322,277,255507,1,2,3:0:0:0:
342,255,255614,1,0,3:0:0:0:
350,226,255722,1,0,3:0:0:0:
344,196,255829,6,0,B|342:180|342:180|327:164,8,29.9999990844727,0|0|0|0|0|0|0|0|0,3:0|0:0|0:0|0:0|0:0|0:0|0:0|0:0|0:0,0:0:0:0:
433,224,256364,2,0,B|436:239|436:239|429:256,9,19.9999993896485
480,151,256793,6,0,L|484:125,12,14.9999995422363
474,121,257222,6,0,P|445:109|438:71,1,67.4999979400635,2|0,0:0|0:0,0:0:0:0:
436,76,257650,6,0,L|280:66,1,129.999994049073,4|0,0:0|0:0,0:0:0:0:
254,123,257971,1,2,0:0:0:0:
262,139,258078,1,8,1:2:0:0:
180,41,258293,1,2,0:0:0:0:
149,33,258400,1,2,0:0:0:0:
119,43,258507,2,0,P|120:105|159:165,1,129.999994049073,8|2,2:1|0:0,0:0:0:0:
146,187,258828,1,2,0:0:0:0:
103,212,258936,1,8,1:2:0:0:
23,163,259150,1,8,2:1:0:0:
99,293,259364,5,0,1:2:0:0:
218,269,259578,1,2,0:0:0:0:
218,269,259685,1,2,0:0:0:0:
218,269,259793,1,8,1:2:0:0:
242,384,260007,1,0,0:0:0:0:
343,313,260221,1,8,2:1:0:0:
361,317,260328,1,2,0:0:0:0:
405,211,260543,1,2,0:0:0:0:
374,218,260650,1,8,1:2:0:0:
261,134,260864,1,8,2:1:0:0:
243,89,260971,1,2,0:0:0:0:
275,54,261078,6,0,P|338:32|414:102,1,129.999994049073,0|0,1:2|0:0,0:0:0:0:
437,136,261400,1,2,0:0:0:0:
478,129,261507,2,0,B|507:167|507:167|483:260,1,129.999994049073,8|0,1:2|0:0,0:0:0:0:
512,372,261936,2,0,P|472:302|383:234,1,194.999991073609,8|2,2:1|0:0,0:0:0:0:
360,262,262364,2,0,L|291:278,1,64.9999970245363,8|0,1:2|0:0,0:0:0:0:
267,261,262578,1,2,0:0:0:0:
254,214,262686,1,2,0:0:0:0:
277,172,262793,1,8,0:1:0:0:
173,199,263007,1,0,0:0:0:0:
66,75,263221,6,0,L|86:1,1,64.9999970245363,2|0,3:0|0:0,0:0:0:0:
202,117,263436,2,0,L|222:43,1,64.9999970245363,2|0,3:0|0:0,0:0:0:0:
102,179,263650,1,2,3:0:0:0:
84,174,263757,1,2,3:0:0:0:
23,285,263971,1,2,3:0:0:0:
97,274,264078,1,2,3:0:0:0:
112,287,264293,1,2,3:0:0:0:
267,384,264507,6,0,P|284:333|335:265,1,129.999994049073,4|0,0:0|0:0,0:0:0:0:
312,195,264828,1,2,0:0:0:0:
296,187,264935,1,8,1:2:0:0:
428,210,265150,1,2,0:0:0:0:
426,171,265257,1,2,0:0:0:0:
412,138,265364,1,8,2:1:0:0:
289,83,265578,1,2,0:0:0:0:
286,77,265686,2,0,L|241:87,2,32.4999985122681,2|0|8,0:0|0:0|1:2,0:0:0:0:
381,37,266007,1,8,2:1:0:0:
327,163,266221,5,0,1:2:0:0:
218,183,266435,1,2,0:0:0:0:
218,183,266543,1,0,0:0:0:0:
218,183,266650,1,8,1:2:0:0:
102,199,266864,1,2,0:0:0:0:
14,109,267078,1,8,2:1:0:0:
21,93,267185,1,2,0:0:0:0:
152,64,267400,1,2,0:0:0:0:
131,110,267507,1,8,1:2:0:0:
68,0,267721,1,8,2:1:0:0:
239,39,267935,6,0,P|296:54|362:13,1,129.999994049073,0|0,1:2|0:0,0:0:0:0:
451,19,268257,1,2,0:0:0:0:
459,53,268364,2,0,B|490:88|490:88|456:187,1,129.999994049073,8|0,1:2|0:0,0:0:0:0:
415,334,268793,2,0,P|416:250|307:248,1,194.999991073609,8|0,2:1|0:0,0:0:0:0:
303,210,269221,2,0,L|237:192,1,64.9999970245363,8|0,1:2|0:0,0:0:0:0:
214,215,269435,1,2,0:0:0:0:
211,263,269543,1,2,0:0:0:0:
246,295,269650,1,0,3:0:0:0:
108,216,269864,6,0,L|96:139,1,64.9999970245363,2|0,3:0|0:0,0:0:0:0:
240,192,270078,2,0,L|228:115,1,64.9999970245363,2|0,3:0|0:0,0:0:0:0:
375,168,270293,2,0,L|363:91,1,64.9999970245363,2|0,3:0|0:0,0:0:0:0:
320,242,270507,1,2,3:0:0:0:
325,264,270614,1,2,3:0:0:0:
424,327,270828,1,2,3:0:0:0:
441,253,270935,1,2,3:0:0:0:
453,246,271150,1,2,3:0:0:0:
512,109,271364,6,0,P|408:135|332:75,1,194.999991073609,4|0,0:0|0:0,0:0:0:0:
309,111,271793,2,0,P|320:50|248:26,1,129.999994049073,8|2,1:2|0:0,0:0:0:0:
195,47,272114,1,2,0:0:0:0:
161,23,272221,1,8,2:1:0:0:
136,123,272435,1,2,0:0:0:0:
34,31,272650,6,0,P|103:113|123:207,1,194.999991073609,8|2,1:2|0:0,0:0:0:0:
67,251,273078,2,0,P|67:286|92:325,1,64.9999970245363,0|0,1:2|0:0,0:0:0:0:
159,335,273293,1,2,0:0:0:0:
182,312,273400,1,2,0:0:0:0:
212,302,273507,1,8,1:2:0:0:
295,375,273721,1,2,0:0:0:0:
297,364,273829,1,2,0:0:0:0:
300,352,273936,1,8,2:1:0:0:
303,341,274043,1,2,0:0:0:0:
402,338,274257,2,0,P|325:314|342:194,1,194.999991073609,2|2,0:0|0:0,0:0:0:0:
422,202,274685,5,2,0:0:0:0:
436,179,274793,2,0,B|428:122|428:122|267:55,1,194.999991073609,4|0,0:0|0:0,0:0:0:0:
301,69,275221,2,0,P|253:127|203:98,1,129.999994049073,8|2,1:2|0:0,0:0:0:0:
136,81,275543,1,2,0:0:0:0:
95,110,275650,1,8,2:1:0:0:
159,193,275864,1,2,0:0:0:0:
16,229,276078,2,0,P|104:206|173:288,1,194.999991073609,8|2,1:2|0:0,0:0:0:0:
185,358,276507,6,0,P|192:308|264:308,1,129.999994049073,0|2,1:2|0:0,0:0:0:0:
333,356,276828,1,2,0:0:0:0:
333,356,276935,2,0,P|282:265|310:153,1,194.999991073609,8|2,1:2|0:0,0:0:0:0:
236,129,277364,1,8,2:1:0:0:
192,149,277471,1,2,0:0:0:0:
5,29,277685,1,2,0:0:0:0:
53,137,278007,1,2,0:0:0:0:
192,52,278222,6,0,P|261:44|302:109,1,129.999994049073,0|0,1:2|0:0,0:0:0:0:
365,147,278543,1,2,0:0:0:0:
375,132,278650,2,0,P|306:124|265:189,1,129.999994049073,8|0,1:2|0:0,0:0:0:0:
201,228,278972,1,2,0:0:0:0:
192,212,279079,2,0,P|261:204|302:269,1,129.999994049073,8|0,2:1|0:0,0:0:0:0:
260,322,279400,1,2,0:0:0:0:
223,331,279507,1,8,1:2:0:0:
383,49,279828,5,2,0:0:0:0:
352,79,279935,2,0,P|414:88|481:127,1,129.999994049073,0|0,1:2|0:0,0:0:0:0:
512,197,280257,1,2,0:0:0:0:
487,233,280364,2,0,P|425:242|358:281,1,129.999994049073,8|2,1:2|0:0,0:0:0:0:
344,349,280685,1,2,0:0:0:0:
351,359,280793,1,8,2:1:0:0:
318,378,280900,1,2,0:0:0:0:
200,293,281114,1,2,0:0:0:0:
250,231,281221,1,8,1:2:0:0:
109,265,281435,1,2,0:0:0:0:
109,265,281543,1,2,0:0:0:0:
109,265,281650,6,0,P|68:215|47:142,1,129.999994049073,0|0,1:2|0:0,0:0:0:0:
0,96,281971,1,2,0:0:0:0:
6,84,282079,2,0,P|56:43|129:22,1,129.999994049073,8|0,1:2|0:0,0:0:0:0:
192,55,282399,1,2,0:0:0:0:
204,61,282507,2,0,P|244:111|266:184,1,129.999994049073,8|0,2:1|0:0,0:0:0:0:
239,247,282829,1,2,0:0:0:0:
235,260,282935,2,0,P|310:265|324:205,1,129.999994049073,8|0,1:2|0:0,0:0:0:0:
436,234,283364,5,2,3:0:0:0:
432,206,283471,1,0,3:0:0:0:
428,178,283578,1,0,3:0:0:0:
424,151,283685,1,0,3:0:0:0:
442,130,283793,5,2,3:0:0:0:
445,115,283900,1,0,3:0:0:0:
447,99,284007,1,0,3:0:0:0:
449,84,284114,1,0,3:0:0:0:
424,42,284221,5,2,3:0:0:0:
396,32,284328,1,2,3:0:0:0:
368,42,284435,1,2,3:0:0:0:
329,20,284543,5,0,1:2:0:0:
250,315,284864,1,0,1:2:0:0:
331,362,285078,1,0,3:0:0:0:
