osu file format v14

[General]
AudioFilename: audio.mp3
AudioLeadIn: 0
PreviewTime: 575
Countdown: 0
SampleSet: None
StackLeniency: 0.7
Mode: 0
LetterboxInBreaks: 0
WidescreenStoryboard: 1

[Editor]
DistanceSpacing: 0.8
BeatDivisor: 8
GridSize: 16
TimelineZoom: 1

[Metadata]
Title:Welcome to tricoro system
TitleUnicode:Welcome to tricoro system
Artist:Nekomata Master
ArtistUnicode:Nekomata Master
Creator:Liiraye
Version:Nitro's Insane
Source:SSC #1
Tags:SSC #1 Scandinavian Speedmapping Contest Nitroz Arbane -PC YokesPai
BeatmapID:1845184
BeatmapSetID:882589

[Difficulty]
HPDrainRate:6.9
CircleSize:5.1
OverallDifficulty:7.7
ApproachRate:8.5
SliderMultiplier:2.8
SliderTickRate:1

[Events]
//Background and Video events
0,0,"001.jpg",0,0
//Break Periods
//Storyboard Layer 0 (Background)
//Storyboard Layer 1 (Fail)
//Storyboard Layer 2 (Pass)
//Storyboard Layer 3 (Foreground)
//Storyboard Sound Samples

[TimingPoints]
1737,387.096774193548,4,1,0,60,1,0
29607,428.571428571429,4,1,0,60,1,0
30249,480,4,1,0,60,1,0
30729,545.454545454546,4,1,0,60,1,0
31001,618.556701030928,4,1,0,60,1,0
31310,705.882352941176,4,1,0,60,1,0

[HitObjects]
192,80,1737,6,0,B|256:48|256:48|320:80,1,140,4|0,0:0|0:0,0:0:0:0:
432,192,2124,2,0,B|384:224|384:224|288:224,1,140
64,320,2511,2,0,B|112:288|112:288|208:288,1,140,8|0,0:0|0:0,0:0:0:0:
256,176,2898,1,0,0:0:0:0:
160,112,3091,1,8,2:0:0:0:
144,128,3188,1,8,2:0:0:0:
128,112,3285,6,0,B|80:48|80:48|16:48,1,140,4|0,0:0|0:0,0:0:0:0:
80,192,3672,2,0,B|144:240|144:240|224:240,1,140,4|0,0:0|0:0,0:0:0:0:
352,176,4059,2,0,B|288:128|288:128|208:128,1,140,8|0,0:0|0:0,0:0:0:0:
96,256,4446,2,2,L|32:256,1,35,2|2,2:0|2:0,2:0:0:0:
112,272,4543,2,2,L|64:288,1,35,2|2,2:0|2:0,2:0:0:0:
128,288,4640,2,2,L|80:320,1,35,2|2,2:0|2:0,2:0:0:0:
144,304,4736,2,2,L|128:336,1,35,2|2,2:0|2:0,2:0:0:0:
160,320,4833,6,0,B|224:352|224:352|304:352,1,140
464,192,5220,2,0,B|400:224|400:224|320:224,1,140
96,176,5607,2,0,B|160:144|160:144|240:144,1,140,8|0,0:0|0:0,0:0:0:0:
416,128,5995,2,2,L|480:128,1,35,2|2,2:0|2:0,2:0:0:0:
400,112,6092,2,2,L|448:96,1,35,2|2,2:0|2:0,2:0:0:0:
384,96,6189,2,2,L|432:64,1,35,2|2,2:0|2:0,2:0:0:0:
368,80,6285,2,2,L|384:48,1,35,2|2,2:0|2:0,2:0:0:0:
352,64,6382,6,0,B|288:32|288:32|208:32,1,140
64,128,6769,2,0,L|112:272,1,140
288,288,7156,1,8,0:0:0:0:
418,148,7349,2,8,L|431:79,1,70,8|0,0:3|0:0,0:0:0:0:
240,112,7640,2,8,L|226:180,1,70,8|0,0:3|0:0,0:0:0:0:
320,304,7930,6,0,B|256:336|256:336|192:304,1,140,4|0,0:0|0:0,0:0:0:0:
80,192,8317,2,0,B|128:160|128:160|224:160,1,140
448,64,8704,2,0,B|400:96|400:96|304:96,1,140,8|0,0:0|0:0,0:0:0:0:
256,208,9091,1,0,0:0:0:0:
352,272,9284,1,8,2:0:0:0:
368,256,9381,1,8,2:0:0:0:
384,272,9478,6,0,B|432:336|432:336|496:336,1,140,4|0,0:0|0:0,0:0:0:0:
432,192,9865,2,0,B|368:144|368:144|288:144,1,140,4|0,0:0|0:0,0:0:0:0:
160,208,10252,6,0,B|224:256|224:256|304:256,1,140,8|0,0:0|0:0,0:0:0:0:
416,128,10639,2,2,L|480:128,1,35,2|2,2:0|2:0,2:0:0:0:
400,112,10736,2,2,L|448:96,1,35,2|2,2:0|2:0,2:0:0:0:
384,96,10833,2,2,L|432:64,1,35,2|2,2:0|2:0,2:0:0:0:
368,80,10929,2,2,L|384:48,1,35,2|2,2:0|2:0,2:0:0:0:
352,64,11026,6,0,B|288:32|288:32|208:32,1,140
48,192,11413,2,0,B|112:160|112:160|192:160,1,140
416,208,11800,2,0,B|352:240|352:240|272:240,1,140,8|0,0:0|0:0,0:0:0:0:
96,256,12188,2,2,L|32:256,1,35,2|2,2:0|2:0,2:0:0:0:
112,272,12285,2,2,L|64:288,1,35,2|2,2:0|2:0,2:0:0:0:
128,288,12382,2,2,L|80:320,1,35,2|2,2:0|2:0,2:0:0:0:
144,304,12478,2,2,L|128:336,1,35,2|2,2:0|2:0,2:0:0:0:
160,320,12575,6,0,B|224:352|224:352|304:352,1,140
448,256,12962,2,0,L|400:112,1,140
224,96,13349,1,8,0:0:0:0:
94,236,13542,6,8,L|81:305,1,70,8|0,0:3|0:0,0:0:0:0:
272,272,13833,2,8,L|286:204,1,70,8|0,0:3|0:0,0:0:0:0:
208,80,14124,6,0,B|144:48|144:48|80:80,1,140,4|0,0:0|0:0,0:0:0:0:
208,176,14511,2,0,B|272:208|272:208|336:176,1,140,8|0,0:0|0:0,0:0:0:0:
432,304,14898,2,0,B|368:336|368:336|288:336,1,140
80,304,15285,2,0,B|144:336|144:336|224:336,1,140,8|0,0:0|0:0,0:0:0:0:
352,256,15672,2,0,B|288:208|288:208|224:208,1,140,4|0,0:0|0:0,0:0:0:0:
48,48,16059,2,0,B|112:96|112:96|176:96,1,140,8|0,0:0|0:0,0:0:0:0:
352,48,16446,2,0,L|400:192,1,140
272,336,16833,6,0,B|208:272|96:272|96:272|48:176,1,280,14|4,0:0|0:0,0:0:0:0:
192,48,17414,1,8,0:3:0:0:
313,87,17607,1,8,0:3:0:0:
313,212,17801,1,8,0:3:0:0:
192,252,17995,1,8,0:3:0:0:
118,150,18188,1,8,0:3:0:0:
240,48,18382,6,0,B|288:80|384:64|384:64|432:112|432:112|464:176,1,280,14|4,0:0|0:0,0:0:0:0:
416,288,18962,1,8,0:3:0:0:
304,336,19156,1,8,0:3:0:0:
192,288,19349,1,8,0:3:0:0:
80,336,19543,1,8,0:3:0:0:
16,224,19736,1,8,0:3:0:0:
80,112,19930,1,8,0:3:0:0:
192,160,20124,1,8,0:3:0:0:
304,320,20317,6,0,B|368:256|368:256|352:176|352:176|432:96,1,280,4|0,0:0|0:0,0:0:0:0:
464,224,20898,1,8,2:3:0:0:
336,64,21091,1,8,2:3:0:0:
400,288,21285,1,8,2:3:0:0:
336,64,21478,1,8,2:3:0:0:
336,352,21672,1,8,2:3:0:0:
208,320,21866,6,0,B|144:256|144:256|160:176|160:176|80:96,1,280,4|0,0:0|0:0,0:0:0:0:
48,224,22446,1,8,2:3:0:0:
176,64,22639,1,8,2:3:0:0:
112,288,22833,1,8,2:3:0:0:
176,64,23026,1,8,2:3:0:0:
176,352,23220,1,8,2:3:0:0:
336,304,23414,5,2,2:0:0:0:
352,288,23511,1,2,2:0:0:0:
368,272,23607,1,2,2:0:0:0:
384,256,23704,1,2,2:0:0:0:
400,240,23801,5,2,2:0:0:0:
368,224,23898,1,2,2:0:0:0:
336,208,23995,1,2,2:0:0:0:
304,192,24092,1,2,2:0:0:0:
272,176,24188,5,2,2:0:0:0:
304,128,24285,1,6,2:0:0:0:
336,80,24382,1,2,2:0:0:0:
368,32,24478,1,2,2:0:0:0:
304,16,24575,5,2,2:0:0:0:
240,32,24672,1,2,2:0:0:0:
176,48,24769,1,2,2:0:0:0:
112,64,24866,1,2,2:0:0:0:
48,112,24962,6,0,L|32:192,1,70,4|0,0:0|0:0,0:0:0:0:
128,272,25156,2,0,L|144:192,1,70,4|0,0:0|0:0,0:0:0:0:
256,96,25349,2,4,L|240:176,1,70
336,256,25543,2,0,L|352:176,1,70,4|0,0:0|0:0,0:0:0:0:
400,80,25736,2,0,L|448:96,1,35,4|0,0:0|0:0,0:0:0:0:
400,80,25833,2,0,L|352:96,1,35
400,80,25930,2,0,L|400:32,1,35
480,224,26124,1,0,0:0:0:0:
288,288,26220,6,0,B|128:336|128:336|96:272|96:272|256:224|256:224|224:160|224:160|64:208|64:208|32:144|32:144|192:96|192:96|160:32|160:32|0:80,1,1120,4|0,2:0|2:0,2:0:0:0:
240,32,28059,6,0,B|368:288|368:288|432:272|432:272|304:16|304:16|368:0|368:0|496:256,1,980,0|0,2:0|2:0,2:0:0:0:
240,304,29607,6,0,B|16:304|16:304|32:240|32:240|224:240|224:240|208:176|208:176|48:176|48:176|64:112|64:112|192:112|192:112|176:48|176:48|80:48,1,1050,0|0,2:0|2:0,2:0:0:0:
256,192,31662,1,0,2:0:0:0:
258,332,32015,6,0,B|320:240|480:272|512:64|384:-16|272:96|272:96|256:112|256:112|256:112|240:96|240:96|128:-16|0:64|32:272|192:240|224:320,1,980,0|0,2:0|2:0,2:0:0:0:
