osu file format v14

[General]
AudioFilename: audio.mp3
AudioLeadIn: 0
PreviewTime: -1
Countdown: 0
SampleSet: None
StackLeniency: 0.2
Mode: 0
LetterboxInBreaks: 0
WidescreenStoryboard: 0

[Editor]
Bookmarks: 14124
DistanceSpacing: 0.5
BeatDivisor: 4
GridSize: 8
TimelineZoom: 1.5

[Metadata]
Title:Welcome to tricoro system
TitleUnicode:Welcome to tricoro system
Artist:Nekomata Master
ArtistUnicode:Nekomata Master
Creator:Liiraye
Version:Arbane
Source:SSC #1
Tags:SSC #1 Scandinavian Speedmapping Contest Nitroz Arbane -PC YokesPai
BeatmapID:1845183
BeatmapSetID:882589

[Difficulty]
HPDrainRate:7
CircleSize:5
OverallDifficulty:8.2
ApproachRate:9.3
SliderMultiplier:2.2
SliderTickRate:1

[Events]
//Background and Video events
0,0,"9omxydlfhez01.jpg",0,0
//Break Periods
//Storyboard Layer 0 (Background)
//Storyboard Layer 1 (Fail)
//Storyboard Layer 2 (Pass)
//Storyboard Layer 3 (Foreground)
//Storyboard Sound Samples

[TimingPoints]
1737,387.096774193548,4,2,0,50,1,0
1737,-66.6666666666667,4,2,0,50,0,0
2511,-100,4,2,0,50,0,0
2898,-100,4,2,0,50,0,0
3285,-200,4,2,0,50,0,0
4059,-100,4,2,0,50,0,0
5995,-200,4,2,0,50,0,0
7156,-100,4,2,0,50,0,0
7930,-66.6666666666667,4,2,0,50,0,0
9478,-200,4,2,0,50,0,0
10253,-100,4,2,0,50,0,0
12188,-200,4,2,0,50,0,0
13349,-100,4,2,0,50,0,0
16833,-57.1428571428571,4,2,0,50,0,0
20704,-100,4,2,0,50,0,0
21866,-200,4,2,0,50,0,0
25736,-100,4,2,0,50,0,0
27285,-100,4,2,0,40,0,0
28059,-100,4,2,0,30,0,0
28833,-100,4,2,0,20,0,0
29607,428.571428571429,4,2,0,15,1,0
30249,480,4,2,0,10,1,0
30729,545.454545454546,4,2,0,5,1,0
31001,618.556701030928,4,2,0,5,1,0
31310,705.882352941176,4,2,0,5,1,0
31310,-200,4,2,0,5,0,0

[HitObjects]
50,45,1737,6,0,P|100:65|113:116,1,110.000004196167,4|0,1:0|0:0,0:0:0:0:
137,22,1930,2,0,P|103:62|114:114,1,110.000004196167,2|0,0:0|0:0,0:0:0:0:
189,135,2124,6,0,P|223:94|211:42,1,110.000004196167,0|0,1:0|0:0,0:0:0:0:
212,42,2317,2,0,P|225:93|273:114,1,110.000004196167,2|0,0:0|0:0,0:0:0:0:
351,71,2511,6,0,L|342:26,1,27.5,2|0,0:3|0:0,0:0:0:0:
362,79,2704,2,0,L|371:34,1,27.5
419,148,2898,5,2,0:1:0:0:
391,166,2995,1,0,0:0:0:0:
395,198,3091,1,0,0:0:0:0:
512,261,3285,6,0,L|437:254,1,55
306,242,3672,5,2,0:1:0:0:
334,259,3769,1,0,0:0:0:0:
330,292,3865,1,0,0:0:0:0:
185,351,4059,6,0,L|130:345,1,55,4|0,1:2|0:0,0:0:0:0:
28,336,4253,1,0,0:0:0:0:
200,353,4446,6,4,L|227:355,7,27.5,4|4|4|4|4|4|4|4,3:0|3:0|3:0|3:0|3:0|3:0|3:0|3:0,3:0:0:0:
166,279,4833,6,0,B|144:261|156:229|156:229|188:241|188:268,1,110,0|0,1:0|0:0,0:0:0:0:
162,154,5220,6,0,B|154:127|182:107|182:107|202:136|186:158,1,110,2|0,1:0|0:0,0:0:0:0:
387,211,5607,6,0,P|364:188|331:186,1,55,4|0,1:2|0:0,0:0:0:0:
256,224,5801,1,0,0:0:0:0:
256,96,5995,6,0,L|256:51,2,27.5,2|0|0,0:1|0:0|0:0,0:0:0:0:
185,164,6382,5,0,0:0:0:0:
181,197,6478,1,0,0:0:0:0:
209,214,6575,1,0,0:0:0:0:
327,164,6769,5,2,0:1:0:0:
331,197,6865,1,0,0:0:0:0:
303,214,6962,1,0,0:0:0:0:
256,41,7156,6,0,L|256:105,1,55,2|0,1:3|0:0,0:0:0:0:
256,304,7349,1,0,1:0:0:0:
240,232,7543,5,8,0:3:0:0:
272,232,7640,1,4,0:3:0:0:
256,312,7736,1,4,1:2:0:0:
449,232,7930,6,0,P|397:245|378:295,1,110.000004196167,4|0,1:0|0:0,0:0:0:0:
355,210,8123,2,0,P|395:243|447:232,1,110.000004196167,2|0,0:0|0:0,0:0:0:0:
471,154,8317,6,0,P|430:120|378:131,1,110.000004196167,0|0,1:0|0:0,0:0:0:0:
449,68,8510,2,0,P|429:117|378:131,1,110.000004196167,2|0,0:0|0:0,0:0:0:0:
312,66,8704,6,0,L|321:21,1,27.5,2|0,0:3|0:0,0:0:0:0:
301,74,8897,2,0,L|292:29,1,27.5
228,134,9091,5,2,0:1:0:0:
210,106,9188,1,0,0:0:0:0:
178,110,9284,1,0,0:0:0:0:
94,216,9478,6,0,L|149:225,1,55
169,40,9866,5,2,0:1:0:0:
137,36,9962,1,0,0:0:0:0:
119,64,10059,1,0,0:0:0:0:
208,193,10253,6,0,L|263:184,1,55,4|0,1:2|0:0,0:0:0:0:
357,162,10446,1,0,0:0:0:0:
194,196,10640,6,4,L|146:203,7,27.5,4|4|4|4|4|4|4|4,3:0|3:0|3:0|3:0|3:0|3:0|3:0|3:0,3:0:0:0:
246,257,11027,6,0,B|263:276|263:307|263:307|277:280|303:272,1,110,0|0,1:0|0:0,0:0:0:0:
122,318,11414,6,0,B|139:298|139:267|139:267|153:294|179:302,1,110,2|0,1:0|0:0,0:0:0:0:
191,87,11801,6,0,P|168:110|166:143,1,55,4|0,1:2|0:0,0:0:0:0:
205,232,11995,1,0,0:0:0:0:
77,192,12188,6,0,L|49:192,2,27.5,2|0|0,0:1|0:0|0:0,0:0:0:0:
164,131,12575,5,0,0:0:0:0:
188,108,12672,1,0,0:0:0:0:
218,120,12768,1,0,0:0:0:0:
164,253,12962,5,2,0:1:0:0:
188,276,13059,1,0,0:0:0:0:
218,264,13155,1,0,0:0:0:0:
432,192,13349,6,0,L|377:192,1,55,0|0,1:0|0:0,0:0:0:0:
204,192,13543,1,0,1:0:0:0:
276,176,13736,5,8,3:0:0:0:
276,208,13832,1,4,3:0:0:0:
192,192,13930,1,4,1:2:0:0:
422,319,14124,5,4,1:0:0:0:
337,268,14317,1,0,0:0:0:0:
180,367,14511,5,8,1:0:0:0:
239,288,14704,1,0,0:0:0:0:
33,338,14898,5,0,1:0:0:0:
56,315,14994,1,0,0:0:0:0:
88,327,15091,1,2,0:0:0:0:
239,288,15285,5,10,1:0:0:0:
248,244,15382,1,0,3:0:0:0:
229,283,15478,1,0,3:0:0:0:
117,222,15672,5,0,1:0:0:0:
140,245,15768,1,0,0:0:0:0:
172,233,15865,1,2,0:0:0:0:
314,282,16059,5,10,1:0:0:0:
333,321,16156,1,0,3:0:0:0:
324,277,16252,1,0,3:0:0:0:
403,170,16446,6,0,L|456:176,1,55,0|0,1:0|0:0,0:0:0:0:
420,246,16640,1,0,0:0:0:0:
498,106,16833,6,0,B|420:126|356:28|456:-49|534:50|449:130|379:91,1,288.750002753735,6|0,1:0|0:0,0:0:0:0:
332,43,17220,5,0,1:0:0:0:
260,116,17413,1,0,0:0:0:0:
77,77,17607,5,0,1:0:0:0:
165,130,17800,1,0,0:0:0:0:
206,0,17995,5,0,1:0:0:0:
201,39,18091,1,0,0:0:0:0:
183,3,18188,1,0,0:0:0:0:
164,203,18382,6,0,B|233:163|320:241|243:342|142:266|204:167|282:186,1,288.750002753735,6|0,1:0|0:0,0:0:0:0:
340,229,18769,5,0,1:0:0:0:
329,130,18962,1,0,0:0:0:0:
439,262,19156,5,8,1:0:0:0:
428,361,19349,1,0,0:0:0:0:
347,301,19544,5,0,1:0:0:0:
324,324,19640,1,2,0:0:0:0:
292,312,19737,1,2,0:0:0:0:
212,364,19930,5,8,1:0:0:0:
189,341,20026,1,2,0:0:0:0:
157,353,20123,1,2,0:0:0:0:
0,193,20317,6,0,L|311:226,1,288.750002753735,6|0,1:0|0:0,0:0:0:0:
308,219,20704,5,8,1:0:0:0:
351,155,20898,1,0,0:0:0:0:
320,84,21091,1,0,1:0:0:0:
242,79,21285,1,0,0:0:0:0:
436,18,21478,5,8,1:0:0:0:
332,79,21672,1,0,0:0:0:0:
408,87,21866,6,0,L|445:91,2,27.5,0|0|0,1:0|0:0|0:0,0:0:0:0:
362,175,22253,1,8,1:0:0:0:
389,201,22349,1,0,0:0:0:0:
379,238,22446,1,0,0:0:0:0:
301,225,22640,6,0,L|264:229,2,27.5,0|0|0,1:0|0:0|0:0,0:0:0:0:
347,313,23027,1,8,1:0:0:0:
320,339,23123,1,0,0:0:0:0:
330,376,23220,1,0,0:0:0:0:
438,238,23414,5,6,1:0:0:0:
301,225,23607,1,0,1:0:0:0:
372,183,23801,5,8,1:0:0:0:
359,320,23994,1,0,1:0:0:0:
153,320,24188,5,4,1:0:0:0:
140,183,24381,1,0,1:0:0:0:
211,225,24575,5,8,1:0:0:0:
74,238,24768,1,0,1:0:0:0:
280,104,24962,5,4,1:0:0:0:
288,112,25059,1,0,1:0:0:0:
232,152,25156,5,0,1:0:0:0:
224,160,25253,1,0,1:0:0:0:
280,200,25349,5,4,1:0:0:0:
288,208,25446,1,0,1:0:0:0:
232,248,25543,5,0,1:0:0:0:
224,256,25640,1,0,1:0:0:0:
256,318,25736,6,0,L|256:350,7,27.5,4|0|0|0|0|0|0|0,1:0|1:0|1:0|1:0|1:0|1:0|1:0|1:0,1:0:0:0:
349,332,26124,5,4,1:0:0:0:
163,332,26317,5,4,1:0:0:0:
256,192,26414,12,0,31001,0:0:0:0:
283,273,31310,6,0,L|228:273,1,55
256,192,32015,1,2,0:0:0:0:
