osu file format v14

[General]
AudioFilename: audio.mp3
AudioLeadIn: 0
PreviewTime: 70519
Countdown: 0
SampleSet: Soft
StackLeniency: 0.7
Mode: 0
LetterboxInBreaks: 0
WidescreenStoryboard: 1

[Editor]
Bookmarks: 3567,10414,14001,25305,37478,49651,60085,70519,91387,101821,107038
DistanceSpacing: 0.8
BeatDivisor: 4
GridSize: 4
TimelineZoom: 6.199997

[Metadata]
Title:The Sky of Sadness
TitleUnicode:The Sky of Sadness
Artist:Nekomata Master
ArtistUnicode:猫叉Master
Creator:seros
Version:zengsb's Another
Source:pop'n music 19 TUNE STREET
Tags:beatmania iidx 27 heroic verse 佐藤直之 Naoyuki Sato lively ポップンミュージック19チューンストリート ポップンリズミン rhythm video game instrumental electronic calvaria sorairokarasu Cyanocitcho tachibana gekka tachibana_gekka mariokartya xlight x_light x light XLT hakurei yoru hakurei_yoru pigeons arsalan zengsb
BeatmapID:4215072
BeatmapSetID:1983503

[Difficulty]
HPDrainRate:5
CircleSize:4
OverallDifficulty:9
ApproachRate:9.2
SliderMultiplier:2.7
SliderTickRate:1

[Events]
//Background and Video events
0,0,"FsJjj_wagAMUIUg.jpg",0,0
//Break Periods
2,49854,52914
2,94200,96039
//Storyboard Layer 0 (Background)
//Storyboard Layer 1 (Fail)
//Storyboard Layer 2 (Pass)
//Storyboard Layer 3 (Foreground)
//Storyboard Layer 4 (Overlay)
//Storyboard Sound Samples

[TimingPoints]
959,434.782608695652,3,2,1,50,1,0
14001,-66.6666666666667,3,2,1,70,0,0
14871,-100,3,2,1,70,0,0
15305,-66.6666666666667,3,2,1,70,0,0
16936,-100,3,2,1,70,0,0
17044,-66.6666666666667,3,2,1,70,0,0
21392,-100,3,2,1,70,0,0
21609,-66.6666666666667,3,2,1,70,0,0
22913,-100,3,2,1,70,0,0
24435,-133.333333333333,3,2,1,50,0,0
25306,434.782608695652,7,2,1,70,1,0
37478,-90.9090909090909,7,2,1,70,0,0
38130,-133.333333333333,7,2,1,70,0,0
38347,-90.9090909090909,7,2,1,70,0,0
39217,-100,7,2,1,70,0,0
40086,-90.9090909090909,7,2,1,70,0,0
42695,-76.9230769230769,7,2,1,70,0,0
43564,-100,7,2,1,70,0,0
49216,-76.9230769230769,7,2,1,70,0,0
49654,434.782608695652,3,2,1,50,1,0
49654,-133.333333333333,3,2,1,50,0,0
53563,-100,3,2,1,50,0,0
54868,-133.333333333333,3,2,1,50,0,0
58346,-133.333333333333,3,2,1,70,0,0
58780,-76.9230769230769,3,2,1,70,0,0
60085,-100,3,2,1,70,0,0
65302,-76.9230769230769,3,2,1,70,0,0
67041,-100,3,2,1,70,0,0
67910,-76.9230769230769,3,2,1,70,0,0
68019,-66.6666666666667,3,2,1,70,0,0
68888,-76.9230769230769,3,2,1,70,0,0
69649,-100,3,2,1,70,0,0
70523,-76.9230769230769,3,2,1,80,0,1
73127,-76.9230769230769,3,2,1,80,0,1
75736,-90.9090909090909,3,2,1,80,0,1
76170,-100,3,2,1,80,0,1
78453,-66.6666666666667,3,2,1,80,0,1
78670,-100,3,2,1,80,0,1
79757,-66.6666666666667,3,2,1,80,0,1
80083,-55.5555555555556,3,2,1,80,0,1
80953,-76.9230769230769,3,2,1,80,0,1
86170,-90.9090909090909,3,2,1,80,0,1
86604,-76.9230769230769,3,2,1,80,0,1
87480,-66.6666666666667,3,2,1,80,0,1
88778,-76.9230769230769,3,2,1,80,0,1
90082,-66.6666666666667,3,2,1,80,0,1
91393,-90.9090909090909,3,2,1,70,0,0
101929,-133.333333333333,3,2,1,70,0,0
102147,-66.6666666666667,3,2,1,70,0,0
102581,-133.333333333333,3,2,1,70,0,0
102799,-66.6666666666667,3,2,1,70,0,0
103234,-133.333333333333,3,2,1,70,0,0
103451,-66.6666666666667,3,2,1,70,0,0
103886,-133.333333333333,3,2,1,70,0,0
104103,-66.6666666666667,3,2,1,70,0,0
104755,-66.6666666666667,3,2,1,70,0,0
105407,-55.5555555555556,3,2,1,70,0,0
106059,-50,3,2,1,70,0,0

[Colours]
Combo1 : 213,181,236
Combo2 : 209,245,136
Combo3 : 247,208,142
Combo4 : 231,146,146

[HitObjects]
0,91,959,5,0,1:0:0:0:
76,81,1067,1,2,0:3:0:0:
154,70,1176,1,2,0:2:0:0:
233,59,1285,2,0,P|280:29|284:10,1,67.5,0|4,1:0|0:2,0:0:0:0:
467,197,1611,5,0,1:0:0:0:
390,176,1719,1,2,0:3:0:0:
307,160,1828,1,8,1:0:0:0:
225,155,1937,2,0,P|193:157|144:166,1,67.5,8|0,3:0|0:0,0:0:0:0:
7,270,2154,5,0,1:0:0:0:
4,278,2208,1,0,1:0:0:0:
0,286,2263,2,0,P|37:290|71:299,1,67.5,8|0,1:0|1:0,0:0:0:0:
185,362,2480,1,0,3:0:0:0:
138,264,2589,2,0,P|169:268|213:280,1,67.5,8|0,1:0|1:0,0:0:0:0:
340,334,2806,1,0,3:0:0:0:
278,238,2915,2,0,P|314:242|365:258,1,67.5,8|0,1:0|1:0,0:0:0:0:
483,174,3132,6,0,L|475:121,2,33.75,0|0|0,1:0|1:0|1:0,0:0:0:0:
512,261,3350,1,0,1:0:0:0:
430,282,3458,1,0,1:0:0:0:
401,195,3567,1,0,1:0:0:0:
46,192,4871,5,2,3:2:0:0:
468,175,6176,1,2,3:2:0:0:
468,175,6284,2,0,P|451:212|458:248,1,67.5,2|0,3:0|0:0,0:0:0:0:
368,248,6502,2,0,B|480:260|425:312|513:308,2,135,2|2|2,0:0|0:0|0:0,0:0:0:0:
316,316,7045,2,0,P|281:335|178:349,1,135,2|0,3:0|0:0,0:0:0:0:
116,303,7480,5,2,1:2:0:0:
238,102,7806,5,2,3:0:0:0:
164,64,7915,2,0,P|127:72|87:78,1,67.5,0|0,1:0|0:0,0:0:0:0:
239,87,8241,5,2,3:0:0:0:
309,37,8349,2,0,P|346:45|386:51,1,67.5,0|0,1:0|0:0,0:0:0:0:
453,3,8567,1,0,1:0:0:0:
453,3,8675,1,0,1:0:0:0:
453,3,8784,6,0,P|455:65|440:154,1,135,4|2,1:2|3:2,0:0:0:0:
346,150,9110,1,2,3:3:0:0:
335,178,9219,1,2,0:1:0:0:
346,150,9436,5,0,3:0:0:0:
335,178,9545,1,2,3:3:0:0:
297,197,9654,1,2,3:2:0:0:
208,187,9762,1,0,3:0:0:0:
208,187,9871,1,0,0:0:0:0:
115,188,9980,1,0,1:0:0:0:
39,234,10088,6,0,P|37:296|52:385,1,135,0|2,1:0|0:3,0:0:0:0:
140,384,10414,1,2,3:2:0:0:
168,373,10523,1,2,0:1:0:0:
140,384,10740,1,0,3:0:0:0:
168,373,10849,1,2,3:0:0:0:
196,343,10958,5,2,3:2:0:0:
217,263,11066,1,0,3:0:0:0:
209,177,11175,1,2,3:3:0:0:
176,96,11284,1,0,1:0:0:0:
113,32,11393,6,0,P|78:33|29:43,1,67.5,0|2,1:0|3:2,0:0:0:0:
4,161,11610,5,0,0:0:0:0:
16,189,11719,1,2,3:2:0:0:
48,160,11827,1,2,3:3:0:0:
60,188,11936,1,2,3:2:0:0:
99,159,12045,1,0,3:0:0:0:
111,187,12153,1,2,3:2:0:0:
156,156,12262,5,2,3:2:0:0:
240,164,12371,1,0,3:0:0:0:
320,178,12479,1,2,3:1:0:0:
402,194,12588,1,0,1:0:0:0:
512,130,12697,5,0,1:0:0:0:
437,100,12805,2,0,P|400:107|363:116,1,67.5,2|2,3:2|0:3,0:0:0:0:
269,242,13023,5,2,3:2:0:0:
333,288,13132,2,0,P|366:294|398:302,1,67.5,0|0,1:0|0:0,0:0:0:0:
232,384,13350,2,0,P|220:330|210:302,1,67.5,8|0,1:0|0:0,0:0:0:0:
49,313,13566,5,0,1:0:0:0:
132,285,13675,1,0,1:0:0:0:
96,203,13784,1,2,1:0:0:0:
14,234,13892,1,0,1:0:0:0:
150,269,14001,5,4,1:2:0:0:
252,231,14110,2,0,B|294:213|294:213|363:228,1,101.250003862381,0|0,0:0|1:0,0:0:0:0:
512,127,14327,1,2,1:3:0:0:
424,107,14436,1,0,1:0:0:0:
245,118,14544,1,0,3:0:0:0:
330,144,14653,6,0,P|344:97|362:28,1,101.250003862381,10|0,1:0|1:0,0:0:0:0:
255,21,14872,2,0,P|237:14|218:12,1,33.75,0|0,1:0|0:0,0:0:0:0:
243,9,14980,2,0,P|225:2|206:0,1,33.75,2|0,0:3|0:0,0:0:0:0:
145,57,15089,2,0,L|131:101,2,33.75,2|0|0,3:1|0:0|0:0,0:0:0:0:
195,178,15306,5,0,1:0:0:0:
93,215,15415,2,0,B|49:191|49:191|-7:207,1,101.250003862381,2|0,3:1|0:0,0:0:0:0:
98,361,15632,1,0,1:0:0:0:
200,326,15741,1,12,1:2:0:0:
200,326,15958,5,0,1:0:0:0:
365,363,16067,1,2,1:3:0:0:
305,295,16176,1,0,1:0:0:0:
271,384,16284,1,8,0:1:0:0:
288,297,16393,2,0,P|288:260|286:181,1,101.250003862381,0|0,1:0|1:0,0:0:0:0:
409,119,16611,5,0,1:0:0:0:
486,198,16719,1,10,1:0:0:0:
305,178,16937,6,0,P|302:155|296:139,1,33.75,0|0,1:0|0:0,0:0:0:0:
286,195,17045,2,2,B|242:171|204:176|204:176|179:197,1,101.250003862381,4|0,1:2|0:0,0:1:0:0:
42,284,17263,1,2,0:3:0:0:
42,284,17480,5,0,1:0:0:0:
111,218,17589,1,2,0:0:0:0:
54,141,17697,2,0,P|7:162|7:217,1,101.250003862381,2|0,1:3|0:0,0:0:0:0:
158,67,17915,5,0,1:0:0:0:
96,11,18023,2,2,P|48:29|-12:44,1,101.250003862381,8|0,1:0|0:0,0:1:0:0:
132,143,18241,1,0,3:0:0:0:
247,49,18350,6,0,B|285:70|285:70|242:23,1,101.250003862381,4|0,1:0|0:0,0:0:0:0:
167,77,18567,2,0,P|167:124|171:193,1,101.250003862381,2|8,1:3|1:2,0:0:0:0:
263,284,18784,1,8,1:3:0:0:
302,211,18893,1,8,1:3:0:0:
127,243,19002,1,4,1:3:0:0:
185,302,19110,1,4,1:3:0:0:
244,157,19219,5,4,1:2:0:0:
309,226,19328,2,0,B|347:194|347:194|393:223,1,101.250003862381,2|10,0:3|1:1,0:0:0:0:
507,152,19545,1,2,3:2:0:0:
418,139,19654,1,4,1:0:0:0:
400,234,19762,1,10,1:0:0:0:
479,256,19871,6,0,B|517:235|517:235|474:282,1,101.250003862381,2|0,0:3|1:0,0:0:0:0:
344,348,20089,6,0,P|334:325|334:300,1,50.6250019311906,0|0,1:0|0:0,0:0:0:0:
331,352,20197,2,0,P|321:329|321:304,1,50.6250019311906,0|0,1:0|0:0,0:0:0:0:
260,384,20306,1,0,1:0:0:0:
260,384,20523,5,0,1:0:0:0:
120,359,20632,2,0,P|107:316|163:272,1,101.250003862381,2|0,0:3|1:0,0:0:0:0:
207,223,20849,1,2,1:3:0:0:
46,244,20958,2,2,P|24:200|42:131,1,101.250003862381,12|0,1:2|0:0,0:1:0:0:
202,83,21175,1,2,0:0:0:0:
127,130,21284,1,2,1:3:0:0:
62,47,21393,6,0,L|13:38,2,33.75,0|2|2,1:0|0:0|0:3,0:0:0:0:
136,8,21610,2,0,P|188:7|263:-2,1,101.250003862381,2|0,1:3|0:0,0:0:0:0:
406,114,21828,6,0,P|362:104|299:95,1,101.250003862381,8|0,1:2|0:0,0:0:0:0:
213,217,22045,1,8,1:2:0:0:
127,194,22154,1,8,1:0:0:0:
127,194,22262,2,0,B|110:147|110:147|129:121|163:104,1,101.250003862381,4|0,1:2|0:0,0:0:0:0:
300,182,22480,1,4,0:2:0:0:
300,182,22697,5,0,1:0:0:0:
331,253,22806,1,0,1:0:0:0:
316,329,22914,1,4,1:2:0:0:
256,384,23023,1,0,1:0:0:0:
111,336,23132,6,0,B|66:329|66:329|18:373,2,90,4|2|2,1:0|3:1|3:1,0:0:0:0:
179,272,23567,6,0,B|148:243|148:243|84:245,2,90,4|2|2,1:2|3:1|3:1,0:0:0:0:
300,320,24001,5,8,3:0:0:0:
357,273,24110,1,8,3:0:0:0:
428,295,24219,1,4,3:3:0:0:
374,347,24327,1,4,3:3:0:0:
350,263,24436,6,0,P|350:228|352:185,1,67.5000025749207,0|8,1:0|3:0,0:0:0:0:
374,189,24653,5,8,3:0:0:0:
397,188,24726,5,4,3:0:0:0:
416,180,24798,5,4,3:0:0:0:
440,178,24871,6,0,P|443:130|443:75,1,101.250003862381,4|4,1:0|3:0,0:0:0:0:
427,65,25161,5,4,3:0:0:0:
404,64,25233,5,4,3:0:0:0:
381,58,25306,6,0,L|384:18,2,33.75,4|0|0,1:0|0:0|0:0,0:0:0:0:
309,92,25523,2,0,P|277:83|232:74,1,67.5,2|0,0:0|0:0,0:0:0:0:
178,34,25740,1,2,0:0:0:0:
178,34,25958,1,2,1:2:0:0:
66,127,26175,6,0,P|18:84|42:-6,2,135,2|2|2,1:2|0:0|1:2,0:0:0:0:
140,147,26719,1,2,0:0:0:0:
146,226,26827,1,2,0:0:0:0:
75,266,26936,1,2,0:0:0:0:
66,257,27045,6,0,P|18:300|42:390,2,135,0|2|2,1:0|0:0|1:3,0:0:0:0:
134,311,27588,1,0,0:0:0:0:
212,282,27697,2,0,P|245:275|281:253,1,67.5,0|0,1:0|0:0,0:0:0:0:
357,313,27914,5,8,1:0:0:0:
357,313,27987,1,0,3:0:0:0:
357,313,28059,1,0,3:0:0:0:
357,313,28132,2,0,P|360:351|365:382,1,67.5,0|2,1:1|1:3,0:0:0:0:
484,200,28349,6,0,B|408:183|424:242|351:222,1,135,4|2,1:0|0:2,0:0:0:0:
271,181,28675,1,0,0:0:0:0:
284,191,28784,2,0,P|279:228|269:280,1,67.5,2|0,0:2|0:0,0:0:0:0:
368,141,29001,2,0,P|371:112|381:75,1,67.5,0|0,1:0|0:0,0:0:0:0:
508,5,29218,5,2,1:3:0:0:
508,5,29436,2,0,P|501:52|474:71,1,67.5,2|2,0:0|1:2,0:0:0:0:
414,71,29653,1,2,1:3:0:0:
365,11,29762,1,2,0:0:0:0:
288,15,29870,1,2,0:0:0:0:
255,84,29979,1,2,0:0:0:0:
297,156,30088,6,0,P|284:230|274:304,1,135,0|0,1:0|3:0,0:0:0:0:
309,359,30414,1,0,1:0:0:0:
233,384,30523,2,0,P|203:378|170:364,1,67.5,12|0,1:2|0:0,0:0:0:0:
112,312,30740,1,0,1:0:0:0:
36,312,30849,1,0,1:0:0:0:
17,319,30957,6,0,P|28:252|38:185,1,135,2|6,1:3|0:2,0:0:0:0:
11,29,31392,5,4,1:0:0:0:
11,29,31609,2,0,P|44:35|76:45,1,67.5,2|0,0:2|0:0,0:0:0:0:
181,104,31827,1,2,0:2:0:0:
118,187,32044,1,2,1:2:0:0:
205,284,32262,6,0,P|201:218|250:175,2,135,2|2|2,1:3|0:0|1:2,0:0:0:0:
255,346,32805,1,2,0:0:0:0:
332,357,32914,1,2,1:2:0:0:
408,365,33022,1,2,1:0:0:0:
485,373,33131,6,0,P|496:321|511:236,2,135,4|0|2,1:0|0:0|3:3,0:0:0:0:
458,286,33674,1,0,0:0:0:0:
388,244,33783,2,0,P|355:255|319:258,1,67.5,0|0,1:0|1:0,0:0:0:0:
258,205,34001,5,8,1:0:0:0:
258,205,34073,1,0,3:0:0:0:
258,205,34145,1,0,3:0:0:0:
258,205,34218,2,0,P|261:166|272:133,1,67.5,2|2,3:2|3:3,0:0:0:0:
354,111,34435,5,4,1:0:0:0:
354,111,34653,2,0,P|386:132|413:164,1,67.5,2|0,0:2|0:0,0:0:0:0:
226,22,34870,2,0,P|265:27|297:36,1,67.5,2|0,0:0|0:0,0:0:0:0:
151,76,35087,5,2,1:2:0:0:
151,76,35305,2,0,P|116:86|61:97,1,67.5,2|0,1:3|0:0,0:0:0:0:
47,167,35522,5,2,0:0:0:0:
106,221,35631,1,2,1:2:0:0:
57,289,35740,1,2,1:3:0:0:
27,325,35848,1,2,0:0:0:0:
67,369,35957,1,2,0:0:0:0:
227,377,36174,5,2,1:2:0:0:
227,377,36283,1,2,0:0:0:0:
227,377,36392,2,0,P|235:342|242:291,1,67.5,2|0,0:0|1:0,0:0:0:0:
197,243,36609,5,8,1:0:0:0:
264,206,36718,1,2,3:3:0:0:
338,213,36826,1,2,3:3:0:0:
403,254,36935,1,2,3:3:0:0:
334,292,37044,6,0,P|347:237|362:146,1,135,2|0,1:3|1:0,0:0:0:0:
460,11,37479,5,4,1:0:0:0:
460,11,37587,1,0,1:0:0:0:
460,11,37697,2,0,P|456:47|445:83,1,74.2500022659302,2|0,0:2|0:0,0:0:0:0:
369,31,37914,1,2,0:0:0:0:
292,130,38133,1,2,1:2:0:0:
165,38,38350,6,0,P|200:41|238:51,1,74.2500022659302,2|0,1:3|0:0,0:0:0:0:
14,79,38567,2,0,P|49:82|87:92,1,74.2500022659302,2|0,0:0|0:0,0:0:0:0:
157,182,38785,1,2,1:3:0:0:
140,262,38893,1,2,0:0:0:0:
75,307,39002,1,2,1:2:0:0:
1,297,39111,1,2,1:2:0:0:
48,232,39220,6,0,P|58:312|59:386,1,135,0|2,1:0|0:0,0:0:0:0:
59,366,39546,1,2,1:2:0:0:
59,366,39654,2,0,P|102:378|143:390,1,67.5,2|0,1:2|0:0,0:0:0:0:
186,332,39872,2,0,P|218:341|250:350,1,67.5,2|0,1:0|0:0,0:0:0:0:
350,350,40089,5,2,1:3:0:0:
350,350,40161,1,0,3:0:0:0:
350,350,40234,1,0,3:0:0:0:
350,350,40306,1,2,3:2:0:0:
350,350,40379,1,0,3:0:0:0:
350,350,40451,1,0,3:0:0:0:
350,350,40524,6,0,P|346:279|352:189,1,148.50000453186,4|2,1:0|0:0,0:0:0:0:
350,201,40850,1,2,1:3:0:0:
350,201,40959,2,0,P|313:189|273:181,1,74.2500022659302,2|0,0:0|0:0,0:0:0:0:
414,147,41176,2,0,P|450:139|485:127,1,74.2500022659302,2|0,1:2|0:0,0:0:0:0:
353,87,41393,5,2,1:3:0:0:
353,87,41611,1,2,0:0:0:0:
297,13,41719,1,2,1:2:0:0:
223,168,41828,1,2,1:3:0:0:
302,161,41937,1,2,3:2:0:0:
172,96,42045,5,2,3:2:0:0:
172,96,42154,1,2,3:2:0:0:
172,96,42263,2,0,P|163:31|167:-1,1,74.2500022659302,4|0,1:0|0:0,0:0:0:0:
80,58,42480,1,2,3:3:0:0:
51,136,42589,1,0,1:0:0:0:
119,185,42698,6,2,P|99:259|3:295,1,175.499991966248,4|0,1:2|1:0,0:1:0:0:
49,260,43024,1,0,1:0:0:0:
131,378,43132,2,0,B|245:378|173:320|290:325,1,175.499991966248,10|2,1:1|1:2,0:0:0:0:
289,324,43458,1,0,1:0:0:0:
401,372,43566,6,0,P|448:312|435:248,1,135,4|2,1:0|0:0,0:0:0:0:
440,257,43892,1,0,1:0:0:0:
440,257,44001,2,0,P|398:265|369:268,1,67.5,2|0,1:2|0:0,0:0:0:0:
304,216,44218,2,0,P|262:224|233:227,1,67.5,2|0,1:2|0:0,0:0:0:0:
164,175,44436,1,2,1:3:0:0:
164,175,44653,1,2,0:0:0:0:
164,175,44870,5,2,1:2:0:0:
127,104,44979,1,2,0:0:0:0:
156,32,45088,1,2,3:2:0:0:
229,3,45196,1,2,3:2:0:0:
253,19,45305,5,0,1:0:0:0:
175,30,45414,1,2,0:3:0:0:
100,39,45523,2,0,P|168:41|205:53,1,67.5,2|0,1:2|1:0,0:0:0:0:
260,115,45740,5,6,1:2:0:0:
338,126,45849,1,0,1:0:0:0:
413,135,45958,2,0,P|345:137|308:149,1,67.5,2|0,1:2|1:0,0:0:0:0:
182,186,46176,5,10,1:1:0:0:
180,194,46248,1,0,3:0:0:0:
178,202,46320,1,0,3:0:0:0:
176,210,46393,2,0,P|136:210|86:222,1,67.5,0|0,1:0|1:0,0:0:0:0:
47,287,46610,5,4,1:0:0:0:
47,287,46719,1,0,1:0:0:0:
47,287,46828,2,0,P|40:323|25:369,1,67.5,2|0,0:0|0:0,0:0:0:0:
59,292,47045,2,0,P|50:328|34:373,1,67.5,2|0,0:0|0:0,0:0:0:0:
193,275,47262,5,2,1:2:0:0:
193,275,47371,1,0,1:0:0:0:
193,275,47480,2,0,P|200:237|210:203,1,67.5,2|0,1:3|0:0,0:0:0:0:
180,265,47697,2,0,P|188:227|199:193,1,67.5,2|2,0:0|1:0,0:0:0:0:
273,146,47915,5,2,1:3:0:0:
269,71,48023,1,2,3:2:0:0:
193,37,48132,1,2,3:2:0:0:
197,112,48241,1,2,3:2:0:0:
118,81,48349,5,4,1:0:0:0:
118,81,48458,1,0,1:0:0:0:
118,81,48567,2,0,P|84:94|30:103,1,67.5,2|0,1:3|1:0,0:0:0:0:
0,210,48784,1,4,1:2:0:0:
76,222,48893,1,0,1:0:0:0:
156,233,49001,2,0,P|189:224|229:216,1,67.5,2|0,1:0|0:0,0:0:0:0:
357,265,49219,6,0,P|355:290|342:312,1,43.874997991562,8|0,1:0|0:0,0:0:0:0:
370,267,49327,2,0,P|368:292|357:312,1,43.874997991562,0|0,1:0|0:0,0:0:0:0:
416,369,49436,1,10,1:0:0:0:
416,369,49654,5,4,1:0:0:0:
124,42,53566,6,0,P|37:84|62:152,1,135,2|0,1:2|0:0,0:0:0:0:
90,171,53892,1,0,1:0:0:0:
90,171,54001,2,0,P|125:163|173:158,1,67.5,0|0,1:0|0:0,0:0:0:0:
101,292,54218,2,0,P|76:265|48:226,1,67.5,2|0,3:1|1:0,0:0:0:0:
212,220,54436,2,0,B|208:296|178:274|166:368,1,135,0|0,1:0|0:0,0:0:0:0:
169,346,54871,6,2,B|314:299|227:409|405:373,1,202.500007724762,0|0,1:0|0:0,0:2:0:0:
482,235,55740,5,2,0:0:0:0:
482,235,55958,1,0,3:3:0:0:
482,235,56067,1,2,1:3:0:0:
482,235,56175,2,0,B|426:260|352:211|352:211|329:227|328:260|354:270,1,202.500007724762,2|0,2:2|2:0,2:2:0:0:
341,30,57045,5,2,0:0:0:0:
341,30,57262,1,2,0:0:0:0:
341,30,57480,2,0,P|401:27|418:155,1,202.500007724762,2|0,1:2|0:0,0:0:0:0:
241,127,58132,1,2,0:0:0:0:
241,127,58240,1,2,0:0:0:0:
241,127,58349,2,0,P|245:80|245:16,1,101.250003862381,2|2,0:0|0:0,0:0:0:0:
140,171,58784,5,0,1:0:0:0:
86,226,58893,2,0,P|45:242|-5:244,1,87.749995983124,0|0,1:0|0:0,0:0:0:0:
185,307,59110,5,8,1:0:0:0:
239,252,59219,2,0,P|280:236|330:234,1,87.749995983124,2|0,3:3|0:0,0:0:0:0:
488,303,59436,1,2,1:2:0:0:
488,303,59654,5,0,1:0:0:0:
494,381,59762,1,2,1:1:0:0:
347,324,59871,5,0,1:0:0:0:
411,279,59980,1,0,1:0:0:0:
324,234,60088,2,0,B|469:213|398:296|540:283,1,202.5,4|2,1:2|1:2,0:0:0:0:
511,284,60522,1,0,1:0:0:0:
491,137,60740,1,2,0:3:0:0:
491,137,60848,1,0,1:0:0:0:
491,137,60957,6,0,P|491:98|503:60,1,67.5,0|0,1:0|0:0,0:0:0:0:
354,108,61174,2,0,P|373:75|402:47,1,67.5,2|0,1:3|1:0,0:0:0:0:
308,0,61392,2,0,B|258:-12|247:117|120:83,1,202.5,0|2,1:0|1:2,0:0:0:0:
138,86,61827,1,0,1:0:0:0:
21,221,62045,1,2,0:3:0:0:
21,221,62154,1,2,1:2:0:0:
21,221,62262,6,0,B|15:252|15:252|10:263|10:263|5:314,1,67.5,0|0,1:0|0:0,0:0:0:0:
136,270,62480,2,0,B|115:294|115:294|105:300|105:300|75:342,1,67.5,2|2,1:3|1:2,0:0:0:0:
190,384,62697,2,0,B|222:295|222:295|226:263|226:263|233:256|233:256|259:181,1,202.5,0|0,1:0|0:0,0:0:0:0:
254,193,63132,1,4,1:2:0:0:
351,214,63349,1,0,1:0:0:0:
203,112,63567,5,2,3:3:0:0:
203,112,63676,1,0,1:0:0:0:
203,112,63785,2,0,B|162:123|162:123|121:132,1,67.5,0|0,1:0|1:0,0:0:0:0:
0,44,64002,5,4,1:2:0:0:
73,27,64111,2,0,L|142:11,1,67.5,0|0,1:0|0:0,0:0:0:0:
137,128,64328,1,2,1:2:0:0:
212,141,64437,1,0,1:0:0:0:
276,101,64545,2,0,L|355:79,1,67.5,2|0,1:3|0:0,0:0:0:0:
347,201,64763,1,0,1:0:0:0:
407,251,64872,1,0,1:0:0:0:
476,213,64980,2,0,L|518:145,2,67.5,2|0|0,1:3|1:3|1:0,0:0:0:0:
388,335,65307,6,0,B|362:348|362:348|353:378,1,43.874997991562,4|0,1:2|0:0,0:0:0:0:
357,362,65415,2,0,P|288:372|266:346,1,87.749995983124,2|0,1:3|3:0,0:0:0:0:
156,238,65633,2,0,B|270:217|216:295|327:279,1,175.499991966248,2|2,1:3|3:2,0:0:0:0:
389,231,65959,1,2,1:3:0:0:
389,231,66176,5,0,1:0:0:0:
303,188,66285,1,0,1:0:0:0:
393,122,66393,5,2,1:3:0:0:
477,85,66502,1,0,1:0:0:0:
367,26,66611,2,0,P|297:70|197:42,1,175.499991966248,0|2,1:0|0:0,0:0:0:0:
210,52,66937,1,0,1:0:0:0:
298,106,67046,5,0,1:0:0:0:
248,171,67154,2,0,B|262:200|262:200|271:209|271:209|284:248,1,67.5,2|2,1:3|1:2,0:0:0:0:
170,128,67372,2,0,B|142:146|142:146|131:149|131:149|100:176,1,67.5,2|0,1:2|1:0,0:0:0:0:
35,255,67589,5,0,1:0:0:0:
17,175,67698,1,0,1:0:0:0:
98,160,67806,1,0,1:0:0:0:
119,245,67915,6,0,L|123:288,1,43.874997991562,4|0,1:2|0:0,0:0:0:0:
124,289,68024,2,0,B|171:305|171:305|215:275,1,101.250003862381,2|0,1:1|0:0,0:0:0:0:
369,292,68241,1,2,1:3:0:0:
246,363,68567,5,2,1:3:0:0:
213,275,68676,1,2,1:1:0:0:
299,226,68785,1,2,1:3:0:0:
299,226,68893,1,0,1:0:0:0:
215,72,69111,5,2,1:3:0:0:
302,107,69219,2,0,P|309:67|325:4,1,87.749995983124,0|6,1:1|1:1,0:0:0:0:
223,159,69437,5,0,3:0:0:0:
141,121,69545,1,4,1:2:0:0:
68,166,69654,2,0,P|33:172|-6:187,1,67.5,0|2,1:1|0:3,0:0:0:0:
100,321,69871,5,2,1:2:0:0:
183,284,69980,1,2,3:2:0:0:
211,358,70089,5,2,1:2:0:0:
170,280,70197,1,2,3:2:0:0:
252,256,70306,5,2,1:2:0:0:
165,293,70415,1,2,3:2:0:0:
146,209,70523,5,4,3:2:0:0:
211,153,70632,2,0,P|254:158|313:177,1,87.749995983124,2|2,1:0|1:2,0:0:0:0:
352,238,70850,1,2,0:0:0:0:
452,139,70958,2,0,P|409:126|366:121,1,87.749995983124,2|2,1:2|3:2,0:0:0:0:
304,47,71176,1,2,3:2:0:0:
284,50,71284,1,2,3:2:0:0:
381,4,71393,1,2,1:2:0:0:
401,1,71502,1,2,3:2:0:0:
474,54,71610,2,0,P|462:90|450:150,1,87.749995983124,2|2,3:2|3:2,0:0:0:0:
494,287,71828,5,2,3:0:0:0:
425,339,71936,2,0,P|383:325|340:316,1,87.749995983124,2|2,1:0|1:2,0:0:0:0:
417,359,72154,5,2,0:2:0:0:
328,288,72263,2,0,P|286:301|243:310,1,87.749995983124,2|2,1:2|3:2,0:0:0:0:
160,366,72480,5,2,3:2:0:0:
86,345,72589,1,2,3:2:0:0:
73,266,72697,5,2,1:2:0:0:
128,213,72806,1,2,3:2:0:0:
206,238,72915,5,2,3:2:0:0:
224,312,73023,1,2,3:2:0:0:
111,200,73132,6,0,P|102:164|108:130,1,43.874997991562,2|0,1:1|0:0,0:0:0:0:
102,157,73241,2,0,P|174:145|200:109,1,87.749995983124,2|2,3:2|0:0,0:0:0:0:
117,15,73458,1,2,3:1:0:0:
191,57,73567,2,0,B|250:48|229:37|285:32,1,87.749995983124,2|2,1:2|0:2,0:0:0:0:
404,112,73784,1,2,3:1:0:0:
330,87,73893,1,2,3:2:0:0:
262,187,74002,5,2,1:2:0:0:
342,168,74110,1,2,3:2:0:0:
409,222,74219,2,0,P|451:212|512:203,1,87.749995983124,2|2,3:2|3:2,0:0:0:0:
389,384,74436,5,2,1:3:0:0:
313,341,74545,2,0,B|318:295|329:311|334:253,1,87.749995983124,2|2,1:0|1:2,0:0:0:0:
485,265,74762,5,2,0:0:0:0:
409,222,74871,2,0,B|404:176|393:192|388:134,1,87.749995983124,2|2,1:2|3:2,0:0:0:0:
375,52,75088,1,2,3:2:0:0:
382,20,75197,1,2,3:2:0:0:
268,40,75306,5,2,1:2:0:0:
296,121,75415,1,2,3:2:0:0:
213,143,75523,1,2,3:2:0:0:
185,62,75632,1,2,3:2:0:0:
275,25,75741,6,0,P|304:114|271:256,1,222.750006797791,4|0,1:2|1:0,0:0:0:0:
280,238,76175,1,0,1:0:0:0:
99,360,76393,6,0,L|20:390,1,67.5,2|2,3:2|3:2,0:0:0:0:
113,281,76610,2,0,L|125:197,1,67.5,2|2,1:2|3:2,0:0:0:0:
174,328,76827,2,0,L|239:380,1,67.5,2|2,3:2|3:2,0:0:0:0:
366,384,77045,6,0,B|318:283|448:316|405:189,1,202.5,2|0,1:2|1:0,0:0:0:0:
409,202,77480,1,0,1:0:0:0:
424,42,77697,2,0,P|456:31|488:1,1,67.5,2|2,3:2|3:2,0:0:0:0:
342,66,77914,2,0,P|309:76|265:70,1,67.5,2|2,1:2|3:2,0:0:0:0:
191,51,78132,1,2,3:2:0:0:
170,41,78240,1,2,3:2:0:0:
91,23,78349,6,0,L|41:53,1,33.75,2|0,1:2|0:0,0:0:0:0:
62,40,78458,2,0,B|91:73|91:73|72:113|96:137,1,101.250003862381,2|2,3:2|3:0,0:0:0:0:
155,187,78675,1,0,1:0:0:0:
155,187,78784,2,0,P|202:183|234:169,1,67.5,0|2,0:0|3:0,0:0:0:0:
97,254,79001,2,0,P|49:257|17:271,1,67.5,0|0,1:0|0:0,0:0:0:0:
150,342,79219,5,2,1:2:0:0:
164,368,79327,1,2,3:2:0:0:
193,336,79436,1,2,3:2:0:0:
208,362,79545,1,2,3:2:0:0:
273,316,79653,6,0,L|329:325,1,33.75,4|0,1:2|0:0,0:0:0:0:
334,346,79762,2,0,B|376:335|376:335|409:338|409:338|438:329,1,101.250003862381,0|2,0:0|3:0,0:0:0:0:
299,184,79979,1,6,1:1:0:0:
215,231,80088,2,0,B|138:257|175:227|84:258,1,121.499996292114
19,137,80305,6,0,B|23:117|23:117|28:105|28:105|30:65,1,60.7499981460572,4|0,1:2|0:0,0:0:0:0:
11,62,80414,1,0,3:0:0:0:
139,81,80523,2,0,B|129:47|129:47|128:36|128:36|124:19,1,60.7499981460572,2|0,3:0|0:0,0:0:0:0:
124,22,80632,2,0,B|181:29|181:29|223:50|223:50|254:47,1,121.499996292114,6|0,1:1|0:0,0:0:0:0:
463,17,80958,5,4,3:2:0:0:
489,97,81066,1,2,1:0:0:0:
439,165,81175,1,2,1:2:0:0:
439,165,81392,5,2,1:2:0:0:
352,147,81501,1,2,3:2:0:0:
272,132,81610,2,0,P|317:125|375:122,1,87.749995983124,2|2,3:2|3:2,0:0:0:0:
491,244,81827,1,2,1:2:0:0:
413,270,81936,1,2,3:2:0:0:
336,295,82044,2,0,P|292:298|248:304,1,87.749995983124,2|2,3:2|3:2,0:0:0:0:
153,374,82262,6,0,P|145:351|139:318,1,43.874997991562,2|0,3:0|0:0,0:0:0:0:
138,378,82371,2,0,P|130:355|124:322,1,43.874997991562,2|0,1:0|0:0,0:0:0:0:
60,284,82479,1,2,1:2:0:0:
60,284,82697,6,0,P|65:246|63:185,1,87.749995983124,2|2,1:2|3:2,0:0:0:0:
148,174,82914,1,2,3:2:0:0:
233,184,83023,1,2,3:2:0:0:
315,193,83131,1,2,1:2:0:0:
398,200,83240,1,2,3:2:0:0:
491,244,83349,2,0,P|485:206|488:145,1,87.749995983124,2|2,3:2|3:2,0:0:0:0:
504,1,83566,6,0,B|476:7|476:7|436:34,1,43.874997991562,2|0,1:0|0:0,0:0:0:0:
464,16,83675,2,0,P|443:46|309:19,1,175.499991966248,2|2,1:2|0:0,0:0:0:0:
216,52,84001,5,2,1:2:0:0:
142,81,84110,1,2,0:0:0:0:
214,135,84218,5,2,3:1:0:0:
288,105,84327,1,2,3:2:0:0:
415,154,84436,5,2,1:2:0:0:
444,232,84544,1,2,3:2:0:0:
364,260,84653,1,2,3:2:0:0:
335,182,84762,1,2,3:2:0:0:
461,244,84870,6,0,L|451:299,1,43.874997991562,2|0,3:0|0:0,0:0:0:0:
465,299,84979,2,0,B|418:296|389:336|389:336|395:373|318:380,1,175.499991966248,2|2,1:0|0:0,0:0:0:0:
219,355,85305,5,2,1:2:0:0:
149,375,85414,1,2,3:2:0:0:
89,316,85522,1,2,3:2:0:0:
106,245,85631,1,2,3:2:0:0:
190,237,85740,5,2,1:2:0:0:
211,252,85849,1,2,3:2:0:0:
226,231,85957,1,2,3:2:0:0:
205,216,86066,1,2,3:2:0:0:
303,294,86175,6,2,P|331:208|316:68,1,222.750006797791,2|0,1:2|1:0,0:1:0:0:
333,67,86609,2,0,P|285:67|226:59,1,87.749995983124,4|0,1:2|0:0,0:0:0:0:
462,20,86827,5,2,3:2:0:0:
509,76,86935,1,2,3:2:0:0:
478,145,87044,1,2,1:2:0:0:
414,185,87153,1,2,3:2:0:0:
375,251,87261,1,2,3:2:0:0:
420,314,87370,1,2,3:2:0:0:
512,282,87480,6,2,B|388:269|427:353|326:373,1,202.500007724762,4|0,1:2|0:0,0:1:0:0:
196,309,87806,6,2,P|201:281|212:245,1,50.6250019311906,4|0,1:2|0:0,0:1:0:0:
204,250,87914,2,0,P|261:250|302:299,1,101.250003862381,2|0,1:3|0:0,0:0:0:0:
112,343,88132,6,0,P|72:373|23:370,1,101.250003862381,6|0,1:0|0:0,0:0:0:0:
2,226,88349,6,0,P|7:198|13:171,1,50.6250019311906,2|0,1:3|0:0,0:0:0:0:
3,151,88458,2,2,P|61:115|182:169,1,202.500007724762,4|0,1:2|0:0,0:1:0:0:
115,226,88784,5,4,1:0:0:0:
188,145,88893,2,0,B|233:143|233:143|267:180,1,87.749995983124,2|0,1:0|0:0,0:0:0:0:
386,256,89110,1,0,1:0:0:0:
437,185,89219,2,0,P|481:198|502:238,1,87.749995983124,0|0,1:0|0:0,0:0:0:0:
327,365,89436,5,4,1:3:0:0:
302,376,89509,5,4,0:3:0:0:
275,368,89581,5,4,1:3:0:0:
254,348,89653,6,0,P|248:283|271:151,1,175.499991966248,4|2,1:2|0:2,0:0:0:0:
296,272,89980,1,2,1:2:0:0:
171,315,90088,6,2,P|99:315|43:198,1,202.500007724762,4|0,1:2|0:0,0:1:0:0:
104,84,90414,6,0,P|106:60|93:26,1,50.6250019311906,2|0,1:0|0:0,0:0:0:0:
128,114,90523,2,0,P|185:119|229:80,1,101.250003862381,4|0,1:2|0:0,0:0:0:0:
306,168,90740,6,0,P|310:142|295:110,1,50.6250019311906,6|0,1:0|0:0,0:0:0:0:
334,197,90849,2,0,P|431:201|495:115,1,202.500007724762,0|0,1:0|1:0,0:0:0:0:
402,13,91174,6,0,P|390:36|385:70,1,50.6250019311906,0|0,1:0|0:0,0:0:0:0:
380,4,91283,2,0,P|368:27|363:61,1,50.6250019311906,0|0,1:0|0:0,0:0:0:0:
283,45,91392,1,4,1:2:0:0:
256,192,91500,12,4,94000,1:0:0:0:
4,23,96609,6,2,B|132:44|132:44|154:79|154:79|207:88,1,222.750006797791,4|0,1:2|1:0,0:1:0:0:
150,158,97044,2,0,P|118:177|67:173,1,74.2500022659302,0|2,1:0|0:2,0:0:0:0:
240,172,97262,1,2,1:3:0:0:
240,172,97370,1,2,1:3:0:0:
240,172,97479,2,0,P|277:229|196:365,1,222.750006797791,2|0,1:3|1:0,0:0:0:0:
309,322,97914,6,0,P|355:308|401:306,1,74.2500022659302,0|0,1:0|0:0,0:0:0:0:
512,382,98131,1,2,1:3:0:0:
512,382,98240,1,0,1:0:0:0:
512,382,98349,2,0,P|476:348|452:310,1,74.2500022659302,0|2,1:0|0:2,0:0:0:0:
464,180,98566,2,0,P|452:227|431:267,1,74.2500022659302,0|0,1:0|0:0,0:0:0:0:
390,134,98783,2,0,B|250:118|312:242|159:227,1,222.750006797791,0|0,1:0|1:0,0:0:0:0:
85,113,99218,5,4,1:0:0:0:
0,109,99327,2,0,P|39:100|94:95,1,74.2500022659302,2|0,1:3|0:0,0:0:0:0:
144,26,99544,1,0,1:0:0:0:
231,27,99653,2,0,P|183:37|134:40,1,74.2500022659302,0|2,1:0|0:2,0:0:0:0:
166,162,99870,1,2,1:3:0:0:
166,162,99979,1,2,1:3:0:0:
166,162,100088,2,0,B|182:214|191:185|200:227,1,74.2500022659302,2|0,1:3|0:0,0:0:0:0:
87,321,100305,2,0,B|96:272|105:301|123:244,1,74.2500022659302,2|0,1:3|0:0,0:0:0:0:
59,194,100522,6,0,P|21:205|-2:236,1,74.2500022659302,2|2,1:3|3:2,0:0:0:0:
108,342,100739,1,2,3:2:0:0:
209,302,100848,1,2,3:2:0:0:
307,257,100957,6,0,P|313:221|329:176,1,74.2500022659302,2|2,1:3|3:2,0:0:0:0:
472,111,101175,2,0,P|437:123|390:132,1,74.2500022659302,2|2,3:2|3:2,0:0:0:0:
294,88,101392,5,2,1:3:0:0:
225,33,101502,1,2,3:2:0:0:
135,143,101610,5,2,3:2:0:0:
213,116,101719,1,2,3:2:0:0:
250,194,101828,5,4,1:0:0:0:
173,223,101936,2,0,P|146:238|129:257,1,50.6250019311906,2|0,3:1|1:0,0:0:0:0:
30,269,102154,2,0,B|152:262|112:356|204:373,1,202.500007724762,2|0,3:1|0:0,0:0:0:0:
310,299,102480,5,2,1:3:0:0:
234,241,102588,2,0,B|240:216|240:216|249:193,1,50.6250019311906,2|0,3:1|1:0,0:0:0:0:
347,173,102806,2,0,B|321:288|321:288|338:321|338:321|322:384,1,202.500007724762,2|4,3:1|0:2,0:0:0:0:
512,317,103132,5,2,1:3:0:0:
411,263,103241,2,0,P|438:256|479:242,1,50.6250019311906,2|0,3:1|0:0,0:0:0:0:
471,153,103458,2,0,B|381:135|381:135|334:134|334:134|325:127|325:127|253:117,1,202.500007724762,2|2,3:1|3:2,0:0:0:0:
217,65,103784,5,2,3:1:0:0:
287,0,103893,2,0,P|292:28|304:58,1,50.6250019311906,2|2,3:1|1:2,0:0:0:0:
162,0,104110,2,0,P|84:79|99:168,1,202.500007724762,2|2,3:1|3:2,0:0:0:0:
163,311,104436,5,4,1:2:0:0:
239,331,104545,1,2,3:1:0:0:
258,257,104653,1,0,1:0:0:0:
188,238,104762,2,0,P|83:240|6:309,1,202.500007724762,6|0,3:1|0:3,0:0:0:0:
94,366,105088,5,2,1:3:0:0:
163,311,105197,1,2,3:1:0:0:
176,229,105306,1,0,1:0:0:0:
252,325,105414,2,0,P|368:380|478:338,1,242.999992584229,6|0,3:1|0:0,0:0:0:0:
457,213,105740,5,2,1:3:0:0:
359,251,105849,1,2,3:1:0:0:
310,163,105958,1,0,1:0:0:0:
350,259,106066,2,0,P|440:156|409:22,1,270,6|0,3:1|0:0,0:0:0:0:
207,13,106393,5,0,1:0:0:0:
146,79,106501,5,0,1:0:0:0:
175,164,106610,5,0,1:0:0:0:
261,183,106719,5,0,1:0:0:0:
322,116,106827,5,0,1:0:0:0:
294,32,106936,5,4,1:0:0:0:
