osu file format v14

[General]
AudioFilename: audio.mp3
AudioLeadIn: 0
PreviewTime:70519
Countdown: 0
SampleSet: Soft
StackLeniency: 0.7
Mode: 0
LetterboxInBreaks: 0
WidescreenStoryboard: 1

[Editor]
Bookmarks: 3572,14006,14332,19006,25310,37483,49656,60090,62481,70524,91392,101065,101826,107043
DistanceSpacing: 0.8
BeatDivisor: 4
GridSize: 32
TimelineZoom: 3.499999

[Metadata]
Title:The Sky of Sadness
TitleUnicode:The Sky of Sadness
Artist:Nekomata Master
ArtistUnicode:猫叉Master
Creator:seros
Version:Yoru's Insane
Source:pop'n music 19 TUNE STREET
Tags:beatmania iidx 27 heroic verse 佐藤直之 Naoyuki Sato lively ポップンミュージック19チューンストリート ポップンリズミン rhythm video game instrumental electronic calvaria sorairokarasu Cyanocitcho tachibana gekka tachibana_gekka mariokartya xlight x_light x light XLT hakurei yoru hakurei_yoru pigeons arsalan zengsb
BeatmapID:4350892
BeatmapSetID:1983503

[Difficulty]
HPDrainRate:4
CircleSize:4.5
OverallDifficulty:7
ApproachRate:8.7
SliderMultiplier:2.7
SliderTickRate:1

[Events]
//Background and Video events
0,0,"FsJjj_wagAMUIUg.jpg",0,0
//Break Periods
//Storyboard Layer 0 (Background)
//Storyboard Layer 1 (Fail)
//Storyboard Layer 2 (Pass)
//Storyboard Layer 3 (Foreground)
//Storyboard Layer 4 (Overlay)
//Storyboard Sound Samples

[TimingPoints]
959,434.782608695652,3,2,1,50,1,0
14001,-100,3,2,1,70,0,0
24435,-100,3,2,1,50,0,0
25306,434.782608695652,7,2,1,70,1,0
25306,-117.647058823529,7,2,1,70,0,0
27044,-153.846153846153,7,2,1,70,0,0
37478,-117.647058823529,7,2,1,70,0,0
38130,-117.647058823529,7,2,1,70,0,0
38347,-117.647058823529,7,2,1,70,0,0
39217,-117.647058823529,7,2,1,70,0,0
39869,-117.647058823529,7,2,1,70,0,0
43129,-181.818181818181,7,2,1,70,0,0
43564,-117.647058823529,7,2,1,70,0,0
49216,-100,7,2,1,70,0,0
49654,434.782608695652,3,2,1,50,1,0
58346,-100,3,2,1,70,0,0
58780,-100,3,2,1,70,0,0
60085,-100,3,2,1,70,0,0
60737,-100,3,2,1,70,0,0
60954,-100,3,2,1,70,0,0
61389,-100,3,2,1,70,0,0
62802,-100,3,2,1,70,0,0
63563,-100,3,2,1,70,0,0
67041,-100,3,2,1,70,0,0
67475,-100,3,2,1,70,0,0
67910,-100,3,2,1,70,0,0
68019,-90.9090909090909,3,2,1,70,0,0
69540,-90.9090909090909,3,2,1,70,0,0
70519,-90.9090909090909,3,2,1,80,0,0
73127,-90.9090909090909,3,2,1,80,0,0
74649,-90.9090909090909,3,2,1,80,0,0
75736,-90.9090909090909,3,2,1,80,0,0
76170,-90.9090909090909,3,2,1,80,0,0
79648,-90.9090909090909,3,2,1,80,0,0
79866,-90.9090909090909,3,2,1,80,0,0
79974,-83.3333333333333,3,2,1,80,0,0
80627,-100,3,2,1,80,0,0
80735,-166.666666666667,3,2,1,80,0,0
80953,-83.3333333333333,3,2,1,80,0,0
87474,-83.3333333333333,3,2,1,80,0,0
88778,-83.3333333333333,3,2,1,80,0,0
90082,-83.3333333333333,3,2,1,80,0,0
91387,-111.111111111111,3,2,1,70,0,0
101929,-111.111111111111,3,2,1,70,0,0
102147,-111.111111111111,3,2,1,70,0,0
102581,-111.111111111111,3,2,1,70,0,0
102799,-111.111111111111,3,2,1,70,0,0
103234,-111.111111111111,3,2,1,70,0,0
104755,-111.111111111111,3,2,1,70,0,0
105190,-111.111111111111,3,2,1,70,0,0
105407,-111.111111111111,3,2,1,70,0,0
105842,-111.111111111111,3,2,1,70,0,0
106059,-111.111111111111,3,2,1,70,0,0

[Colours]
Combo1 : 213,181,236
Combo2 : 209,245,136
Combo3 : 247,208,142
Combo4 : 231,146,146

[HitObjects]
169,237,958,5,0,1:0:0:0:
79,216,1177,1,2,0:2:0:0:
79,216,1286,1,0,1:0:0:0:
79,216,1394,1,4,0:2:0:0:
0,342,1612,2,0,B|35:359|35:359|134:313,1,135,0|8,1:0|1:0,0:0:0:0:
169,237,1938,2,0,B|204:220|204:220|303:266,1,135,8|0,3:0|1:0,0:0:0:0:
364,293,2264,1,8,1:0:0:0:
364,293,2372,6,0,P|313:246|362:151,1,135,0|8,1:0|1:0,0:0:0:0:
416,148,2699,2,0,P|467:195|418:290,1,135,0|8,1:0|1:0,0:0:0:0:
356,283,3025,2,0,P|318:224|390:145,1,135,0|0,1:0|1:0,0:0:0:0:
416,148,3296,1,0,1:0:0:0:
416,148,3351,2,0,P|467:141|482:120,1,67.5,0|0,1:0|1:0,0:0:0:0:
444,0,3568,6,0,P|469:42|354:75,1,202.5,0|2,1:0|3:2,0:0:0:0:
383,95,4003,2,0,P|442:88|432:1,1,135,2|0,3:2|0:0,0:0:0:0:
274,42,4438,2,0,P|211:51|202:113,1,135,2|2,3:2|0:0,0:0:0:0:
131,263,4872,6,0,L|378:241,1,202.5,0|2,1:0|3:2,0:0:0:0:
300,259,5307,2,0,L|115:275,1,135,2|0,3:2|0:0,0:0:0:0:
94,384,5742,2,0,P|76:355|78:322,1,67.5,2|0,3:2|0:0,0:0:0:0:
0,246,5959,2,0,P|41:214|84:225,1,67.5,2|0,0:0|1:0,0:0:0:0:
144,137,6177,6,0,L|170:300,1,135,0|0,1:0|0:0,0:0:0:0:
338,375,6611,2,0,P|313:333|428:300,1,202.5,0|2,0:0|3:2,0:0:0:0:
353,221,7046,2,0,P|307:225|294:132,1,135,2|2,3:2|0:0,0:0:0:0:
381,0,7481,2,0,L|360:160,1,135,0|0,1:0|0:0,0:0:0:0:
244,303,7916,2,0,L|105:289,1,135,2|0,3:2|0:0,0:0:0:0:
49,65,8350,5,0,1:0:0:0:
28,67,8459,1,2,3:2:0:0:
12,80,8568,1,2,1:2:0:0:
3,98,8676,1,2,3:2:0:0:
1,118,8785,2,0,L|16:337,1,202.5,4|2,1:2|3:3,0:0:0:0:
69,378,9220,2,0,P|115:382|128:289,1,135,2|0,3:2|0:0,0:0:0:0:
161,143,9655,2,0,P|161:185|184:207,1,67.5,2|0,3:2|0:0,0:0:0:0:
251,182,9872,2,0,P|251:140|227:117,1,67.5,2|0,3:2|1:0,0:0:0:0:
153,74,10089,6,0,L|400:96,1,202.5,0|2,1:0|3:2,0:0:0:0:
421,62,10524,2,0,P|467:58|480:151,1,135,2|0,3:2|3:0,0:0:0:0:
420,198,10850,1,2,3:0:0:0:
428,216,10959,2,0,L|407:300,1,67.5,2|0,3:2|3:0,0:0:0:0:
332,341,11176,1,2,3:3:0:0:
322,353,11285,1,0,1:0:0:0:
313,362,11394,6,0,L|291:228,1,135,0|0,1:0|0:0,0:0:0:0:
224,176,11720,1,2,3:2:0:0:
224,176,11828,2,0,L|204:252,1,67.5,0|2,0:0|3:2,0:0:0:0:
132,202,12046,1,0,0:0:0:0:
120,209,12154,1,2,3:2:0:0:
108,216,12263,2,0,B|62:189|62:189|88:96,1,135,2|2,3:2|3:1,0:0:0:0:
253,22,12698,6,0,L|424:-7,1,135,0|2,1:0|0:3,0:0:0:0:
512,104,13133,2,0,P|453:84|375:81,1,135,0|8,1:0|1:0,0:0:0:0:
270,211,13567,6,0,P|312:201|358:202,1,67.5,0|0,1:0|1:0,0:0:0:0:
425,292,13785,2,0,P|383:282|337:283,1,67.5,2|0,1:0|1:0,0:0:0:0:
237,362,14002,6,0,P|199:376|156:367,2,67.5,4|0|0,1:2|0:0|1:0,0:0:0:0:
159,291,14328,2,0,P|197:277|240:286,2,67.5,2|0|0,1:3|1:0|0:0,0:0:0:0:
88,191,14654,1,10,1:0:0:0:
82,206,14764,1,0,1:0:0:0:
76,221,14873,2,0,P|155:191|137:106,1,135,0|2,1:0|3:1,0:0:0:0:
155,120,15307,6,0,L|268:101,2,67.5,0|2|0,1:0|3:1|0:0,0:0:0:0:
113,50,15632,1,0,0:0:0:0:
113,50,15741,2,0,L|226:31,1,67.5,4|0,1:2|1:2,0:0:0:0:
366,139,15959,6,0,L|293:128,1,67.5,0|2,1:0|1:3,0:0:0:0:
333,212,16177,2,0,L|260:201,1,67.5,0|8,1:0|0:1,0:0:0:0:
139,329,16394,1,0,1:0:0:0:
135,313,16503,1,0,1:0:0:0:
132,296,16612,6,0,P|174:274|217:289,2,67.5,0|10|0,1:0|1:0|0:0,0:0:0:0:
241,333,16938,1,0,0:0:0:0:
241,333,17046,2,2,P|304:355|362:300,1,135,4|0,1:2|0:0,0:1:0:0:
355,247,17372,1,0,1:0:0:0:
392,184,17481,2,0,P|419:165|478:175,2,67.5,0|0|2,1:0|0:0|1:3,0:0:0:0:
444,7,17916,6,0,P|477:14|511:12,1,67.5,0|8,1:0|1:0,0:0:0:0:
486,94,18133,2,0,P|453:87|419:90,1,67.5,0|0,1:0|0:0,0:0:0:0:
367,151,18351,2,0,L|210:134,1,135,4|2,1:0|1:3,0:0:0:0:
157,129,18677,1,8,1:2:0:0:
157,129,18785,6,0,P|155:68|132:29,1,67.5,8|8,1:3|1:3,0:0:0:0:
67,72,19003,2,0,P|69:133|92:172,1,67.5,4|4,1:3|1:3,0:0:0:0:
129,264,19220,6,0,P|133:226|122:197,2,67.5,4|2|10,1:2|0:3|1:1,0:0:0:0:
58,306,19546,2,0,L|217:321,1,135,0|10,0:0|1:0,0:0:0:0:
249,260,19872,2,0,L|322:250,1,67.5,0|0,0:0|1:0,0:0:0:0:
359,323,20090,1,0,1:0:0:0:
359,323,20198,2,0,L|293:333,2,67.5,0|0|0,0:0|1:0|0:0,0:0:0:0:
412,252,20524,6,0,L|400:185,2,67.5,0|2|0,1:0|0:3|0:0,0:0:0:0:
479,201,20850,1,0,0:0:0:0:
479,201,20958,2,0,L|467:134,1,67.5,6|0,1:2|1:2,0:0:0:0:
315,154,21176,6,0,L|328:71,1,67.5,0|2,0:0|1:3,0:0:0:0:
241,116,21394,2,0,L|252:40,1,67.5,0|2,1:0|0:3,0:0:0:0:
167,195,21611,2,0,L|179:271,1,67.5,0|0,1:0|0:0,0:0:0:0:
112,292,21829,6,0,B|83:308|83:308|24:279,2,67.5,8|0|8,1:2|0:0|1:2,0:0:0:0:
178,262,22155,1,8,1:0:0:0:
178,262,22263,6,0,P|221:237|290:260,1,101.25,4|0,1:2|0:0,0:0:0:0:
235,314,22481,2,0,B|294:338|294:338|341:301,1,101.25,4|0,0:2|0:0,0:0:0:0:
350,299,22698,6,0,B|426:292,1,67.5,0|0,1:0|1:0,0:0:0:0:
384,220,22915,2,0,B|451:213,1,67.5,4|0,1:2|1:0,0:0:0:0:
428,121,23133,5,4,1:0:0:0:
512,161,23278,6,0,L|503:60,1,90,2|2,3:1|3:1,0:0:0:0:
348,128,23568,5,4,1:2:0:0:
262,89,23712,6,0,L|269:178,1,90,2|2,3:1|3:1,0:0:0:0:
281,266,24002,5,8,3:0:0:0:
256,192,24111,12,4,24872,1:0:0:0:
261,188,25089,5,4,3:0:0:0:
333,140,25306,2,0,L|102:166,1,229.500004377365,4|2,1:0|0:0,0:0:0:0:
83,303,25958,1,2,1:2:0:0:
0,204,26175,2,0,P|63:262|210:261,1,229.500004377365,2|2,1:2|1:2,0:0:0:0:
209,250,26718,1,2,0:0:0:0:
216,235,26827,1,2,0:0:0:0:
223,220,26936,1,2,0:0:0:0:
230,205,27045,6,0,L|218:84,1,87.749995983124,0|2,1:0|0:0,0:0:0:0:
334,119,27479,2,0,L|354:0,1,87.749995983124,2|0,1:3|1:0,0:0:0:0:
491,188,27914,1,8,1:0:0:0:
474,185,28023,1,0,0:0:0:0:
457,182,28131,1,0,1:1:0:0:
440,179,28240,1,2,1:3:0:0:
424,175,28349,6,0,P|399:221|422:270,1,87.749995983124,4|2,1:0|0:2,0:0:0:0:
512,384,28785,2,0,P|518:342|496:306,1,87.749995983124,2|0,0:2|1:0,0:0:0:0:
407,253,29219,2,0,L|289:263,1,87.749995983124,2|2,1:3|0:0,0:0:0:0:
244,263,29545,1,2,1:2:0:0:
244,263,29654,2,0,P|250:229|235:185,1,43.874997991562,2|2,1:3|0:0,0:0:0:0:
175,229,29871,2,0,P|170:199|138:157,1,43.874997991562,2|2,0:0|0:0,0:0:0:0:
100,228,30089,6,0,P|48:205|0:218,1,87.749995983124,0|0,1:0|3:0,0:0:0:0:
89,355,30524,2,0,P|132:356|170:335,1,87.749995983124,12|0,1:2|1:0,0:0:0:0:
179,326,30850,1,0,1:0:0:0:
188,316,30958,2,0,L|174:217,1,87.749995983124,2|6,1:3|0:2,0:0:0:0:
276,0,31393,6,0,L|263:193,1,175.499991966248,4|2,1:0|0:2,0:0:0:0:
414,279,32045,1,2,1:2:0:0:
371,366,32263,2,0,P|383:265|359:190,1,175.499991966248,2|2,1:3|1:2,0:0:0:0:
379,198,32806,1,2,0:0:0:0:
396,200,32915,1,2,1:2:0:0:
413,202,33023,1,2,1:0:0:0:
430,205,33132,6,0,L|526:189,1,87.749995983124,4|0,1:0|0:0,0:0:0:0:
403,70,33567,2,0,L|316:55,1,87.749995983124,2|0,3:3|1:0,0:0:0:0:
178,175,34002,1,8,1:0:0:0:
199,171,34110,1,0,0:0:0:0:
221,167,34219,1,0,0:0:0:0:
242,164,34328,1,2,3:3:0:0:
264,160,34436,5,4,1:0:0:0:
203,89,34654,1,2,0:2:0:0:
114,117,34871,1,2,0:0:0:0:
24,355,35088,5,2,1:2:0:0:
101,379,35305,1,2,1:3:0:0:
168,328,35523,1,2,0:0:0:0:
174,314,35631,1,2,1:2:0:0:
177,300,35740,1,2,1:3:0:0:
177,285,35849,1,2,0:0:0:0:
174,271,35957,1,2,0:0:0:0:
167,258,36066,1,2,0:0:0:0:
160,248,36175,6,0,B|125:265|125:265|58:242,1,87.749995983124,2|2,1:2|0:0,0:0:0:0:
33,189,36501,1,0,1:0:0:0:
33,189,36610,2,0,L|46:67,1,87.749995983124,8|2,1:0|3:3,0:0:0:0:
144,28,37045,2,0,P|168:50|186:61,1,43.874997991562,2|0,1:3|0:0,0:0:0:0:
177,127,37262,2,0,P|209:125|230:120,1,43.874997991562,0|0,1:0|1:0,0:0:0:0:
287,168,37480,6,0,P|301:113|300:30,1,114.750002188683,4|2,1:0|0:2,0:0:0:0:
177,127,37914,1,2,0:0:0:0:
234,277,38132,1,2,1:2:0:0:
394,277,38349,2,0,P|392:219|377:164,1,114.750002188683,2|2,1:3|0:0,0:0:0:0:
223,17,38784,1,2,1:3:0:0:
245,15,38892,1,2,0:0:0:0:
267,13,39001,1,2,1:2:0:0:
289,11,39110,1,2,1:2:0:0:
312,10,39219,6,0,L|446:58,1,114.750002188683,0|2,1:0|0:0,0:0:0:0:
377,164,39653,2,0,L|469:272,1,114.750002188683,2|2,1:2|1:0,0:0:0:0:
325,342,40088,1,2,1:3:0:0:
309,326,40197,1,0,0:0:0:0:
288,316,40305,1,2,3:2:0:0:
265,312,40414,1,0,1:0:0:0:
242,313,40523,5,4,1:0:0:0:
174,344,40740,1,2,0:0:0:0:
103,322,40958,1,2,0:0:0:0:
65,257,41175,1,2,1:2:0:0:
81,185,41392,5,2,1:3:0:0:
156,135,41610,1,2,0:0:0:0:
184,131,41718,1,2,1:2:0:0:
212,136,41827,1,2,1:3:0:0:
238,148,41936,1,2,3:2:0:0:
260,167,42044,1,2,3:2:0:0:
280,258,42262,1,4,1:0:0:0:
363,292,42480,5,2,3:3:0:0:
432,233,42698,1,4,1:2:0:0:
411,145,42915,1,0,1:0:0:0:
281,63,43132,2,0,L|201:71,1,74.2500022659302,10|2,1:1|1:2,0:0:0:0:
155,147,43567,6,0,B|187:70|187:70|128:4,2,172.125003283024,4|2|2,1:0|1:2|1:2,0:0:0:0:
0,257,44437,2,0,P|58:222|116:246,1,114.750002188683,2|2,1:3|0:0,0:0:0:0:
218,341,44871,1,2,1:2:0:0:
237,361,44979,1,2,0:0:0:0:
263,374,45088,1,2,3:2:0:0:
291,375,45197,1,2,3:2:0:0:
318,365,45306,6,0,P|318:310|290:240,1,114.750002188683,0|2,1:0|1:2,0:0:0:0:
438,175,45741,2,0,P|456:121|457:64,1,114.750002188683,6|2,1:2|1:2,0:0:0:0:
266,0,46176,1,10,1:1:0:0:
277,26,46284,1,0,0:0:0:0:
284,53,46393,1,0,1:0:0:0:
287,82,46502,1,0,1:0:0:0:
285,110,46610,5,4,1:0:0:0:
246,185,46828,1,2,0:0:0:0:
174,231,47045,1,2,0:0:0:0:
92,232,47262,5,2,1:2:0:0:
193,109,47480,1,2,1:3:0:0:
362,143,47697,1,2,0:0:0:0:
388,153,47805,1,2,1:0:0:0:
417,156,47914,1,2,1:3:0:0:
445,152,48023,1,2,3:2:0:0:
471,140,48131,1,2,3:2:0:0:
484,18,48349,5,4,1:0:0:0:
342,68,48567,2,0,P|339:114|353:147,1,57.3750010943413,2|0,1:3|1:0,0:0:0:0:
257,192,48784,2,0,P|277:233|305:254,1,57.3750010943413,4|0,1:2|0:0,0:0:0:0:
262,343,49001,2,0,P|299:368|335:372,1,57.3750010943413,2|0,1:0|0:0,0:0:0:0:
502,356,49219,6,0,B|454:310|454:310|349:341,1,135,8|10,1:0|1:0,0:0:0:0:
262,343,49654,6,2,B|167:371|167:371|62:283,2,202.5,4|2|2,1:0|1:2|1:2,0:2:0:0:
441,169,50523,2,0,P|471:234|403:286,1,135,2|2,0:0|0:0,0:0:0:0:
159,174,50958,2,2,B|131:79|131:79|219:-26,2,202.5,2|2|2,1:2|1:2|1:2,0:2:0:0:
35,384,51827,2,0,L|190:363,1,135,2|2,0:0|0:0,0:0:0:0:
249,316,52153,1,0,1:0:0:0:
249,316,52262,6,0,P|331:245|439:289,2,202.5,2|2|2,1:2|1:2|1:2,0:0:0:0:
493,58,53132,2,0,P|428:64|382:18,1,135,2|2,0:0|0:0,0:0:0:0:
439,160,53567,6,0,L|464:387,2,202.5,2|2|2,1:2|1:2|1:2,0:0:0:0:
321,106,54436,2,0,P|285:109|250:136,1,67.5,0|0,1:0|0:0,0:0:0:0:
132,175,54653,2,0,P|160:192|193:194,1,67.5,0|0,0:0|1:0,0:0:0:0:
171,352,54871,6,2,P|230:307|318:343,1,135,0|2,1:0|0:2,0:2:0:0:
307,338,55197,1,0,0:0:0:0:
429,383,55414,1,0,0:0:0:0:
429,383,55523,2,0,L|446:217,1,135,2|2,0:2|0:0,0:0:0:0:
452,164,55957,1,2,0:0:0:0:
463,156,56066,1,0,1:0:0:0:
474,149,56176,6,2,L|457:-17,1,135,2|2,1:2|0:0,0:2:0:0:
307,85,56611,1,2,0:0:0:0:
318,93,56720,1,2,0:0:0:0:
329,101,56828,2,0,P|331:146|312:178,2,67.5,2|0|2,0:0|0:0|0:0,0:0:0:0:
205,107,57263,1,2,0:0:0:0:
194,115,57372,1,0,1:0:0:0:
183,121,57480,6,0,P|110:121|81:33,1,135,2|2,1:2|0:0,0:0:0:0:
81,50,57806,1,0,0:0:0:0:
133,224,58023,1,0,0:0:0:0:
133,224,58132,2,0,L|109:363,1,135,2|2,0:0|0:0,0:0:0:0:
123,354,58458,1,0,0:0:0:0:
136,351,58567,1,2,0:0:0:0:
149,348,58676,1,0,0:0:0:0:
162,345,58784,6,0,L|310:369,1,135,0|0,1:0|0:0,0:0:0:0:
347,295,59110,2,0,L|213:273,1,135,8|0,1:0|0:0,0:0:0:0:
166,213,59436,2,0,L|158:117,1,67.5,2|2,0:0|0:0,0:0:0:0:
193,67,59654,1,0,1:0:0:0:
245,136,59762,2,0,L|253:232,1,67.5,2|0,1:1|0:0,0:0:0:0:
303,262,59980,5,0,0:0:0:0:
356,211,60088,2,0,P|411:207|447:226,1,67.5,4|0,1:2|0:0,0:0:0:0:
390,284,60306,2,0,B|424:289|441:322|441:322|458:355|494:361,2,135,2|0|2,1:3|1:0|0:3,0:0:0:0:
224,338,60958,2,0,P|190:338|160:323,1,67.5,0|0,1:0|0:0,0:0:0:0:
115,265,61175,2,0,L|124:175,1,67.5,2|0,1:3|1:0,0:0:0:0:
132,122,61393,6,0,P|80:80|-16:146,1,135,0|2,1:0|1:3,0:0:0:0:
8,102,61719,2,0,P|72:113|122:71,1,135,2|2,1:2|0:0,0:0:0:0:
129,59,62045,1,2,0:0:0:0:
135,47,62154,1,2,1:2:0:0:
141,35,62262,2,0,P|182:18|232:36,1,67.5,0|0,1:0|0:0,0:0:0:0:
239,88,62480,2,0,P|280:105|330:87,1,67.5,2|2,1:3|1:2,0:0:0:0:
349,40,62697,6,0,B|392:19|392:19|470:93|470:93|522:67,2,202.5,0|2|2,1:0|1:2|1:2,0:0:0:0:
130,148,63567,1,0,1:0:0:0:
141,155,63675,1,0,0:0:0:0:
152,162,63784,1,0,1:0:0:0:
163,169,63893,1,0,1:0:0:0:
173,177,64001,6,0,P|193:227|176:261,2,67.5,4|0|0,1:2|0:0|0:0,0:0:0:0:
106,328,64327,2,0,P|105:294|123:266,2,67.5,2|0|0,1:2|1:0|0:0,0:0:0:0:
203,240,64653,2,0,P|235:247|257:272,1,67.5,0|0,0:0|1:0,0:0:0:0:
350,290,64871,1,0,1:0:0:0:
346,303,64979,1,0,0:0:0:0:
342,317,65088,1,0,1:3:0:0:
338,331,65197,1,0,1:0:0:0:
334,345,65306,6,0,P|386:387|455:355,1,135,4|0,1:2|0:0,0:0:0:0:
512,265,65633,2,0,P|450:245|400:287,1,135,2|2,1:3|0:2,0:0:0:0:
334,345,65959,2,0,B|255:365|255:365|181:322,1,135,2|0,1:3|1:0,0:0:0:0:
181,272,66285,1,2,0:0:0:0:
181,272,66393,2,0,P|112:256|83:274,1,67.5,0|0,1:0|1:0,0:0:0:0:
4,330,66611,6,0,B|66:359|66:359|171:314,1,135,0|0,1:0|0:0,0:0:0:0:
181,272,66937,2,0,B|243:243|243:243|348:288,1,135,0|0,1:0|0:0,0:0:0:0:
316,273,67263,1,2,1:2:0:0:
328,277,67372,1,2,1:2:0:0:
340,281,67480,2,0,P|356:239|341:189,1,67.5,0|0,1:0|0:0,0:0:0:0:
441,203,67698,2,0,P|432:170|410:145,1,67.5,0|0,1:0|1:0,0:0:0:0:
335,117,67915,1,4,1:2:0:0:
335,117,68024,6,0,P|398:102|400:22,1,148.50000453186,0|2,0:0|1:3,0:0:0:0:
192,178,68458,1,0,1:0:0:0:
261,133,68567,6,0,P|252:84|191:80,1,74.2500022659302,2|0,1:3|0:0,0:0:0:0:
157,116,68784,2,0,P|110:99|76:149,1,74.2500022659302,2|0,1:3|1:0,0:0:0:0:
37,171,69001,1,0,0:0:0:0:
37,171,69110,6,0,L|48:249,2,74.2500022659302,2|2|4,1:3|1:3|1:2,0:0:0:0:
107,311,69436,1,0,0:0:0:0:
107,311,69545,2,2,L|117:237,2,74.2500022659302,4|0|0,1:2|0:0|0:0,0:1:0:0:
206,253,69871,5,2,1:2:0:0:
237,234,69980,1,2,3:2:0:0:
274,235,70088,1,2,1:2:0:0:
305,255,70197,1,2,3:2:0:0:
337,274,70306,1,2,1:2:0:0:
373,275,70414,1,2,3:2:0:0:
406,259,70523,5,4,3:2:0:0:
432,241,70632,2,0,L|437:204,2,37.1250011329651,2|0|2,1:0|0:0|1:2,0:0:0:0:
396,76,70850,1,2,0:0:0:0:
396,76,70958,6,0,P|452:59|509:103,1,74.2500022659302,2|2,1:2|3:2,0:0:0:0:
437,205,71176,2,0,P|400:207|367:191,1,74.2500022659302,2|2,3:2|3:2,0:0:0:0:
445,135,71393,6,0,P|501:148|529:214,1,74.2500022659302,2|2,1:2|3:2,0:0:0:0:
342,266,71611,2,0,P|309:249|288:219,1,74.2500022659302,2|2,3:2|3:2,0:0:0:0:
291,125,71828,5,2,3:0:0:0:
303,111,71936,2,0,L|309:65,2,37.1250011329651,2|0|2,1:0|0:0|1:2,0:0:0:0:
229,79,72154,1,2,0:2:0:0:
216,89,72263,6,0,L|111:75,1,74.2500022659302,2|2,1:2|3:2,0:0:0:0:
93,175,72480,2,0,L|166:165,1,74.2500022659302,2|2,3:2|3:2,0:0:0:0:
206,304,72697,1,2,1:2:0:0:
201,289,72806,1,2,3:2:0:0:
196,274,72915,2,0,L|91:260,1,74.2500022659302,2|2,3:2|3:2,0:0:0:0:
48,359,73132,5,2,1:1:0:0:
53,345,73241,2,0,L|107:337,2,37.1250011329651,2|0|2,0:2|0:0|0:0,0:0:0:0:
199,370,73458,1,2,3:1:0:0:
199,370,73567,6,0,P|252:347|304:358,1,74.2500022659302,2|2,1:2|0:2,0:0:0:0:
343,384,73784,2,0,P|380:379|412:361,1,74.2500022659302,2|2,3:1|3:2,0:0:0:0:
421,281,74002,6,0,P|385:284|355:305,1,74.2500022659302,2|2,1:2|3:2,0:0:0:0:
281,267,74219,2,0,P|244:264|214:243,1,74.2500022659302,2|2,3:2|3:2,0:0:0:0:
281,130,74436,5,2,1:3:0:0:
294,137,74545,2,0,L|286:187,2,37.1250011329651,2|0|2,1:0|0:0|1:2,0:0:0:0:
326,26,74762,1,2,0:0:0:0:
300,57,74871,6,0,L|200:45,1,74.2500022659302,2|2,1:2|3:2,0:0:0:0:
89,195,75088,2,0,L|162:186,1,74.2500022659302,2|2,3:2|3:2,0:0:0:0:
315,154,75306,2,0,L|327:254,1,74.2500022659302,2|2,1:2|3:2,0:0:0:0:
177,365,75523,2,0,L|185:291,1,74.2500022659302,2|2,3:2|3:2,0:0:0:0:
397,180,75740,6,0,P|394:286|259:287,2,222.750006797791,4|0|2,1:2|1:0|3:2,0:0:0:0:
383,173,76501,1,2,3:2:0:0:
368,168,76610,2,0,L|497:147,1,74.2500022659302,2|2,1:2|3:2,0:0:0:0:
306,41,76826,2,0,L|177:20,1,74.2500022659302,2|2,3:2|3:2,0:0:0:0:
63,149,77044,6,0,B|88:79|88:79|156:141,1,148.50000453186,2|0,1:2|0:0,0:0:0:0:
156,140,77370,2,0,P|226:126|262:63,1,148.50000453186,0|0,1:0|0:0,0:0:0:0:
259,49,77696,1,2,3:2:0:0:
255,34,77805,1,2,3:2:0:0:
250,19,77913,2,0,L|154:8,1,74.2500022659302,2|2,1:2|3:2,0:0:0:0:
296,133,78131,2,0,L|369:124,1,74.2500022659302,2|2,3:2|3:2,0:0:0:0:
260,286,78348,5,2,1:2:0:0:
260,286,78457,2,0,B|198:268|198:268|184:215|184:215|42:263,1,222.750006797791,0|2,0:0|3:0,0:0:0:0:
51,314,78892,1,2,3:0:0:0:
51,314,79000,2,0,P|107:320|143:202,1,148.50000453186,0|2,1:0|1:2,0:0:0:0:
158,238,79326,1,2,3:2:0:0:
157,223,79435,1,2,3:2:0:0:
156,208,79544,1,2,3:2:0:0:
154,190,79652,6,0,B|177:120|177:120|240:170,1,148.50000453186,4|2,1:2|3:0,0:0:0:0:
377,239,79980,6,0,B|333:321|333:321|251:273|251:273|152:314,2,242.999992584229,6|4|6,1:1|1:2|1:1,0:0:0:0:
382,260,80739,2,0,L|392:319,1,40.4999987640381
471,312,80957,5,4,3:2:0:0:
489,292,81067,2,0,L|481:241,2,40.4999987640381,2|0|2,1:0|0:0|1:2,0:0:0:0:
436,194,81283,1,2,0:2:0:0:
436,194,81393,2,0,P|432:133|415:92,1,80.9999975280763,2|2,1:2|3:2,0:0:0:0:
243,142,81610,2,0,P|247:203|264:244,1,80.9999975280763,2|2,3:2|3:2,0:0:0:0:
349,204,81826,6,0,P|345:143|328:102,1,80.9999975280763,2|2,1:2|3:2,0:0:0:0:
156,152,82044,2,0,P|160:213|177:254,1,80.9999975280763,2|2,3:2|3:2,0:0:0:0:
238,307,82261,5,2,3:0:0:0:
250,321,82370,2,0,L|328:311,2,40.4999987640381,2|0|2,1:0|0:0|1:2,0:0:0:0:
159,328,82587,1,0,0:2:0:0:
159,328,82697,6,0,L|69:312,1,80.9999975280763,2|2,1:2|3:2,0:0:0:0:
0,225,82914,2,0,L|90:209,1,80.9999975280763,2|2,3:2|3:2,0:0:0:0:
330,335,83132,6,0,L|240:319,1,80.9999975280763,2|2,1:2|3:2,0:0:0:0:
213,182,83349,2,0,L|303:166,1,80.9999975280763,2|2,3:2|3:2,0:0:0:0:
441,227,83567,5,2,1:0:0:0:
449,245,83675,2,0,L|437:299,2,40.4999987640381,2|0|2,0:0|0:0|0:0,0:0:0:0:
477,148,83893,1,2,1:0:0:0:
477,148,84001,6,0,L|463:46,1,80.9999975280763,2|2,1:2|0:0,0:0:0:0:
338,4,84218,2,0,L|257:15,1,80.9999975280763,2|2,3:1|3:2,0:0:0:0:
376,239,84436,6,0,L|364:158,1,80.9999975280763,2|2,1:2|3:2,0:0:0:0:
236,95,84653,2,0,L|155:106,1,80.9999975280763,2|2,3:2|3:2,0:0:0:0:
70,66,84870,1,2,3:0:0:0:
58,35,84979,2,0,L|62:-7,2,40.4999987640381,2|0|2,1:0|0:0|1:2,0:0:0:0:
39,151,85196,1,2,0:0:0:0:
39,151,85305,6,0,P|32:190|42:229,1,80.9999975280763,2|2,1:2|3:2,0:0:0:0:
8,327,85522,2,0,P|31:359|65:380,1,80.9999975280763,2|2,3:2|3:2,0:0:0:0:
170,384,85740,6,0,P|163:345|173:306,1,80.9999975280763,2|2,1:2|3:2,0:0:0:0:
139,208,85957,2,0,P|162:176|196:155,1,80.9999975280763,2|2,3:2|3:2,0:0:0:0:
263,278,86175,6,2,P|339:251|472:349,2,242.999992584229,2|0|2,1:2|1:0|3:2,0:1:0:0:
302,287,86935,1,2,3:2:0:0:
341,278,87044,1,2,1:2:0:0:
372,254,87153,1,2,3:2:0:0:
390,217,87261,1,2,3:2:0:0:
390,177,87370,1,2,3:2:0:0:
373,141,87479,6,2,P|379:91|463:52,1,80.9999975280763,4|0,1:2|0:0,0:1:0:0:
190,8,87696,5,0,0:0:0:0:
230,11,87805,2,2,P|270:42|262:133,1,80.9999975280763,4|0,1:2|0:0,0:1:0:0:
290,156,88022,5,0,0:0:0:0:
267,189,88131,2,0,P|219:208|144:156,1,80.9999975280763,6|0,1:0|0:0,0:0:0:0:
131,143,88348,5,2,1:3:0:0:
110,110,88457,2,2,B|65:41|65:41|-54:115,1,161.999995056153,4|0,1:2|0:0,0:1:0:0:
15,108,88783,6,0,L|37:289,1,161.999995056153,4|0,1:0|0:0,0:0:0:0:
184,367,89218,1,0,1:0:0:0:
198,354,89326,1,0,0:0:0:0:
216,344,89435,1,4,1:3:0:0:
235,338,89544,1,0,0:0:0:0:
254,333,89653,2,0,P|300:331|428:378,1,161.999995056153,4|2,1:2|0:2,0:0:0:0:
460,274,89979,5,2,1:2:0:0:
460,274,90087,2,2,P|450:223|456:161,1,80.9999975280763,4|0,1:2|0:0,0:1:0:0:
372,45,90305,5,0,0:0:0:0:
372,45,90413,2,0,P|381:95|376:158,1,80.9999975280763,2|4,1:0|1:2,0:0:0:0:
254,333,90631,5,0,0:0:0:0:
254,333,90739,2,0,P|258:282|295:173,1,161.999995056153,6|0,1:0|1:0,0:0:0:0:
96,28,91174,1,0,1:0:0:0:
111,32,91283,1,0,1:0:0:0:
126,34,91393,6,2,P|154:109|153:180,1,121.499996292114,4|0,1:2|0:0,0:1:0:0:
59,342,91827,2,0,P|35:286|28:226,1,121.499996292114,2|2,1:2|1:1,0:0:0:0:
264,175,92262,2,0,P|299:126|348:89,1,121.499996292114,0|2,1:0|1:3,0:0:0:0:
457,384,92696,6,0,P|420:335|372:299,1,121.499996292114,0|2,1:0|0:2,0:0:0:0:
170,356,93132,2,0,P|229:364|289:355,1,121.499996292114,0|2,1:0|1:3,0:0:0:0:
448,164,93566,2,0,P|440:103|416:48,1,121.499996292114,0|2,1:0|0:2,0:0:0:0:
407,41,93892,1,0,1:0:0:0:
397,35,94001,6,0,L|258:49,1,121.499996292114,4|0,1:0|0:0,0:0:0:0:
132,144,94436,2,0,L|11:131,1,121.499996292114,0|2,1:0|1:3,0:0:0:0:
7,312,94871,1,0,1:0:0:0:
37,308,94979,1,0,0:0:0:0:
67,305,95088,1,2,0:2:0:0:
97,302,95197,1,0,1:0:0:0:
131,328,95305,6,0,P|176:311|267:321,1,121.499996292114,0|2,1:0|1:1,0:0:0:0:
380,384,95740,2,0,P|440:389|497:370,1,121.499996292114,0|2,1:0|1:1,0:0:0:0:
507,298,96066,1,0,1:0:0:0:
507,298,96174,2,0,P|477:300|442:320,1,60.7499981460572,0|0,1:0|0:0,0:0:0:0:
380,384,96392,2,0,P|349:381|322:367,1,60.7499981460572,2|0,1:3|1:0,0:0:0:0:
291,302,96610,6,2,L|303:178,1,121.499996292114,4|0,1:2|0:0,0:1:0:0:
296,170,96936,1,0,1:0:0:0:
290,159,97044,1,0,1:0:0:0:
283,149,97153,1,2,0:2:0:0:
276,139,97262,1,2,1:3:0:0:
195,165,97479,2,0,L|207:41,1,121.499996292114,2|2,1:3|0:2,0:0:0:0:
130,11,97806,1,0,1:0:0:0:
130,11,97913,6,0,P|64:5|0:48,1,121.499996292114,0|2,1:0|1:3,0:0:0:0:
0,138,98349,1,0,1:0:0:0:
29,130,98457,1,2,0:2:0:0:
59,130,98566,1,0,1:0:0:0:
88,139,98675,1,0,0:0:0:0:
113,156,98783,2,0,L|98:284,1,121.499996292114,0|0,1:0|0:0,0:0:0:0:
154,371,99218,6,0,P|236:383|267:358,1,121.499996292114,4|0,1:0|0:0,0:0:0:0:
357,275,99653,2,0,L|372:106,1,121.499996292114,0|2,1:0|1:3,0:0:0:0:
387,37,100088,2,0,P|440:10|496:28,1,121.499996292114,2|2,1:3|1:3,0:0:0:0:
316,212,100523,5,2,1:3:0:0:
289,197,100632,1,2,3:2:0:0:
259,193,100740,1,2,3:2:0:0:
230,201,100849,1,2,3:2:0:0:
206,220,100958,1,2,1:3:0:0:
179,234,101067,1,2,3:2:0:0:
149,238,101175,1,2,3:2:0:0:
120,230,101284,1,2,3:2:0:0:
96,211,101392,6,0,P|90:169|104:141,3,60.7499981460572,2|2|2|2,1:3|3:2|3:2|3:2,0:0:0:0:
123,87,101826,5,4,1:0:0:0:
140,92,101935,1,2,3:1:0:0:
157,97,102044,1,0,1:0:0:0:
174,103,102153,2,0,L|319:80,1,121.499996292114,2|0,3:1|0:0,0:0:0:0:
284,180,102479,5,2,1:3:0:0:
301,176,102588,1,2,3:1:0:0:
318,173,102697,1,0,1:0:0:0:
336,168,102806,2,0,L|478:203,1,121.499996292114,2|4,3:1|0:2,0:0:0:0:
472,311,103131,5,2,1:3:0:0:
463,349,103239,1,2,3:1:0:0:
433,375,103348,1,0,0:0:0:0:
393,376,103457,2,0,P|352:325|387:251,1,121.499996292114,2|2,3:1|3:2,0:0:0:0:
259,324,103784,5,2,3:1:0:0:
250,286,103893,1,2,3:1:0:0:
220,260,104001,1,2,1:2:0:0:
180,259,104110,2,0,P|139:309|174:383,1,121.499996292114,2|2,3:1|3:2,0:0:0:0:
259,324,104436,5,4,1:2:0:0:
306,311,104545,1,2,3:1:0:0:
353,299,104652,1,0,1:0:0:0:
399,287,104761,2,0,L|418:148,1,121.499996292114,6|0,3:1|0:3,0:0:0:0:
309,232,105087,5,2,1:3:0:0:
262,219,105196,1,2,3:1:0:0:
215,207,105305,1,0,1:0:0:0:
170,192,105413,2,0,L|153:312,1,121.499996292114,6|0,3:1|0:0,0:0:0:0:
295,377,105739,5,2,1:3:0:0:
353,384,105848,1,2,3:1:0:0:
398,346,105957,1,0,1:0:0:0:
399,287,106066,2,0,P|364:235|294:242,1,121.499996292114,6|0,3:1|0:0,0:0:0:0:
195,216,106392,5,0,1:0:0:0:
125,201,106500,1,0,1:0:0:0:
93,138,106609,1,0,1:0:0:0:
120,73,106718,1,0,1:0:0:0:
188,52,106826,1,0,1:0:0:0:
247,91,106935,5,4,1:0:0:0:
