osu file format v14

[General]
AudioFilename: audio.mp3
AudioLeadIn: 0
PreviewTime: 38971
Countdown: 0
SampleSet: Normal
StackLeniency: 0.7
Mode: 1
LetterboxInBreaks: 0
WidescreenStoryboard: 1

[Editor]
Bookmarks: 24615,39345,80566
DistanceSpacing: 0.8
BeatDivisor: 4
GridSize: 32
TimelineZoom: 1.399999

[Metadata]
Title:Symmetry
TitleUnicode:Symmetry
Artist:Nekomata Master
ArtistUnicode:猫叉Master
Creator:Arrival
Version:Muzukashii
Source:beatmania IIDX 22 PENDUAL
Tags:epic electronica naoyuki sato
BeatmapID:1346157
BeatmapSetID:625755

[Difficulty]
HPDrainRate:6
CircleSize:2
OverallDifficulty:4.5
ApproachRate:0
SliderMultiplier:1.4
SliderTickRate:1

[Events]
//Background and Video events
0,0,"820750.jpg",0,0
//Break Periods
//Storyboard Layer 0 (Background)
//Storyboard Layer 1 (Fail)
//Storyboard Layer 2 (Pass)
//Storyboard Layer 3 (Foreground)
//Storyboard Sound Samples

[TimingPoints]
1057,368.098159509202,4,1,0,60,1,0
1057,-125,4,1,0,70,0,0
9891,-117.647058823529,4,1,0,70,0,0
10259,-114.942528735632,4,1,0,70,0,0
10443,-113.636363636364,4,1,0,70,0,0
10627,-112.359550561798,4,1,0,70,0,0
10995,-109.89010989011,4,1,0,70,0,0
11363,-108.695652173913,4,1,0,70,0,0
11547,-107.52688172043,4,1,0,70,0,0
11915,-105.263157894737,4,1,0,70,0,0
12099,-104.166666666667,4,1,0,70,0,0
12468,-102.040816326531,4,1,0,70,0,0
12652,-101.010101010101,4,1,0,70,0,0
12836,-100,4,1,0,85,0,0
36578,-100,4,1,0,85,0,0
36762,-100,4,1,0,85,0,0
36946,-100,4,1,0,85,0,0
37007,-100,4,1,0,85,0,0
37069,-100,4,1,0,85,0,0
37130,-100,4,1,0,85,0,0
37314,-100,4,1,0,85,0,0
38787,-100,4,1,0,85,0,0
75412,-104.166666666667,4,1,0,85,0,0
75872,-107.52688172043,4,1,0,85,0,0
76149,-109.89010989011,4,1,0,85,0,0
76609,-113.636363636364,4,1,0,85,0,0
76885,-116.279069767442,4,1,0,85,0,0
77621,-121.951219512195,4,1,0,85,0,0
80014,-100,4,1,0,70,0,0
80198,-100,4,1,0,75,0,0
80382,-100,4,1,0,80,0,0
80566,-100,4,1,0,95,0,0
92345,-100,4,1,0,100,0,1
104124,-100,4,1,0,90,0,0
104308,-125,4,1,0,60,0,0

[HitObjects]
256,128,1057,5,0,0:0:0:0:
256,128,2529,1,8,0:0:0:0:
256,128,3081,1,8,0:0:0:0:
256,128,4001,1,0,0:0:0:0:
256,128,4553,1,0,0:0:0:0:
256,128,5474,1,8,0:0:0:0:
256,128,6026,1,8,0:0:0:0:
256,128,6946,1,0,0:0:0:0:
256,128,8418,1,8,0:0:0:0:
256,128,8971,1,8,0:0:0:0:
256,128,9891,1,0,0:0:0:0:
256,128,10443,1,0,0:0:0:0:
256,128,11363,1,0,0:0:0:0:
256,128,11547,1,8,0:0:0:0:
256,128,11915,1,8,0:0:0:0:
256,128,12099,1,8,0:0:0:0:
256,128,12468,1,8,0:0:0:0:
256,128,12652,1,8,0:0:0:0:
256,128,12836,1,4,0:0:0:0:
256,128,13388,1,8,0:0:0:0:
256,128,13940,1,0,0:0:0:0:
256,128,14308,1,0,0:0:0:0:
256,128,14584,1,0,0:0:0:0:
256,128,14860,1,8,0:0:0:0:
256,128,15136,1,8,0:0:0:0:
256,128,15412,1,0,0:0:0:0:
256,128,15780,1,0,0:0:0:0:
256,128,16056,1,0,0:0:0:0:
256,128,16333,1,8,0:0:0:0:
256,128,16885,1,0,0:0:0:0:
256,128,17253,1,0,0:0:0:0:
256,128,17529,1,0,0:0:0:0:
256,128,17805,1,8,0:0:0:0:
256,128,18081,1,0,0:0:0:0:
256,128,18357,1,8,0:0:0:0:
256,128,18449,1,8,0:0:0:0:
256,128,18541,1,8,0:0:0:0:
256,128,18725,1,0,0:0:0:0:
256,128,19277,1,8,0:0:0:0:
256,128,19830,1,0,0:0:0:0:
256,128,20198,1,0,0:0:0:0:
256,128,20474,1,0,0:0:0:0:
256,128,20750,1,8,0:0:0:0:
256,128,21026,1,8,0:0:0:0:
256,128,21302,1,0,0:0:0:0:
256,128,21670,1,0,0:0:0:0:
256,128,21946,1,0,0:0:0:0:
256,128,22222,1,8,0:0:0:0:
256,128,22406,1,0,0:0:0:0:
256,128,22590,1,8,0:0:0:0:
256,128,22774,1,8,0:0:0:0:
256,128,23142,1,8,0:0:0:0:
256,128,23234,1,8,0:0:0:0:
256,128,23326,1,8,0:0:0:0:
256,128,23510,1,0,0:0:0:0:
256,128,23695,1,8,0:0:0:0:
256,128,23879,1,0,0:0:0:0:
256,128,23971,1,0,0:0:0:0:
256,128,24063,1,0,0:0:0:0:
256,128,24247,1,12,0:0:0:0:
256,128,24615,1,4,0:0:0:0:
256,128,24983,1,0,0:0:0:0:
256,128,25351,1,0,0:0:0:0:
256,128,25535,1,8,0:0:0:0:
256,128,25719,1,0,0:0:0:0:
256,128,26087,1,8,0:0:0:0:
256,128,26455,1,8,0:0:0:0:
256,128,26639,1,0,0:0:0:0:
256,128,26823,1,0,0:0:0:0:
256,128,27007,1,8,0:0:0:0:
256,128,27191,1,0,0:0:0:0:
256,128,27560,1,8,0:0:0:0:
256,128,27928,1,0,0:0:0:0:
256,128,28296,1,0,0:0:0:0:
256,128,28480,1,8,0:0:0:0:
256,128,28664,1,0,0:0:0:0:
256,128,29032,1,8,0:0:0:0:
256,128,29400,1,0,0:0:0:0:
256,128,29768,1,8,0:0:0:0:
256,128,29952,1,0,0:0:0:0:
256,128,30044,1,0,0:0:0:0:
256,128,30136,1,0,0:0:0:0:
256,128,30412,1,0,0:0:0:0:
256,128,30504,1,0,0:0:0:0:
256,128,30872,1,0,0:0:0:0:
256,128,31241,1,8,0:0:0:0:
256,128,31425,1,8,0:0:0:0:
256,128,31609,1,0,0:0:0:0:
256,128,31977,1,0,0:0:0:0:
256,128,32161,1,8,0:0:0:0:
256,128,32345,1,0,0:0:0:0:
256,128,32713,1,8,0:0:0:0:
256,128,32897,1,0,0:0:0:0:
256,128,33081,1,8,0:0:0:0:
256,128,33357,1,0,0:0:0:0:
256,128,33449,1,0,0:0:0:0:
256,128,33817,1,0,0:0:0:0:
256,128,34185,1,0,0:0:0:0:
256,128,34369,1,8,0:0:0:0:
256,128,34553,1,0,0:0:0:0:
256,128,34922,1,8,0:0:0:0:
256,128,35106,1,8,0:0:0:0:
256,128,35290,1,0,0:0:0:0:
256,128,35474,1,8,0:0:0:0:
256,128,35566,1,8,0:0:0:0:
256,128,35658,1,8,0:0:0:0:
256,128,35842,1,0,0:0:0:0:
256,128,36026,1,8,0:0:0:0:
256,128,36210,1,0,0:0:0:0:
256,128,36302,1,0,0:0:0:0:
256,128,36394,1,0,0:0:0:0:
256,128,36762,1,8,0:0:0:0:
256,128,37314,1,8,0:0:0:0:
256,128,37866,1,0,0:0:0:0:
256,128,38050,1,8,0:0:0:0:
256,128,38234,1,0,0:0:0:0:
256,128,38418,1,0,0:0:0:0:
256,128,38603,1,8,0:0:0:0:
256,128,39339,1,4,0:0:0:0:
256,128,40075,1,8,0:0:0:0:
256,128,40259,1,0,0:0:0:0:
256,128,40443,1,0,0:0:0:0:
256,128,40627,1,8,0:0:0:0:
256,128,40995,1,8,0:0:0:0:
256,128,41179,1,0,0:0:0:0:
256,128,41363,1,8,0:0:0:0:
256,128,41731,1,0,0:0:0:0:
256,128,41915,1,0,0:0:0:0:
256,128,42099,1,8,0:0:0:0:
256,128,42283,1,0,0:0:0:0:
256,128,42652,1,8,0:0:0:0:
256,128,42836,1,8,0:0:0:0:
256,128,43020,1,0,0:0:0:0:
256,128,43388,1,0,0:0:0:0:
256,128,43572,1,8,0:0:0:0:
256,128,43940,1,8,0:0:0:0:
256,128,44124,1,0,0:0:0:0:
256,128,44308,1,8,0:0:0:0:
256,128,44492,1,8,0:0:0:0:
256,128,44584,1,8,0:0:0:0:
256,128,44676,1,8,0:0:0:0:
256,128,44860,1,0,0:0:0:0:
256,128,45044,1,8,0:0:0:0:
256,128,45136,1,8,0:0:0:0:
256,128,45228,1,0,0:0:0:0:
256,128,45964,1,8,0:0:0:0:
256,128,46149,1,0,0:0:0:0:
256,128,46332,1,0,0:0:0:0:
256,128,46516,1,8,0:0:0:0:
256,128,46884,1,8,0:0:0:0:
256,128,47068,1,0,0:0:0:0:
256,128,47252,1,8,0:0:0:0:
256,128,47621,1,8,0:0:0:0:
256,128,47805,1,8,0:0:0:0:
256,128,47897,1,8,0:0:0:0:
256,128,47989,1,8,0:0:0:0:
256,128,48172,1,0,0:0:0:0:
256,128,48541,1,0,0:0:0:0:
256,128,48725,1,8,0:0:0:0:
256,128,49093,1,8,0:0:0:0:
256,128,49277,1,0,0:0:0:0:
256,128,49461,1,8,0:0:0:0:
256,128,49830,1,0,0:0:0:0:
256,128,50013,1,8,0:0:0:0:
256,128,50197,1,8,0:0:0:0:
256,128,50381,1,0,0:0:0:0:
256,128,50658,1,8,0:0:0:0:
256,128,50933,1,0,0:0:0:0:
256,128,51025,1,0,0:0:0:0:
256,128,51117,1,0,0:0:0:0:
256,128,51854,1,0,0:0:0:0:
256,128,52038,1,8,0:0:0:0:
256,128,52222,1,0,0:0:0:0:
256,128,52406,1,8,0:0:0:0:
256,128,52774,1,8,0:0:0:0:
256,128,52958,1,0,0:0:0:0:
256,128,53142,1,8,0:0:0:0:
256,128,53510,1,0,0:0:0:0:
256,128,53694,1,0,0:0:0:0:
256,128,53878,1,8,0:0:0:0:
256,128,54062,1,0,0:0:0:0:
256,128,54431,1,8,0:0:0:0:
256,128,54799,1,8,0:0:0:0:
256,128,54983,1,8,0:0:0:0:
256,128,55167,1,0,0:0:0:0:
256,128,55351,1,8,0:0:0:0:
256,128,55719,1,8,0:0:0:0:
256,128,55903,1,0,0:0:0:0:
256,128,56087,1,8,0:0:0:0:
256,128,56271,1,8,0:0:0:0:
256,128,56363,1,8,0:0:0:0:
256,128,56455,1,8,0:0:0:0:
256,128,56639,1,0,0:0:0:0:
256,128,56823,1,8,0:0:0:0:
256,128,56915,1,8,0:0:0:0:
256,128,57007,1,0,0:0:0:0:
256,128,57743,1,8,0:0:0:0:
256,128,57928,1,8,0:0:0:0:
256,128,58111,1,0,0:0:0:0:
256,128,58295,1,8,0:0:0:0:
256,128,58663,1,8,0:0:0:0:
256,128,58847,1,0,0:0:0:0:
256,128,59031,1,8,0:0:0:0:
256,128,59400,1,8,0:0:0:0:
256,128,59584,1,8,0:0:0:0:
256,128,59676,1,8,0:0:0:0:
256,128,59768,1,8,0:0:0:0:
256,128,59951,1,0,0:0:0:0:
256,128,60320,1,0,0:0:0:0:
256,128,60504,1,8,0:0:0:0:
256,128,60872,1,8,0:0:0:0:
256,128,61056,1,0,0:0:0:0:
256,128,61240,1,8,0:0:0:0:
256,128,61609,1,0,0:0:0:0:
256,128,61792,1,8,0:0:0:0:
256,128,61976,1,0,0:0:0:0:
256,128,62160,1,8,0:0:0:0:
256,128,62253,1,8,0:0:0:0:
256,128,62344,1,8,0:0:0:0:
256,128,62529,1,8,0:0:0:0:
256,128,62713,1,0,0:0:0:0:
256,128,62805,1,0,0:0:0:0:
256,128,62896,1,0,0:0:0:0:
256,128,63633,1,0,0:0:0:0:
256,128,63817,1,0,0:0:0:0:
256,128,64001,1,12,0:0:0:0:
256,128,64277,1,12,0:0:0:0:
256,128,64553,1,12,0:0:0:0:
256,128,64922,1,0,0:0:0:0:
256,128,65106,1,8,0:0:0:0:
256,128,65290,1,0,0:0:0:0:
256,128,65382,1,0,0:0:0:0:
256,128,65474,1,0,0:0:0:0:
256,128,65658,1,8,0:0:0:0:
256,128,65842,1,0,0:0:0:0:
256,128,66210,1,0,0:0:0:0:
256,128,66578,1,8,0:0:0:0:
256,128,66762,1,0,0:0:0:0:
256,128,66946,1,12,0:0:0:0:
256,128,67222,1,12,0:0:0:0:
256,128,67498,1,12,0:0:0:0:
256,128,67866,1,0,0:0:0:0:
256,128,68050,1,8,0:0:0:0:
256,128,68234,1,8,0:0:0:0:
256,128,68326,1,8,0:0:0:0:
256,128,68418,1,8,0:0:0:0:
256,128,68603,1,8,0:0:0:0:
256,128,68787,1,0,0:0:0:0:
256,128,69523,1,0,0:0:0:0:
256,128,69707,1,0,0:0:0:0:
256,128,69891,1,12,0:0:0:0:
256,128,70167,1,12,0:0:0:0:
256,128,70443,1,12,0:0:0:0:
256,128,70811,1,0,0:0:0:0:
256,128,70995,1,8,0:0:0:0:
256,128,71179,1,0,0:0:0:0:
256,128,71271,1,0,0:0:0:0:
256,128,71363,1,0,0:0:0:0:
256,128,71547,1,8,0:0:0:0:
256,128,71731,1,0,0:0:0:0:
256,128,72099,1,0,0:0:0:0:
256,128,72468,1,8,0:0:0:0:
256,128,72652,1,0,0:0:0:0:
256,128,72836,1,12,0:0:0:0:
256,128,73112,1,12,0:0:0:0:
256,128,73388,1,12,0:0:0:0:
256,128,73756,1,0,0:0:0:0:
256,128,73940,1,8,0:0:0:0:
256,128,74308,1,0,0:0:0:0:
256,128,74400,1,0,0:0:0:0:
256,128,74492,1,0,0:0:0:0:
256,128,74584,1,0,0:0:0:0:
256,128,74676,1,0,0:0:0:0:
256,128,75412,1,8,0:0:0:0:
256,128,75903,1,0,0:0:0:0:
256,128,76149,1,8,0:0:0:0:
256,128,76639,1,8,0:0:0:0:
256,128,76885,1,0,0:0:0:0:
256,128,77621,1,0,0:0:0:0:
256,128,77866,1,8,0:0:0:0:
256,128,78112,1,0,0:0:0:0:
256,128,78357,1,8,0:0:0:0:
256,128,78848,1,0,0:0:0:0:
256,128,79093,1,8,0:0:0:0:
256,128,79339,1,8,0:0:0:0:
256,128,79584,1,8,0:0:0:0:
256,128,79830,1,0,0:0:0:0:
256,128,80566,1,4,0:0:0:0:
256,128,80934,1,0,0:0:0:0:
256,128,81118,1,8,0:0:0:0:
256,128,81302,1,0,0:0:0:0:
256,128,81394,1,0,0:0:0:0:
256,128,81486,1,0,0:0:0:0:
256,128,81670,1,8,0:0:0:0:
256,128,82038,1,0,0:0:0:0:
256,128,82222,1,8,0:0:0:0:
256,128,82406,1,0,0:0:0:0:
256,128,82682,1,0,0:0:0:0:
256,128,82774,1,0,0:0:0:0:
256,128,82958,1,8,0:0:0:0:
256,128,83142,1,0,0:0:0:0:
256,128,83510,1,8,0:0:0:0:
256,128,83879,1,0,0:0:0:0:
256,128,84063,1,0,0:0:0:0:
256,128,84247,1,8,0:0:0:0:
256,128,84431,1,0,0:0:0:0:
256,128,84615,1,8,0:0:0:0:
256,128,84983,1,0,0:0:0:0:
256,128,85167,1,8,0:0:0:0:
256,128,85351,1,0,0:0:0:0:
256,128,85627,1,0,0:0:0:0:
256,128,85719,1,0,0:0:0:0:
256,128,85903,1,8,0:0:0:0:
256,128,86087,1,0,0:0:0:0:
256,128,86455,1,8,0:0:0:0:
256,128,86824,1,0,0:0:0:0:
256,128,87008,1,8,0:0:0:0:
256,128,87192,1,0,0:0:0:0:
256,128,87284,1,0,0:0:0:0:
256,128,87376,1,0,0:0:0:0:
256,128,87560,1,8,0:0:0:0:
256,128,87928,1,0,0:0:0:0:
256,128,88112,1,8,0:0:0:0:
256,128,88296,1,0,0:0:0:0:
256,128,88572,1,0,0:0:0:0:
256,128,88664,1,0,0:0:0:0:
256,128,88848,1,8,0:0:0:0:
256,128,89032,1,0,0:0:0:0:
256,128,89400,1,8,0:0:0:0:
256,128,89767,1,0,0:0:0:0:
256,128,89952,1,8,0:0:0:0:
256,128,90136,1,0,0:0:0:0:
256,128,90320,1,0,0:0:0:0:
256,128,90504,1,8,0:0:0:0:
256,128,90872,1,0,0:0:0:0:
256,128,91056,1,8,0:0:0:0:
256,128,91241,1,0,0:0:0:0:
256,128,91517,1,0,0:0:0:0:
256,128,91609,1,0,0:0:0:0:
256,128,91792,1,8,0:0:0:0:
256,128,91977,1,0,0:0:0:0:
256,128,92345,1,12,0:0:0:0:
256,128,93081,1,0,0:0:0:0:
256,128,93265,1,0,0:0:0:0:
256,128,93449,1,8,0:0:0:0:
256,128,93817,1,0,0:0:0:0:
256,128,94001,1,0,0:0:0:0:
256,128,94185,1,8,0:0:0:0:
256,128,94369,1,0,0:0:0:0:
256,128,94461,1,0,0:0:0:0:
256,128,94553,1,0,0:0:0:0:
256,128,94922,1,8,0:0:0:0:
256,128,95106,1,8,0:0:0:0:
256,128,95290,1,0,0:0:0:0:
256,128,95658,1,0,0:0:0:0:
256,128,95842,1,8,0:0:0:0:
256,128,95934,1,8,0:0:0:0:
256,128,96026,1,8,0:0:0:0:
256,128,96210,1,0,0:0:0:0:
256,128,96394,1,8,0:0:0:0:
256,128,96762,1,0,0:0:0:0:
256,128,96946,1,0,0:0:0:0:
256,128,97130,1,8,0:0:0:0:
256,128,97314,1,0,0:0:0:0:
256,128,97406,1,0,0:0:0:0:
256,128,97498,1,0,0:0:0:0:
256,128,97867,1,8,0:0:0:0:
256,128,98051,1,8,0:0:0:0:
256,128,98143,1,8,0:0:0:0:
256,128,98235,1,8,0:0:0:0:
256,128,98603,1,8,0:0:0:0:
256,128,98787,1,0,0:0:0:0:
256,128,98879,1,0,0:0:0:0:
256,128,98971,1,0,0:0:0:0:
256,128,99155,1,0,0:0:0:0:
256,128,99339,1,8,0:0:0:0:
256,128,99707,1,8,0:0:0:0:
256,128,99891,1,0,0:0:0:0:
256,128,100075,1,8,0:0:0:0:
256,128,100259,1,8,0:0:0:0:
256,128,100351,1,8,0:0:0:0:
256,128,100443,1,8,0:0:0:0:
256,128,100627,1,0,0:0:0:0:
256,128,100811,1,8,0:0:0:0:
256,128,101179,1,0,0:0:0:0:
256,128,101547,1,8,0:0:0:0:
256,128,101731,1,0,0:0:0:0:
256,128,101823,1,0,0:0:0:0:
256,128,101915,1,0,0:0:0:0:
256,128,102099,1,8,0:0:0:0:
256,128,102283,1,0,0:0:0:0:
256,128,102652,1,8,0:0:0:0:
256,128,102836,1,0,0:0:0:0:
256,128,103020,1,8,0:0:0:0:
256,128,103204,1,8,0:0:0:0:
256,128,103388,1,0,0:0:0:0:
256,128,103480,1,0,0:0:0:0:
256,128,103572,1,0,0:0:0:0:
256,128,103756,1,8,0:0:0:0:
256,128,103940,1,8,0:0:0:0:
256,128,104032,1,8,0:0:0:0:
256,128,104124,1,0,0:0:0:0:
256,128,105596,1,8,0:0:0:0:
256,128,106149,1,8,0:0:0:0:
256,128,107069,1,0,0:0:0:0:
256,128,107621,1,0,0:0:0:0:
256,128,108541,1,8,0:0:0:0:
256,128,109093,1,8,0:0:0:0:
256,128,110014,1,0,0:0:0:0:
256,128,111486,1,8,0:0:0:0:
256,128,112038,1,8,0:0:0:0:
256,128,112958,1,0,0:0:0:0:
256,128,113510,1,0,0:0:0:0:
256,128,114431,1,8,0:0:0:0:
256,128,114983,1,8,0:0:0:0:
256,128,115903,1,0,0:0:0:0:
256,192,116087,12,0,121793,0:0:0:0:
