osu file format v14

[General]
AudioFilename: audio.mp3
AudioLeadIn: 0
PreviewTime: 38971
Countdown: 0
SampleSet: Normal
StackLeniency: 0.7
Mode: 1
LetterboxInBreaks: 0
WidescreenStoryboard: 1

[Editor]
Bookmarks: 24615,39345,51118,62897,80566
DistanceSpacing: 0.8
BeatDivisor: 2
GridSize: 32
TimelineZoom: 0.6999987

[Metadata]
Title:Symmetry
TitleUnicode:Symmetry
Artist:Nekomata Master
ArtistUnicode:猫叉Master
Creator:Arrival
Version:Kantan
Source:beatmania IIDX 22 PENDUAL
Tags:epic electronica naoyuki sato
BeatmapID:1346253
BeatmapSetID:625755

[Difficulty]
HPDrainRate:8
CircleSize:2
OverallDifficulty:3.5
ApproachRate:0
SliderMultiplier:1.4
SliderTickRate:1

[Events]
//Background and Video events
0,0,"820750.jpg",0,0
//Break Periods
//Storyboard Layer 0 (Background)
//Storyboard Layer 1 (Fail)
//Storyboard Layer 2 (Pass)
//Storyboard Layer 3 (Foreground)
//Storyboard Sound Samples

[TimingPoints]
1057,368.098159509202,4,1,0,70,1,0
12836,-100,4,1,0,85,0,0
80014,-100,4,1,0,70,0,0
80198,-100,4,1,0,75,0,0
80382,-100,4,1,0,80,0,0
80566,-100,4,1,0,95,0,0
92345,-100,4,1,0,100,0,1
104124,-100,4,1,0,90,0,0
104308,-125,4,1,0,60,0,0

[HitObjects]
256,128,1057,5,0,0:0:0:0:
256,128,2529,1,8,0:0:0:0:
256,128,4001,1,0,0:0:0:0:
256,128,5474,1,8,0:0:0:0:
256,128,6946,1,0,0:0:0:0:
256,128,8418,1,8,0:0:0:0:
256,128,9891,1,0,0:0:0:0:
256,128,11363,1,8,0:0:0:0:
256,128,12836,1,0,0:0:0:0:
256,128,14308,1,0,0:0:0:0:
256,128,14860,1,8,0:0:0:0:
256,128,15780,1,8,0:0:0:0:
256,128,16333,1,8,0:0:0:0:
256,128,17253,1,8,0:0:0:0:
256,128,17805,1,8,0:0:0:0:
256,128,18725,1,0,0:0:0:0:
256,128,20198,1,0,0:0:0:0:
256,128,20750,1,8,0:0:0:0:
256,128,21670,1,8,0:0:0:0:
256,128,22222,1,8,0:0:0:0:
256,128,23142,1,8,0:0:0:0:
256,128,23695,1,8,0:0:0:0:
256,128,24615,1,4,0:0:0:0:
256,128,25351,1,8,0:0:0:0:
256,128,26087,1,0,0:0:0:0:
256,128,26455,1,0,0:0:0:0:
256,128,26823,1,8,0:0:0:0:
256,128,27560,1,0,0:0:0:0:
256,128,28296,1,8,0:0:0:0:
256,128,29032,1,0,0:0:0:0:
256,128,29768,1,8,0:0:0:0:
256,128,30136,1,8,0:0:0:0:
256,128,30504,1,0,0:0:0:0:
256,128,31241,1,8,0:0:0:0:
256,128,31977,1,8,0:0:0:0:
256,128,32345,1,0,0:0:0:0:
256,128,32713,1,8,0:0:0:0:
256,128,33449,1,0,0:0:0:0:
256,128,34185,1,8,0:0:0:0:
256,128,34922,1,8,0:0:0:0:
256,128,35290,1,8,0:0:0:0:
256,128,35658,1,8,0:0:0:0:
256,128,36394,1,0,0:0:0:0:
256,128,39339,5,4,0:0:0:0:
256,128,40627,1,8,0:0:0:0:
256,128,41363,1,8,0:0:0:0:
256,128,42283,1,0,0:0:0:0:
256,128,43572,1,0,0:0:0:0:
256,128,44492,1,8,0:0:0:0:
256,128,44860,1,8,0:0:0:0:
256,128,45228,1,4,0:0:0:0:
256,128,46516,1,8,0:0:0:0:
256,128,47252,1,8,0:0:0:0:
256,128,48172,1,0,0:0:0:0:
256,128,49461,1,0,0:0:0:0:
256,128,49830,1,8,0:0:0:0:
256,128,50198,1,0,0:0:0:0:
256,128,51117,1,4,0:0:0:0:
256,128,52406,1,8,0:0:0:0:
256,128,53142,1,8,0:0:0:0:
256,128,54062,1,0,0:0:0:0:
256,128,55351,1,0,0:0:0:0:
256,128,56271,1,8,0:0:0:0:
256,128,56639,1,8,0:0:0:0:
256,128,57007,1,4,0:0:0:0:
256,128,58295,1,8,0:0:0:0:
256,128,59031,1,8,0:0:0:0:
256,128,59951,1,0,0:0:0:0:
256,128,61241,1,0,0:0:0:0:
256,128,61609,1,8,0:0:0:0:
256,128,61977,1,0,0:0:0:0:
256,128,62896,1,4,0:0:0:0:
256,128,64001,1,12,0:0:0:0:
256,128,64553,1,12,0:0:0:0:
256,128,65106,1,8,0:0:0:0:
256,128,65842,1,0,0:0:0:0:
256,128,66946,1,12,0:0:0:0:
256,128,67498,1,12,0:0:0:0:
256,128,68050,1,8,0:0:0:0:
256,128,68418,1,8,0:0:0:0:
256,128,68787,1,0,0:0:0:0:
256,128,69891,1,12,0:0:0:0:
256,128,70443,1,12,0:0:0:0:
256,128,70995,1,8,0:0:0:0:
256,128,71731,1,0,0:0:0:0:
256,128,72836,1,12,0:0:0:0:
256,128,73388,1,12,0:0:0:0:
256,128,73940,1,8,0:0:0:0:
256,128,74308,1,8,0:0:0:0:
256,128,74676,1,0,0:0:0:0:
256,128,76149,1,8,0:0:0:0:
256,128,77621,1,0,0:0:0:0:
256,128,78357,1,8,0:0:0:0:
256,128,79093,1,8,0:0:0:0:
256,128,79830,1,0,0:0:0:0:
256,128,80566,1,4,0:0:0:0:
256,128,81302,1,0,0:0:0:0:
256,128,81670,1,8,0:0:0:0:
256,128,82038,1,0,0:0:0:0:
256,128,82774,1,8,0:0:0:0:
256,128,83510,1,0,0:0:0:0:
256,128,84247,1,8,0:0:0:0:
256,128,84615,1,8,0:0:0:0:
256,128,84983,1,0,0:0:0:0:
256,128,86455,1,12,0:0:0:0:
256,128,87192,1,0,0:0:0:0:
256,128,87560,1,8,0:0:0:0:
256,128,87928,1,0,0:0:0:0:
256,128,88664,1,8,0:0:0:0:
256,128,89400,1,8,0:0:0:0:
256,128,90136,1,8,0:0:0:0:
256,128,90504,1,8,0:0:0:0:
256,128,90872,1,0,0:0:0:0:
256,128,92345,1,4,0:0:0:0:
256,128,93081,1,8,0:0:0:0:
256,128,93449,1,8,0:0:0:0:
256,128,93817,1,0,0:0:0:0:
256,128,94553,1,0,0:0:0:0:
256,128,94922,1,8,0:0:0:0:
256,128,95290,1,0,0:0:0:0:
256,128,96026,1,8,0:0:0:0:
256,128,96394,1,8,0:0:0:0:
256,128,96762,1,0,0:0:0:0:
256,128,97498,1,0,0:0:0:0:
256,128,97867,1,8,0:0:0:0:
256,128,98235,1,4,0:0:0:0:
256,128,98971,1,8,0:0:0:0:
256,128,99339,1,0,0:0:0:0:
256,128,99707,1,8,0:0:0:0:
256,128,100443,1,0,0:0:0:0:
256,128,100811,1,8,0:0:0:0:
256,128,101179,1,8,0:0:0:0:
256,128,101915,1,8,0:0:0:0:
256,128,102283,1,0,0:0:0:0:
256,128,102652,1,8,0:0:0:0:
256,128,103388,1,0,0:0:0:0:
256,128,103756,1,8,0:0:0:0:
256,128,103940,1,8,0:0:0:0:
256,128,104124,1,8,0:0:0:0:
256,128,105596,1,8,0:0:0:0:
256,128,107069,1,0,0:0:0:0:
256,128,108541,1,8,0:0:0:0:
256,128,110014,1,0,0:0:0:0:
256,128,111486,1,8,0:0:0:0:
256,128,112958,1,0,0:0:0:0:
256,128,114431,1,8,0:0:0:0:
256,128,115903,1,0,0:0:0:0:
256,192,116087,12,0,121793,0:0:0:0:
