osu file format v14

[General]
AudioFilename: audio.mp3
AudioLeadIn: 0
PreviewTime: 209854
Countdown: 0
SampleSet: Normal
StackLeniency: 0.7
Mode: 1
LetterboxInBreaks: 0
WidescreenStoryboard: 0

[Editor]
Bookmarks: 410,30886,53743,84219,116600,148981,179457,237317
DistanceSpacing: 0.1
BeatDivisor: 16
GridSize: 32
TimelineZoom: 3.1

[Metadata]
Title:Smile of Split
TitleUnicode:Smile of Split
Artist:Nekomata Master
ArtistUnicode:猫叉Master
Creator:_DUSK_
Version:Muzukashii
Source:
Tags:Naoyuki Sato raindrops
BeatmapID:2069877
BeatmapSetID:988553

[Difficulty]
HPDrainRate:6
CircleSize:4
OverallDifficulty:5
ApproachRate:9
SliderMultiplier:1.4
SliderTickRate:1

[Events]
//Background and Video events
0,0,"sos2.jpg",0,0
//Break Periods
//Storyboard Layer 0 (Background)
//Storyboard Layer 1 (Fail)
//Storyboard Layer 2 (Pass)
//Storyboard Layer 3 (Foreground)
//Storyboard Sound Samples

[TimingPoints]
410,476.190476190476,4,1,0,30,1,0
15648,-95.2380952380952,4,1,0,30,0,0
31005,-111.111111111111,4,1,0,30,0,0
38505,-105.263157894737,4,1,0,30,0,0
53624,-100,4,1,0,30,0,0
68981,-100,4,1,0,40,0,0
84338,-111.111111111111,4,1,0,40,0,0
84695,-111.111111111111,4,1,0,30,0,0
99814,-100,4,1,0,10,0,0
101362,-100,4,1,0,30,0,0
116600,-95.2380952380952,4,1,0,30,0,0
131838,-93.4579439252336,4,1,0,30,0,0
148981,-100,4,1,0,40,0,0
164219,-95.2380952380952,4,1,0,40,0,0
179457,-90.9090909090909,4,1,0,40,0,0
209933,-100,4,1,0,50,0,0
225558,-100,4,1,0,30,0,0
237433,-100,4,1,0,5,0,0

[HitObjects]
256,192,410,5,0,0:0:0:0:
256,192,886,1,8,0:0:0:0:
256,192,1124,1,0,0:0:0:0:
256,192,1600,1,0,0:0:0:0:
256,192,1838,1,8,0:0:0:0:
256,192,2076,1,0,0:0:0:0:
256,192,2314,1,0,0:0:0:0:
256,192,2790,1,8,0:0:0:0:
256,192,3029,1,8,0:0:0:0:
256,192,3267,1,0,0:0:0:0:
256,192,3505,1,8,0:0:0:0:
256,192,3624,1,8,0:0:0:0:
256,192,3743,1,8,0:0:0:0:
256,192,3981,1,0,0:0:0:0:
256,192,4219,1,0,0:0:0:0:
256,192,4695,1,8,0:0:0:0:
256,192,4933,1,0,0:0:0:0:
256,192,5290,1,0,0:0:0:0:
256,192,5409,1,0,0:0:0:0:
256,192,5648,1,8,0:0:0:0:
256,192,5886,1,0,0:0:0:0:
256,192,6124,1,0,0:0:0:0:
256,192,6600,1,8,0:0:0:0:
256,192,6838,1,8,0:0:0:0:
256,192,7195,1,0,0:0:0:0:
256,192,7314,1,8,0:0:0:0:
256,192,7552,1,8,0:0:0:0:
256,192,7790,1,8,0:0:0:0:
256,192,8029,1,0,0:0:0:0:
256,192,8505,1,8,0:0:0:0:
256,192,8743,1,0,0:0:0:0:
256,192,9100,1,0,0:0:0:0:
256,192,9219,1,0,0:0:0:0:
256,192,9457,1,8,0:0:0:0:
256,192,9695,1,0,0:0:0:0:
256,192,9933,1,0,0:0:0:0:
256,192,10409,1,8,0:0:0:0:
256,192,10648,1,8,0:0:0:0:
256,192,10886,1,0,0:0:0:0:
256,192,11124,1,0,0:0:0:0:
256,192,11362,1,8,0:0:0:0:
256,192,11600,1,0,0:0:0:0:
256,192,11838,1,0,0:0:0:0:
256,192,12314,1,8,0:0:0:0:
256,192,12671,1,8,0:0:0:0:
256,192,13029,1,0,0:0:0:0:
256,192,13267,1,8,0:0:0:0:
256,192,13743,1,8,0:0:0:0:
256,192,13981,1,0,0:0:0:0:
256,192,14219,1,8,0:0:0:0:
256,192,14576,1,0,0:0:0:0:
256,192,14695,1,8,0:0:0:0:
256,192,15171,1,8,0:0:0:0:
256,192,15409,1,0,0:0:0:0:
256,192,15648,1,12,0:0:0:0:
256,192,16124,1,8,0:0:0:0:
256,192,16362,1,0,0:0:0:0:
256,192,16719,1,8,0:0:0:0:
256,192,16838,1,0,0:0:0:0:
256,192,17076,1,8,0:0:0:0:
256,192,17314,1,0,0:0:0:0:
256,192,17552,1,0,0:0:0:0:
256,192,18029,1,8,0:0:0:0:
256,192,18267,1,0,0:0:0:0:
256,192,18505,1,0,0:0:0:0:
256,192,18624,1,8,0:0:0:0:
256,192,18743,1,0,0:0:0:0:
256,192,18981,1,8,0:0:0:0:
256,192,19457,1,0,0:0:0:0:
256,192,19695,1,0,0:0:0:0:
256,192,19933,1,8,0:0:0:0:
256,192,20528,1,8,0:0:0:0:
256,192,20648,1,0,0:0:0:0:
256,192,20886,1,8,0:0:0:0:
256,192,21124,1,0,0:0:0:0:
256,192,21362,1,0,0:0:0:0:
256,192,21838,1,8,0:0:0:0:
256,192,22076,1,8,0:0:0:0:
256,192,22195,1,8,0:0:0:0:
256,192,22433,1,8,0:0:0:0:
256,192,22552,1,8,0:0:0:0:
256,192,22790,1,8,0:0:0:0:
256,192,23029,1,0,0:0:0:0:
256,192,23267,1,12,0:0:0:0:
256,192,23743,1,8,0:0:0:0:
256,192,24338,1,8,0:0:0:0:
256,192,24457,1,0,0:0:0:0:
256,192,24695,1,8,0:0:0:0:
256,192,24933,1,0,0:0:0:0:
256,192,25171,1,0,0:0:0:0:
256,192,25648,1,8,0:0:0:0:
256,192,25886,1,0,0:0:0:0:
256,192,26124,1,0,0:0:0:0:
256,192,26243,1,8,0:0:0:0:
256,192,26362,1,0,0:0:0:0:
256,192,26600,1,8,0:0:0:0:
256,192,26838,1,8,0:0:0:0:
256,192,27076,1,8,0:0:0:0:
256,192,27552,1,8,0:0:0:0:
256,192,28148,1,8,0:0:0:0:
256,192,28267,1,0,0:0:0:0:
256,192,28505,1,8,0:0:0:0:
256,192,28743,1,0,0:0:0:0:
256,192,28981,1,0,0:0:0:0:
256,192,29219,1,8,0:0:0:0:
256,192,29457,1,8,0:0:0:0:
256,192,29695,1,0,0:0:0:0:
256,192,29933,1,0,0:0:0:0:
256,192,30052,1,0,0:0:0:0:
256,192,30171,1,0,0:0:0:0:
256,192,30409,1,8,0:0:0:0:
256,192,30886,5,12,0:0:0:0:
256,192,31749,1,0,0:0:0:0:
256,192,32701,1,0,0:0:0:0:
256,192,33654,1,0,0:0:0:0:
256,192,34219,1,8,0:0:0:0:
256,192,34695,1,0,0:0:0:0:
256,192,35558,1,0,0:0:0:0:
256,192,36511,1,0,0:0:0:0:
256,192,37463,1,8,0:0:0:0:
256,192,38029,1,0,0:0:0:0:
256,192,38505,1,8,0:0:0:0:
256,192,38743,1,0,0:0:0:0:
256,192,38981,1,8,0:0:0:0:
256,192,39368,1,8,0:0:0:0:
256,192,39695,1,0,0:0:0:0:
256,192,39933,1,8,0:0:0:0:
256,192,40409,1,0,0:0:0:0:
256,192,40648,1,0,0:0:0:0:
256,192,40886,1,8,0:0:0:0:
256,192,41283,1,8,0:0:0:0:
256,192,41600,1,0,0:0:0:0:
256,192,41838,1,8,0:0:0:0:
256,192,42314,1,8,0:0:0:0:
256,192,42552,1,0,0:0:0:0:
256,192,42790,1,8,0:0:0:0:
256,192,43187,1,0,0:0:0:0:
256,192,43504,1,0,0:0:0:0:
256,192,43742,1,8,0:0:0:0:
256,192,44218,1,0,0:0:0:0:
256,192,44457,1,0,0:0:0:0:
256,192,44695,1,8,0:0:0:0:
256,192,45092,1,8,0:0:0:0:
256,192,45409,1,0,0:0:0:0:
256,192,45647,1,8,0:0:0:0:
256,192,46124,1,8,0:0:0:0:
256,192,46481,1,0,0:0:0:0:
256,192,46838,1,0,0:0:0:0:
256,192,48892,1,0,0:0:0:0:
256,192,49457,1,8,0:0:0:0:
256,192,49933,1,8,0:0:0:0:
256,192,50052,1,8,0:0:0:0:
256,192,50290,1,0,0:0:0:0:
256,192,50648,1,0,0:0:0:0:
256,192,50886,1,8,0:0:0:0:
256,192,51243,1,8,0:0:0:0:
256,192,51362,1,8,0:0:0:0:
256,192,51600,1,8,0:0:0:0:
256,192,51719,1,8,0:0:0:0:
256,192,51838,1,0,0:0:0:0:
256,192,52195,1,0,0:0:0:0:
256,192,52314,1,0,0:0:0:0:
256,192,52552,1,8,0:0:0:0:
256,192,52671,1,8,0:0:0:0:
256,192,52790,1,8,0:0:0:0:
256,192,53148,1,8,0:0:0:0:
256,192,53267,1,8,0:0:0:0:
256,192,53505,1,0,0:0:0:0:
256,192,53743,1,12,0:0:0:0:
256,192,54219,1,0,0:0:0:0:
256,192,54338,1,8,0:0:0:0:
256,192,54576,1,8,0:0:0:0:
256,192,54933,1,0,0:0:0:0:
256,192,55171,1,8,0:0:0:0:
256,192,55529,1,0,0:0:0:0:
256,192,56124,1,8,0:0:0:0:
256,192,56243,1,8,0:0:0:0:
256,192,56481,1,8,0:0:0:0:
256,192,56719,1,0,0:0:0:0:
256,192,56957,1,0,0:0:0:0:
256,192,57076,1,8,0:0:0:0:
256,192,57552,1,0,0:0:0:0:
256,192,58029,1,0,0:0:0:0:
256,192,58148,1,8,0:0:0:0:
256,192,58386,1,8,0:0:0:0:
256,192,58743,1,0,0:0:0:0:
256,192,58981,1,8,0:0:0:0:
256,192,59338,1,0,0:0:0:0:
256,192,59933,1,8,0:0:0:0:
256,192,60052,1,8,0:0:0:0:
256,192,60290,1,0,0:0:0:0:
256,192,60529,1,8,0:0:0:0:
256,192,60767,1,0,0:0:0:0:
256,192,60886,1,8,0:0:0:0:
256,192,61362,1,12,0:0:0:0:
256,192,61838,1,0,0:0:0:0:
256,192,61957,1,8,0:0:0:0:
256,192,62195,1,8,0:0:0:0:
256,192,62552,1,0,0:0:0:0:
256,192,62790,1,8,0:0:0:0:
256,192,63148,1,0,0:0:0:0:
256,192,63505,1,0,0:0:0:0:
256,192,63743,1,8,0:0:0:0:
256,192,63981,1,0,0:0:0:0:
256,192,64100,1,8,0:0:0:0:
256,192,64695,1,8,0:0:0:0:
256,192,65052,1,0,0:0:0:0:
256,192,65171,1,0,0:0:0:0:
256,192,65409,1,0,0:0:0:0:
256,192,65648,1,0,0:0:0:0:
256,192,65767,1,8,0:0:0:0:
256,192,66005,1,8,0:0:0:0:
256,192,66362,1,0,0:0:0:0:
256,192,66600,1,8,0:0:0:0:
256,192,66838,1,8,0:0:0:0:
256,192,66957,1,0,0:0:0:0:
256,192,67552,1,8,0:0:0:0:
256,192,67671,1,8,0:0:0:0:
256,192,67909,1,8,0:0:0:0:
256,192,68267,1,8,0:0:0:0:
256,192,68505,1,0,0:0:0:0:
256,192,68743,1,0,0:0:0:0:
256,192,68981,1,12,0:0:0:0:
256,192,69457,1,0,0:0:0:0:
256,192,69576,1,8,0:0:0:0:
256,192,69814,1,0,0:0:0:0:
256,192,70171,1,0,0:0:0:0:
256,192,70409,1,8,0:0:0:0:
256,192,70767,1,12,0:0:0:0:
256,192,71362,1,0,0:0:0:0:
256,192,71481,1,0,0:0:0:0:
256,192,71719,1,8,0:0:0:0:
256,192,72314,1,8,0:0:0:0:
256,192,72552,1,8,0:0:0:0:
256,192,72790,1,0,0:0:0:0:
256,192,73029,1,8,0:0:0:0:
256,192,73267,1,8,0:0:0:0:
256,192,73386,1,8,0:0:0:0:
256,192,73624,1,8,0:0:0:0:
256,192,73981,1,0,0:0:0:0:
256,192,74219,1,8,0:0:0:0:
256,192,74457,1,8,0:0:0:0:
256,192,74576,1,0,0:0:0:0:
256,192,74933,1,8,0:0:0:0:
256,192,75171,1,0,0:0:0:0:
256,192,75290,1,8,0:0:0:0:
256,192,75529,1,8,0:0:0:0:
256,192,75767,1,0,0:0:0:0:
256,192,76005,1,0,0:0:0:0:
256,192,76124,1,8,0:0:0:0:
256,192,76600,1,12,0:0:0:0:
256,192,77076,1,0,0:0:0:0:
256,192,77195,1,8,0:0:0:0:
256,192,77433,1,8,0:0:0:0:
256,192,77790,1,0,0:0:0:0:
256,192,78029,1,8,0:0:0:0:
256,192,78386,1,8,0:0:0:0:
256,192,78505,1,0,0:0:0:0:
256,192,78743,1,0,0:0:0:0:
256,192,78981,1,8,0:0:0:0:
256,192,79338,1,0,0:0:0:0:
256,192,79933,1,8,0:0:0:0:
256,192,80290,1,8,0:0:0:0:
256,192,80409,1,0,0:0:0:0:
256,192,80648,1,0,0:0:0:0:
256,192,80886,1,8,0:0:0:0:
256,192,81005,1,8,0:0:0:0:
256,192,81243,1,8,0:0:0:0:
256,192,81600,1,0,0:0:0:0:
256,192,81838,1,8,0:0:0:0:
256,192,82195,1,8,0:0:0:0:
256,192,82314,1,0,0:0:0:0:
256,192,82552,1,8,0:0:0:0:
256,192,82790,1,0,0:0:0:0:
256,192,82909,1,8,0:0:0:0:
256,192,83148,1,8,0:0:0:0:
256,192,83505,1,8,0:0:0:0:
256,192,83743,1,0,0:0:0:0:
256,192,83981,1,8,0:0:0:0:
256,192,84219,1,12,0:0:0:0:
256,192,84695,1,8,0:0:0:0:
256,192,85092,1,0,0:0:0:0:
256,192,85648,1,0,0:0:0:0:
256,192,86044,1,8,0:0:0:0:
256,192,86600,1,0,0:0:0:0:
256,192,86997,1,8,0:0:0:0:
256,192,87552,1,8,0:0:0:0:
256,192,88029,1,0,0:0:0:0:
256,192,88505,1,8,0:0:0:0:
256,192,88663,1,0,0:0:0:0:
256,192,88902,1,0,0:0:0:0:
256,192,89457,1,0,0:0:0:0:
256,192,89854,1,8,0:0:0:0:
256,192,90409,1,8,0:0:0:0:
256,192,90806,1,0,0:0:0:0:
256,192,91362,1,8,0:0:0:0:
256,192,91838,1,0,0:0:0:0:
256,192,92711,1,0,0:0:0:0:
256,192,93663,1,0,0:0:0:0:
256,192,94616,1,8,0:0:0:0:
256,192,95568,1,0,0:0:0:0:
256,192,96521,1,8,0:0:0:0:
256,192,97473,1,0,0:0:0:0:
256,192,98425,1,8,0:0:0:0:
256,192,98981,1,8,0:0:0:0:
256,192,99933,12,0,101124,0:0:0:0:
256,192,101362,5,8,0:0:0:0:
256,192,101719,1,8,0:0:0:0:
256,192,101957,1,0,0:0:0:0:
256,192,102195,1,8,0:0:0:0:
256,192,102433,1,8,0:0:0:0:
256,192,102671,1,0,0:0:0:0:
256,192,103267,1,8,0:0:0:0:
256,192,103624,1,8,0:0:0:0:
256,192,103862,1,0,0:0:0:0:
256,192,104100,1,8,0:0:0:0:
256,192,104338,1,8,0:0:0:0:
256,192,104576,1,0,0:0:0:0:
256,192,104933,1,8,0:0:0:0:
256,192,105171,1,8,0:0:0:0:
256,192,105529,1,8,0:0:0:0:
256,192,105767,1,0,0:0:0:0:
256,192,106005,1,8,0:0:0:0:
256,192,106243,1,8,0:0:0:0:
256,192,106481,1,0,0:0:0:0:
256,192,107076,1,8,0:0:0:0:
256,192,107433,1,8,0:0:0:0:
256,192,107671,1,0,0:0:0:0:
256,192,107909,1,8,0:0:0:0:
256,192,108148,1,8,0:0:0:0:
256,192,108386,1,8,0:0:0:0:
256,192,108743,1,8,0:0:0:0:
256,192,108981,1,8,0:0:0:0:
256,192,109338,1,8,0:0:0:0:
256,192,109576,1,0,0:0:0:0:
256,192,109814,1,8,0:0:0:0:
256,192,110052,1,8,0:0:0:0:
256,192,110290,1,0,0:0:0:0:
256,192,110886,1,8,0:0:0:0:
256,192,111243,1,8,0:0:0:0:
256,192,111481,1,0,0:0:0:0:
256,192,111719,1,8,0:0:0:0:
256,192,111957,1,8,0:0:0:0:
256,192,112195,1,0,0:0:0:0:
256,192,112552,1,8,0:0:0:0:
256,192,112790,1,8,0:0:0:0:
256,192,113148,1,8,0:0:0:0:
256,192,113386,1,0,0:0:0:0:
256,192,113624,1,8,0:0:0:0:
256,192,113862,1,8,0:0:0:0:
256,192,114100,1,0,0:0:0:0:
256,192,114695,1,8,0:0:0:0:
256,192,115052,1,8,0:0:0:0:
256,192,115290,1,0,0:0:0:0:
256,192,115529,1,8,0:0:0:0:
256,192,115767,1,8,0:0:0:0:
256,192,116005,1,8,0:0:0:0:
256,192,116362,1,8,0:0:0:0:
256,192,116600,1,12,0:0:0:0:
256,192,117076,1,0,0:0:0:0:
256,192,117314,1,8,0:0:0:0:
256,192,117552,1,0,0:0:0:0:
256,192,117909,1,0,0:0:0:0:
256,192,118267,1,0,0:0:0:0:
256,192,118505,1,0,0:0:0:0:
256,192,118981,1,0,0:0:0:0:
256,192,119219,1,8,0:0:0:0:
256,192,119457,1,0,0:0:0:0:
256,192,119814,1,0,0:0:0:0:
256,192,120409,1,0,0:0:0:0:
256,192,120886,1,0,0:0:0:0:
256,192,121124,1,8,0:0:0:0:
256,192,121362,1,0,0:0:0:0:
256,192,121719,1,0,0:0:0:0:
256,192,122076,1,0,0:0:0:0:
256,192,122314,1,0,0:0:0:0:
256,192,122790,1,0,0:0:0:0:
256,192,123029,1,8,0:0:0:0:
256,192,123267,1,0,0:0:0:0:
256,192,123624,1,0,0:0:0:0:
256,192,124219,1,0,0:0:0:0:
256,192,124695,1,0,0:0:0:0:
256,192,124933,1,8,0:0:0:0:
256,192,125171,1,0,0:0:0:0:
256,192,125529,1,0,0:0:0:0:
256,192,125886,1,0,0:0:0:0:
256,192,126124,1,0,0:0:0:0:
256,192,126600,1,0,0:0:0:0:
256,192,126838,1,8,0:0:0:0:
256,192,127076,1,0,0:0:0:0:
256,192,127433,1,0,0:0:0:0:
256,192,128029,1,0,0:0:0:0:
256,192,128505,1,0,0:0:0:0:
256,192,128743,1,8,0:0:0:0:
256,192,128981,1,0,0:0:0:0:
256,192,129338,1,0,0:0:0:0:
256,192,129695,1,0,0:0:0:0:
256,192,129933,1,0,0:0:0:0:
256,192,130171,1,8,0:0:0:0:
256,192,130409,1,0,0:0:0:0:
256,192,130648,1,8,0:0:0:0:
256,192,130886,1,12,0:0:0:0:
256,192,131362,1,0,0:0:0:0:
256,192,131600,1,0,0:0:0:0:
256,192,131838,1,12,0:0:0:0:
256,192,132314,1,0,0:0:0:0:
256,192,132552,1,8,0:0:0:0:
256,192,132790,1,0,0:0:0:0:
256,192,133148,1,0,0:0:0:0:
256,192,133505,1,0,0:0:0:0:
256,192,133743,1,0,0:0:0:0:
256,192,133981,1,8,0:0:0:0:
256,192,134219,1,0,0:0:0:0:
256,192,134457,1,8,0:0:0:0:
256,192,134695,1,0,0:0:0:0:
256,192,135052,1,0,0:0:0:0:
256,192,135648,1,0,0:0:0:0:
256,192,136124,1,0,0:0:0:0:
256,192,136362,1,8,0:0:0:0:
256,192,136600,1,0,0:0:0:0:
256,192,136957,1,0,0:0:0:0:
256,192,137314,1,0,0:0:0:0:
256,192,137552,1,0,0:0:0:0:
256,192,137790,1,8,0:0:0:0:
256,192,138029,1,0,0:0:0:0:
256,192,138267,1,8,0:0:0:0:
256,192,138505,1,0,0:0:0:0:
256,192,138862,1,0,0:0:0:0:
256,192,139457,1,0,0:0:0:0:
256,192,139933,1,0,0:0:0:0:
256,192,140171,1,8,0:0:0:0:
256,192,140409,1,0,0:0:0:0:
256,192,140767,1,0,0:0:0:0:
256,192,141124,1,8,0:0:0:0:
256,192,141362,1,0,0:0:0:0:
256,192,141600,1,8,0:0:0:0:
256,192,141838,1,0,0:0:0:0:
256,192,142076,1,8,0:0:0:0:
256,192,142314,1,0,0:0:0:0:
256,192,142671,1,0,0:0:0:0:
256,192,143267,1,0,0:0:0:0:
256,192,143743,1,0,0:0:0:0:
256,192,143981,1,8,0:0:0:0:
256,192,144219,1,0,0:0:0:0:
256,192,144576,1,0,0:0:0:0:
256,192,144933,1,0,0:0:0:0:
256,192,145171,1,0,0:0:0:0:
256,192,145409,1,8,0:0:0:0:
256,192,145648,1,0,0:0:0:0:
256,192,145886,1,8,0:0:0:0:
256,192,146124,1,0,0:0:0:0:
256,192,146481,1,0,0:0:0:0:
256,192,146838,1,8,0:0:0:0:
256,192,148029,1,0,0:0:0:0:
256,192,148981,1,12,0:0:0:0:
256,192,149219,1,0,0:0:0:0:
256,192,149457,1,8,0:0:0:0:
256,192,149814,1,8,0:0:0:0:
256,192,150171,1,8,0:0:0:0:
256,192,150409,1,0,0:0:0:0:
256,192,150767,1,8,0:0:0:0:
256,192,151124,1,8,0:0:0:0:
256,192,151362,1,0,0:0:0:0:
256,192,151719,1,8,0:0:0:0:
256,192,151957,1,0,0:0:0:0:
256,192,152076,1,8,0:0:0:0:
256,192,152314,1,8,0:0:0:0:
256,192,152790,1,0,0:0:0:0:
256,192,153267,1,8,0:0:0:0:
256,192,153624,1,8,0:0:0:0:
256,192,153981,1,8,0:0:0:0:
256,192,154219,1,0,0:0:0:0:
256,192,154576,1,8,0:0:0:0:
256,192,154933,1,8,0:0:0:0:
256,192,155171,1,0,0:0:0:0:
256,192,155529,1,8,0:0:0:0:
256,192,155886,1,8,0:0:0:0:
256,192,156243,1,0,0:0:0:0:
256,192,156362,1,8,0:0:0:0:
256,192,156600,1,12,0:0:0:0:
256,192,156838,1,0,0:0:0:0:
256,192,157076,1,8,0:0:0:0:
256,192,157433,1,8,0:0:0:0:
256,192,157790,1,8,0:0:0:0:
256,192,158029,1,0,0:0:0:0:
256,192,158386,1,8,0:0:0:0:
256,192,158743,1,8,0:0:0:0:
256,192,158981,1,0,0:0:0:0:
256,192,159338,1,8,0:0:0:0:
256,192,159695,1,8,0:0:0:0:
256,192,159933,1,0,0:0:0:0:
256,192,160171,1,8,0:0:0:0:
256,192,160409,1,0,0:0:0:0:
256,192,160886,1,8,0:0:0:0:
256,192,161243,1,8,0:0:0:0:
256,192,161600,1,8,0:0:0:0:
256,192,161838,1,0,0:0:0:0:
256,192,162195,1,8,0:0:0:0:
256,192,162552,1,8,0:0:0:0:
256,192,162790,1,0,0:0:0:0:
256,192,163267,1,0,0:0:0:0:
256,192,163624,1,0,0:0:0:0:
256,192,163981,1,0,0:0:0:0:
256,192,164219,1,12,0:0:0:0:
256,192,164695,1,8,0:0:0:0:
256,192,164933,1,0,0:0:0:0:
256,192,165052,1,8,0:0:0:0:
256,192,165409,1,8,0:0:0:0:
256,192,165648,1,0,0:0:0:0:
256,192,165886,1,0,0:0:0:0:
256,192,166005,1,8,0:0:0:0:
256,192,166362,1,8,0:0:0:0:
256,192,166600,1,0,0:0:0:0:
256,192,166838,1,0,0:0:0:0:
256,192,166957,1,8,0:0:0:0:
256,192,167314,1,8,0:0:0:0:
256,192,167552,1,0,0:0:0:0:
256,192,168029,1,8,0:0:0:0:
256,192,168505,1,0,0:0:0:0:
256,192,168743,1,0,0:0:0:0:
256,192,168862,1,8,0:0:0:0:
256,192,169219,1,8,0:0:0:0:
256,192,169457,1,0,0:0:0:0:
256,192,169695,1,0,0:0:0:0:
256,192,169814,1,8,0:0:0:0:
256,192,170171,1,8,0:0:0:0:
256,192,170409,1,0,0:0:0:0:
256,192,170648,1,0,0:0:0:0:
256,192,170886,1,8,0:0:0:0:
256,192,171124,1,8,0:0:0:0:
256,192,171243,1,0,0:0:0:0:
256,192,171362,1,8,0:0:0:0:
256,192,171600,1,8,0:0:0:0:
256,192,171838,1,12,0:0:0:0:
256,192,172314,1,0,0:0:0:0:
256,192,172552,1,0,0:0:0:0:
256,192,172671,1,8,0:0:0:0:
256,192,173029,1,8,0:0:0:0:
256,192,173267,1,0,0:0:0:0:
256,192,173505,1,0,0:0:0:0:
256,192,173624,1,8,0:0:0:0:
256,192,173981,1,8,0:0:0:0:
256,192,174219,1,0,0:0:0:0:
256,192,174457,1,0,0:0:0:0:
256,192,174576,1,8,0:0:0:0:
256,192,174933,1,8,0:0:0:0:
256,192,175171,1,0,0:0:0:0:
256,192,175648,1,0,0:0:0:0:
256,192,176124,1,0,0:0:0:0:
256,192,176362,1,0,0:0:0:0:
256,192,176481,1,8,0:0:0:0:
256,192,176838,1,8,0:0:0:0:
256,192,177076,1,0,0:0:0:0:
256,192,177314,1,8,0:0:0:0:
256,192,177433,5,8,0:0:0:0:
256,192,177552,1,0,0:0:0:0:
256,192,178029,1,8,0:0:0:0:
256,192,178505,1,8,0:0:0:0:
256,192,178743,1,0,0:0:0:0:
256,192,178862,1,0,0:0:0:0:
256,192,178981,1,8,0:0:0:0:
256,192,179219,1,8,0:0:0:0:
256,192,179457,1,12,0:0:0:0:
256,192,179814,1,0,0:0:0:0:
256,192,179933,1,8,0:0:0:0:
256,192,180171,1,0,0:0:0:0:
256,192,180290,1,0,0:0:0:0:
256,192,180409,1,8,0:0:0:0:
256,192,180648,1,0,0:0:0:0:
256,192,180886,1,8,0:0:0:0:
256,192,181362,1,0,0:0:0:0:
256,192,181600,1,8,0:0:0:0:
256,192,181838,1,0,0:0:0:0:
256,192,182076,1,8,0:0:0:0:
256,192,182195,1,8,0:0:0:0:
256,192,182314,1,0,0:0:0:0:
256,192,182552,1,8,0:0:0:0:
256,192,182790,1,0,0:0:0:0:
256,192,183267,1,0,0:0:0:0:
256,192,183386,1,8,0:0:0:0:
256,192,183624,1,8,0:0:0:0:
256,192,183981,1,8,0:0:0:0:
256,192,184100,1,8,0:0:0:0:
256,192,184219,1,0,0:0:0:0:
256,192,184457,1,8,0:0:0:0:
256,192,184695,1,0,0:0:0:0:
256,192,185171,1,0,0:0:0:0:
256,192,185409,1,8,0:0:0:0:
256,192,185648,1,0,0:0:0:0:
256,192,185886,1,8,0:0:0:0:
256,192,186005,1,8,0:0:0:0:
256,192,186124,1,0,0:0:0:0:
256,192,186362,1,8,0:0:0:0:
256,192,186600,1,0,0:0:0:0:
256,192,187076,1,12,0:0:0:0:
256,192,187552,1,0,0:0:0:0:
256,192,187790,1,8,0:0:0:0:
256,192,187909,1,8,0:0:0:0:
256,192,188029,1,0,0:0:0:0:
256,192,188267,1,8,0:0:0:0:
256,192,188505,1,0,0:0:0:0:
256,192,188981,1,0,0:0:0:0:
256,192,189219,1,0,0:0:0:0:
256,192,189457,1,8,0:0:0:0:
256,192,189695,1,8,0:0:0:0:
256,192,189933,1,0,0:0:0:0:
256,192,190171,1,8,0:0:0:0:
256,192,190290,1,8,0:0:0:0:
256,192,190409,1,0,0:0:0:0:
256,192,190767,1,4,0:0:0:0:
256,192,191600,1,12,0:0:0:0:
256,192,191838,1,0,0:0:0:0:
256,192,192076,1,8,0:0:0:0:
256,192,192195,1,8,0:0:0:0:
256,192,192314,1,0,0:0:0:0:
256,192,192552,1,8,0:0:0:0:
256,192,192790,1,0,0:0:0:0:
256,192,193267,1,0,0:0:0:0:
256,192,193505,1,8,0:0:0:0:
256,192,193743,1,0,0:0:0:0:
256,192,193981,1,8,0:0:0:0:
256,192,194219,1,0,0:0:0:0:
256,192,194695,1,4,0:0:0:0:
256,192,195052,1,0,0:0:0:0:
256,192,195171,1,8,0:0:0:0:
256,192,195409,1,0,0:0:0:0:
256,192,195529,1,0,0:0:0:0:
256,192,195648,1,8,0:0:0:0:
256,192,195886,1,0,0:0:0:0:
256,192,196124,1,8,0:0:0:0:
256,192,196600,1,8,0:0:0:0:
256,192,196957,1,0,0:0:0:0:
256,192,197076,1,8,0:0:0:0:
256,192,197314,1,0,0:0:0:0:
256,192,197433,1,0,0:0:0:0:
256,192,197552,1,8,0:0:0:0:
256,192,197790,1,8,0:0:0:0:
256,192,198029,1,8,0:0:0:0:
256,192,198505,1,0,0:0:0:0:
256,192,198862,1,0,0:0:0:0:
256,192,198981,1,8,0:0:0:0:
256,192,199219,1,0,0:0:0:0:
256,192,199338,1,0,0:0:0:0:
256,192,199457,1,8,0:0:0:0:
256,192,199695,1,0,0:0:0:0:
256,192,199933,1,8,0:0:0:0:
256,192,200409,1,0,0:0:0:0:
256,192,200767,1,0,0:0:0:0:
256,192,200886,1,8,0:0:0:0:
256,192,201124,1,0,0:0:0:0:
256,192,201243,1,0,0:0:0:0:
256,192,201362,1,8,0:0:0:0:
256,192,201600,1,8,0:0:0:0:
256,192,201838,1,0,0:0:0:0:
256,192,202314,1,12,0:0:0:0:
256,192,202671,1,0,0:0:0:0:
256,192,202790,1,8,0:0:0:0:
256,192,203029,1,0,0:0:0:0:
256,192,203148,1,0,0:0:0:0:
256,192,203267,1,8,0:0:0:0:
256,192,203505,1,0,0:0:0:0:
256,192,203743,1,8,0:0:0:0:
256,192,204219,1,0,0:0:0:0:
256,192,204576,1,0,0:0:0:0:
256,192,204695,1,8,0:0:0:0:
256,192,204933,1,0,0:0:0:0:
256,192,205052,1,0,0:0:0:0:
256,192,205171,1,8,0:0:0:0:
256,192,205409,1,0,0:0:0:0:
256,192,205648,1,8,0:0:0:0:
256,192,206005,1,12,0:0:0:0:
256,192,206838,1,12,0:0:0:0:
256,192,207076,1,0,0:0:0:0:
256,192,207314,1,8,0:0:0:0:
256,192,207552,1,0,0:0:0:0:
256,192,207671,1,0,0:0:0:0:
256,192,207790,1,8,0:0:0:0:
256,192,208029,1,0,0:0:0:0:
256,192,208267,1,8,0:0:0:0:
256,192,208743,1,8,0:0:0:0:
256,192,208981,1,0,0:0:0:0:
256,192,209219,1,0,0:0:0:0:
256,192,209338,1,0,0:0:0:0:
256,192,209457,1,8,0:0:0:0:
256,192,209933,5,12,0:0:0:0:
256,192,210290,1,0,0:0:0:0:
256,192,210409,1,8,0:0:0:0:
256,192,210648,1,8,0:0:0:0:
256,192,210886,1,8,0:0:0:0:
256,192,211005,1,0,0:0:0:0:
256,192,211124,1,8,0:0:0:0:
256,192,211362,1,0,0:0:0:0:
256,192,211600,1,8,0:0:0:0:
256,192,211838,1,0,0:0:0:0:
256,192,212076,1,8,0:0:0:0:
256,192,212314,1,0,0:0:0:0:
256,192,212433,1,0,0:0:0:0:
256,192,212552,1,8,0:0:0:0:
256,192,212790,1,8,0:0:0:0:
256,192,212909,1,8,0:0:0:0:
256,192,213029,1,8,0:0:0:0:
256,192,213267,1,8,0:0:0:0:
256,192,213743,1,8,0:0:0:0:
256,192,214100,1,0,0:0:0:0:
256,192,214219,1,8,0:0:0:0:
256,192,214457,1,8,0:0:0:0:
256,192,214695,1,0,0:0:0:0:
256,192,214814,1,0,0:0:0:0:
256,192,214933,1,8,0:0:0:0:
256,192,215171,1,8,0:0:0:0:
256,192,215290,1,8,0:0:0:0:
256,192,215409,1,0,0:0:0:0:
256,192,215648,1,0,0:0:0:0:
256,192,215886,1,0,0:0:0:0:
256,192,216124,1,8,0:0:0:0:
256,192,216362,1,0,0:0:0:0:
256,192,216481,1,0,0:0:0:0:
256,192,216600,1,8,0:0:0:0:
256,192,217076,1,8,0:0:0:0:
256,192,217552,1,12,0:0:0:0:
256,192,217909,1,0,0:0:0:0:
256,192,218029,1,8,0:0:0:0:
256,192,218267,1,0,0:0:0:0:
256,192,218505,1,8,0:0:0:0:
256,192,218624,1,8,0:0:0:0:
256,192,218743,1,0,0:0:0:0:
256,192,218981,1,0,0:0:0:0:
256,192,219100,1,0,0:0:0:0:
256,192,219219,1,8,0:0:0:0:
256,192,219457,1,8,0:0:0:0:
256,192,219576,1,8,0:0:0:0:
256,192,219695,1,8,0:0:0:0:
256,192,219933,1,8,0:0:0:0:
256,192,220171,1,8,0:0:0:0:
256,192,220290,1,8,0:0:0:0:
256,192,220409,1,0,0:0:0:0:
256,192,220886,1,8,0:0:0:0:
256,192,221124,1,0,0:0:0:0:
256,192,221243,1,0,0:0:0:0:
256,192,221362,1,8,0:0:0:0:
256,192,221719,1,0,0:0:0:0:
256,192,221838,1,8,0:0:0:0:
256,192,222076,1,8,0:0:0:0:
256,192,222314,1,0,0:0:0:0:
256,192,222552,1,8,0:0:0:0:
256,192,222790,1,8,0:0:0:0:
256,192,222909,1,0,0:0:0:0:
256,192,223029,1,8,0:0:0:0:
256,192,223267,1,8,0:0:0:0:
256,192,223505,1,8,0:0:0:0:
256,192,223743,1,0,0:0:0:0:
256,192,223981,1,8,0:0:0:0:
256,192,224219,1,0,0:0:0:0:
256,192,224576,1,8,0:0:0:0:
256,192,224695,1,0,0:0:0:0:
256,192,224933,1,8,0:0:0:0:
256,192,225171,5,0,0:0:0:0:
256,192,225558,1,0,0:0:0:0:
256,192,225886,1,8,0:0:0:0:
256,192,227909,1,0,0:0:0:0:
256,192,228505,1,8,0:0:0:0:
256,192,228981,1,0,0:0:0:0:
256,192,229338,1,0,0:0:0:0:
256,192,229695,1,8,0:0:0:0:
256,192,231719,1,0,0:0:0:0:
256,192,232314,1,8,0:0:0:0:
256,192,232790,1,8,0:0:0:0:
256,192,233148,1,8,0:0:0:0:
256,192,233505,1,8,0:0:0:0:
256,192,235529,1,8,0:0:0:0:
256,192,236124,1,0,0:0:0:0:
256,192,236600,1,8,0:0:0:0:
256,192,236957,1,0,0:0:0:0:
256,192,237314,1,0,0:0:0:0:
256,192,237552,12,0,240409,0:0:0:0:
